osu file format v14

[General]
AudioFilename: audio.mp3
AudioLeadIn: 2000
PreviewTime: 174352
Countdown: 0
SampleSet: Soft
StackLeniency: 0.4
Mode: 0
LetterboxInBreaks: 0
WidescreenStoryboard: 0

[Editor]
DistanceSpacing: 1.2
BeatDivisor: 8
GridSize: 4
TimelineZoom: 1

[Metadata]
Title:Mirror
TitleUnicode:Mirror
Artist:Yasuda Rei
ArtistUnicode:安田レイ
Creator:Modem
Version:Hard
Source:魔法科高校の劣等生
Tags:林奈津美 Hayashi Natsumi 玉井健二 Tamai Kenji 釣俊輔 Tsuri Shunsuke Mahouka Koukou no Rettousei ending the irregular at magic high school
BeatmapID:1377875
BeatmapSetID:649225

[Difficulty]
HPDrainRate:6
CircleSize:4
OverallDifficulty:6
ApproachRate:8
SliderMultiplier:1.4
SliderTickRate:1

[Events]
//Background and Video events
0,0,"bg.jpg",0,0
//Break Periods
2,174552,180688
//Storyboard Layer 0 (Background)
//Storyboard Layer 1 (Fail)
//Storyboard Layer 2 (Pass)
//Storyboard Layer 3 (Foreground)
//Storyboard Sound Samples

[TimingPoints]
494,472.44094488189,4,2,1,20,1,0
2383,-125,4,2,1,20,0,0
9942,-111.111111111111,4,2,1,55,0,0
17029,-111.111111111111,4,2,1,20,0,0
17501,-111.111111111111,4,2,1,55,0,0
23112,-111.111111111111,4,2,1,5,0,0
23171,-111.111111111111,4,2,1,55,0,0
25001,-111.111111111111,4,2,1,5,0,0
25060,-100,4,2,2,55,0,0
36399,-100,4,2,1,55,0,0
36753,-100,4,2,2,55,0,0
40179,-125,4,2,2,55,0,0
47738,-111.111111111111,4,2,2,50,0,0
51458,-111.111111111111,4,2,2,5,0,0
51517,-100,4,2,2,55,0,0
54824,-100,4,2,2,30,0,0
55297,-100,4,2,2,30,0,0
55769,-100,4,2,2,50,0,0
57186,-83.3333333333333,4,2,2,70,0,1
64509,-83.3333333333333,4,2,2,70,0,0
64745,-83.3333333333333,4,2,2,70,0,1
71360,-83.3333333333333,4,2,2,40,0,1
71832,-83.3333333333333,4,2,2,70,0,1
72068,-83.3333333333333,4,2,2,70,0,0
72305,-83.3333333333333,4,2,2,70,0,1
79627,-83.3333333333333,4,2,2,70,0,0
79864,-83.3333333333333,4,2,2,50,0,1
80100,-83.3333333333333,4,2,2,70,0,1
85297,-83.3333333333333,4,2,2,70,0,0
85533,-76.9230769230769,4,2,2,70,0,1
85946,-76.9230769230769,4,2,2,5,0,1
86005,-76.9230769230769,4,2,2,70,0,1
86419,-76.9230769230769,4,2,2,5,0,1
86478,-76.9230769230769,4,2,2,70,0,1
87364,-76.9230769230769,4,2,2,5,0,1
87423,-100,4,2,2,60,0,0
98761,-100,4,2,1,60,0,0
99116,-100,4,2,2,60,0,0
102541,-125,4,2,2,60,0,0
110100,-111.111111111111,4,2,2,60,0,0
113820,-111.111111111111,4,2,2,5,0,0
113879,-99.9999999999999,4,2,2,60,0,0
117186,-99.9999999999999,4,2,2,30,0,0
117659,-99.9999999999999,4,2,2,60,0,0
119549,-76.9230769230769,4,2,2,75,0,1
126871,-76.9230769230769,4,2,2,75,0,0
127108,-76.9230769230769,4,2,2,75,0,1
133722,-76.9230769230769,4,2,2,40,0,1
134194,-76.9230769230769,4,2,2,75,0,1
134431,-76.9230769230769,4,2,2,75,0,0
134667,-76.9230769230769,4,2,2,75,0,1
141990,-76.9230769230769,4,2,2,75,0,0
142226,-76.9230769230769,4,2,2,75,0,1
146005,-125,4,2,2,75,0,0
147423,-125,4,2,2,50,0,0
147659,-125,4,2,2,75,0,0
147895,-76.9230769230769,4,2,2,40,0,1
149549,-76.9230769230769,4,2,2,40,0,0
149785,-76.9230769230769,4,2,2,75,0,1
150021,-76.9230769230769,4,2,2,60,0,0
155454,-76.9230769230769,4,2,2,50,0,0
156990,-76.9230769230769,4,2,2,80,0,0
157344,-76.9230769230769,4,2,2,60,0,0
170572,-71.4285714285714,4,2,2,60,0,0
172698,-71.4285714285714,4,2,2,5,0,0
174352,-71.4285714285714,4,2,2,30,0,0
181438,-71.4285714285714,4,2,2,70,0,0
181852,-71.4285714285714,4,2,2,5,0,0
181911,-125,4,2,2,50,0,0
183742,-125,4,2,2,5,0,0
183801,-125,4,2,2,50,0,0
185631,-125,4,2,2,5,0,0
185690,-125,4,2,2,50,0,0
187108,-125,4,2,2,70,0,0
187521,-125,4,2,2,5,0,0
187580,-83.3333333333333,4,2,2,60,0,0
188761,-83.3333333333333,4,2,2,70,0,0
189470,-71.4285714285714,4,2,2,60,0,1
189706,-71.4285714285714,4,2,2,80,0,1
196793,-71.4285714285714,4,2,2,80,0,0
197029,-71.4285714285714,4,2,2,80,0,1
202698,-71.4285714285714,4,2,2,50,0,1
203171,-71.4285714285714,4,2,2,80,0,1
203407,-71.4285714285714,4,2,2,50,0,1
204352,-71.4285714285714,4,2,2,80,0,0
204588,-71.4285714285714,4,2,2,50,0,1
204824,-71.4285714285714,4,2,2,80,0,1
205297,-71.4285714285714,4,2,2,50,0,1
205769,-71.4285714285714,4,2,2,80,0,1
206478,-100,4,2,2,80,0,0
206714,-100,4,2,2,45,0,0
207895,-100,4,2,2,80,0,0
208368,-71.4285714285714,4,2,2,80,0,1
210494,-71.4285714285714,4,2,2,50,0,1
211911,-71.4285714285714,4,2,2,80,0,0
212147,-71.4285714285714,4,2,2,80,0,1
212383,-71.4285714285714,4,2,2,70,0,1
219470,-71.4285714285714,4,2,2,70,0,0
219706,-71.4285714285714,4,2,2,70,0,1
225139,-71.4285714285714,4,2,2,70,0,0
225375,-66.6666666666667,4,2,2,70,0,1
225789,-66.6666666666667,4,2,2,5,0,1
225848,-66.6666666666667,4,2,2,40,0,1
226261,-66.6666666666667,4,2,2,5,0,1
226320,-66.6666666666667,4,2,2,70,0,1
226734,-66.6666666666667,4,2,2,5,0,1
226793,-66.6666666666667,4,2,2,70,0,1
227206,-66.6666666666667,4,2,2,5,0,1
227265,-66.6666666666667,4,2,2,70,0,0
227501,-66.6666666666667,4,2,2,5,0,0

[Colours]
Combo1 : 108,138,255
Combo2 : 4,225,181
Combo3 : 138,217,255
SliderTrackOverride : 0,18,91
SliderBorder : 221,244,255

[HitObjects]
80,312,494,6,0,L|68:212,1,70,2|0,0:1|0:0,0:0:0:0:
112,184,966,1,2,0:0:0:0:
180,204,1202,1,0,0:0:0:0:
236,160,1438,6,0,L|224:60,1,70,2|0,0:0|0:0,0:0:0:0:
268,32,1910,1,2,0:0:0:0:
336,52,2146,1,0,0:0:0:0:
432,88,2383,6,0,L|447:215,1,112,2|0,0:1|0:0,0:0:0:0:
424,268,3092,1,2,0:0:0:0:
446,337,3328,2,0,P|378:325|353:278,1,112,8|0,1:2|0:0,0:0:0:0:
216,336,4273,6,0,B|184:320|184:320|148:336|104:320,1,112,2|0,0:1|0:0,0:0:0:0:
51,280,4982,1,2,0:0:0:0:
27,212,5218,2,0,L|40:100,1,112,8|0,1:2|0:0,0:0:0:0:
185,84,6163,6,0,P|199:133|274:157,1,112,2|0,0:1|0:0,0:0:0:0:
256,88,6871,1,2,0:0:0:0:
312,40,7108,2,0,B|364:56|364:56|432:44,1,112,8|0,1:2|0:0,0:0:0:0:
492,172,8053,5,2,0:1:0:0:
364,236,8525,1,0,0:0:0:0:
220,216,8997,2,0,P|184:220|228:240,1,112,2|0,0:0|0:0,0:0:0:0:
88,156,9942,6,0,P|60:213|71:282,1,125.999996154785,4|2,0:1|0:3,0:0:0:0:
128,328,10651,2,0,B|168:316|168:316|213:341|274:310,1,125.999996154785,4|0,0:0|0:0,0:0:0:0:
324,360,11360,2,0,L|396:340,1,62.9999980773926,2|0,0:3|0:0,0:0:0:0:
448,292,11832,2,0,B|448:244|448:244|436:216|436:216|436:156,1,125.999996154785,4|0,0:0|0:0,0:0:0:0:
484,104,12541,2,0,L|340:143,1,125.999996154785,4|0,0:0|0:0,0:0:0:0:
284,164,13249,1,2,0:3:0:0:
244,92,13486,1,0,0:0:0:0:
220,200,13722,6,0,P|265:235|336:215,1,125.999996154785,4|0,0:0|0:0,0:0:0:0:
400,180,14431,2,0,P|365:225|385:296,1,125.999996154785,4|0,0:0|0:0,0:0:0:0:
408,364,15139,1,2,0:3:0:0:
408,364,15375,1,0,0:0:0:0:
324,360,15612,2,0,B|276:336|276:336|232:356|180:328,1,125.999996154785,4|0,0:0|0:0,0:0:0:0:
152,280,16320,2,0,B|178:222|178:222|148:157,1,125.999996154785,4|0,0:0|0:0,0:0:0:0:
228,136,17029,2,0,L|248:184,3,31.4999990386963,2|2|2|2,0:0|0:0|0:0|0:0,0:0:0:0:
276,188,17501,6,0,P|332:192|384:132,1,125.999996154785,4|0,0:0|0:0,0:0:0:0:
461,138,18210,2,0,P|437:86|373:66,1,125.999996154785,4|0,0:0|0:0,0:0:0:0:
297,91,18919,2,0,L|271:29,1,62.9999980773926,2|0,0:3|0:0,0:0:0:0:
192,52,19391,2,0,L|243:175,1,125.999996154785,4|0,0:0|0:0,0:0:0:0:
298,227,20100,2,0,B|241:200|241:200|183:226,1,125.999996154785,4|0,0:0|0:0,0:0:0:0:
152,300,20808,1,2,0:3:0:0:
220,348,21045,1,0,0:0:0:0:
99,352,21281,6,0,P|78:302|123:231,1,125.999996154785,4|0,0:0|0:0,0:0:0:0:
144,168,21990,2,0,B|128:136|128:136|183:160|240:124,1,125.999996154785,4|0,0:0|0:0,0:0:0:0:
280,84,22698,2,0,P|316:56|304:100,1,110.249996635437,2|0,0:3|0:0,0:0:0:0:
312,144,23171,2,0,L|356:232,2,94.499997116089,4|0|4,0:0|0:0|0:0,0:0:0:0:
252,200,24116,2,0,L|284:264,1,62.9999980773926,2|0,0:3|0:0,0:0:0:0:
304,300,24470,1,4,0:0:0:0:
304,300,24588,2,0,P|243:285|189:306,1,110.249996635437,4|0,0:0|0:0,0:0:0:0:
156,324,25060,6,0,L|108:228,1,105,4|4,3:1|0:0,0:0:0:0:
44,108,25769,2,0,P|84:88|180:117,1,140,8|4,0:0|0:0,0:0:0:0:
232,180,26478,2,0,L|269:255,1,70,8|0,0:0|0:0,0:0:0:0:
332,304,26950,2,0,B|384:316|384:316|440:292,1,105,4|4,0:0|0:0,0:0:0:0:
464,164,27659,2,0,P|408:132|336:144,1,140,8|4,0:0|0:0,0:0:0:0:
268,84,28368,2,0,L|252:52,3,35,8|8|4|4,0:0|0:0|0:0|0:0,0:0:0:0:
208,68,28840,6,0,L|260:174,1,105,4|4,0:0|0:0,0:0:0:0:
120,192,29549,2,0,B|104:160|104:160|55:188|0:156,1,140,8|4,0:0|0:0,0:0:0:0:
56,84,30257,1,8,0:0:0:0:
56,84,30494,1,0,0:0:0:0:
148,84,30730,2,0,L|200:190,1,105,4|8,0:0|0:0,0:0:0:0:
240,308,31438,2,0,P|260:256|344:236,1,140,8|4,0:0|0:0,0:0:0:0:
356,144,32147,2,0,L|364:92,3,35,8|8|4|4,0:0|0:0|0:0|0:0,0:0:0:0:
396,80,32619,6,0,P|432:68|388:64,1,105,4|4,3:1|0:0,0:0:0:0:
256,32,33328,2,0,L|232:185,1,140,8|4,0:0|0:0,0:0:0:0:
156,220,34037,1,8,0:0:0:0:
81,167,34273,1,0,0:0:0:0:
94,260,34509,2,0,P|132:290|203:276,1,105,4|8,0:0|0:0,0:0:0:0:
320,316,35218,2,0,B|280:336|280:336|304:285|272:232,1,140,8|4,0:0|0:0,0:0:0:0:
244,160,35927,2,0,L|296:152,2,35,8|8|4,0:0|0:0|0:0,0:0:0:0:
296,84,36399,6,0,P|337:111|344:183,2,105,2|4|8,0:1|0:0|0:0,0:0:0:0:
188,228,37580,1,4,0:0:0:0:
116,172,37816,1,8,0:0:0:0:
104,264,38053,1,4,0:0:0:0:
46,193,38289,2,0,P|49:143|112:98,1,105,4|4,0:0|0:0,0:0:0:0:
132,100,38761,1,8,0:0:0:0:
217,132,38997,2,0,P|221:76|159:12,1,140,4|4,0:1|0:0,0:0:0:0:
132,100,39706,2,0,L|132:136,3,35,8|8|4|4,0:0|0:0|0:0|0:0,0:0:0:0:
104,168,40179,5,4,3:1:0:0:
32,272,40533,1,4,0:0:0:0:
104,168,40887,2,0,L|152:256,1,84,8|8,0:0|0:0,0:0:0:0:
184,252,41360,2,0,L|248:236,2,56,4|8|2,0:0|0:0|0:3,0:0:0:0:
141,324,42068,5,0,3:0:0:0:
256,364,42423,1,4,0:0:0:0:
308,254,42777,2,0,P|304:209|256:169,1,84,8|8,0:0|0:0,0:0:0:0:
244,160,43249,2,0,L|189:173,1,56,4|4,0:0|0:1,0:0:0:0:
48,84,43958,5,4,3:1:0:0:
48,84,44312,1,4,0:0:0:0:
48,84,44667,2,0,L|152:59,1,84,8|8,0:0|0:0,0:0:0:0:
164,88,45139,1,4,0:0:0:0:
189,173,45375,2,0,L|244:160,1,56,8|4,0:0|0:1,0:0:0:0:
280,84,45848,5,0,3:1:0:0:
280,84,46202,1,4,0:0:0:0:
280,84,46557,2,0,L|176:59,1,84,4|8,0:0|0:0,0:0:0:0:
164,88,47029,1,4,0:0:0:0:
96,36,47265,1,8,0:0:0:0:
88,52,47383,1,8,0:0:0:0:
80,68,47501,1,4,0:0:0:0:
40,152,47738,6,0,L|76:252,1,94.499997116089,4|4,3:1|0:0,0:0:0:0:
200,300,48446,2,0,P|240:288|299:305,1,94.499997116089,4|8,0:0|0:0,0:0:0:0:
332,320,48919,1,4,0:0:0:0:
408,264,49155,1,2,0:3:0:0:
408,264,49391,1,0,0:0:0:0:
290,300,49627,6,0,L|257:211,1,94.499997116089,4|4,3:1|0:0,0:0:0:0:
364,120,50336,2,0,P|416:104|364:92,1,125.999996154785,4|4,0:0|0:0,0:0:0:0:
340,52,50927,1,4,0:0:0:0:
340,52,51045,2,0,B|304:36|304:36|228:48,1,110.249996635437,12|0,0:1|0:0,0:0:0:0:
216,68,51517,6,0,L|252:166,2,105,4|8|8,3:1|0:0|0:0,0:0:0:0:
124,36,52462,2,0,P|60:52|32:100,1,105,4|4,0:0|0:0,0:0:0:0:
56,132,52934,2,0,L|88:220,1,70,12|0,0:1|0:0,0:0:0:0:
50,295,53407,2,0,B|95:271|95:271|158:283,2,105,2|8|8,3:3|0:0|0:0,0:0:0:0:
79,197,54352,2,0,L|56:132,1,70,8|8,0:0|3:3,0:0:0:0:
128,64,54824,2,0,L|182:74,3,35,2|2|2|2,0:0|0:0|0:0|0:0,0:0:0:0:
184,112,55297,6,0,P|252:107|298:155,1,140,4|8,3:1|0:0,0:0:0:0:
160,268,56242,1,8,0:0:0:0:
240,212,56478,1,8,0:3:0:0:
292,296,56714,2,0,L|346:286,3,35,8|8|8|8,0:0|0:0|0:0|0:0,0:0:0:0:
372,308,57186,6,0,L|380:200,1,83.9999974365235,4|4,3:1|0:0,0:0:0:0:
464,180,57659,2,0,L|432:96,1,83.9999974365235,8|4,0:0|0:0,0:0:0:0:
336,108,58131,2,0,L|361:174,2,41.9999987182618,4|8|4,0:0|0:0|0:0,0:0:0:0:
244,148,58604,1,8,0:0:0:0:
188,64,58840,1,0,0:0:0:0:
100,32,59076,6,0,P|96:84|128:136,1,83.9999974365235,4|4,0:0|0:0,0:0:0:0:
188,64,59549,1,8,0:0:0:0:
244,148,59785,2,0,L|238:224,3,41.9999987182618,4|8|4|8,0:0|0:0|0:0|0:0,0:0:0:0:
268,232,60257,2,0,P|278:275|260:324,1,83.9999974365235,4|8,0:0|0:0,0:0:0:0:
184,368,60730,1,8,0:0:0:0:
184,368,60848,1,8,0:0:0:0:
184,368,60966,6,0,L|96:348,1,83.9999974365235,4|4,0:0|0:0,0:0:0:0:
44,268,61438,1,8,0:0:0:0:
124,204,61675,2,0,L|196:220,3,41.9999987182618,4|8|4|8,0:0|0:0|0:0|0:0,0:0:0:0:
216,224,62147,2,0,L|200:104,1,83.9999974365235,4|8,0:0|0:0,0:0:0:0:
268,60,62619,1,0,0:0:0:0:
356,12,62856,6,0,B|369:52|369:52|362:93,1,83.9999974365235,4|4,0:0|0:0,0:0:0:0:
268,60,63328,1,8,0:0:0:0:
205,141,63564,2,0,L|214:215,3,41.9999987182618,4|8|4|8,0:0|0:0|0:0|0:0,0:0:0:0:
180,224,64037,2,0,B|167:264|167:264|174:305,1,83.9999974365235,4|8,0:0|0:0,0:0:0:0:
264,352,64509,1,8,0:0:0:0:
264,352,64627,1,8,0:0:0:0:
264,352,64745,6,0,L|244:236,1,83.9999974365235,4|4,3:1|0:0,0:0:0:0:
320,196,65218,2,0,P|330:155|320:115,1,83.9999974365235,8|4,0:0|0:0,0:0:0:0:
240,52,65690,2,0,L|192:56,2,41.9999987182618,4|8|4,0:0|0:0|0:0,0:0:0:0:
320,115,66163,2,0,L|440:104,1,83.9999974365235,8|0,0:0|0:0,0:0:0:0:
424,116,66517,1,0,0:0:0:0:
444,125,66635,6,0,P|453:165|443:205,1,83.9999974365235,4|4,0:0|0:0,0:0:0:0:
376,280,67108,1,8,0:0:0:0:
276,268,67344,2,0,L|280:344,3,41.9999987182618,4|8|4|8,0:0|0:0|0:0|0:0,0:0:0:0:
244,348,67816,2,0,B|216:356|216:356|144:344,1,83.9999974365235,4|8,0:0|0:0,0:0:0:0:
116,256,68289,1,8,0:0:0:0:
116,256,68407,1,8,0:0:0:0:
116,256,68525,6,0,L|224:274,1,83.9999974365235,4|4,0:0|0:0,0:0:0:0:
176,172,68997,1,8,0:0:0:0:
184,72,69234,2,0,L|112:83,3,41.9999987182618,4|8|4|8,0:0|0:0|0:0|0:0,0:0:0:0:
108,116,69706,2,0,L|0:98,1,83.9999974365235,4|8,0:0|0:0,0:0:0:0:
48,200,70179,1,0,0:0:0:0:
48,200,70415,6,0,L|141:213,2,83.9999974365235,4|8|8,0:0|0:3|0:0,0:0:0:0:
25,102,71123,1,0,0:0:0:0:
100,32,71360,2,0,L|178:43,3,41.9999987182618,8|8|8|8,0:0|0:0|0:0|0:0,0:0:0:0:
142,78,71832,2,0,L|184:72,3,41.9999987182618,8|8|8|8,0:0|0:0|0:0|0:0,0:0:0:0:
220,108,72305,6,0,P|210:151|228:200,1,83.9999974365235,4|4,3:1|0:0,0:0:0:0:
288,264,72777,1,8,0:0:0:0:
380,224,73013,1,4,0:0:0:0:
372,324,73249,2,0,L|368:368,2,41.9999987182618,4|8|4,0:0|0:0|0:0,0:0:0:0:
447,256,73722,2,0,P|452:209|422:162,1,83.9999974365235,8|0,0:0|0:0,0:0:0:0:
364,104,74194,5,4,0:0:0:0:
364,104,74431,1,4,0:0:0:0:
272,148,74667,1,8,0:0:0:0:
212,64,74903,2,0,L|164:40,3,41.9999987182618,4|8|4|8,0:0|0:0|0:0|0:0,0:0:0:0:
128,28,75375,2,0,L|140:152,1,83.9999974365235,4|8,0:0|0:0,0:0:0:0:
84,200,75848,1,8,0:0:0:0:
84,200,75966,1,8,0:0:0:0:
84,200,76084,6,0,P|74:243|92:292,1,83.9999974365235,4|4,0:0|0:0,0:0:0:0:
156,348,76556,1,8,0:0:0:0:
252,316,76793,2,0,L|289:334,3,41.9999987182618,4|8|4|8,0:0|0:0|0:0|0:0,0:0:0:0:
336,348,77265,2,0,L|327:264,1,83.9999974365235,4|8,0:0|0:0,0:0:0:0:
259,188,77738,1,8,0:0:0:0:
259,188,77856,1,8,0:0:0:0:
259,188,77974,6,0,P|307:160|359:168,1,83.9999974365235,4|4,0:0|0:0,0:0:0:0:
428,196,78446,1,8,0:0:0:0:
464,100,78682,2,0,L|459:58,3,41.9999987182618,4|8|4|8,0:0|0:0|0:0|0:0,0:0:0:0:
420,28,79155,2,0,B|392:36|392:36|320:24,1,83.9999974365235,4|4,0:0|0:1,0:0:0:0:
236,36,79627,1,8,0:0:0:0:
236,36,79745,1,8,0:0:0:0:
236,36,79864,6,0,P|188:56|168:96,1,83.9999974365235,4|4,3:1|0:0,0:0:0:0:
257,134,80336,1,8,0:0:0:0:
220,228,80572,2,0,L|266:236,3,41.9999987182618,4|8|4|8,0:0|0:0|0:0|0:0,0:0:0:0:
300,268,81045,2,0,L|396:252,1,83.9999974365235,4|8,0:0|0:0,0:0:0:0:
348,160,81517,1,0,0:0:0:0:
257,134,81753,6,0,B|229:126|229:126|157:138,1,83.9999974365235,4|4,0:0|0:0,0:0:0:0:
100,64,82226,1,8,0:0:0:0:
196,36,82462,2,0,L|256:25,3,41.9999987182618,4|8|4|8,0:0|0:0|0:0|0:0,0:0:0:0:
288,32,82934,2,0,P|331:42|380:24,1,83.9999974365235,4|8,0:0|0:0,0:0:0:0:
468,32,83407,1,0,0:0:0:0:
420,120,83643,6,0,L|411:203,1,83.9999974365235,4|0,3:1|0:0,0:0:0:0:
376,300,84116,1,8,0:0:0:0:
308,224,84352,1,4,0:0:0:0:
340,128,84588,1,0,0:0:0:0:
240,108,84824,1,4,0:0:0:0:
240,108,84942,1,4,0:0:0:0:
240,108,85060,2,0,L|231:191,1,83.9999974365235,4|0,0:1|0:0,0:0:0:0:
220,208,85415,1,0,0:0:0:0:
208,224,85533,6,0,P|160:224|216:244,1,159.249992710114,4|0,0:1|0:0,0:0:0:0:
224,280,86005,2,0,B|264:332|264:332|314:316|360:340,1,159.249992710114,8|0,0:3|0:0,0:0:0:0:
377,330,86478,2,0,B|351:295|351:295|360:248|360:248|328:201,1,136.499993751526,4|8,0:1|0:0,0:0:0:0:
418,204,86950,2,0,B|390:164|390:164|452:143|446:64,1,159.249992710114,8|0,0:0|0:0,0:0:0:0:
428,60,87423,6,0,L|308:60,1,105,4|4,3:1|0:0,0:0:0:0:
228,156,88131,2,0,B|254:194|254:194|244:239|244:239|273:280,1,140,4|4,0:0|0:0,0:0:0:0:
204,340,88840,2,0,L|156:272,1,70,8|0,0:0|0:0,0:0:0:0:
76,256,89312,2,0,P|60:208|80:152,1,105,4|4,0:0|0:0,0:0:0:0:
172,60,90021,2,0,B|195:93|195:93|250:72|300:104,1,140,8|4,0:0|0:0,0:0:0:0:
372,140,90730,2,0,L|351:168,3,35,8|8|4|4,0:0|0:0|0:0|0:0,0:0:0:0:
324,204,91202,6,0,P|308:253|324:302,1,105,4|4,0:0|0:0,0:0:0:0:
204,368,91911,2,0,P|224:302|202:233,1,140,8|4,0:0|0:0,0:0:0:0:
152,164,92619,1,8,0:0:0:0:
152,164,92856,1,0,0:0:0:0:
64,140,93092,2,0,P|44:100|80:132,1,105,4|8,0:0|0:0,0:0:0:0:
220,104,93801,2,0,P|230:50|187:84,1,140,8|4,0:0|0:0,0:0:0:0:
112,32,94509,2,0,L|60:32,3,35,8|8|4|4,0:0|0:0|0:0|0:0,0:0:0:0:
32,32,94982,6,0,B|32:96|32:96|64:148,1,105,4|4,3:1|0:0,0:0:0:0:
29,265,95690,2,0,B|53:221|53:221|112:219|128:171,1,140,8|4,0:0|0:0,0:0:0:0:
200,128,96399,1,8,0:0:0:0:
156,48,96635,1,0,0:0:0:0:
243,69,96871,2,0,P|272:118|250:180,1,105,4|8,0:0|0:0,0:0:0:0:
196,284,97580,2,0,P|212:248|236:304,1,140,8|4,0:0|0:0,0:0:0:0:
172,368,98289,2,0,L|124:344,2,35,8|8|4,0:0|0:0|0:0,0:0:0:0:
69,364,98761,6,0,P|75:321|131:280,2,105,2|4|8,0:1|0:0|0:0,0:0:0:0:
56,184,99942,1,4,0:0:0:0:
147,182,100179,1,8,0:0:0:0:
100,104,100415,1,4,0:0:0:0:
189,120,100651,2,0,P|220:172|209:221,1,105,4|4,0:0|0:0,0:0:0:0:
192,256,101123,1,8,0:0:0:0:
137,329,101360,2,0,P|199:347|267:308,1,140,4|4,0:1|0:0,0:0:0:0:
192,256,102068,2,0,L|172:200,3,35,8|8|4|4,0:0|0:0|0:0|0:0,0:0:0:0:
136,212,102541,5,4,3:1:0:0:
256,172,102895,1,4,0:0:0:0:
136,212,103249,2,0,L|156:104,1,84,8|8,0:0|0:0,0:0:0:0:
148,88,103722,2,0,L|123:18,2,56,4|8|2,0:0|0:0|0:3,0:0:0:0:
232,104,104431,5,0,3:0:0:0:
336,32,104785,1,4,0:0:0:0:
287,151,105139,2,0,P|254:173|203:169,1,84,8|8,0:0|0:0,0:0:0:0:
172,192,105612,2,0,L|186:267,1,56,4|4,0:0|0:1,0:0:0:0:
36,332,106320,5,4,3:1:0:0:
36,332,106675,1,4,0:0:0:0:
36,332,107029,2,0,L|17:231,1,84,4|8,0:0|0:0,0:0:0:0:
48,216,107501,1,4,0:0:0:0:
88,144,107738,2,0,L|72:63,1,56,8|4,0:0|0:1,0:0:0:0:
140,32,108210,5,4,0:0:0:0:
140,32,108564,1,4,0:0:0:0:
140,32,108919,2,0,P|180:40|227:30,1,84,4|8,0:0|0:0,0:0:0:0:
264,28,109391,1,4,0:0:0:0:
304,100,109627,1,8,0:0:0:0:
296,116,109745,1,8,0:0:0:0:
288,132,109863,1,4,0:0:0:0:
244,216,110100,6,0,L|262:308,1,94.499997116089,4|4,3:1|0:0,0:0:0:0:
132,302,110808,2,0,P|152:270|112:282,1,94.499997116089,4|8,0:0|0:0,0:0:0:0:
88,308,111281,1,4,0:0:0:0:
36,240,111517,1,2,0:3:0:0:
36,240,111753,1,0,0:0:0:0:
97,176,111990,6,0,L|109:76,1,94.499997116089,4|4,3:1|0:0,0:0:0:0:
236,44,112698,2,0,B|280:72|328:52|328:52|323:89,1,125.999996154785,4|4,0:0|0:0,0:0:0:0:
312,124,113289,1,4,0:0:0:0:
312,124,113407,2,0,P|309:170|350:144,1,110.249996635437,12|0,0:1|0:0,0:0:0:0:
372,140,113879,6,0,L|355:264,2,105,4|8|8,3:1|0:0|0:0,0:0:0:0:
468,120,114824,2,0,P|446:70|396:45,1,105,4|4,0:0|0:0,0:0:0:0:
356,44,115297,2,0,L|268:68,1,70,4|0,0:1|0:0,0:0:0:0:
200,104,115769,2,0,P|180:64|216:88,2,105,2|8|8,3:3|0:0|0:0,0:0:0:0:
292,136,116714,2,0,L|359:117,1,70,8|8,0:0|0:3,0:0:0:0:
376,212,117186,2,0,L|324:226,3,35,2|2|2|2,0:0|0:0|0:0|0:0,0:0:0:0:
316,256,117659,6,0,P|248:261|202:213,1,140,4|8,0:1|0:0,0:0:0:0:
224,64,118604,1,12,0:0:0:0:
172,148,118840,1,8,0:3:0:0:
76,128,119076,2,0,L|72:196,3,35,8|8|8|8,0:0|0:0|0:0|0:0,0:0:0:0:
48,212,119549,6,0,P|36:256|59:313,1,90.9999958343508,4|4,3:1|0:0,0:0:0:0:
140,356,120021,1,8,0:0:0:0:
232,300,120257,2,0,L|296:288,3,45.4999979171754,4|8|4|8,0:0|0:0|0:0|0:0,0:0:0:0:
328,316,120730,2,0,L|308:188,1,90.9999958343508,4|8,0:0|0:0,0:0:0:0:
400,156,121202,1,0,0:0:0:0:
364,52,121438,6,0,P|408:42|451:57,1,90.9999958343508,4|4,0:0|0:0,0:0:0:0:
400,156,121911,1,8,0:0:0:0:
314,226,122147,2,0,L|326:306,3,45.4999979171754,4|8|4|8,0:0|0:0|0:0|0:0,0:0:0:0:
284,312,122619,2,0,B|240:300|240:300|182:316,1,90.9999958343508,4|8,0:0|0:0,0:0:0:0:
96,356,123092,1,8,0:0:0:0:
96,356,123210,1,8,0:0:0:0:
96,356,123328,6,0,P|84:316|116:248,1,90.9999958343508,4|4,0:0|0:0,0:0:0:0:
148,172,123801,1,8,0:0:0:0:
252,200,124037,2,0,L|320:220,3,45.4999979171754,4|8|4|8,0:0|0:0|0:0|0:0,0:0:0:0:
348,232,124509,2,0,L|328:104,1,90.9999958343508,4|8,0:0|0:0,0:0:0:0:
292,40,124982,1,0,0:0:0:0:
390,87,125218,6,0,P|402:39|386:-9,1,90.9999958343508,4|4,0:0|0:0,0:0:0:0:
292,40,125690,1,8,0:0:0:0:
192,84,125927,2,0,L|124:104,3,45.4999979171754,4|8|4|8,0:0|0:0|0:0|0:0,0:0:0:0:
96,80,126399,2,0,P|108:124|85:181,1,90.9999958343508,4|8,0:0|0:0,0:0:0:0:
16,240,126871,1,8,0:0:0:0:
16,240,126990,1,8,0:0:0:0:
16,240,127108,6,0,L|40:348,1,90.9999958343508,4|4,3:1|0:0,0:0:0:0:
140,364,127580,1,8,0:0:0:0:
216,284,127816,2,0,L|199:209,3,45.4999979171754,4|8|4|8,0:0|0:0|0:0|0:0,0:0:0:0:
252,208,128289,2,0,P|296:220|353:197,1,90.9999958343508,4|8,0:0|0:0,0:0:0:0:
448,192,128761,1,8,0:0:0:0:
448,192,128879,1,8,0:0:0:0:
448,192,128997,6,0,L|424:300,1,90.9999958343508,4|4,0:0|0:0,0:0:0:0:
352,360,129470,1,8,0:0:0:0:
256,308,129706,2,0,L|272:234,3,45.4999979171754,4|8|4|8,0:0|0:0|0:0|0:0,0:0:0:0:
252,208,130179,2,0,P|296:220|353:197,1,90.9999958343508,4|8,0:0|0:0,0:0:0:0:
294,109,130651,1,8,0:0:0:0:
294,109,130769,1,8,0:0:0:0:
294,109,130887,6,0,B|250:97|250:97|192:113,1,90.9999958343508,4|4,0:0|0:0,0:0:0:0:
108,156,131360,1,8,0:0:0:0:
162,250,131596,2,0,L|218:234,3,45.4999979171754,4|8|4|8,0:0|0:0|0:0|0:0,0:0:0:0:
252,208,132068,2,0,P|296:220|353:197,1,90.9999958343508,4|8,0:0|0:0,0:0:0:0:
448,224,132541,1,0,0:0:0:0:
384,136,132777,6,0,P|371:92|383:49,2,90.9999958343508,4|8|8,0:0|0:3|0:0,0:0:0:0:
448,224,133486,1,4,0:0:0:0:
364,292,133722,2,0,L|320:304,3,45.4999979171754,8|8|8|8,0:0|0:0|0:0|0:0,0:0:0:0:
280,344,134194,2,0,L|208:312,3,45.4999979171754,8|8|8|8,0:0|0:0|0:0|0:0,0:0:0:0:
192,340,134667,6,0,L|148:224,1,90.9999958343508,4|4,3:1|0:0,0:0:0:0:
172,148,135139,1,8,0:0:0:0:
280,152,135375,2,0,L|321:170,3,45.4999979171754,4|8|4|8,0:0|0:0|0:0|0:0,0:0:0:0:
376,188,135848,2,0,P|396:204|404:160,1,90.9999958343508,4|8,0:0|0:0,0:0:0:0:
340,72,136320,1,0,0:0:0:0:
232,96,136556,5,4,0:0:0:0:
232,96,136793,1,4,0:0:0:0:
144,32,137029,1,8,0:0:0:0:
64,108,137265,2,0,L|68:172,3,45.4999979171754,4|8|4|8,0:0|0:0|0:0|0:0,0:0:0:0:
24,188,137738,2,0,L|68:276,1,90.9999958343508,4|8,0:0|0:0,0:0:0:0:
164,316,138210,1,8,0:0:0:0:
164,316,138328,1,8,0:0:0:0:
164,316,138446,6,0,P|208:304|265:327,1,90.9999958343508,4|4,0:0|0:0,0:0:0:0:
356,348,138919,1,8,0:0:0:0:
396,244,139155,2,0,L|375:203,3,45.4999979171754,4|8|4|8,0:0|0:0|0:0|0:0,0:0:0:0:
320,208,139627,2,0,L|352:84,1,90.9999958343508,4|8,0:0|0:0,0:0:0:0:
256,52,140100,1,8,0:0:0:0:
256,52,140218,1,8,0:0:0:0:
256,52,140336,6,0,L|234:141,1,90.9999958343508,4|4,0:0|0:0,0:0:0:0:
220,248,140808,1,8,0:0:0:0:
113,223,141045,2,0,L|134:264,3,45.4999979171754,4|8|4|8,0:0|0:0|0:0|0:0,0:0:0:0:
169,303,141517,2,0,P|212:322|274:299,1,90.9999958343508,4|12,0:0|0:1,0:0:0:0:
352,360,141990,1,8,0:0:0:0:
352,360,142108,1,8,0:0:0:0:
352,360,142226,6,0,P|344:315|363:275,1,90.9999958343508,4|4,3:1|0:0,0:0:0:0:
452,216,142698,1,8,0:0:0:0:
356,160,142934,2,0,L|335:119,3,45.4999979171754,4|8|4|8,0:0|0:0|0:0|0:0,0:0:0:0:
348,64,143407,2,0,L|240:80,1,90.9999958343508,4|8,0:0|0:0,0:0:0:0:
204,172,143879,1,0,0:0:0:0:
116,104,144116,6,0,P|104:72|128:104,1,90.9999958343508,4|4,0:0|0:0,0:0:0:0:
204,172,144588,1,8,0:0:0:0:
300,228,144824,2,0,L|376:216,3,45.4999979171754,4|8|4|8,0:0|0:0|0:0|0:0,0:0:0:0:
392,248,145297,2,0,P|384:203|403:163,1,90.9999958343508,4|8,0:0|0:0,0:0:0:0:
484,92,145769,1,0,0:0:0:0:
464,214,146005,6,0,B|477:252|470:278|457:300|438:314|438:314|477:362,1,168,4|0,3:1|0:0,0:0:0:0:
388,372,146950,2,0,B|362:340|362:340|340:328|340:328|305:285,1,112,0|8,0:0|0:3,0:0:0:0:
208,276,147659,1,0,0:0:0:0:
208,276,147777,1,0,0:0:0:0:
208,276,147895,6,0,B|173:318|173:318|146:333|146:333|114:372,2,136.499993751526,4|8|8,3:1|0:0|0:0,0:0:0:0:
104,248,148840,2,0,L|161:177,1,90.9999958343508,8|8,0:0|0:3,0:0:0:0:
148,124,149194,1,8,0:0:0:0:
148,124,149312,2,0,L|248:112,1,90.9999958343508,8|4,0:0|0:0,0:0:0:0:
272,140,149667,1,8,0:0:0:0:
272,140,149785,6,0,P|316:152|373:129,1,90.9999958343508,4|4,3:1|0:0,0:0:0:0:
456,92,150257,1,8,0:0:0:0:
356,44,150494,2,0,L|312:24,3,45.4999979171754,4|8|4|8,0:0|0:0|0:0|0:0,0:0:0:0:
268,52,150966,2,0,L|177:62,1,90.9999958343508,4|8,0:0|0:0,0:0:0:0:
72,40,151438,1,0,0:0:0:0:
20,136,151675,6,0,P|8:180|31:237,1,90.9999958343508,4|4,0:0|0:0,0:0:0:0:
84,308,152147,1,8,0:0:0:0:
188,272,152383,2,0,L|229:290,3,45.4999979171754,4|8|4|8,0:0|0:0|0:0|0:0,0:0:0:0:
252,340,152856,2,0,L|343:330,1,90.9999958343508,4|8,0:0|0:0,0:0:0:0:
396,236,153328,1,8,0:0:0:0:
396,236,153446,1,8,0:0:0:0:
396,236,153564,6,0,L|305:246,1,90.9999958343508,4|4,0:0|0:0,0:0:0:0:
224,172,154037,1,8,0:0:0:0:
188,272,154273,2,0,L|229:290,3,45.4999979171754,4|8|4|8,0:0|0:0|0:0|0:0,0:0:0:0:
252,340,154745,2,0,L|164:301,1,90.9999958343508,4|8,0:0|0:0,0:0:0:0:
68,341,155218,1,8,0:0:0:0:
68,341,155336,1,8,0:0:0:0:
68,341,155454,6,0,B|47:294|73:254|73:254|28:232,2,136.499993751526,4|4|4,3:1|3:1|3:1,0:0:0:0:
168,303,156399,2,0,L|252:340,1,90.9999958343508,4|4,3:1|0:0,0:0:0:0:
360,340,156871,2,0,L|401:322,3,45.4999979171754,12|8|8|8,3:1|0:0|0:0|0:0,0:0:0:0:
416,268,157344,5,4,0:0:0:0:
416,268,157580,1,4,0:0:0:0:
412,160,157816,2,0,L|327:196,1,90.9999958343508,8|4,0:0|0:0,0:0:0:0:
232,252,158289,2,0,L|191:234,2,45.4999979171754,4|8|4,0:0|0:0|0:0,0:0:0:0:
172,344,158761,1,8,0:0:0:0:
72,300,158997,1,0,0:0:0:0:
125,204,159234,6,0,P|157:170|210:165,1,90.9999958343508,4|4,0:0|0:0,0:0:0:0:
308,168,159706,1,8,0:0:0:0:
336,64,159942,2,0,L|377:82,3,45.4999979171754,4|8|4|8,0:0|0:0|0:0|0:0,0:0:0:0:
396,132,160415,1,4,0:0:0:0:
396,132,160651,1,8,0:0:0:0:
484,68,160887,1,0,0:0:0:0:
487,264,161123,6,0,L|508:176,1,90.9999958343508,4|4,0:0|0:0,0:0:0:0:
484,68,161596,1,8,0:0:0:0:
377,82,161832,2,0,L|336:64,3,45.4999979171754,4|8|4|8,0:0|0:0|0:0|0:0,0:0:0:0:
284,84,162305,1,4,0:0:0:0:
284,84,162541,1,8,0:0:0:0:
184,132,162777,1,0,0:0:0:0:
334,219,163013,6,0,P|291:232|248:220,1,90.9999958343508,4|4,0:0|0:0,0:0:0:0:
184,132,163486,1,8,0:0:0:0:
84,172,163722,2,0,L|48:212,3,45.4999979171754,4|8|4|8,0:0|0:0|0:0|0:0,0:0:0:0:
68,260,164194,1,4,0:0:0:0:
68,260,164431,1,12,0:1:0:0:
172,292,164667,1,8,0:0:0:0:
172,292,164785,1,8,0:0:0:0:
172,292,164903,6,0,P|232:292|272:324,1,90.9999958343508,12|4,3:1|0:0,0:0:0:0:
352,360,165375,1,8,0:0:0:0:
448,308,165612,2,0,L|478:274,3,45.4999979171754,4|8|4|8,0:0|0:0|0:0|0:0,0:0:0:0:
472,220,166084,1,4,0:0:0:0:
472,220,166320,1,8,0:0:0:0:
364,236,166556,1,0,0:0:0:0:
396,64,166793,6,0,L|336:132,1,90.9999958343508,4|4,0:0|0:0,0:0:0:0:
364,236,167265,1,8,0:0:0:0:
256,228,167501,2,0,L|226:262,3,45.4999979171754,4|8|4|8,0:0|0:0|0:0|0:0,0:0:0:0:
236,316,167974,1,4,0:0:0:0:
236,316,168210,1,12,0:1:0:0:
132,288,168446,1,0,0:0:0:0:
106,155,168682,6,0,P|142:142|136:180,1,90.9999958343508,4|4,3:1|0:0,0:0:0:0:
132,288,169155,1,8,0:0:0:0:
226,262,169391,2,0,L|256:228,3,45.4999979171754,4|8|4|8,0:0|0:0|0:0|0:0,0:0:0:0:
312,228,169864,1,4,0:0:0:0:
312,228,170100,1,8,0:0:0:0:
372,320,170336,1,0,0:0:0:0:
396,184,170572,6,0,P|360:144|299:136,1,97.9999970092774,4|8,3:1|0:0,0:0:0:0:
208,172,171045,2,0,L|143:245,1,97.9999970092774,8|8,0:0|0:0,0:0:0:0:
56,168,171517,2,0,P|92:128|153:120,1,97.9999970092774,8|12,0:0|0:1,0:0:0:0:
232,52,171990,2,0,B|280:56|280:56|360:20,1,97.9999970092774,8|8,0:0|0:0,0:0:0:0:
300,160,172462,5,4,3:1:0:0:
256,192,172698,12,2,174352,3:1:0:0:
256,192,181438,6,0,P|294:235|308:155,1,171.499994766236,0|0,1:0|0:0,0:0:0:0:
312,140,181911,5,4,0:0:0:0:
212,37,182383,1,4,0:0:0:0:
76,89,182856,1,4,0:0:0:0:
124,212,183328,2,0,L|120:288,1,56,4|0,0:0|0:0,0:0:0:0:
116,340,183801,5,4,0:0:0:0:
220,240,184273,1,4,0:0:0:0:
340,320,184745,1,4,0:0:0:0:
274,189,185218,2,0,P|235:168|201:171,1,56,4|0,0:0|0:0,0:0:0:0:
152,184,185690,5,4,0:0:0:0:
20,248,186163,1,4,0:0:0:0:
52,116,186635,1,4,0:0:0:0:
112,76,186871,1,0,0:0:0:0:
144,60,186990,1,0,0:0:0:0:
176,48,187108,2,0,B|215:62|248:48|248:48|272:76,1,98,0|0,1:0|0:0,0:0:0:0:
276,88,187580,6,0,P|255:146|283:213,2,125.999996154785,4|4|4,0:1|0:1|0:1,0:0:0:0:
368,28,188525,1,4,0:0:0:0:
460,84,188761,2,0,L|448:136,3,41.9999987182618,8|4|8|4,0:0|0:0|0:0|0:0,0:0:0:0:
404,156,189234,1,8,0:0:0:0:
404,156,189352,1,4,0:0:0:0:
404,156,189470,6,0,L|424:272,1,97.9999970092774,4|4,3:1|0:0,0:0:0:0:
324,316,189942,1,8,0:0:0:0:
228,248,190179,1,4,0:0:0:0:
132,316,190415,2,0,L|140:364,2,48.9999985046387,4|8|4,0:0|0:0|0:0,0:0:0:0:
40,244,190887,1,8,0:0:0:0:
88,136,191123,1,0,0:0:0:0:
204,156,191360,6,0,P|237:192|248:238,1,97.9999970092774,4|4,0:0|0:0,0:0:0:0:
136,244,191832,1,8,0:0:0:0:
88,136,192068,2,0,L|96:88,3,48.9999985046387,4|8|4|8,0:0|0:0|0:0|0:0,0:0:0:0:
84,28,192541,2,0,L|192:52,1,97.9999970092774,4|8,0:0|0:0,0:0:0:0:
296,64,193013,1,8,0:0:0:0:
296,64,193131,1,8,0:0:0:0:
296,64,193249,6,0,B|328:52|328:52|408:70,1,97.9999970092774,4|4,0:0|0:0,0:0:0:0:
508,84,193722,1,8,0:0:0:0:
420,164,193958,2,0,L|354:149,3,48.9999985046387,4|8|4|8,0:0|0:0|0:0|0:0,0:0:0:0:
316,140,194431,2,0,P|328:184|314:238,1,97.9999970092774,4|8,0:0|0:0,0:0:0:0:
240,324,194903,1,0,0:0:0:0:
132,372,195139,6,0,P|120:324|132:277,1,97.9999970092774,4|4,0:0|0:0,0:0:0:0:
240,324,195612,1,8,0:0:0:0:
352,292,195848,2,0,L|399:281,3,48.9999985046387,4|8|4|8,0:0|0:0|0:0|0:0,0:0:0:0:
448,312,196320,2,0,L|436:188,1,97.9999970092774,4|12,0:0|0:1,0:0:0:0:
324,188,196793,1,8,0:0:0:0:
324,188,196911,1,8,0:0:0:0:
324,188,197029,6,0,L|356:88,1,97.9999970092774,4|4,3:1|0:0,0:0:0:0:
240,92,197501,1,8,0:0:0:0:
132,56,197738,2,0,L|117:102,3,48.9999985046387,4|8|4|8,0:0|0:0|0:0|0:0,0:0:0:0:
64,128,198210,2,0,L|73:225,1,97.9999970092774,4|8,0:0|0:0,0:0:0:0:
156,308,198682,1,8,0:0:0:0:
156,308,198801,1,8,0:0:0:0:
156,308,198919,6,0,P|202:320|250:308,1,97.9999970092774,4|4,0:0|0:0,0:0:0:0:
344,236,199391,1,8,0:0:0:0:
296,128,199627,2,0,L|311:82,3,48.9999985046387,4|8|4|8,0:0|0:0|0:0|0:0,0:0:0:0:
280,32,200100,1,4,0:0:0:0:
180,96,200336,1,8,0:0:0:0:
192,112,200454,1,8,0:0:0:0:
204,128,200572,1,8,0:0:0:0:
304,244,200808,6,0,B|256:227|256:227|212:244,1,97.9999970092774,4|4,3:1|0:0,0:0:0:0:
132,332,201281,1,8,0:0:0:0:
16,344,201517,2,0,B|8:300|35:265|35:265|4:228|19:182|19:182|56:204,1,195.999994018555,4|4,0:0|0:0,0:0:0:0:
100,209,202108,1,4,0:0:0:0:
100,209,202226,1,12,0:1:0:0:
172,116,202462,1,8,0:0:0:0:
172,116,202580,1,8,0:0:0:0:
172,116,202698,6,0,P|224:116|272:72,1,97.9999970092774,4|4,3:1|0:0,0:0:0:0:
316,72,203053,1,12,0:0:0:0:
316,72,203171,2,0,L|300:204,1,97.9999970092774,8|4,0:0|0:0,0:0:0:0:
216,248,203643,2,0,L|248:360,1,97.9999970092774,4|12,0:0|0:0,0:0:0:0:
300,344,203997,1,12,0:0:0:0:
300,344,204116,2,0,P|296:308|336:328,1,97.9999970092774,12|8,0:1|0:0,0:0:0:0:
396,332,204470,1,12,0:0:0:0:
396,332,204588,6,0,P|408:286|396:238,1,97.9999970092774,4|4,3:1|0:0,0:0:0:0:
344,132,205060,1,8,0:0:0:0:
236,180,205297,1,8,0:0:0:0:
224,196,205415,1,8,0:0:0:0:
212,212,205533,5,8,0:0:0:0:
260,320,205769,1,4,0:0:0:0:
148,360,206005,1,8,0:0:0:0:
128,353,206123,1,8,0:0:0:0:
109,346,206241,1,8,0:0:0:0:
28,161,206478,6,0,B|77:185|130:162|130:162|102:213|129:261|129:261|52:268|-11:243|-11:243|-16:281|46:307,1,420,2|8,3:3|0:3,0:0:0:0:
252,352,208368,6,0,P|298:340|346:352,1,97.9999970092774,4|4,3:1|0:0,0:0:0:0:
464,368,208840,1,8,0:0:0:0:
404,268,209076,2,0,P|380:196|440:244,1,195.999994018555,4|4,0:0|0:0,0:0:0:0:
492,272,209667,1,4,0:0:0:0:
492,272,209785,1,12,0:1:0:0:
464,368,210021,1,0,0:0:0:0:
346,352,210257,5,4,3:1:0:0:
252,280,210494,2,0,L|220:340,5,48.9999985046387,8|8|8|8|8|8,0:0|0:0|0:0|0:0|0:0|0:0,0:0:0:0:
176,348,211202,2,0,L|116:340,5,48.9999985046387,12|8|8|8|8|8,3:1|0:0|0:0|0:0|0:0|0:0,0:0:0:0:
80,308,211911,1,8,0:0:0:0:
80,308,212029,1,8,0:0:0:0:
80,308,212147,6,0,L|133:208,1,97.9999970092774,4|4,3:1|0:0,0:0:0:0:
179,116,212619,1,8,0:0:0:0:
268,184,212856,2,0,L|306:256,3,48.9999985046387,4|8|4|8,0:0|0:0|0:0|0:0,0:0:0:0:
312,284,213328,2,0,P|352:256|424:264,1,97.9999970092774,4|8,0:0|0:0,0:0:0:0:
472,160,213801,1,0,0:0:0:0:
400,254,214037,6,0,L|337:136,1,97.9999970092774,4|4,0:0|0:0,0:0:0:0:
412,64,214509,1,8,0:0:0:0:
296,44,214745,2,0,L|248:76,3,48.9999985046387,4|8|4|8,0:0|0:0|0:0|0:0,0:0:0:0:
264,128,215218,2,0,P|217:115|170:128,1,97.9999970092774,4|8,0:0|0:0,0:0:0:0:
88,208,215690,1,8,0:0:0:0:
88,208,215808,1,8,0:0:0:0:
88,208,215927,6,0,B|76:244|76:244|88:324,1,97.9999970092774,4|4,0:0|0:0,0:0:0:0:
184,352,216399,1,8,0:0:0:0:
260,272,216635,2,0,L|252:212,3,48.9999985046387,4|8|4|8,0:0|0:0|0:0|0:0,0:0:0:0:
304,192,217108,2,0,B|350:209|350:209|396:192,1,97.9999970092774,4|8,0:0|0:0,0:0:0:0:
420,76,217580,1,8,0:0:0:0:
420,76,217698,1,8,0:0:0:0:
420,76,217816,6,0,L|311:114,1,97.9999970092774,4|4,0:0|0:0,0:0:0:0:
232,40,218289,1,8,0:0:0:0:
136,108,218525,2,0,L|56:80,3,48.9999985046387,4|8|4|8,0:0|0:0|0:0|0:0,0:0:0:0:
36,72,218997,2,0,P|48:119|36:166,1,97.9999970092774,4|12,0:0|0:1,0:0:0:0:
116,252,219470,1,8,0:0:0:0:
116,252,219588,1,8,0:0:0:0:
116,252,219706,6,0,P|104:299|116:346,1,97.9999970092774,4|4,3:1|0:0,0:0:0:0:
232,372,220179,1,8,0:0:0:0:
320,296,220415,2,0,L|376:284,3,48.9999985046387,4|8|4|8,0:0|0:0|0:0|0:0,0:0:0:0:
424,272,220887,2,0,B|436:236|436:236|424:156,1,97.9999970092774,4|8,0:0|0:0,0:0:0:0:
444,60,221360,1,8,0:0:0:0:
444,60,221478,1,8,0:0:0:0:
444,60,221596,6,0,L|308:89,1,97.9999970092774,4|4,0:0|0:0,0:0:0:0:
296,184,222068,1,8,0:0:0:0:
180,188,222305,2,0,L|192:256,3,48.9999985046387,4|8|4|8,0:0|0:0|0:0|0:0,0:0:0:0:
156,284,222777,2,0,P|109:296|62:284,1,97.9999970092774,4|8,0:0|0:0,0:0:0:0:
108,176,223249,1,0,0:0:0:0:
248,156,223486,6,0,L|270:285,1,97.9999970092774,4|4,3:1|0:0,0:0:0:0:
364,320,223958,1,8,0:0:0:0:
436,228,224194,2,0,L|427:179,3,48.9999985046387,4|8|4|8,0:0|0:0|0:0|0:0,0:0:0:0:
452,128,224667,2,0,P|488:104|452:92,1,97.9999970092774,4|12,0:0|0:1,0:0:0:0:
340,72,225139,1,8,0:0:0:0:
340,72,225257,1,8,0:0:0:0:
340,72,225375,6,0,B|276:108|215:77|215:77|229:153,1,183.750007009506,12|0,3:1|0:0,0:0:0:0:
228,160,225848,2,0,P|180:144|220:216,1,183.750007009506,8|0,0:3|0:0,0:0:0:0:
228,244,226320,2,0,B|260:288|260:288|288:240|288:240|324:256|364:240,1,183.750007009506,4|0,3:1|0:0,0:0:0:0:
388,256,226793,2,0,B|364:212|384:168|384:168|404:116|376:72,1,183.750007009506,8|0,0:3|0:0,0:0:0:0:
340,72,227265,5,4,3:1:0:0:
256,192,227501,12,0,233171,0:0:0:0:
