osu file format v14

[General]
AudioFilename: audio.mp3
AudioLeadIn: 0
PreviewTime: 51586
Countdown: 1
SampleSet: Soft
StackLeniency: 0.7
Mode: 0
LetterboxInBreaks: 0
WidescreenStoryboard: 0

[Editor]
Bookmarks: 12722
DistanceSpacing: 1.7
BeatDivisor: 4
GridSize: 4
TimelineZoom: 1

[Metadata]
Title:Lots of Love
TitleUnicode:Lots of Love
Artist:Yasuda Rei
ArtistUnicode:安田レイ
Creator:Uta
Version:Sweet feeling
Source:
Tags:rachel rodes album prism fluffy hair waifuiscute theramdans japanese pop
BeatmapID:1972190
BeatmapSetID:944339

[Difficulty]
HPDrainRate:6
CircleSize:4.2
OverallDifficulty:7.7
ApproachRate:9
SliderMultiplier:1.8
SliderTickRate:1

[Events]
//Background and Video events
0,0,"la la la la.jpg",0,0
//Break Periods
//Storyboard Layer 0 (Background)
//Storyboard Layer 1 (Fail)
//Storyboard Layer 2 (Pass)
//Storyboard Layer 3 (Foreground)
//Storyboard Sound Samples

[TimingPoints]
255,389.61038961039,4,2,1,60,1,0
17397,-166.666666666667,4,2,1,60,0,0
20904,-100,4,2,1,60,0,0
21683,-125,4,2,1,60,0,0
22073,-125,4,2,1,60,0,0
25190,-100,4,2,1,60,0,0
51683,-100,4,2,1,70,0,1
73501,-100,4,2,1,60,0,0
124930,-100,4,2,1,70,0,1
146748,-100,4,2,1,60,0,0
160774,-100,4,2,1,70,0,1
182592,-100,4,2,1,60,0,0

[Colours]
Combo1 : 255,94,55
Combo2 : 173,255,95
Combo3 : 17,254,176
Combo4 : 255,88,100

[HitObjects]
334,311,255,5,4,0:0:0:0:
334,311,644,2,0,P|326:236|355:193,1,90,10|0,0:0|3:0,0:0:0:0:
422,148,1034,1,2,3:2:0:0:
492,206,1229,2,0,P|426:236|372:223,1,90,0|8,3:0|0:0,0:0:0:0:
331,117,1618,2,0,L|325:207,1,90,2|0,3:2|0:0,0:0:0:0:
229,265,2008,2,0,P|217:225|235:174,1,90,2|8,3:2|0:0,0:0:0:0:
320,287,2397,6,0,P|233:352|142:313,1,180,2|0,3:2|0:0,0:0:0:0:
99,268,2982,1,10,0:0:0:0:
195,187,3177,1,2,0:0:0:0:
70,63,3371,5,0,3:0:0:0:
70,63,3761,2,0,P|59:136|78:169,1,90,10|0,0:0|3:0,0:0:0:0:
236,116,4151,2,0,L|135:110,2,90,2|0|8,3:2|0:0|0:0,0:0:0:0:
402,173,4735,2,0,L|313:168,1,90,2|0,3:2|0:0,0:0:0:0:
229,285,5125,2,0,P|216:234|236:178,1,90,2|8,3:2|0:0,0:0:0:0:
279,32,5514,5,2,3:2:0:0:
313,168,5709,1,0,3:0:0:0:
364,84,5904,1,0,0:0:0:0:
202,120,6099,6,0,B|123:155|90:85|8:125,1,180,8|4,0:0|3:2,0:0:0:0:
58,33,6683,1,0,0:0:0:0:
138,209,6878,2,0,P|135:269|117:304,1,90,10|0,0:2|3:0,0:0:0:0:
49,239,7267,1,2,3:2:0:0:
171,370,7462,6,0,P|232:378|275:359,1,90,0|8,0:0|0:0,0:0:0:0:
257,220,7852,2,0,P|219:268|214:315,1,90,2|0,3:2|0:0,0:0:0:0:
345,373,8242,2,0,P|321:316|283:288,1,90,2|8,3:2|0:0,0:0:0:0:
182,369,8631,1,2,3:2:0:0:
260,212,8826,2,0,P|267:135|229:28,1,180,0|10,3:0|0:2,0:0:0:0:
235,38,9410,1,2,0:2:0:0:
161,127,9605,5,10,0:0:0:0:
361,155,9800,1,0,3:0:0:0:
161,127,9995,1,10,0:0:0:0:
361,155,10190,1,0,3:0:0:0:
145,225,10384,5,10,0:0:0:0:
361,155,10579,1,0,3:0:0:0:
207,296,10774,1,10,0:0:0:0:
247,122,10969,1,0,3:0:0:0:
285,328,11164,6,0,L|280:373,3,45,8|0|0|0,0:0|3:0|3:0|3:0,0:0:0:0:
383,295,11553,2,0,L|377:339,3,45,8|0|0|0,0:0|3:0|3:0|3:0,0:0:0:0:
458,238,11943,1,8,0:0:0:0:
455,211,12040,1,0,3:0:0:0:
453,185,12137,1,0,3:0:0:0:
452,160,12235,1,0,3:0:0:0:
450,134,12332,1,8,0:0:0:0:
448,109,12430,1,8,0:0:0:0:
447,83,12527,1,8,0:0:0:0:
445,58,12624,1,8,0:0:0:0:
429,28,12722,5,4,0:0:0:0:
267,180,13112,5,2,0:0:0:0:
231,187,13501,1,2,0:0:0:0:
196,176,13891,1,2,0:0:0:0:
362,103,14280,5,0,3:0:0:0:
467,271,14670,5,2,0:0:0:0:
469,235,15060,1,2,0:0:0:0:
471,199,15449,1,2,0:0:0:0:
349,370,15839,5,0,3:0:0:0:
267,204,16229,5,2,0:0:0:0:
231,197,16618,1,2,0:0:0:0:
196,208,17008,1,2,0:0:0:0:
44,318,17397,6,0,P|157:323|253:360,1,215.999993408203,0|0,3:0|3:0,0:0:0:0:
428,260,18761,1,2,3:0:0:0:
428,260,18956,5,0,3:0:0:0:
312,102,19345,5,2,0:0:0:0:
310,138,19735,1,2,0:0:0:0:
308,174,20124,1,2,0:0:0:0:
354,17,20514,5,0,3:0:0:0:
131,126,20904,5,2,0:0:0:0:
166,119,21293,1,2,0:0:0:0:
199,129,21683,2,0,P|207:166|213:208,1,72,0|2,3:0|0:0,0:0:0:0:
105,49,22073,6,0,P|63:50|16:42,2,72,0|0|2,3:0|0:0|0:0,0:0:0:0:
231,13,22852,5,0,0:0:0:0:
132,146,23242,2,0,P|125:200|124:229,1,72,0|0,3:0|0:0,0:0:0:0:
251,105,23631,6,0,P|261:181|272:274,1,144,0|0,3:0|0:0,0:0:0:0:
210,323,24216,1,0,3:0:0:0:
124,217,24410,1,0,3:0:0:0:
291,256,24605,1,8,0:0:0:0:
103,213,24800,1,8,0:0:0:0:
103,213,25190,6,0,P|73:299|113:388,1,180,4|8,3:2|0:0,0:0:0:0:
215,209,25774,1,0,3:0:0:0:
249,305,25969,2,0,P|190:302|142:268,1,90,0|0,3:0|0:0,0:0:0:0:
103,213,26358,1,10,0:0:0:0:
160,120,26553,6,0,B|269:100|230:158|365:135,1,180,0|0,3:0|3:0,0:0:0:0:
294,229,27138,1,8,0:0:0:0:
406,84,27332,2,0,P|430:156|428:209,1,90,0|0,3:0|3:0,0:0:0:0:
318,314,27722,2,0,P|294:242|296:189,1,90,0|10,0:0|0:0,0:0:0:0:
342,146,28112,1,0,0:0:0:0:
445,277,28306,6,0,P|480:169|477:90,1,180,0|8,3:0|0:0,0:0:0:0:
302,88,28891,1,0,3:0:0:0:
383,26,29086,2,0,P|396:101|385:154,1,90,0|0,3:0|0:0,0:0:0:0:
222,85,29475,2,0,L|328:100,1,90,10|0,0:0|3:0,0:0:0:0:
394,224,29865,6,0,P|313:249|208:198,1,180,0|8,0:0|0:0,0:0:0:0:
286,126,30449,1,0,3:0:0:0:
173,297,30644,1,0,3:0:0:0:
122,207,30839,1,0,0:0:0:0:
183,120,31034,1,10,0:0:0:0:
226,216,31229,1,8,0:0:0:0:
226,29,31423,6,0,B|166:31|166:31|113:56|113:56|48:57,1,180,2|8,3:2|0:0,0:0:0:0:
51,56,32008,1,0,3:0:0:0:
120,167,32203,2,0,P|192:183|233:184,1,90,0|0,3:0|0:0,0:0:0:0:
295,138,32592,1,10,0:0:0:0:
186,270,32787,2,0,P|114:286|73:287,1,90,0|0,3:0|0:0,0:0:0:0:
118,137,33177,5,0,3:0:0:0:
37,211,33371,1,8,0:0:0:0:
18,58,33566,1,0,3:0:0:0:
192,94,33761,2,0,P|210:162|206:298,1,180,0|10,3:0|0:0,0:0:0:0:
28,356,34345,6,0,P|96:338|126:311,1,90,0|0,0:0|3:0,0:0:0:0:
138,208,34735,1,0,0:0:0:0:
47,273,34930,1,8,0:0:0:0:
194,371,35125,2,0,L|188:278,2,90,0|0|0,3:0|3:0|0:0,0:0:0:0:
41,252,35709,1,10,0:0:0:0:
30,363,35904,1,0,3:0:0:0:
138,208,36099,6,0,P|270:178|337:197,1,180,2|8,3:2|0:0,0:0:0:0:
446,229,36683,1,0,3:0:0:0:
349,351,36878,1,2,3:2:0:0:
325,207,37073,1,2,3:2:0:0:
463,338,37267,1,8,0:0:0:0:
446,229,37462,1,0,0:0:0:0:
339,333,37657,6,0,P|194:343|155:322,1,180,4|0,3:2|0:0,0:0:0:0:
50,354,38242,2,0,P|69:298|51:231,1,90,10|0,0:0|0:0,0:0:0:0:
13,192,38631,1,0,3:0:0:0:
115,107,38827,2,0,P|132:148|141:192,1,90,10|0,0:0|0:0,0:0:0:0:
119,294,39216,5,0,3:2:0:0:
221,179,39410,1,0,3:2:0:0:
221,179,39800,2,0,P|214:266|214:375,1,180,10|0,0:0|3:0,0:0:0:0:
309,254,40384,1,10,0:0:0:0:
131,278,40579,1,0,3:0:0:0:
309,254,40774,6,0,P|339:155|314:50,1,180,0|0,3:0|0:0,0:0:0:0:
142,32,41358,2,0,P|186:25|229:37,1,90,10|0,0:0|0:0,0:0:0:0:
261,159,41748,2,0,L|162:171,1,90,0|10,3:0|0:0,0:0:0:0:
86,209,42138,1,0,0:0:0:0:
62,39,42332,5,0,3:0:0:0:
66,43,42527,1,0,3:0:0:0:
58,64,42917,2,0,P|139:84|250:77,1,180,10|0,0:0|3:0,0:0:0:0:
404,48,43502,1,10,0:0:0:0:
406,70,43599,1,8,0:0:0:0:
409,92,43696,1,8,0:0:0:0:
411,115,43794,1,8,0:0:0:0:
414,137,43891,6,0,P|395:238|407:322,1,180,4|0,3:2|0:0,0:0:0:0:
490,227,44475,2,0,P|499:131|494:99,1,90,10|0,0:0|0:0,0:0:0:0:
361,65,44865,1,0,3:0:0:0:
326,154,45060,2,0,P|412:144|442:138,1,90,10|0,0:0|0:0,0:0:0:0:
243,31,45449,5,0,3:0:0:0:
243,31,45644,1,0,3:0:0:0:
222,48,46034,2,0,P|209:141|237:236,1,180,10|0,0:2|3:0,0:0:0:0:
323,158,46618,1,10,0:0:0:0:
298,286,46813,6,0,P|178:297|142:241,1,180,4|0,3:2|3:0,0:0:0:0:
90,117,47397,5,10,0:0:0:0:
237,225,47592,1,0,3:0:0:0:
57,229,47787,1,0,3:0:0:0:
198,100,47982,1,0,3:0:0:0:
136,286,48177,1,10,0:0:0:0:
61,95,48371,1,8,0:0:0:0:
61,95,48469,1,8,0:0:0:0:
61,95,48566,1,4,3:2:0:0:
256,192,48664,12,8,50319,0:0:0:0:
61,161,50514,5,0,3:0:0:0:
61,161,50612,1,8,0:0:0:0:
61,161,50709,2,0,L|152:171,1,90,8|8,0:3|0:0,0:0:0:0:
254,242,51099,1,0,3:0:0:0:
279,217,51196,1,0,3:0:0:0:
309,201,51294,1,8,0:0:0:0:
343,193,51391,1,8,0:0:0:0:
378,194,51489,1,8,0:0:0:0:
412,202,51586,1,8,0:0:0:0:
442,219,51683,6,0,P|452:157|444:95,1,90,6|0,0:0|0:0,0:0:0:0:
291,91,52073,2,0,P|372:87|400:65,1,90,10|0,0:0|0:0,0:0:0:0:
324,3,52462,1,2,3:2:0:0:
300,180,52657,2,0,P|294:135|290:90,1,90,0|8,3:0|0:0,0:0:0:0:
107,114,53047,6,0,P|159:92|211:105,1,90,2|0,3:2|0:0,0:0:0:0:
78,199,53436,2,0,P|41:175|21:136,1,90,2|8,3:2|0:0,0:0:0:0:
168,178,53826,2,0,P|166:222|142:260,1,90,2|0,0:0|3:0,0:0:0:0:
43,275,54216,1,0,3:0:0:0:
168,178,54410,6,0,B|266:153|243:229|380:199,1,180,10|4,0:0|3:2,0:0:0:0:
397,280,54995,1,2,0:0:0:0:
332,109,55190,1,8,0:0:0:0:
446,204,55384,2,0,P|505:206|533:189,1,90,4|0,0:2|3:0,0:0:0:0:
474,122,55774,1,2,3:2:0:0:
397,280,55969,1,8,0:0:0:0:
270,115,56164,6,0,P|262:183|270:230,1,90,4|0,3:2|0:0,0:0:0:0:
373,285,56553,2,0,P|381:217|373:170,1,90,2|8,3:2|0:0,0:0:0:0:
160,156,56943,5,0,3:0:0:0:
160,156,57138,1,0,3:0:0:0:
288,201,57332,1,8,1:1:0:0:
236,331,57527,1,8,1:1:0:0:
112,297,57722,1,0,3:0:0:0:
112,297,57819,1,8,0:0:0:0:
112,297,57917,6,0,P|91:182|126:97,1,180,6|10,3:2|0:0,0:0:0:0:
190,202,58501,1,0,0:0:0:0:
269,86,58696,2,0,P|283:129|267:200,1,90,2|0,3:2|3:0,0:0:0:0:
180,29,59086,1,8,0:0:0:0:
299,119,59280,6,0,L|389:112,1,90,2|0,3:2|0:0,0:0:0:0:
480,13,59670,2,0,L|391:21,1,90,2|8,3:2|0:0,0:0:0:0:
377,196,60060,2,0,L|467:189,1,90,2|0,0:2|3:0,0:0:0:0:
503,98,60449,1,0,3:0:0:0:
301,129,60644,6,0,P|276:203|337:287,1,180,10|4,0:0|3:2,0:0:0:0:
383,190,61229,1,2,0:0:0:0:
210,119,61423,1,8,0:0:0:0:
311,56,61618,2,0,P|197:38|123:44,1,180,4|2,3:2|0:0,0:0:0:0:
133,42,62203,1,8,0:0:0:0:
76,118,62397,6,0,P|59:177|77:230,1,90,4|0,3:2|0:0,0:0:0:0:
213,226,62787,2,0,P|170:181|115:170,1,90,2|8,3:2|0:0,0:0:0:0:
48,293,63177,2,0,P|107:278|144:236,1,90,0|0,3:0|3:0,0:0:0:0:
156,87,63566,1,8,1:1:0:0:
230,302,63761,1,8,1:1:0:0:
312,239,63956,1,8,0:0:0:0:
312,239,64053,1,8,0:0:0:0:
312,239,64151,6,0,P|474:260|506:271,1,180,4|8,3:2|0:0,0:0:0:0:
356,128,64735,1,0,3:0:0:0:
441,77,64930,2,0,P|450:140|444:181,1,90,2|0,3:2|3:0,0:0:0:0:
270,192,65319,2,0,P|261:129|267:88,1,90,8|0,0:0|0:0,0:0:0:0:
342,29,65709,6,0,P|355:90|364:216,1,180,2|10,3:2|0:2,0:0:0:0:
271,310,66293,2,0,P|320:327|363:319,1,90,2|0,3:2|3:0,0:0:0:0:
471,227,66683,1,2,3:2:0:0:
476,362,66878,1,8,0:0:0:0:
356,321,67073,1,10,0:2:0:0:
356,321,67170,1,8,0:0:0:0:
356,321,67267,6,0,P|377:207|362:129,1,180,4|8,3:2|0:0,0:0:0:0:
319,39,67852,1,0,3:0:0:0:
150,136,68047,1,2,3:2:0:0:
236,61,68242,2,0,P|251:114|244:174,1,90,2|8,3:2|0:0,0:0:0:0:
89,270,68631,6,0,P|144:260|274:251,1,180,2|2,3:2|3:2,0:0:0:0:
247,164,69216,1,8,0:0:0:0:
441,214,69410,1,2,3:2:0:0:
441,214,69605,2,0,L|331:206,1,90,0|0,3:0|3:0,0:0:0:0:
289,332,69995,1,8,0:0:0:0:
289,332,70384,5,10,0:0:0:0:
360,155,70579,1,0,3:0:0:0:
374,343,70774,5,8,0:0:0:0:
283,113,70969,1,0,3:0:0:0:
319,214,71164,5,10,0:0:0:0:
383,53,71358,1,0,3:0:0:0:
196,181,71553,1,8,0:0:0:0:
335,216,71748,1,0,3:0:0:0:
247,52,71943,5,10,0:0:0:0:
142,224,72138,1,0,3:0:0:0:
343,241,72332,1,0,3:0:0:0:
234,53,72527,5,10,0:0:0:0:
149,235,72722,1,0,3:0:0:0:
346,233,72916,1,0,3:0:0:0:
148,122,73112,5,10,0:0:0:0:
148,122,73209,1,8,0:0:0:0:
148,122,73306,1,0,3:0:0:0:
227,165,73501,5,4,0:0:0:0:
256,192,73599,12,2,76618,0:0:0:0:
407,99,77787,5,8,0:0:0:0:
390,121,78177,5,8,0:0:0:0:
361,122,78274,1,0,3:0:0:0:
333,123,78371,1,0,3:0:0:0:
312,132,78469,1,8,0:0:0:0:
284,134,78566,1,0,3:0:0:0:
255,135,78663,1,0,3:0:0:0:
239,147,78761,6,0,L|174:149,2,45,8|0|0,0:0|3:0|3:0,0:0:0:0:
143,168,79053,2,0,L|78:170,2,45,8|0|0,0:0|3:0|3:0,0:0:0:0:
50,190,79345,1,8,0:0:0:0:
40,225,79442,1,8,0:0:0:0:
45,260,79540,1,0,3:0:0:0:
62,292,79637,1,8,0:0:0:0:
89,314,79735,6,0,P|166:296|292:303,1,180,4|10,3:2|0:0,0:0:0:0:
405,203,80319,1,0,3:0:0:0:
350,268,80514,2,0,P|337:319|353:366,1,90,2|0,3:2|0:0,0:0:0:0:
464,269,80904,1,8,0:0:0:0:
312,197,81099,6,0,P|262:196|219:196,1,90,2|0,3:2|0:0,0:0:0:0:
64,124,81488,2,0,P|114:123|149:150,1,90,2|8,3:2|0:0,0:0:0:0:
85,207,81878,1,0,3:0:0:0:
27,48,82073,1,0,3:0:0:0:
85,207,82267,1,0,0:0:0:0:
225,119,82462,2,0,P|228:73|214:29,1,90,10|0,0:2|0:0,0:0:0:0:
133,114,82852,5,8,0:0:0:0:
329,215,83047,1,0,3:0:0:0:
108,205,83242,5,8,0:0:0:0:
314,129,83437,1,0,3:0:0:0:
134,297,83631,5,8,0:0:0:0:
225,119,83826,1,0,3:0:0:0:
283,306,84021,1,8,0:0:0:0:
97,187,84216,1,0,3:0:0:0:
297,324,84410,6,0,L|371:314,3,45,8|0|0|0,0:0|3:0|3:0|3:0,0:0:0:0:
205,272,84800,2,0,L|159:212,3,45,8|0|0|0,0:0|3:0|3:0|3:0,0:0:0:0:
296,229,85190,5,8,0:0:0:0:
297,206,85287,1,0,3:0:0:0:
298,184,85384,1,0,3:0:0:0:
299,161,85482,1,0,3:0:0:0:
300,139,85579,1,8,0:0:0:0:
301,116,85677,1,8,0:0:0:0:
303,94,85774,1,8,0:0:0:0:
304,71,85871,1,8,0:0:0:0:
305,49,85969,1,4,0:0:0:0:
64,218,87527,5,0,3:0:0:0:
309,159,89086,5,0,3:0:0:0:
232,329,90644,5,0,3:0:0:0:
339,68,91423,1,0,3:0:0:0:
268,260,92008,5,8,0:0:0:0:
214,130,92203,1,0,3:0:0:0:
350,235,93761,5,0,3:0:0:0:
116,272,95319,5,0,3:0:0:0:
339,160,96878,5,0,3:0:0:0:
339,160,97657,5,0,3:0:0:0:
226,217,97852,1,8,0:0:0:0:
306,32,98047,1,8,0:0:0:0:
306,32,98436,6,0,P|166:64|128:51,1,180,4|8,3:2|0:0,0:0:0:0:
33,20,99021,1,0,3:0:0:0:
127,136,99216,2,0,P|145:186|139:228,1,90,0|0,3:0|0:0,0:0:0:0:
52,189,99605,1,10,0:0:0:0:
187,295,99800,6,0,P|286:298|368:228,1,180,0|0,3:0|3:0,0:0:0:0:
411,188,100384,1,8,0:0:0:0:
354,117,100579,1,0,3:0:0:0:
476,132,100774,2,0,P|495:184|491:235,1,90,0|0,3:0|0:0,0:0:0:0:
342,321,101164,1,10,0:0:0:0:
512,332,101358,6,0,P|437:301|343:321,1,180,0|0,0:0|0:0,0:0:0:0:
264,368,101943,1,8,0:0:0:0:
245,202,102138,1,0,3:0:0:0:
342,321,102332,1,0,3:0:0:0:
161,266,102527,1,0,0:0:0:0:
325,236,102722,2,0,P|326:177|305:139,1,90,10|0,0:0|3:0,0:0:0:0:
221,133,103112,6,0,P|307:151|386:110,1,180,0|8,0:0|0:0,0:0:0:0:
459,41,103696,1,0,3:0:0:0:
341,6,103891,1,0,3:0:0:0:
444,175,104086,1,0,0:0:0:0:
503,4,104280,1,10,0:0:0:0:
444,175,104475,1,8,0:0:0:0:
320,89,104670,6,0,P|340:128|343:173,1,90,2|0,3:2|0:0,0:0:0:0:
169,260,105060,2,0,P|269:237|340:299,1,180,8|0,0:0|3:0,0:0:0:0:
243,329,105644,1,0,0:0:0:0:
370,366,105839,1,10,0:0:0:0:
243,329,106034,6,0,P|232:285|239:241,1,90,0|0,3:0|0:0,0:0:0:0:
277,153,106423,2,0,L|153:145,2,90,0|8|0,3:0|0:0|3:0,0:0:0:0:
162,237,107008,2,0,P|114:209|117:92,1,180,0|10,3:0|0:0,0:0:0:0:
186,27,107592,6,0,P|158:75|41:72,1,180,0|0,0:0|0:0,0:0:0:0:
101,6,108177,1,8,0:0:0:0:
194,143,108371,1,0,3:0:0:0:
108,202,108566,2,0,P|122:257|128:295,1,90,0|0,3:0|0:0,0:0:0:0:
275,345,108956,2,0,P|261:290|255:252,1,90,10|0,0:0|3:0,0:0:0:0:
255,257,109540,5,0,3:0:0:0:
120,210,109735,2,0,P|179:161|275:180,1,180,8|2,0:0|3:2,0:0:0:0:
210,249,110319,1,2,3:2:0:0:
118,102,110514,1,8,0:0:0:0:
99,202,110709,1,0,3:0:0:0:
81,293,110904,6,0,P|149:302|258:265,1,180,4|0,3:2|0:0,0:0:0:0:
335,169,111488,2,0,P|246:161|162:193,2,180,10|0|0,0:0|3:0|0:0,0:0:0:0:
434,199,112462,5,0,3:2:0:0:
319,64,112657,2,0,L|408:61,1,90,0|0,3:2|0:0,0:0:0:0:
346,219,113047,2,0,P|295:142|347:39,1,180,10|0,0:0|3:0,0:0:0:0:
437,231,113631,1,10,0:0:0:0:
434,333,113826,1,0,3:0:0:0:
333,363,114021,6,0,P|287:331|163:334,1,180,0|0,3:0|0:0,0:0:0:0:
74,374,114605,2,0,P|65:321|71:280,1,90,10|0,0:0|0:0,0:0:0:0:
101,158,114995,1,0,3:0:0:0:
35,93,115190,2,0,P|12:132|13:187,1,90,10|0,0:0|0:0,0:0:0:0:
191,189,115579,5,0,3:0:0:0:
191,189,115774,1,0,3:0:0:0:
219,192,116164,2,0,P|228:102|213:14,1,180,10|0,0:0|3:0,0:0:0:0:
113,97,116748,1,10,0:0:0:0:
86,101,116845,1,8,0:0:0:0:
60,101,116942,1,8,0:0:0:0:
35,97,117040,1,8,0:0:0:0:
12,88,117138,6,0,P|29:189|17:292,1,180,4|0,3:2|0:0,0:0:0:0:
10,380,117722,1,10,0:0:0:0:
163,319,117917,1,0,0:0:0:0:
47,255,118112,1,0,3:0:0:0:
163,319,118306,2,0,P|231:314|272:308,1,90,10|0,0:0|0:0,0:0:0:0:
305,170,118696,5,0,3:0:0:0:
305,170,118891,1,0,3:0:0:0:
306,135,119280,6,0,P|235:116|91:121,1,180,10|0,0:2|3:0,0:0:0:0:
20,163,119865,1,10,0:0:0:0:
31,18,120060,1,4,3:2:0:0:
18,10,120449,5,0,3:0:0:0:
141,149,120644,2,0,P|193:150|232:125,1,90,10|0,0:0|3:0,0:0:0:0:
168,63,121034,1,0,3:0:0:0:
319,113,121229,1,0,3:0:0:0:
343,20,121423,1,10,0:0:0:0:
141,149,121618,1,8,0:0:0:0:
141,149,121716,1,8,0:0:0:0:
141,149,121813,1,4,3:2:0:0:
256,192,121910,12,8,123566,0:0:0:0:
321,181,123761,5,0,3:0:0:0:
321,181,123858,1,8,0:0:0:0:
321,181,123956,2,0,P|329:131|304:71,1,90,8|8,0:3|0:0,0:0:0:0:
260,19,124345,1,0,3:0:0:0:
230,38,124442,1,0,3:0:0:0:
199,52,124539,1,8,0:0:0:0:
165,61,124637,1,8,0:0:0:0:
130,62,124734,1,8,0:0:0:0:
95,56,124832,1,8,0:0:0:0:
62,43,124930,6,0,P|86:111|86:140,1,90,6|0,0:0|0:0,0:0:0:0:
0,217,125319,2,0,L|112:217,1,90,10|0,0:0|0:0,0:0:0:0:
253,298,125709,1,2,3:2:0:0:
180,352,125904,2,0,P|162:294|181:239,1,90,0|8,3:0|0:0,0:0:0:0:
193,163,126293,6,0,L|305:191,1,90,2|0,3:2|0:0,0:0:0:0:
401,190,126683,2,0,L|320:272,1,90,2|8,3:2|0:0,0:0:0:0:
273,360,127073,2,0,L|241:249,1,90,2|0,0:0|3:0,0:0:0:0:
216,154,127462,1,0,3:0:0:0:
346,293,127657,6,0,P|435:282|468:198,1,180,10|4,0:0|3:2,0:0:0:0:
381,203,128242,1,2,0:0:0:0:
354,373,128436,1,8,0:0:0:0:
381,203,128631,2,0,P|386:144|369:105,1,90,4|0,0:2|3:0,0:0:0:0:
296,166,129021,1,2,3:2:0:0:
461,90,129216,1,8,0:0:0:0:
296,166,129410,6,0,P|239:169|204:155,1,90,4|0,3:2|0:0,0:0:0:0:
270,43,129800,2,0,P|327:40|362:54,1,90,2|8,3:2|0:0,0:0:0:0:
476,136,130190,5,0,3:0:0:0:
476,136,130384,1,0,3:0:0:0:
368,258,130579,1,8,1:1:0:0:
359,147,130774,1,8,1:1:0:0:
440,307,130969,1,0,3:0:0:0:
440,307,131066,1,8,0:0:0:0:
440,307,131164,6,0,P|399:337|345:340,1,90,6|0,3:2|0:0,0:0:0:0:
163,266,131553,2,0,L|279:266,1,90,10|0,0:0|0:0,0:0:0:0:
449,239,131943,2,0,L|359:239,1,90,2|0,3:2|3:0,0:0:0:0:
278,370,132332,1,8,0:0:0:0:
264,181,132527,6,0,P|246:124|226:102,1,90,2|0,3:2|0:0,0:0:0:0:
93,170,132917,2,0,P|151:182|180:176,1,90,2|8,3:2|0:0,0:0:0:0:
191,30,133306,2,0,P|150:74|141:102,1,90,2|0,0:2|3:0,0:0:0:0:
145,257,133696,1,0,3:0:0:0:
256,99,133891,6,0,P|328:70|437:78,1,180,10|4,0:0|3:2,0:0:0:0:
385,166,134475,1,2,0:0:0:0:
512,129,134670,1,8,0:0:0:0:
433,244,134865,2,0,P|361:273|252:265,1,180,4|2,3:2|0:0,0:0:0:0:
174,210,135449,1,8,0:0:0:0:
79,333,135644,1,4,3:2:0:0:
174,210,135839,1,0,0:0:0:0:
35,152,136034,1,2,3:2:0:0:
174,210,136229,1,8,0:0:0:0:
79,333,136423,5,0,3:0:0:0:
67,231,136618,1,0,3:0:0:0:
228,143,136813,5,8,1:1:0:0:
211,281,137008,1,8,1:1:0:0:
135,132,137203,1,8,0:0:0:0:
135,132,137300,1,8,0:0:0:0:
135,132,137397,6,0,P|127:54|144:26,1,90,4|0,3:2|0:0,0:0:0:0:
221,192,137787,2,0,P|229:270|212:298,1,90,8|0,0:0|3:0,0:0:0:0:
67,236,138177,2,0,L|164:236,1,90,2|0,3:2|3:0,0:0:0:0:
311,322,138566,1,8,0:0:0:0:
311,322,138761,1,0,0:0:0:0:
393,254,138956,6,0,P|416:164|384:57,1,180,2|10,3:2|0:2,0:0:0:0:
266,6,139540,2,0,P|243:96|275:203,2,180,2|2|10,3:2|3:2|0:2,0:0:0:0:
431,109,140514,6,0,L|330:102,1,90,0|0,3:0|0:0,0:0:0:0:
154,159,140904,2,0,L|255:152,1,90,8|0,0:0|3:0,0:0:0:0:
189,69,141293,1,2,3:2:0:0:
266,240,141488,1,2,3:2:0:0:
189,69,141683,1,8,0:0:0:0:
107,245,141878,6,0,P|98:310|128:360,1,90,2|0,3:2|0:0,0:0:0:0:
166,178,142267,2,0,P|175:113|145:63,1,90,2|8,3:2|0:0,0:0:0:0:
22,26,142657,1,2,3:2:0:0:
95,126,142852,1,0,3:0:0:0:
141,6,143047,1,0,3:0:0:0:
82,152,143242,2,0,P|73:217|103:267,1,90,8|0,0:0|0:0,0:0:0:0:
273,320,143631,5,10,0:0:0:0:
80,238,143826,1,0,3:0:0:0:
283,242,144021,5,8,0:0:0:0:
52,335,144216,1,0,3:0:0:0:
155,161,144410,5,10,0:0:0:0:
203,377,144605,1,0,3:0:0:0:
271,201,144800,1,8,0:0:0:0:
82,319,144995,1,0,3:0:0:0:
249,124,145190,5,10,0:0:0:0:
108,231,145384,1,0,3:0:0:0:
294,303,145579,1,0,3:0:0:0:
97,140,145774,5,10,0:0:0:0:
238,247,145968,1,0,3:0:0:0:
52,319,146163,1,0,3:0:0:0:
16,81,146358,5,10,0:0:0:0:
141,294,146748,5,4,0:0:0:0:
238,247,147527,6,0,P|327:246|411:278,1,180,8|0,0:0|0:0,0:0:0:0:
333,339,148112,2,0,P|316:238|342:152,1,180,0|8,3:0|0:0,0:0:0:0:
77,191,148891,5,0,3:0:0:0:
150,247,149086,2,0,P|170:194|168:157,1,90,8|0,0:0|0:0,0:0:0:0:
77,191,149475,1,0,0:0:0:0:
249,241,149670,2,0,P|298:245|361:219,1,90,4|0,3:2|0:0,0:0:0:0:
281,143,150060,1,0,3:0:0:0:
155,184,150255,2,0,P|170:264|182:368,1,180,0|8,3:0|0:0,0:0:0:0:
29,220,151034,5,0,0:0:0:0:
29,220,151229,2,0,P|40:173|41:131,1,90,0|0,3:0|0:0,0:0:0:0:
29,27,151618,2,0,L|122:27,1,90,8|0,0:0|0:0,0:0:0:0:
277,68,152008,1,0,3:0:0:0:
261,175,152203,1,8,0:0:0:0:
129,112,152397,1,0,3:0:0:0:
169,217,152592,1,0,3:0:0:0:
339,233,152787,6,0,P|350:140|319:51,1,180,4|0,3:2|0:0,0:0:0:0:
173,112,153371,2,0,P|221:126|283:129,1,90,0|0,3:0|0:0,0:0:0:0:
404,83,153761,1,8,0:0:0:0:
483,128,153956,2,0,P|493:80|475:32,1,90,0|0,0:0|0:0,0:0:0:0:
399,171,154345,2,0,P|389:219|407:267,1,90,0|0,3:0|0:0,0:0:0:0:
479,358,154735,6,0,P|389:340|276:339,1,180,8|0,0:0|3:0,0:0:0:0:
70,364,155319,1,8,0:0:0:0:
205,355,155514,1,0,3:0:0:0:
96,219,155709,1,8,0:0:0:0:
85,373,155904,6,0,P|107:266|96:170,1,180,4|0,3:2|3:0,0:0:0:0:
83,100,156488,1,8,0:0:0:0:
7,166,156683,1,0,3:0:0:0:
173,138,156878,1,0,3:0:0:0:
173,138,157073,1,0,3:0:0:0:
2,72,157267,1,8,0:0:0:0:
191,144,157462,1,0,3:0:0:0:
0,273,157657,5,12,0:0:0:0:
256,192,157755,12,0,159216,3:0:0:0:
248,287,159410,6,0,P|179:306|141:297,1,90,8|0,0:0|3:0,0:0:0:0:
144,297,159703,1,8,0:0:0:0:
144,297,159800,1,8,0:3:0:0:
31,349,159995,5,8,0:0:0:0:
42,323,160092,1,0,3:0:0:0:
52,297,160189,1,0,3:0:0:0:
59,269,160287,1,0,3:0:0:0:
63,241,160384,1,8,0:0:0:0:
64,213,160482,1,8,0:0:0:0:
62,185,160579,1,8,0:0:0:0:
58,158,160676,1,8,0:0:0:0:
51,130,160774,6,0,P|101:144|162:135,1,90,6|0,0:0|0:0,0:0:0:0:
222,28,161164,2,0,L|233:126,1,90,10|0,0:0|0:0,0:0:0:0:
291,203,161553,1,2,3:2:0:0:
395,104,161748,2,0,P|337:90|300:95,1,90,0|8,3:0|0:0,0:0:0:0:
435,199,162138,6,0,P|468:172|479:106,1,90,2|0,3:2|0:0,0:0:0:0:
342,205,162527,2,0,P|354:247|388:275,1,90,2|8,3:2|0:0,0:0:0:0:
384,118,162917,2,0,P|340:107|299:123,1,90,2|0,0:0|3:0,0:0:0:0:
212,170,163306,1,0,3:0:0:0:
70,106,163501,6,0,P|37:173|89:279,1,180,10|4,0:0|3:2,0:0:0:0:
232,163,164086,1,2,0:0:0:0:
172,326,164280,1,8,0:0:0:0:
304,214,164475,2,0,P|317:144|294:92,1,90,4|0,0:2|3:0,0:0:0:0:
86,121,164865,1,2,3:2:0:0:
232,163,165060,1,8,0:0:0:0:
145,41,165255,6,0,L|21:44,1,90,4|0,3:2|0:0,0:0:0:0:
239,76,165644,2,0,L|328:73,1,90,2|8,3:2|0:0,0:0:0:0:
438,18,166034,5,0,3:0:0:0:
499,165,166229,1,0,3:0:0:0:
375,185,166423,1,8,1:1:0:0:
494,82,166618,1,8,1:1:0:0:
415,266,166813,1,0,3:0:0:0:
415,266,166910,1,8,0:0:0:0:
415,266,167008,6,0,P|332:261|294:233,1,90,6|0,3:2|0:0,0:0:0:0:
222,129,167397,2,0,P|208:192|231:239,1,90,10|0,0:0|0:0,0:0:0:0:
320,175,167787,1,2,3:2:0:0:
127,112,167982,2,0,P|53:110|20:125,1,90,0|8,3:0|0:0,0:0:0:0:
85,275,168371,6,0,P|98:212|83:179,1,90,2|0,3:2|0:0,0:0:0:0:
43,29,168761,2,0,P|30:92|45:125,1,90,2|8,3:2|0:0,0:0:0:0:
180,207,169151,1,2,0:2:0:0:
255,54,169345,1,0,3:0:0:0:
127,118,169540,1,0,3:0:0:0:
268,244,169735,2,0,P|272:199|254:147,1,90,10|0,0:0|0:0,0:0:0:0:
180,207,170125,5,4,3:2:0:0:
359,234,170319,1,2,0:0:0:0:
180,207,170514,1,8,0:0:0:0:
325,310,170709,2,0,P|386:314|423:288,1,90,4|0,3:2|0:0,0:0:0:0:
436,143,171099,1,2,0:0:0:0:
436,143,171293,1,8,0:0:0:0:
321,72,171488,6,0,L|314:175,1,90,4|0,3:2|0:0,0:0:0:0:
203,209,171878,2,0,L|196:119,1,90,2|8,3:2|0:0,0:0:0:0:
131,39,172267,5,0,3:0:0:0:
131,39,172462,1,0,3:0:0:0:
268,65,172657,1,8,1:1:0:0:
118,142,172852,1,8,1:1:0:0:
350,111,173047,1,8,0:0:0:0:
350,111,173144,1,8,0:0:0:0:
350,111,173242,6,0,P|356:60|339:17,1,90,4|0,3:2|0:0,0:0:0:0:
247,156,173631,2,0,P|241:207|258:250,1,90,8|0,0:0|3:0,0:0:0:0:
362,369,174021,2,0,P|235:334|156:350,1,180,2|8,3:2|0:0,0:0:0:0:
25,369,174605,1,0,0:0:0:0:
129,215,174800,6,0,P|125:269|106:306,1,90,2|0,3:2|0:0,0:0:0:0:
38,235,175190,1,10,0:2:0:0:
189,144,175384,2,0,P|212:192|214:234,1,90,2|0,3:2|3:0,0:0:0:0:
135,313,175774,1,2,3:2:0:0:
271,368,175969,1,8,0:0:0:0:
378,270,176164,1,10,0:2:0:0:
378,270,176261,1,8,0:0:0:0:
378,270,176358,6,0,P|364:333|373:365,1,90,4|0,3:2|0:0,0:0:0:0:
451,323,176748,1,8,0:0:0:0:
279,289,176943,1,0,3:0:0:0:
454,209,177138,5,2,3:2:0:0:
292,184,177332,1,2,3:2:0:0:
454,209,177527,1,8,0:0:0:0:
344,113,177722,6,0,P|282:101|239:113,1,90,2|0,3:2|0:0,0:0:0:0:
145,238,178112,2,0,P|207:250|250:238,1,90,2|8,3:2|0:0,0:0:0:0:
195,157,178501,1,2,3:2:0:0:
52,214,178696,2,0,P|65:286|74:330,1,90,0|0,3:0|3:0,0:0:0:0:
190,384,179086,2,0,P|206:288|225:192,1,180,8|10,0:0|0:0,0:0:0:0:
396,144,179670,5,0,3:0:0:0:
312,328,179865,1,8,0:0:0:0:
224,120,180060,1,0,3:0:0:0:
413,256,180255,5,10,0:0:0:0:
413,256,180449,1,0,3:0:0:0:
199,294,180644,1,8,0:0:0:0:
199,294,180839,1,0,3:0:0:0:
385,92,181034,5,10,0:0:0:0:
154,195,181229,1,0,3:0:0:0:
326,242,181423,1,0,3:0:0:0:
158,72,181618,5,10,0:0:0:0:
131,323,181813,1,0,3:0:0:0:
258,198,182007,1,0,3:0:0:0:
5,262,182203,5,10,0:0:0:0:
305,354,182592,1,4,0:0:0:0:
256,192,182690,12,0,187267,0:0:0:0:
246,191,188826,5,4,3:2:0:0:
246,191,189216,1,10,0:1:0:0:
246,191,189410,1,8,0:3:0:0:
345,282,189605,2,0,P|352:234|336:184,2,90,8|8|8,0:3|0:3|0:1,0:0:0:0:
270,369,190190,6,0,P|213:351|155:362,1,90,2|0,0:0|0:0,0:0:0:0:
15,351,190579,2,0,P|72:369|130:358,1,90,2|8,0:0|0:1,0:0:0:0:
179,246,190969,2,0,P|122:228|64:239,1,90,8|8,0:3|0:3,0:0:0:0:
8,262,191358,1,8,0:3:0:0:
8,262,191553,1,8,0:1:0:0:
46,161,191748,1,0,0:0:0:0:
6,62,191943,6,0,P|110:39|193:43,1,180,2|10,0:0|0:1,0:0:0:0:
311,145,192527,1,8,0:3:0:0:
311,145,192722,2,0,P|243:159|190:157,1,90,8|8,0:3|0:3,0:0:0:0:
130,111,193112,1,8,0:1:0:0:
166,232,193306,6,0,P|213:247|259:247,1,90,2|0,0:0|0:0,0:0:0:0:
370,113,193696,2,0,P|335:147|336:207,1,90,2|8,0:0|0:1,0:0:0:0:
415,183,194086,1,0,0:0:0:0:
269,95,194280,1,8,0:3:0:0:
415,183,194475,1,8,0:3:0:0:
267,268,194670,1,8,0:3:0:0:
415,183,194865,1,8,0:3:0:0:
251,290,195060,5,4,0:0:0:0:
251,290,195449,1,10,0:1:0:0:
251,290,195644,1,8,0:3:0:0:
168,199,195839,2,0,P|152:237|163:295,2,90,8|8|8,0:3|0:3|0:1,0:0:0:0:
157,103,196423,6,0,P|224:118|265:89,1,90,2|0,0:0|0:0,0:0:0:0:
371,48,196813,2,0,P|304:33|263:62,1,90,2|8,0:0|0:1,0:0:0:0:
394,168,197203,1,8,0:3:0:0:
446,25,197397,1,8,0:3:0:0:
394,168,197592,1,8,0:3:0:0:
483,139,197787,1,8,0:1:0:0:
320,112,197982,1,0,0:0:0:0:
435,309,198177,5,10,0:0:0:0:
483,139,198371,1,0,3:0:0:0:
423,227,198566,5,10,0:1:0:0:
379,57,198761,1,0,3:0:0:0:
350,306,198956,5,10,0:0:0:0:
395,144,199151,1,0,3:0:0:0:
440,376,199345,5,10,0:1:0:0:
345,212,199540,1,0,3:0:0:0:
259,352,199735,6,0,L|197:348,3,45,10|0|0|0,0:0|3:0|3:0|3:0,0:0:0:0:
141,297,200125,2,0,L|79:293,3,45,10|0|0|0,0:1|3:0|3:0|3:0,0:0:0:0:
34,233,200514,1,0,3:0:0:0:
34,199,200611,1,0,3:0:0:0:
44,167,200708,1,0,3:0:0:0:
63,139,200806,1,0,3:0:0:0:
89,118,200903,1,10,0:1:0:0:
120,104,201001,1,8,0:0:0:0:
153,101,201098,1,8,0:0:0:0:
187,106,201195,1,8,0:0:0:0:
217,122,201293,5,4,3:2:0:0:
309,241,201488,1,0,0:0:0:0:
351,133,201683,1,10,0:1:0:0:
225,238,201878,1,0,3:0:0:0:
382,294,202073,2,0,P|395:240|387:200,2,90,0|8|8,3:0|0:1|0:1,0:0:0:0:
301,169,202657,6,0,P|289:110|304:62,1,90,2|0,3:2|0:0,0:0:0:0:
205,153,203047,1,2,3:2:0:0:
375,112,203242,1,8,0:1:0:0:
214,39,203436,5,0,3:0:0:0:
214,39,203534,1,8,0:0:0:0:
214,39,203631,1,0,3:0:0:0:
383,23,203826,1,8,0:1:0:0:
205,153,204021,1,8,0:1:0:0:
205,153,204410,6,0,P|228:214|184:327,1,180,4|10,3:2|0:1,0:0:0:0:
134,230,204995,1,0,3:0:0:0:
273,360,205190,2,0,P|327:361|360:338,1,90,0|0,3:0|0:0,0:0:0:0:
299,270,205579,1,8,0:1:0:0:
181,339,205774,6,0,P|188:272|174:246,1,90,2|0,3:2|0:0,0:0:0:0:
86,144,206164,2,0,P|79:211|93:237,1,90,2|8,3:2|0:1,0:0:0:0:
181,339,206553,1,0,3:0:0:0:
254,198,206748,2,0,L|159:198,1,90,0|0,3:0|0:0,0:0:0:0:
41,153,207138,1,8,0:1:0:0:
58,118,207235,1,8,0:0:0:0:
90,97,207332,1,8,0:0:0:0:
129,94,207430,1,8,0:0:0:0:
164,109,207527,5,4,3:2:0:0:
15,58,207722,1,8,0:1:0:0:
164,109,207917,2,0,P|180:165|177:212,1,90,10|0,0:1|3:0,0:0:0:0:
95,332,208306,1,0,3:0:0:0:
63,217,208501,1,8,0:1:0:0:
63,217,208696,1,8,0:1:0:0:
196,328,208891,6,0,P|288:336|367:286,2,180,2|2|0,3:2|3:2|3:0,0:0:0:0:
175,319,209767,1,8,0:0:0:0:
175,319,209865,1,0,3:0:0:0:
79,229,210060,1,8,0:1:0:0:
255,200,210255,2,0,L|138:199,1,90,8|0,0:1|0:0,0:0:0:0:
266,86,210644,5,14,0:0:0:0:
372,208,210839,1,0,3:0:0:0:
210,275,211034,1,8,3:1:0:0:
287,90,211229,5,14,0:0:0:0:
366,231,211424,1,0,3:0:0:0:
193,263,211619,1,0,3:0:0:0:
346,155,211813,5,10,0:1:0:0:
113,313,212008,2,0,P|100:270|107:225,1,90,12|0,3:2|0:0,0:0:0:0:
162,102,212397,5,0,3:0:0:0:
192,96,212494,1,0,3:0:0:0:
223,96,212591,1,8,0:1:0:0:
255,102,212689,1,0,3:0:0:0:
284,112,212786,1,0,3:0:0:0:
311,126,212884,1,0,3:0:0:0:
336,145,212981,1,0,3:0:0:0:
358,168,213078,1,0,3:0:0:0:
375,194,213176,1,0,3:0:0:0:
389,222,213273,1,0,3:0:0:0:
398,252,213371,1,8,0:1:0:0:
402,284,213468,1,8,0:0:0:0:
402,314,213565,1,8,0:0:0:0:
396,345,213663,1,8,0:0:0:0:
386,375,213760,1,4,3:2:0:0:
