osu file format v14

[General]
AudioFilename: audio.mp3
AudioLeadIn: 0
PreviewTime: 225393
Countdown: 0
SampleSet: Soft
StackLeniency: 0.4
Mode: 0
LetterboxInBreaks: 0
WidescreenStoryboard: 0

[Editor]
Bookmarks: 189123
DistanceSpacing: 1.4
BeatDivisor: 4
GridSize: 4
TimelineZoom: 1.6

[Metadata]
Title:Let It Snow
TitleUnicode:Let It Snow
Artist:Yasuda Rei
ArtistUnicode:安田レイ
Creator:Sarawatlism
Version:Yuki
Source:
Tags:rachel rhodes Will Tamai Kenji 玉井健二 Asyu Tomoegawa Takahiro 巴川貴裕 [_lost_] conner c_o_n_n_e_r centrak_ grazuko asukow japanese jpop pop j-pop
BeatmapID:4411838
BeatmapSetID:2102775

[Difficulty]
HPDrainRate:6
CircleSize:4.5
OverallDifficulty:8
ApproachRate:8
SliderMultiplier:1.88
SliderTickRate:1

[Events]
//Background and Video events
0,0,"BG.jpg",0,0
//Break Periods
2,226500,240504
//Storyboard Layer 0 (Background)
//Storyboard Layer 1 (Fail)
//Storyboard Layer 2 (Pass)
//Storyboard Layer 3 (Foreground)
//Storyboard Layer 4 (Overlay)
//Storyboard Sound Samples

[TimingPoints]
271,491.803278688525,4,2,1,30,1,0
271,-200,4,2,1,30,0,0
7156,-111.111111111111,4,2,1,30,0,0
7648,-200,4,2,1,30,0,0
8139,-83.3333333333333,4,2,1,60,0,0
8507,-83.3333333333333,4,2,1,5,0,0
8631,-83.3333333333333,4,2,1,60,0,0
14287,-100,4,2,1,50,0,0
14779,-125,4,2,1,40,0,0
15271,-166.666666666667,4,2,1,30,0,0
16008,-111.111111111111,4,2,1,50,0,0
47484,-90.9090909090909,4,2,1,50,0,0
47852,-90.9090909090909,4,2,1,5,0,0
47975,-90.9090909090909,4,2,1,50,0,0
59655,-90.9090909090909,4,2,1,5,0,0
59779,-90.9090909090909,4,2,1,50,0,0
61746,-90.9090909090909,4,2,1,40,0,0
62238,-250,4,2,1,30,0,0
62730,-142.857142857143,4,2,1,50,0,0
63221,-76.9230769230769,4,2,1,70,0,1
66540,-76.9230769230769,4,2,1,5,0,1
66664,-76.9230769230769,4,2,1,70,0,1
71458,-76.9230769230769,4,2,1,5,0,1
71582,-76.9230769230769,4,2,1,70,0,1
72442,-76.9230769230769,4,2,1,5,0,1
72566,-76.9230769230769,4,2,1,70,0,1
75393,-76.9230769230769,4,2,1,5,0,1
75516,-76.9230769230769,4,2,1,70,0,1
76008,-71.4285714285714,4,2,1,70,0,1
76376,-71.4285714285714,4,2,1,5,0,1
76500,-71.4285714285714,4,2,1,70,0,1
76992,-66.6666666666667,4,2,1,70,0,1
78836,-66.6666666666667,4,2,1,70,0,0
78959,-76.9230769230769,4,2,1,70,0,1
82278,-76.9230769230769,4,2,1,5,0,1
82402,-76.9230769230769,4,2,1,70,0,1
88179,-76.9230769230769,4,2,1,5,0,1
88303,-76.9230769230769,4,2,1,70,0,1
91130,-76.9230769230769,4,2,1,5,0,1
91254,-76.9230769230769,4,2,1,70,0,1
93098,-76.9230769230769,4,2,1,5,0,1
93221,-76.9230769230769,4,2,1,70,0,1
94697,-83.3333333333333,4,2,1,60,0,0
100966,-83.3333333333333,4,2,1,5,0,0
101090,-83.3333333333333,4,2,1,60,0,0
105884,-83.3333333333333,4,2,1,5,0,0
106008,-83.3333333333333,4,2,1,60,0,0
108467,-142.857142857143,4,2,1,30,0,0
110434,-166.666666666667,4,2,1,40,0,0
116704,-166.666666666667,4,2,1,5,0,0
116828,-166.666666666667,4,2,1,40,0,0
118303,-125,4,2,1,40,0,0
118671,-125,4,2,1,5,0,0
118795,-125,4,2,2,50,0,0
120639,-125,4,2,2,5,0,0
120762,-125,4,2,2,50,0,0
125680,-76.9230769230769,4,2,2,50,0,0
126172,-90.9090909090909,4,2,1,60,0,0
126540,-90.9090909090909,4,2,1,5,0,0
126664,-90.9090909090909,4,2,1,60,0,0
134409,-90.9090909090909,4,2,1,5,0,0
134533,-90.9090909090909,4,2,1,60,0,0
138343,-90.9090909090909,4,2,1,5,0,0
138467,-90.9090909090909,4,2,1,60,0,0
139943,-90.9090909090909,4,2,1,50,0,0
140434,-90.909090909091,4,2,1,40,0,0
140926,-250,4,2,1,30,0,0
141418,-142.857142857143,4,2,1,50,0,0
141910,-76.9230769230769,4,2,1,70,0,1
145229,-76.9230769230769,4,2,1,5,0,1
145353,-76.9230769230769,4,2,1,70,0,1
150147,-76.9230769230769,4,2,1,5,0,1
150271,-76.9230769230769,4,2,1,70,0,1
151131,-76.9230769230769,4,2,1,5,0,1
151255,-76.9230769230769,4,2,1,70,0,1
154082,-76.9230769230769,4,2,1,5,0,1
154205,-76.9230769230769,4,2,1,70,0,1
154697,-71.4285714285714,4,2,1,70,0,1
155065,-71.4285714285714,4,2,1,5,0,1
155189,-71.4285714285714,4,2,1,70,0,1
155681,-66.6666666666667,4,2,1,70,0,1
157525,-66.6666666666667,4,2,1,70,0,0
157648,-76.9230769230769,4,2,1,70,0,1
160967,-76.9230769230769,4,2,1,5,0,1
161091,-76.9230769230769,4,2,1,70,0,1
165885,-76.9230769230769,4,2,1,5,0,1
166008,-76.9230769230769,4,2,1,70,0,1
166868,-76.9230769230769,4,2,1,5,0,1
166992,-76.9230769230769,4,2,1,70,0,1
169819,-76.9230769230769,4,2,1,5,0,1
169943,-76.9230769230769,4,2,1,70,0,1
171787,-76.9230769230769,4,2,1,5,0,1
171910,-76.9230769230769,4,2,1,70,0,1
173385,-83.3333333333333,4,2,1,60,0,0
179655,-83.3333333333333,4,2,1,5,0,0
179779,-83.3333333333333,4,2,1,60,0,0
185557,-83.3333333333333,4,2,1,5,0,0
185680,-83.3333333333333,4,2,1,60,0,0
188631,-76.9230769230769,4,2,1,60,0,0
189123,-83.3333333333333,4,2,1,65,0,0
194902,-83.3333333333333,4,2,1,5,0,0
195025,-83.3333333333333,4,2,1,65,0,0
198836,-83.3333333333333,4,2,1,5,0,0
198959,-83.3333333333333,4,2,1,65,0,0
203139,-83.3333333333333,4,2,1,65,0,0
203262,-83.3333333333333,4,2,1,5,0,0
203385,-83.3333333333333,4,2,1,65,0,0
203508,-83.3333333333333,4,2,1,5,0,0
203631,-83.3333333333333,4,2,1,65,0,0
203754,-83.3333333333333,4,2,1,5,0,0
203877,-83.3333333333333,4,2,1,65,0,0
204000,-83.3333333333333,4,2,1,5,0,0
204123,-83.3333333333333,4,2,1,65,0,0
204246,-83.3333333333333,4,2,1,5,0,0
204369,-83.3333333333333,4,2,1,65,0,0
204492,-83.3333333333333,4,2,1,5,0,0
204615,-83.3333333333333,4,2,1,65,0,0
204738,-83.3333333333333,4,2,1,5,0,0
204861,-83.3333333333333,4,2,1,60,0,0
205844,-100,4,2,1,60,0,0
217033,-100,4,2,1,5,0,0
217156,-100,4,2,1,60,0,0
220967,-100,4,2,1,5,0,0
221090,-100,4,2,1,60,0,0
226254,-83.3333333333333,4,2,1,30,0,0
241254,-250,4,2,1,50,0,0
241746,-142.857142857143,4,2,1,50,0,0
242238,-76.9230769230769,4,2,1,70,0,1
245557,-76.9230769230769,4,2,1,5,0,1
245680,-76.9230769230769,4,2,1,70,0,1
250475,-76.9230769230769,4,2,1,5,0,1
250598,-76.9230769230769,4,2,1,70,0,1
251459,-76.9230769230769,4,2,1,5,0,1
251582,-76.9230769230769,4,2,1,70,0,1
254410,-76.9230769230769,4,2,1,5,0,1
254533,-76.9230769230769,4,2,1,70,0,1
255393,-76.9230769230769,4,2,1,5,0,1
255516,-76.9230769230769,4,2,1,70,0,1
261295,-76.9230769230769,4,2,1,5,0,1
261418,-76.9230769230769,4,2,1,70,0,1
267197,-76.9230769230769,4,2,1,5,0,1
267320,-76.9230769230769,4,2,1,70,0,1
270148,-76.9230769230769,4,2,1,5,0,1
270271,-76.9230769230769,4,2,1,70,0,1
272115,-76.9230769230769,4,2,1,5,0,1
272238,-76.9230769230769,4,2,1,70,0,1
273713,-83.3333333333333,4,2,1,60,0,0
274082,-83.3333333333333,4,2,1,5,0,0
274205,-83.3333333333333,4,2,1,60,0,0
276049,-83.3333333333333,4,2,1,5,0,0
276172,-83.3333333333333,4,2,1,60,0,0
279984,-83.3333333333333,4,2,1,5,0,0
280107,-83.3333333333333,4,2,1,60,0,0
293385,-90.9090909090909,4,2,1,50,0,0
297320,-100,4,2,1,40,0,0
301254,-100,4,2,1,30,0,0
305189,-100,4,2,1,20,0,0

[Colours]
Combo1 : 128,64,64
Combo2 : 109,133,211
Combo3 : 164,128,179
Combo4 : 202,136,146

[HitObjects]
451,271,271,6,0,L|499:259,2,47,2|2|2,2:2|2:2|2:2,0:0:0:0:
473,349,1008,2,0,P|437:301|353:330,1,141,2|2,2:2|2:2,0:0:0:0:
71,169,2238,6,0,L|23:157,2,47,2|2|2,2:2|2:2|2:2,0:0:0:0:
49,247,2975,2,0,P|85:199|169:228,1,141,2|2,2:2|2:2,0:0:0:0:
432,57,4205,6,0,L|480:45,2,47,2|2|2,2:2|2:2|2:2,0:0:0:0:
454,135,4942,2,0,P|429:102|372:122,1,94,2|2,2:2|2:2,0:0:0:0:
333,162,5680,1,2,2:2:0:0:
277,109,5926,1,2,2:2:0:0:
194,221,6172,6,0,B|256:206|256:206|267:185|258:168,1,94,2|2,2:2|2:2,0:0:0:0:
151,66,6910,5,2,2:2:0:0:
151,66,7033,1,2,2:2:0:0:
151,66,7156,2,0,P|145:115|133:173,1,84.599997418213,2|2,2:2|2:2,0:0:0:0:
93,245,7648,6,0,P|86:213|74:186,1,47,2|2,2:2|2:2,0:0:0:0:
242,4,8139,6,0,L|242:182,1,169.199994836426,6|0,1:2|0:0,0:0:0:0:
242,204,8631,1,8,2:2:0:0:
159,111,8877,1,2,2:2:0:0:
66,228,9123,2,0,P|108:186|174:196,1,112.799996557617,2|0,1:2|0:0,0:0:0:0:
92,336,9615,2,0,P|41:332|-3:285,1,112.799996557617,10|2,2:2|2:2,0:0:0:0:
159,188,10107,5,2,1:2:0:0:
265,291,10352,1,0,0:0:0:0:
265,291,10475,1,0,0:0:0:0:
265,291,10598,2,0,P|317:272|380:252,1,112.799996557617,10|2,2:2|2:2,0:0:0:0:
397,136,11090,2,0,P|345:155|283:175,1,112.799996557617,2|2,1:2|2:2,0:0:0:0:
448,306,11582,2,0,P|474:245|445:202,1,112.799996557617,10|2,2:2|2:2,0:0:0:0:
313,91,12074,6,0,B|263:84|225:117|225:117|208:150|208:150|175:180|118:174,1,225.599993115235,2|8,1:2|2:2,0:0:0:0:
17,90,12811,1,2,2:2:0:0:
118,0,13057,2,0,P|156:36|155:100,1,112.799996557617,2|2,1:2|2:2,0:0:0:0:
33,207,13549,2,0,P|46:145|51:89,1,112.799996557617,10|2,2:2|2:2,0:0:0:0:
128,286,14041,5,2,1:2:0:0:
266,157,14287,5,2,2:2:0:0:
257,151,14533,1,2,2:2:0:0:
346,215,14779,5,2,2:2:0:0:
354,221,15025,1,2,2:2:0:0:
427,161,15271,5,2,2:2:0:0:
417,165,15516,1,2,2:2:0:0:
490,204,15762,5,2,2:2:0:0:
361,47,16008,6,0,P|354:93|343:142,1,84.599997418213,6|2,1:2|2:2,0:0:0:0:
295,7,16500,1,10,2:2:0:0:
418,136,16746,1,2,2:2:0:0:
253,182,16992,2,0,P|268:111|275:76,1,84.599997418213,2|2,1:2|2:2,0:0:0:0:
325,243,17484,2,0,P|333:289|349:345,1,84.599997418213,10|2,2:2|2:2,0:0:0:0:
196,243,17975,6,0,B|143:226|111:268|132:270|97:307|40:286,1,169.199994836426,0|8,1:1|2:2,0:0:0:0:
129,171,18713,1,2,2:2:0:0:
25,109,18959,2,0,P|42:163|49:205,1,84.599997418213,0|2,1:1|2:2,0:0:0:0:
211,171,19451,2,0,P|219:112|231:72,1,84.599997418213,10|2,2:2|2:2,0:0:0:0:
129,1,19943,6,0,L|129:175,1,169.199994836426,0|10,1:1|2:2,0:0:0:0:
210,269,20680,1,0,0:0:0:0:
292,193,20926,2,0,P|225:175|179:158,1,84.599997418213,2|2,1:2|2:2,0:0:0:0:
376,249,21418,2,0,P|421:233|482:221,1,84.599997418213,10|2,2:2|2:2,0:0:0:0:
281,85,21910,5,2,1:2:0:0:
357,169,22156,1,2,2:2:0:0:
219,146,22402,1,10,2:2:0:0:
359,53,22648,1,2,2:2:0:0:
292,208,22893,2,0,P|241:187|190:177,1,84.599997418213,2|2,1:2|2:2,0:0:0:0:
181,79,23385,2,0,P|239:105|284:115,1,84.599997418213,10|0,2:2|0:0,0:0:0:0:
446,153,23877,6,0,B|393:136|361:179|381:181|346:218|287:196,1,169.199994836426,2|10,1:2|2:2,0:0:0:0:
247,103,24615,1,2,2:2:0:0:
134,207,24861,2,0,P|162:178|214:180,1,84.599997418213,2|2,1:2|2:2,0:0:0:0:
125,295,25352,2,0,P|82:295|42:261,1,84.599997418213,10|2,2:2|2:2,0:0:0:0:
72,155,25844,5,2,1:2:0:0:
199,251,26090,1,2,2:2:0:0:
18,204,26336,2,0,P|26:154|31:106,1,84.599997418213,10|2,2:2|2:2,0:0:0:0:
125,295,26828,1,0,1:1:0:0:
216,226,27074,1,2,2:2:0:0:
216,226,27197,1,0,0:0:0:0:
216,226,27320,2,0,P|166:215|119:198,1,84.599997418213,10|2,2:2|2:2,0:0:0:0:
291,309,27811,6,0,P|335:294|382:284,1,84.599997418213,2|2,1:2|2:2,0:0:0:0:
423,179,28303,2,0,P|378:193|325:205,1,84.599997418213,10|2,2:2|2:2,0:0:0:0:
237,105,28795,2,0,P|258:80|325:122,1,126.899996127319,2|2,1:2|2:2,0:0:0:0:
353,127,29287,2,0,P|359:70|368:18,1,84.599997418213,10|2,2:2|2:2,0:0:0:0:
260,190,29779,6,0,P|267:236|274:286,1,84.599997418213,0|2,1:1|2:2,0:0:0:0:
153,124,30271,2,0,P|160:77|167:27,1,84.599997418213,10|2,2:2|2:2,0:0:0:0:
177,235,30762,1,2,1:2:0:0:
336,133,31008,1,2,2:2:0:0:
336,133,31131,1,2,2:2:0:0:
336,133,31254,2,0,P|272:118|232:100,1,84.599997418213,10|2,2:2|2:2,0:0:0:0:
107,219,31746,6,0,B|159:202|190:245|170:247|205:283|263:262,1,169.199994836426,2|10,1:2|2:2,0:0:0:0:
331,167,32484,1,2,2:2:0:0:
421,279,32730,2,0,P|371:246|326:245,1,84.599997418213,2|2,1:2|2:2,0:0:0:0:
247,187,33221,2,0,P|297:177|330:150,1,84.599997418213,10|2,2:2|2:2,0:0:0:0:
409,20,33713,6,0,L|409:147,1,126.899996127319,0|2,1:1|2:2,0:0:0:0:
408,177,34205,1,10,2:2:0:0:
338,78,34451,1,2,2:2:0:0:
488,152,34697,2,0,B|506:103|506:103|484:55,1,84.599997418213,0|2,1:1|2:2,0:0:0:0:
335,159,35189,2,0,B|319:202|319:202|337:250,1,84.599997418213,10|0,2:2|0:0,0:0:0:0:
455,274,35680,6,0,B|403:257|373:299|393:300|358:336|302:315,1,169.199994836426,2|10,1:2|2:2,0:0:0:0:
226,248,36418,1,0,0:0:0:0:
264,153,36664,2,0,P|311:156|349:189,1,84.599997418213,2|2,1:2|2:2,0:0:0:0:
220,256,37156,2,0,P|171:251|133:218,1,84.599997418213,10|2,2:2|2:2,0:0:0:0:
186,122,37648,5,2,1:2:0:0:
286,224,37893,1,2,2:2:0:0:
108,142,38139,1,10,2:2:0:0:
280,51,38385,1,2,2:2:0:0:
280,51,38508,1,2,2:2:0:0:
280,51,38631,2,0,P|267:105|260:153,1,84.599997418213,2|2,1:2|2:2,0:0:0:0:
96,157,39123,2,0,P|108:102|113:58,1,84.599997418213,10|2,2:2|2:2,0:0:0:0:
191,0,39615,6,0,L|191:171,1,169.199994836426,2|10,1:2|2:2,0:0:0:0:
297,275,40352,1,2,2:2:0:0:
353,195,40598,2,0,P|307:162|263:171,1,84.599997418213,2|2,1:2|2:2,0:0:0:0:
415,275,41090,2,0,P|460:275|501:239,1,84.599997418213,10|2,2:2|2:2,0:0:0:0:
423,149,41582,5,0,1:1:0:0:
297,275,41828,1,2,2:2:0:0:
297,275,41951,1,0,0:0:0:0:
297,275,42074,2,0,P|243:257|207:248,1,84.599997418213,10|2,2:2|2:2,0:0:0:0:
161,146,42566,2,0,P|214:163|250:172,1,84.599997418213,0|2,1:1|2:2,0:0:0:0:
148,269,43057,2,0,P|110:222|127:182,1,84.599997418213,10|2,2:2|2:2,0:0:0:0:
210,91,43549,6,0,P|245:132|237:172,1,84.599997418213,2|2,1:2|2:2,0:0:0:0:
24,220,44041,2,0,P|38:153|42:115,1,84.599997418213,10|2,2:2|2:2,0:0:0:0:
127,36,44533,2,0,L|127:172,1,126.899996127319,2|2,1:2|2:2,0:0:0:0:
125,191,45025,1,10,2:2:0:0:
44,107,45271,1,2,2:2:0:0:
199,156,45516,6,0,P|263:140|303:119,1,84.599997418213,0|2,1:1|2:2,0:0:0:0:
413,241,46008,2,0,P|365:221|321:209,1,84.599997418213,10|2,2:2|2:2,0:0:0:0:
345,66,46500,2,0,P|372:101|363:150,1,84.599997418213,0|0,1:1|0:0,0:0:0:0:
253,241,46992,2,0,P|268:186|273:139,1,84.599997418213,10|2,2:2|2:2,0:0:0:0:
152,299,47484,6,0,B|193:291|218:318|218:318|232:341|232:341|258:361|297:353,1,155.100004733277,2|0,1:2|0:0,0:0:0:0:
317,337,47975,1,10,2:2:0:0:
237,241,48221,1,2,2:2:0:0:
110,361,48467,2,0,P|59:369|1:378,1,103.400003155518,2|2,1:2|2:2,0:0:0:0:
123,202,48959,2,0,P|158:256|145:310,1,103.400003155518,10|2,2:2|2:2,0:0:0:0:
9,252,49451,6,0,P|25:188|32:132,1,103.400003155518,2|2,1:2|2:2,0:0:0:0:
161,92,49943,2,0,P|145:156|138:211,1,103.400003155518,10|2,2:2|2:2,0:0:0:0:
91,48,50434,1,0,1:1:0:0:
230,157,50680,1,2,2:2:0:0:
230,157,50803,1,2,2:2:0:0:
230,157,50926,2,0,P|303:139|335:115,1,103.400003155518,10|2,2:2|2:2,0:0:0:0:
281,257,51418,6,0,P|240:193|122:235,1,206.800006311035,2|10,1:2|2:2,0:0:0:0:
294,338,52156,1,2,2:2:0:0:
174,371,52402,2,0,P|187:315|196:264,1,103.400003155518,0|2,1:1|2:2,0:0:0:0:
96,124,52893,2,0,P|102:175|120:230,1,103.400003155518,10|2,2:2|2:2,0:0:0:0:
147,69,53385,5,2,1:2:0:0:
220,159,53631,1,2,2:2:0:0:
201,7,53877,1,10,2:2:0:0:
96,124,54123,1,2,2:2:0:0:
267,91,54369,2,0,P|204:76|156:63,1,103.400003155518,0|0,1:1|0:0,0:0:0:0:
275,250,54861,2,0,P|307:205|293:142,1,103.400003155518,10|2,2:2|2:2,0:0:0:0:
125,249,55352,6,0,B|171:237|203:268|203:268|220:295|220:295|260:332|310:312,1,206.800006311035,2|10,1:2|2:2,0:0:0:0:
385,205,56090,1,2,2:2:0:0:
300,113,56336,2,0,P|268:164|279:206,1,103.400003155518,0|2,1:1|2:2,0:0:0:0:
378,297,56828,2,0,P|410:246|398:205,1,103.400003155518,10|2,2:2|2:2,0:0:0:0:
309,95,57320,5,0,1:1:0:0:
208,231,57566,1,2,2:2:0:0:
375,138,57811,1,10,2:2:0:0:
200,63,58057,1,2,2:2:0:0:
300,238,58303,2,0,P|361:218|416:202,1,103.400003155518,0|0,1:1|0:0,0:0:0:0:
419,76,58795,2,0,P|358:96|309:112,1,103.400003155518,10|2,2:2|2:2,0:0:0:0:
133,199,59287,6,0,B|183:186|209:218|199:222|231:250|280:235,1,155.100004733277,0|0,1:1|0:0,0:0:0:0:
312,215,59779,1,10,2:2:0:0:
162,276,60025,1,2,2:2:0:0:
237,56,60271,2,0,P|276:96|269:141,1,103.400003155518,2|0,1:2|0:0,0:0:0:0:
254,164,60639,1,2,0:0:0:0:
254,164,60762,2,0,P|295:128|354:132,1,103.400003155518,10|2,2:2|2:2,0:0:0:0:
144,35,61254,5,2,2:2:0:0:
135,28,61500,1,2,2:2:0:0:
219,102,61746,5,2,2:2:0:0:
226,108,61992,1,2,2:2:0:0:
285,42,62238,6,0,P|259:37|234:28,1,37.6,2|2,2:2|2:2,0:0:0:0:
359,83,62730,6,0,P|390:71|423:63,1,65.7999979919434,2|2,2:2|2:2,0:0:0:0:
302,222,63221,6,0,P|261:171|295:110,1,122.199994406128,6|2,1:2|2:2,0:0:0:0:
382,299,63713,1,10,2:2:0:0:
505,174,63959,1,2,2:2:0:0:
505,174,64082,1,0,0:0:0:0:
505,174,64205,2,0,P|458:142|388:151,1,122.199994406128,2|2,1:2|2:2,0:0:0:0:
275,295,64697,5,10,2:2:0:0:
147,180,64943,1,2,2:2:0:0:
276,67,65189,2,0,P|254:128|247:184,1,122.199994406128,2|2,1:2|2:2,0:0:0:0:
32,275,65680,2,0,P|53:213|60:157,1,122.199994406128,10|2,2:2|2:2,0:0:0:0:
152,0,66172,2,0,L|152:187,1,183.299991609192,2|0,1:2|0:0,0:0:0:0:
151,215,66664,1,10,2:2:0:0:
65,66,66910,1,2,2:2:0:0:
239,177,67156,6,0,P|308:165|347:120,1,122.199994406128,2|2,1:2|2:2,0:0:0:0:
167,312,67648,2,0,B|68:281|68:281|62:255,1,122.199994406128,10|2,2:2|2:2,0:0:0:0:
310,355,68139,2,0,B|428:328|428:328|441:293|417:267,1,183.299991609192,2|2,1:2|2:2,0:0:0:0:
403,235,68631,1,10,2:2:0:0:
291,364,68877,1,2,2:2:0:0:
279,170,69123,6,0,P|326:217|327:276,1,122.199994406128,2|2,1:2|2:2,0:0:0:0:
83,300,69615,2,0,P|97:228|104:167,1,122.199994406128,8|2,2:2|2:2,0:0:0:0:
229,63,70107,1,2,1:2:0:0:
350,182,70352,1,0,0:0:0:0:
350,182,70475,1,0,0:0:0:0:
350,182,70598,2,0,P|416:174|456:124,1,122.199994406128,10|2,2:2|2:2,0:0:0:0:
178,0,71090,6,0,B|178:192,1,183.299991609192,2|0,1:2|0:0,0:0:0:0:
178,218,71582,1,8,2:2:0:0:
60,93,71828,1,2,2:2:0:0:
13,253,72074,2,0,P|52:186|152:214,1,183.299991609192,2|0,1:2|0:0,0:0:0:0:
178,218,72566,1,10,2:2:0:0:
41,345,72811,1,2,2:2:0:0:
240,325,73057,6,0,P|182:309|120:291,1,122.199994406128,0|2,1:1|2:2,0:0:0:0:
124,112,73549,2,0,P|181:131|241:148,1,122.199994406128,10|2,2:2|2:2,0:0:0:0:
348,281,74041,1,0,1:1:0:0:
448,142,74287,1,2,2:2:0:0:
448,142,74410,1,0,0:0:0:0:
448,142,74533,2,0,P|385:133|342:178,1,122.199994406128,10|0,2:2|0:0,0:0:0:0:
187,239,75025,6,0,B|232:232|264:264|264:264|277:288|277:288|313:323|362:309,1,183.299991609192,2|0,1:2|0:0,0:0:0:0:
370,301,75516,1,8,2:2:0:0:
266,164,75762,1,0,0:0:0:0:
115,306,76008,6,0,B|-29:263|-29:263|14:234,1,197.39999397583,2|0,1:2|0:0,0:0:0:0:
28,211,76500,1,10,2:2:0:0:
194,354,76746,1,0,0:0:0:0:
144,162,76992,6,0,P|106:227|122:287,1,141.000005378723,2|0,1:2|0:0,0:0:0:0:
311,346,77484,2,0,P|344:263|316:205,1,141.000005378723,8|0,2:2|0:0,0:0:0:0:
208,60,77975,1,2,1:2:0:0:
327,218,78221,1,2,2:2:0:0:
327,218,78344,1,0,0:0:0:0:
327,218,78467,6,0,P|410:214|445:172,1,141.000005378723,10|2,2:2|2:2,0:0:0:0:
208,60,78959,6,0,P|142:61|97:110,1,122.199994406128,2|2,1:2|2:2,0:0:0:0:
287,148,79451,2,0,B|315:89|315:89|282:18,1,122.199994406128,10|2,2:2|2:2,0:0:0:0:
219,229,79943,1,2,1:2:0:0:
101,103,80189,1,2,2:2:0:0:
219,229,80434,1,10,2:2:0:0:
83,310,80680,6,0,P|97:250|107:190,1,122.199994406128,2|2,2:2|1:2,0:0:0:0:
268,130,81172,2,0,P|250:214|243:270,1,122.199994406128,2|10,2:2|2:2,0:0:0:0:
25,188,81664,1,2,2:2:0:0:
179,0,81910,2,0,L|179:188,1,183.299991609192,2|0,1:2|0:0,0:0:0:0:
179,221,82402,1,10,2:2:0:0:
289,58,82648,1,2,2:2:0:0:
390,195,82893,6,0,P|344:151|283:160,1,122.199994406128,0|2,1:1|2:2,0:0:0:0:
412,319,83385,2,0,P|471:322|512:280,1,122.199994406128,10|2,2:2|2:2,0:0:0:0:
319,234,83877,2,0,B|260:231|231:277|252:280|221:324|149:313,1,183.299991609192,2|2,1:2|2:2,0:0:0:0:
133,287,84369,1,10,2:2:0:0:
257,169,84615,1,2,2:2:0:0:
133,287,84861,6,0,P|76:284|31:233,1,122.199994406128,0|2,1:1|2:2,0:0:0:0:
18,68,85352,2,0,P|75:71|120:122,1,122.199994406128,10|2,2:2|2:2,0:0:0:0:
228,247,85844,1,2,1:2:0:0:
351,128,86090,1,0,0:0:0:0:
351,128,86213,1,0,0:0:0:0:
351,128,86336,2,0,P|276:105|216:76,1,122.199994406128,10|2,2:2|2:2,0:0:0:0:
133,287,86828,6,0,P|164:219|311:254,1,244.399988812256,2|8,1:2|2:2,0:0:0:0:
465,310,87566,1,2,2:2:0:0:
396,45,87811,2,0,L|396:231,1,183.299991609192,2|0,1:2|0:0,0:0:0:0:
396,255,88303,1,10,2:2:0:0:
209,166,88549,6,0,P|284:145|343:120,1,122.199994406128,2|2,2:2|1:2,0:0:0:0:
133,287,89041,2,0,P|76:265|16:249,1,122.199994406128,2|10,2:2|2:2,0:0:0:0:
114,107,89533,1,2,2:2:0:0:
253,244,89779,2,0,P|274:306|249:360,1,122.199994406128,2|0,1:2|0:0,0:0:0:0:
17,249,90271,2,0,P|-4:187|21:133,1,122.199994406128,8|2,2:2|2:2,0:0:0:0:
174,69,90762,6,0,B|236:53|266:100|247:104|288:150|345:132,1,183.299991609192,2|0,1:2|0:0,0:0:0:0:
364,109,91254,1,10,2:2:0:0:
230,1,91500,1,2,2:2:0:0:
148,151,91746,2,0,B|97:168|97:168|84:187|84:187|32:204,1,122.199994406128,0|2,1:1|2:2,0:0:0:0:
253,244,92238,2,0,P|291:196|274:138,1,122.199994406128,10|2,2:2|2:2,0:0:0:0:
40,17,92730,6,0,L|40:202,1,183.299991609192,0|0,1:1|0:0,0:0:0:0:
41,234,93221,1,8,2:2:0:0:
173,73,93467,1,2,2:2:0:0:
248,226,93713,2,0,P|202:182|125:195,1,122.199994406128,2|0,1:2|0:0,0:0:0:0:
343,303,94205,2,0,P|410:299|444:251,1,122.199994406128,10|2,2:2|2:2,0:0:0:0:
348,111,94697,6,0,P|336:169|326:231,1,112.799996557617,2|2,1:2|2:2,0:0:0:0:
205,290,95189,2,0,P|216:234|225:179,1,112.799996557617,10|2,2:2|2:2,0:0:0:0:
343,303,95680,1,2,1:2:0:0:
151,353,95926,1,2,2:2:0:0:
151,353,96049,1,2,2:2:0:0:
151,353,96172,2,0,P|112:302|129:254,1,112.799996557617,10|2,2:2|2:2,0:0:0:0:
227,147,96664,6,0,B|291:124|344:181|315:187|368:231|449:205,1,225.599993115235,2|10,1:2|2:2,0:0:0:0:
359,93,97402,1,2,2:2:0:0:
254,229,97648,1,2,1:2:0:0:
426,142,97893,1,0,0:0:0:0:
426,142,98016,1,2,2:2:0:0:
426,142,98139,2,0,P|451:92|422:29,1,112.799996557617,10|2,2:2|2:2,0:0:0:0:
274,0,98631,6,0,L|274:231,1,225.599993115235,2|10,1:2|2:2,0:0:0:0:
361,330,99369,1,2,2:2:0:0:
467,246,99615,2,0,P|379:221|345:204,1,112.799996557617,2|2,1:2|2:2,0:0:0:0:
203,314,100107,2,0,P|253:282|308:270,1,112.799996557617,10|2,2:2|2:2,0:0:0:0:
288,135,100598,6,0,B|241:126|209:169|231:176|191:221|132:203,1,169.199994836426,2|0,1:2|0:0,0:0:0:0:
111,197,101090,1,10,2:2:0:0:
184,83,101336,1,2,2:2:0:0:
293,236,101582,2,0,P|322:190|295:126,1,112.799996557617,2|2,1:2|2:2,0:0:0:0:
110,79,102074,2,0,P|81:125|108:189,1,112.799996557617,10|2,2:2|2:2,0:0:0:0:
344,75,102566,6,0,P|262:41|190:142,1,225.599993115235,2|10,1:2|2:2,0:0:0:0:
375,163,103303,1,2,2:2:0:0:
212,228,103549,2,0,P|259:182|321:196,1,112.799996557617,2|2,1:2|2:2,0:0:0:0:
182,320,104041,2,0,P|127:318|91:276,1,112.799996557617,10|2,2:2|2:2,0:0:0:0:
161,159,104533,5,2,1:2:0:0:
292,260,104779,1,2,2:2:0:0:
292,260,104902,1,2,2:2:0:0:
292,260,105025,2,0,B|335:272|335:272|349:291|349:291|401:305,1,112.799996557617,10|2,2:2|2:2,0:0:0:0:
212,228,105516,2,0,B|162:224|126:266|149:269|111:304|55:291,1,169.199994836426,2|0,1:2|0:0,0:0:0:0:
35,272,106008,2,0,P|1:217|24:171,1,112.799996557617,8|2,2:2|2:2,0:0:0:0:
120,87,106500,6,0,B|184:64|237:121|208:127|261:171|342:145,1,225.599993115235,2|10,1:2|2:2,0:0:0:0:
417,50,107238,1,2,2:2:0:0:
491,163,107484,2,0,P|438:120|389:132,1,112.799996557617,2|0,1:2|0:0,0:0:0:0:
411,299,107975,2,0,P|444:238|413:200,1,112.799996557617,10|2,2:2|2:2,0:0:0:0:
314,126,108467,5,2,2:2:0:0:
251,195,108713,1,2,2:2:0:0:
322,111,108959,1,2,2:2:0:0:
178,160,109205,1,2,2:2:0:0:
344,231,109451,5,2,2:2:0:0:
341,226,109574,1,2,2:2:0:0:
338,221,109697,1,2,2:2:0:0:
335,216,109820,1,0,0:0:0:0:
333,211,109943,1,2,2:2:0:0:
254,72,110189,1,2,2:2:0:0:
171,271,110434,6,0,P|128:223|72:246,1,112.799996557617,6|2,2:2|2:2,0:0:0:0:
37,287,111172,1,2,2:2:0:0:
37,287,111418,2,0,P|44:225|49:166,1,112.799996557617,2|2,2:2|2:2,0:0:0:0:
254,30,112402,6,0,P|320:24|350:62,1,112.799996557617,2|2,0:0|2:2,0:0:0:0:
401,106,113139,1,2,2:2:0:0:
401,106,113385,2,0,P|434:94|461:84,2,56.3999982788086,0|2|2,0:0|2:2|2:2,0:0:0:0:
260,301,114369,6,0,P|286:257|357:273,1,112.799996557617,2|2,0:0|2:2,0:0:0:0:
397,308,115107,1,2,2:2:0:0:
397,308,115352,2,0,P|459:299|466:243,1,112.799996557617,2|2,2:2|2:2,0:0:0:0:
252,159,116336,6,0,P|208:174|168:187,1,84.599997418213,2|0,0:0|0:0,0:0:0:0:
156,191,116828,1,2,2:2:0:0:
93,152,117074,1,2,2:2:0:0:
130,92,117320,1,2,2:2:0:0:
130,92,117443,1,0,0:0:0:0:
130,92,117566,1,2,2:2:0:0:
264,165,117811,2,0,P|278:131|268:101,1,56.3999982788086,2|2,2:2|2:2,0:0:0:0:
171,0,118303,6,0,B|167:38|184:68|190:50|208:75|200:119,1,112.8,6|0,1:2|0:0,0:0:0:0:
161,176,118795,2,0,P|174:126|190:96,1,75.2,10|2,2:2|2:2,0:0:0:0:
226,220,119287,2,0,P|240:281|245:303,1,75.2,10|2,2:2|2:2,0:0:0:0:
155,188,119779,2,0,P|115:172|72:175,1,75.2,10|2,2:2|2:2,0:0:0:0:
250,142,120271,6,0,B|288:148|312:129|299:126|320:108|354:114,1,112.8,8|0,2:2|0:0,0:0:0:0:
371,120,120762,1,10,2:2:0:0:
290,50,121008,1,2,2:2:0:0:
412,179,121254,2,0,P|419:124|424:99,1,75.2,8|2,2:2|2:2,0:0:0:0:
498,71,121746,2,0,P|491:126|486:151,1,75.2,10|2,2:2|2:2,0:0:0:0:
504,226,122238,6,0,P|477:172|396:197,1,150.4,10|10,2:2|2:2,0:0:0:0:
342,248,122975,1,2,2:2:0:0:
402,364,123221,2,0,B|398:326|415:296|421:314|439:289|431:245,1,112.8,10|2,2:2|2:2,0:0:0:0:
400,189,123713,2,0,P|408:233|429:259,1,75.2,10|2,2:2|2:2,0:0:0:0:
314,333,124205,6,0,P|326:294|334:254,1,75.2,10|2,2:2|2:2,0:0:0:0:
253,147,124697,2,0,P|254:183|282:223,1,75.2,10|2,2:2|2:2,0:0:0:0:
187,279,125189,1,8,2:2:0:0:
326,163,125434,1,0,0:0:0:0:
326,163,125557,1,0,0:0:0:0:
326,163,125680,6,0,B|376:178|376:178|394:196|394:196|449:211,1,122.199994406128,10|2,2:2|2:2,0:0:0:0:
206,86,126172,6,0,B|160:79|132:119|156:120|121:159|66:151,1,155.100004733277,6|0,1:2|0:0,0:0:0:0:
30,146,126664,1,10,2:2:0:0:
97,41,126910,1,2,2:2:0:0:
218,181,127156,2,0,P|240:130|218:84,1,103.400003155518,0|2,1:1|2:2,0:0:0:0:
149,231,127648,2,0,P|193:268|247:264,1,103.400003155518,10|2,2:2|2:2,0:0:0:0:
151,127,128139,5,2,1:2:0:0:
64,216,128385,1,2,2:2:0:0:
64,216,128508,1,0,0:0:0:0:
64,216,128631,2,0,B|47:272|47:272|67:319,1,103.400003155518,10|2,2:2|2:2,0:0:0:0:
218,181,129123,1,0,1:1:0:0:
92,63,129369,1,2,2:2:0:0:
218,181,129615,2,0,P|283:173|305:131,1,103.400003155518,10|2,2:2|2:2,0:0:0:0:
335,15,130107,6,0,L|335:240,1,206.800006311035,2|10,1:2|2:2,0:0:0:0:
426,324,130844,1,2,2:2:0:0:
511,233,131090,2,0,P|467:191|413:199,1,103.400003155518,0|2,1:1|2:2,0:0:0:0:
242,279,131582,2,0,P|296:280|331:241,1,103.400003155518,10|2,2:2|2:2,0:0:0:0:
229,172,132074,5,0,1:1:0:0:
154,271,132320,1,2,2:2:0:0:
305,170,132566,1,10,2:2:0:0:
129,87,132811,1,0,0:0:0:0:
129,87,132934,1,0,0:0:0:0:
129,87,133057,2,0,P|147:153|156:199,1,103.400003155518,0|0,1:1|0:0,0:0:0:0:
334,240,133549,2,0,P|316:174|306:128,1,103.400003155518,10|2,2:2|2:2,0:0:0:0:
208,54,134041,6,0,B|162:47|134:87|158:88|123:128|68:119,1,155.100004733277,2|0,1:2|0:0,0:0:0:0:
29,114,134533,1,10,2:2:0:0:
104,15,134779,1,2,2:2:0:0:
212,130,135025,2,0,B|251:141|251:141|266:156|266:156|314:171,1,103.400003155518,2|2,1:2|2:2,0:0:0:0:
133,230,135516,2,0,P|99:182|123:137,1,103.400003155518,10|2,2:2|2:2,0:0:0:0:
204,46,136008,5,2,1:2:0:0:
313,172,136254,1,2,2:2:0:0:
315,0,136500,1,10,2:2:0:0:
194,146,136746,1,2,2:2:0:0:
381,80,136992,1,0,1:1:0:0:
202,30,137238,1,0,0:0:0:0:
202,30,137361,1,0,0:0:0:0:
202,30,137484,2,0,P|148:48|99:61,1,103.400003155518,10|2,2:2|2:2,0:0:0:0:
33,197,137975,6,0,B|86:184|117:218|96:228|130:257|186:240,1,155.100004733277,2|0,1:2|0:0,0:0:0:0:
217,229,138467,1,10,2:2:0:0:
300,136,138713,1,2,2:2:0:0:
396,257,138959,2,0,P|349:217|294:216,1,103.400003155518,2|0,1:2|0:0,0:0:0:0:
168,157,139451,2,0,P|223:151|261:114,1,103.400003155518,10|2,2:2|2:2,0:0:0:0:
344,18,139943,5,2,2:2:0:0:
336,26,140189,1,2,2:2:0:0:
434,73,140434,5,2,2:2:0:0:
425,65,140680,1,2,2:2:0:0:
354,138,140926,6,0,P|359:112|362:89,1,37.6,2|2,2:2|2:2,0:0:0:0:
447,213,141418,6,0,P|442:187|434:141,1,65.7999979919434,2|2,2:2|2:2,0:0:0:0:
306,275,141910,6,0,P|317:210|325:148,1,122.199994406128,6|2,1:2|2:2,0:0:0:0:
242,347,142402,1,10,2:2:0:0:
114,233,142648,1,2,2:2:0:0:
114,233,142771,1,0,0:0:0:0:
114,233,142894,2,0,P|162:192|230:199,1,122.199994406128,2|2,1:2|2:2,0:0:0:0:
69,328,143386,5,10,2:2:0:0:
218,193,143632,1,2,2:2:0:0:
68,109,143878,2,0,P|86:181|99:251,1,122.199994406128,2|2,1:2|2:2,0:0:0:0:
317,288,144369,2,0,P|298:215|286:146,1,122.199994406128,10|2,2:2|2:2,0:0:0:0:
194,0,144861,2,0,L|194:187,1,183.299991609192,2|0,1:2|0:0,0:0:0:0:
194,211,145353,1,10,2:2:0:0:
307,82,145599,1,2,2:2:0:0:
413,216,145845,6,0,P|369:175|309:173,1,122.199994406128,2|2,1:2|2:2,0:0:0:0:
401,317,146336,2,0,P|460:314|504:273,1,122.199994406128,10|2,2:2|2:2,0:0:0:0:
468,104,146828,2,0,B|416:94|380:140|400:143|361:184|307:172,1,183.299991609192,2|2,1:2|2:2,0:0:0:0:
270,153,147320,1,10,2:2:0:0:
147,33,147566,1,2,2:2:0:0:
61,181,147812,6,0,P|99:139|165:140,1,122.199994406128,2|2,1:2|2:2,0:0:0:0:
104,299,148303,2,0,P|44:299|4:256,1,122.199994406128,8|2,2:2|2:2,0:0:0:0:
63,68,148796,1,2,1:2:0:0:
219,200,149041,1,0,0:0:0:0:
219,200,149164,1,0,0:0:0:0:
219,200,149287,2,0,B|266:217|266:217|279:236|279:236|329:254,1,122.199994406128,10|2,2:2|2:2,0:0:0:0:
511,110,149779,6,0,B|457:102|419:144|438:148|398:188|337:167,1,183.299991609192,2|0,1:2|0:0,0:0:0:0:
314,146,150271,1,8,2:2:0:0:
503,215,150517,1,2,2:2:0:0:
300,0,150763,2,0,L|299:190,1,183.299991609192,2|0,1:2|0:0,0:0:0:0:
298,211,151255,1,10,2:2:0:0:
187,81,151500,1,2,2:2:0:0:
93,224,151746,6,0,P|132:179|201:180,1,122.199994406128,0|2,1:1|2:2,0:0:0:0:
36,308,152238,2,0,P|-5:265|2:206,1,122.199994406128,10|2,2:2|2:2,0:0:0:0:
99,64,152730,1,0,1:1:0:0:
210,193,152976,1,2,2:2:0:0:
210,193,153099,1,0,0:0:0:0:
210,193,153222,2,0,P|281:185|313:136,1,122.199994406128,10|0,2:2|0:0,0:0:0:0:
481,334,153714,6,0,P|441:280|334:296,1,183.299991609192,2|0,1:2|0:0,0:0:0:0:
308,317,154205,1,8,2:2:0:0:
452,202,154451,1,0,0:0:0:0:
192,156,154697,6,0,B|256:139|294:192|294:192|302:237|349:250,1,197.39999397583,2|0,1:2|0:0,0:0:0:0:
378,230,155189,1,10,2:2:0:0:
216,76,155435,1,0,0:0:0:0:
124,250,155681,6,0,B|70:266|70:266|53:287|53:287|-2:307,1,141.000005378723,2|0,1:2|0:0,0:0:0:0:
295,128,156173,2,0,B|386:171|386:171|397:227,1,141.000005378723,8|0,2:2|0:0,0:0:0:0:
257,353,156664,1,2,1:2:0:0:
101,231,156910,1,2,2:2:0:0:
101,231,157033,1,0,0:0:0:0:
101,231,157156,6,0,P|67:168|106:94,1,141.000005378723,10|2,2:2|2:2,0:0:0:0:
302,23,157648,6,0,P|333:81|297:145,1,122.199994406128,2|2,1:2|2:2,0:0:0:0:
208,264,158139,6,0,P|221:202|230:136,1,122.199994406128,10|2,2:2|2:2,0:0:0:0:
287,334,158632,1,2,1:2:0:0:
149,166,158878,1,2,2:2:0:0:
353,277,159123,1,10,2:2:0:0:
123,364,159369,6,0,P|88:310|110:249,1,122.199994406128,2|2,2:2|1:2,0:0:0:0:
314,130,159861,2,0,P|349:184|327:245,1,122.199994406128,2|10,2:2|2:2,0:0:0:0:
71,183,160353,1,2,2:2:0:0:
237,0,160599,2,0,L|237:188,1,183.299991609192,2|0,1:2|0:0,0:0:0:0:
237,221,161091,1,10,2:2:0:0:
356,69,161337,1,2,2:2:0:0:
433,220,161582,6,0,P|387:176|321:179,1,122.199994406128,0|2,1:1|2:2,0:0:0:0:
491,291,162074,2,0,P|528:230|506:180,1,122.199994406128,10|2,2:2|2:2,0:0:0:0:
365,96,162566,2,0,B|306:93|277:139|298:142|267:186|195:175,1,183.299991609192,2|2,1:2|2:2,0:0:0:0:
173,152,163058,1,10,2:2:0:0:
282,21,163303,1,2,2:2:0:0:
173,152,163550,6,0,B|90:135|90:135|64:95,1,122.199994406128,0|2,1:1|2:2,0:0:0:0:
307,259,164041,2,0,B|392:230|392:230|405:192,1,122.199994406128,10|2,2:2|2:2,0:0:0:0:
224,86,164533,1,2,1:2:0:0:
119,233,164779,1,0,0:0:0:0:
119,233,164902,1,0,0:0:0:0:
119,233,165025,2,0,P|56:214|-4:198,1,122.199994406128,10|2,2:2|2:2,0:0:0:0:
237,0,165517,6,0,L|237:205,1,183.299991609192,2|0,1:2|0:0,0:0:0:0:
236,216,166008,1,8,2:2:0:0:
132,79,166255,1,2,2:2:0:0:
302,312,166500,2,0,B|287:258|322:211|330:250|367:176|340:132,1,183.299991609192,2|0,1:2|0:0,0:0:0:0:
313,107,166992,1,10,2:2:0:0:
389,290,167238,6,0,B|439:307|439:307|453:326|453:326|509:343,1,122.199994406128,2|2,2:2|1:2,0:0:0:0:
220,205,167730,2,0,P|149:218|117:269,1,122.199994406128,2|10,2:2|2:2,0:0:0:0:
254,363,168222,1,2,2:2:0:0:
403,279,168468,2,0,P|432:218|409:161,1,122.199994406128,2|0,1:2|0:0,0:0:0:0:
238,76,168959,2,0,P|209:137|232:194,1,122.199994406128,8|2,2:2|2:2,0:0:0:0:
509,142,169451,6,0,B|449:137|419:184|438:188|397:234|340:216,1,183.299991609192,2|0,1:2|0:0,0:0:0:0:
317,203,169943,1,10,2:2:0:0:
222,60,170189,1,2,2:2:0:0:
119,190,170435,2,0,P|184:172|241:151,1,122.199994406128,0|2,1:1|2:2,0:0:0:0:
52,274,170927,2,0,P|7:225|22:159,1,122.199994406128,10|2,2:2|2:2,0:0:0:0:
266,0,171419,6,0,L|266:185,1,183.299991609192,0|0,1:1|0:0,0:0:0:0:
267,217,171910,1,8,2:2:0:0:
144,97,172156,1,2,2:2:0:0:
267,217,172402,2,0,P|324:197|385:176,1,122.199994406128,2|0,1:2|0:0,0:0:0:0:
493,307,172893,2,0,P|435:286|377:266,1,122.199994406128,10|2,2:2|2:2,0:0:0:0:
379,81,173385,6,0,P|416:139|396:184,1,112.799996557617,6|2,1:2|2:2,0:0:0:0:
312,314,173877,1,10,2:2:0:0:
198,240,174123,1,2,2:2:0:0:
198,240,174246,1,0,0:0:0:0:
198,240,174369,2,0,P|255:220|309:202,1,112.799996557617,2|2,1:2|2:2,0:0:0:0:
167,336,174861,2,0,P|113:317|60:299,1,112.799996557617,10|2,2:2|2:2,0:0:0:0:
10,173,175352,6,0,B|83:154|134:204|107:214|156:259|223:232,1,225.599993115235,2|10,1:2|2:2,0:0:0:0:
321,152,176090,1,2,2:2:0:0:
410,254,176336,1,2,1:2:0:0:
234,164,176582,1,0,0:0:0:0:
234,164,176705,1,2,2:2:0:0:
234,164,176828,2,0,B|203:112|203:112|233:52,1,112.799996557617,10|2,2:2|2:2,0:0:0:0:
391,0,177320,6,0,L|391:244,1,225.599993115235,2|10,1:2|2:2,0:0:0:0:
319,340,178057,1,2,2:2:0:0:
221,246,178303,2,0,P|271:203|326:214,1,112.799996557617,2|2,1:2|2:2,0:0:0:0:
158,321,178795,2,0,P|118:282|119:227,1,112.799996557617,10|2,2:2|2:2,0:0:0:0:
213,129,179287,6,0,B|250:129|283:154|283:154|295:177|295:177|328:210|377:202,1,169.199994836426,2|0,1:2|0:0,0:0:0:0:
386,184,179779,1,10,2:2:0:0:
289,74,180025,1,2,2:2:0:0:
386,184,180271,1,2,1:2:0:0:
470,67,180516,1,2,2:2:0:0:
470,67,180639,1,0,0:0:0:0:
470,67,180762,2,0,P|405:88|351:101,1,112.799996557617,10|2,2:2|2:2,0:0:0:0:
512,252,181254,6,0,P|475:182|341:219,1,225.599993115235,2|10,1:2|2:2,0:0:0:0:
259,308,181992,1,2,2:2:0:0:
169,206,182238,2,0,P|243:187|283:168,1,112.799996557617,2|2,1:2|2:2,0:0:0:0:
147,302,182730,2,0,P|95:280|40:267,1,112.799996557617,10|2,2:2|2:2,0:0:0:0:
14,134,183221,6,0,B|68:119|106:157|86:164|123:198|173:178,1,169.199994836426,2|2,1:2|2:2,0:0:0:0:
187,152,183713,1,10,2:2:0:0:
271,46,183959,1,2,2:2:0:0:
365,162,184205,2,0,P|316:120|265:127,1,112.799996557617,2|0,1:2|0:0,0:0:0:0:
446,226,184697,2,0,P|480:173|460:116,1,112.799996557617,8|2,2:2|2:2,0:0:0:0:
363,0,185189,6,0,L|363:180,1,169.199994836426,2|0,1:2|0:0,0:0:0:0:
362,199,185680,1,10,2:2:0:0:
470,117,185926,1,2,2:2:0:0:
362,199,186172,2,0,P|305:198|260:153,1,112.799996557617,2|0,1:2|0:0,0:0:0:0:
249,27,186664,2,0,P|306:28|351:73,1,112.799996557617,10|2,2:2|2:2,0:0:0:0:
179,173,187156,5,2,1:2:0:0:
85,75,187402,1,2,2:2:0:0:
193,185,187648,1,10,2:2:0:0:
21,140,187893,1,2,2:2:0:0:
165,27,188139,1,2,1:2:0:0:
35,229,188385,1,2,2:2:0:0:
35,229,188508,1,0,0:0:0:0:
35,229,188631,2,0,P|-6:176|20:119,1,122.199994406128,8|2,2:2|2:2,0:0:0:0:
165,27,189123,6,0,B|240:12|287:55|258:69|315:114|380:89,1,225.599993115235,4|10,1:2|2:2,0:0:0:0:
464,38,189861,1,0,0:0:0:0:
512,188,190107,2,0,P|456:170|400:161,1,112.799996557617,0|0,1:1|0:0,0:0:0:0:
330,320,190598,2,0,P|386:302|408:255,1,112.799996557617,10|2,2:2|2:2,0:0:0:0:
203,248,191090,6,0,B|122:276|122:276|107:320|107:320|7:358,1,225.599993115235,2|8,1:2|2:2,0:0:0:0:
0,245,191828,1,0,0:0:0:0:
109,125,192074,2,0,B|119:180|129:235,1,112.799996557617,0|0,1:1|0:0,0:0:0:0:
20,26,192566,2,0,B|9:81|0:136,1,112.799996557617,10|0,2:2|0:0,0:0:0:0:
129,235,193057,6,0,B|196:263|235:200|221:199|260:145|327:167,1,225.599993115235,2|8,1:2|2:2,0:0:0:0:
450,276,193795,1,0,0:0:0:0:
273,361,194041,2,0,P|289:306|308:253,1,112.799996557617,0|0,1:1|0:0,0:0:0:0:
412,124,194533,2,0,P|488:143|493:223,1,169.199994836426,10|0,2:2|0:0,0:0:0:0:
446,277,195025,6,0,P|311:234|220:216,1,225.599993115235,2|8,1:2|2:2,0:0:0:0:
79,141,195762,1,2,2:2:0:0:
148,43,196008,2,0,P|195:69|199:123,1,112.799996557617,2|2,1:2|2:2,0:0:0:0:
173,298,196500,2,0,P|125:271|121:217,1,112.799996557617,10|2,2:2|2:2,0:0:0:0:
284,8,196992,6,0,P|286:116|288:248,1,225.599993115235,2|8,1:2|2:2,0:0:0:0:
381,363,197730,1,0,0:0:0:0:
477,215,197975,1,0,1:1:0:0:
341,305,198221,1,0,0:0:0:0:
508,381,198467,2,0,P|483:250|475:204,1,169.199994836426,10|0,2:2|0:0,0:0:0:0:
512,141,198959,6,0,B|452:115|404:152|404:152|409:214|337:224,1,225.599993115235,2|8,1:2|2:2,0:0:0:0:
221,100,199697,1,0,0:0:0:0:
194,188,199943,2,0,P|249:193|292:149,1,112.799996557617,0|0,1:1|0:0,0:0:0:0:
332,0,200434,2,0,P|280:15|216:38,1,112.799996557617,10|0,2:2|0:0,0:0:0:0:
30,33,200926,6,0,B|112:56|112:56|123:98|123:98|226:140,1,225.599993115235,2|8,1:2|2:2,0:0:0:0:
97,241,201664,1,2,2:2:0:0:
236,312,201910,1,2,1:2:0:0:
83,238,202156,1,2,2:2:0:0:
52,378,202402,2,0,P|102:354|168:332,1,112.799996557617,10|0,2:2|0:0,0:0:0:0:
347,216,202893,5,2,1:2:0:0:
241,117,203139,6,0,P|226:146|232:189,1,56.3999982788086,2|0,2:2|0:0,0:0:0:0:
309,300,203385,6,0,P|294:275|271:260,1,56.3999982788086,10|0,2:2|0:0,0:0:0:0:
116,262,203631,6,0,P|143:261|169:249,1,56.3999982788086,2|0,2:2|0:0,0:0:0:0:
295,191,203877,6,0,P|318:176|332:152,1,56.3999982788086,2|0,1:2|0:0,0:0:0:0:
157,178,204123,6,0,P|131:166|104:166,1,56.3999982788086,2|0,2:2|0:0,0:0:0:0:
222,304,204369,6,0,P|224:332|238:357,1,56.3999982788086,10|0,2:2|0:0,0:0:0:0:
367,296,204615,6,0,P|383:284|364:291,1,56.3999982788086,2|0,2:2|0:0,0:0:0:0:
312,383,204861,6,0,P|406:327|512:356,1,225.599993115235,6|8,1:2|2:2,0:0:0:0:
437,225,205598,1,2,2:2:0:0:
510,162,205844,2,0,P|490:233|457:359,1,188,2|10,1:2|2:2,0:0:0:0:
348,384,206582,1,2,2:2:0:0:
348,384,206705,1,2,2:2:0:0:
348,384,206828,1,2,1:2:0:0:
234,272,207074,6,0,P|215:313|235:354,1,94,2|10,2:2|2:2,0:0:0:0:
370,288,207566,2,0,P|389:246|369:205,1,94,2|0,2:2|1:1,0:0:0:0:
259,149,208057,2,0,P|206:163|167:180,1,94,2|8,2:2|2:2,0:0:0:0:
77,119,208549,1,2,2:2:0:0:
180,45,208795,6,0,P|159:122|129:237,1,188,0|10,1:1|2:2,0:0:0:0:
67,371,209533,1,0,0:0:0:0:
0,305,209779,2,0,P|40:275|93:281,1,94,0|0,1:1|0:0,0:0:0:0:
208,308,210271,1,10,2:2:0:0:
113,373,210516,5,2,2:2:0:0:
113,373,210639,1,0,0:0:0:0:
113,373,210762,2,0,P|137:253|155:176,2,188,0|10|2,1:1|2:2|1:2,0:0:0:0:
23,284,211992,1,2,2:2:0:0:
23,284,212238,2,0,P|13:229|-7:182,1,94,10|2,2:2|2:2,0:0:0:0:
0,43,212730,6,0,B|101:36|61:97|168:112,1,188,2|10,1:2|2:2,0:0:0:0:
361,75,213467,2,0,P|313:0|227:18,1,188,2|0,2:2|0:0,0:0:0:0:
167,111,214205,1,10,2:2:0:0:
238,219,214451,5,2,2:2:0:0:
238,219,214574,1,2,2:2:0:0:
238,219,214697,1,2,1:2:0:0:
356,131,214943,1,2,2:2:0:0:
411,260,215189,1,10,2:2:0:0:
282,155,215434,6,0,P|240:134|187:113,1,94,2|0,2:2|1:1,0:0:0:0:
103,178,215926,1,2,2:2:0:0:
175,280,216172,1,10,2:2:0:0:
87,352,216418,1,2,2:2:0:0:
215,207,216664,6,0,B|252:179|286:195|286:195|292:234|354:252,1,141,2|0,1:2|0:0,0:0:0:0:
356,244,217156,1,10,2:2:0:0:
512,195,217402,2,0,P|457:129|353:156,1,188,2|2,2:2|2:2,0:0:0:0:
256,226,218139,1,10,2:2:0:0:
201,151,218385,1,2,2:2:0:0:
306,304,218631,6,0,P|405:281|420:203,2,188,2|10|2,1:2|2:2|1:2,0:0:0:0:
152,254,219861,1,2,2:2:0:0:
237,193,220107,1,10,2:2:0:0:
140,264,220352,1,2,2:2:0:0:
306,125,220598,6,0,P|291:196|275:303,1,141,2|0,1:2|0:0,0:0:0:0:
275,283,221090,1,10,2:2:0:0:
111,384,221336,6,0,B|56:309|56:309|121:230,1,188,2|2,2:2|2:2,0:0:0:0:
233,153,222074,1,10,2:2:0:0:
154,76,222320,1,2,2:2:0:0:
225,13,222566,2,0,P|199:108|176:208,1,188,2|8,1:2|2:2,0:0:0:0:
166,316,223303,1,2,2:2:0:0:
59,253,223549,5,0,1:1:0:0:
72,223,223672,1,2,2:2:0:0:
95,212,223795,1,2,2:2:0:0:
248,214,224041,1,10,2:2:0:0:
235,244,224164,1,2,2:2:0:0:
212,255,224287,1,2,2:2:0:0:
171,125,224533,6,0,P|144:87|151:42,1,94,2|2,1:2|2:2,0:0:0:0:
339,168,225025,6,0,P|384:163|420:192,1,94,10|2,2:2|2:2,0:0:0:0:
225,305,225516,6,0,P|205:346|162:363,1,94,2|2,1:2|2:2,0:0:0:0:
60,315,226008,5,10,2:2:0:0:
0,361,226254,5,2,2:2:0:0:
382,157,241254,5,2,2:2:0:0:
321,229,241500,5,2,2:2:0:0:
410,247,241746,5,2,2:2:0:0:
404,12,241992,5,2,2:2:0:0:
387,26,242115,1,2,2:2:0:0:
369,45,242238,2,0,P|302:20|231:4,1,122.199994406128,6|2,1:2|2:2,0:0:0:0:
112,118,242729,1,10,2:2:0:0:
233,207,242975,1,2,2:2:0:0:
276,226,243098,1,0,0:0:0:0:
312,200,243221,2,0,L|283:81,1,122.199994406128,2|2,1:2|2:2,0:0:0:0:
149,0,243713,5,10,2:2:0:0:
0,116,243959,1,2,2:2:0:0:
213,158,244205,2,0,P|172:114|113:117,1,122.199994406128,2|2,1:2|2:2,0:0:0:0:
0,283,244697,2,0,P|36:234|122:239,1,122.199994406128,10|2,2:2|2:2,0:0:0:0:
264,319,245189,2,0,B|203:295|176:343|187:340|158:388|94:373,1,183.299991609192,2|0,1:2|0:0,0:0:0:0:
36,346,245680,1,10,2:2:0:0:
173,201,245926,1,2,2:2:0:0:
337,341,246172,6,0,P|267:348|229:398,1,122.199994406128,2|2,1:2|2:2,0:0:0:0:
372,224,246664,2,0,P|410:266|476:273,1,122.199994406128,10|2,2:2|2:2,0:0:0:0:
292,117,247156,2,0,P|258:178|197:194,1,122.199994406128,2|0,1:2|0:0,0:0:0:0:
197,193,247525,1,2,2:2:0:0:
187,191,247647,1,10,2:2:0:0:
89,88,247893,1,2,2:2:0:0:
256,8,248139,6,0,P|308:26|388:52,1,122.199994406128,2|2,1:2|2:2,0:0:0:0:
473,180,248631,2,0,P|519:97|495:62,1,122.199994406128,8|2,2:2|2:2,0:0:0:0:
358,211,249123,1,2,1:2:0:0:
238,135,249368,1,0,0:0:0:0:
219,117,249492,1,0,0:0:0:0:
204,100,249614,2,0,B|239:48|239:48|311:54,1,122.199994406128,10|2,2:2|2:2,0:0:0:0:
512,300,250107,6,0,P|418:323|315:371,1,183.299991609192,2|0,1:2|0:0,0:0:0:0:
271,384,250598,1,8,2:2:0:0:
135,256,250844,1,2,2:2:0:0:
24,384,251090,6,0,P|103:356|226:318,1,183.299991609192,2|0,1:2|0:0,0:0:0:0:
272,303,251582,1,10,2:2:0:0:
403,174,251827,1,2,2:2:0:0:
194,168,252074,6,0,P|184:103|161:43,1,122.199994406128,0|2,1:1|2:2,0:0:0:0:
347,215,252566,2,0,P|357:150|380:90,1,122.199994406128,10|2,2:2|2:2,0:0:0:0:
200,234,253057,1,0,1:1:0:0:
343,300,253303,1,2,2:2:0:0:
358,316,253426,1,0,0:0:0:0:
364,334,253549,2,0,P|314:379|253:367,1,122.199994406128,10|0,2:2|0:0,0:0:0:0:
0,263,254041,6,0,B|60:235|85:285|73:282|99:335|164:313,1,183.299991609192,2|0,1:2|0:0,0:0:0:0:
232,261,254532,1,8,2:2:0:0:
61,141,254778,1,0,0:0:0:0:
170,19,255025,2,0,P|169:100|170:202,1,183.299991609192,2|0,1:2|0:0,0:0:0:0:
232,261,255516,1,10,2:2:0:0:
361,133,255762,1,0,0:0:0:0:
477,333,256008,6,0,P|415:307|358:296,1,122.199994406128,2|0,1:2|0:0,0:0:0:0:
170,202,256500,2,0,P|229:189|285:165,1,122.199994406128,8|0,2:2|0:0,0:0:0:0:
435,10,256991,1,2,1:2:0:0:
509,146,257237,1,2,2:2:0:0:
512,165,257360,1,0,0:0:0:0:
512,181,257483,2,0,P|444:140|391:152,1,122.199994406128,10|2,2:2|2:2,0:0:0:0:
214,178,257975,6,0,P|171:124|196:61,1,122.199994406128,2|2,1:2|2:2,0:0:0:0:
326,251,258467,2,0,P|272:293|209:268,1,122.199994406128,10|2,2:2|2:2,0:0:0:0:
52,203,258959,1,2,1:2:0:0:
245,114,259205,1,2,2:2:0:0:
148,274,259450,1,10,2:2:0:0:
1,60,259697,6,0,B|49:73|49:73|61:86|61:86|116:108,1,122.199994406128,2|2,2:2|1:2,0:0:0:0:
304,58,260189,2,0,B|266:12|266:12|203:15,1,122.199994406128,2|10,2:2|2:2,0:0:0:0:
91,136,260680,1,2,2:2:0:0:
271,266,260926,6,0,P|351:261|369:169,1,183.299991609192,2|0,1:2|0:0,0:0:0:0:
321,126,261418,1,10,2:2:0:0:
198,275,261664,1,2,2:2:0:0:
367,381,261910,6,0,P|430:363|498:350,1,122.199994406128,0|2,1:1|2:2,0:0:0:0:
340,216,262402,2,0,P|280:203|221:186,1,122.199994406128,10|2,2:2|2:2,0:0:0:0:
54,31,262893,2,0,B|93:1|138:6|138:6|145:58|228:73,1,183.299991609192,2|2,1:2|2:2,0:0:0:0:
270,27,263385,1,10,2:2:0:0:
390,181,263631,1,2,2:2:0:0:
294,250,263877,6,0,B|253:198|253:198|275:146,1,122.199994406128,0|2,1:1|2:2,0:0:0:0:
451,82,264369,2,0,B|492:134|492:134|470:186,1,122.199994406128,10|2,2:2|2:2,0:0:0:0:
325,62,264860,1,2,1:2:0:0:
178,204,265106,1,2,2:2:0:0:
201,234,265230,1,0,0:0:0:0:
233,245,265352,2,0,P|274:202|257:140,1,122.199994406128,10|2,2:2|2:2,0:0:0:0:
44,8,265844,6,0,P|43:104|43:265,1,244.399988812256,2|8,1:2|2:2,0:0:0:0:
195,374,266582,1,2,2:2:0:0:
261,250,266828,2,0,B|190:269|190:269|179:298|179:298|89:329,1,183.299991609192,2|0,1:2|0:0,0:0:0:0:
41,295,267319,1,10,2:2:0:0:
263,334,267566,6,0,P|319:345|380:371,1,122.199994406128,2|2,2:2|1:2,0:0:0:0:
511,250,268057,2,0,P|455:239|394:213,1,122.199994406128,2|10,2:2|2:2,0:0:0:0:
254,77,268549,1,2,2:2:0:0:
363,13,268795,2,0,P|343:63|320:138,1,122.199994406128,2|0,1:2|0:0,0:0:0:0:
186,258,269287,2,0,P|138:234|131:168,1,122.199994406128,8|2,2:2|2:2,0:0:0:0:
303,207,269779,6,0,P|390:235|476:266,1,183.299991609192,2|0,1:2|0:0,0:0:0:0:
512,326,270270,1,10,2:2:0:0:
419,168,270516,1,2,2:2:0:0:
297,289,270762,2,0,P|237:308|177:332,1,122.199994406128,0|2,1:1|2:2,0:0:0:0:
51,375,271254,1,10,2:2:0:0:
162,246,271500,1,2,2:2:0:0:
63,97,271746,6,0,P|10:128|40:252,1,183.299991609192,0|0,1:1|0:0,0:0:0:0:
80,283,272237,1,8,2:2:0:0:
241,151,272483,1,2,2:2:0:0:
283,258,272730,2,0,P|217:236|161:223,1,122.199994406128,2|0,1:2|0:0,0:0:0:0:
270,85,273098,1,2,2:2:0:0:
282,84,273221,2,0,P|348:106|404:119,1,122.199994406128,10|2,2:2|2:2,0:0:0:0:
446,384,273713,6,0,P|432:300|417:217,1,169.199994836426,6|0,1:2|0:0,0:0:0:0:
471,155,274205,2,0,P|492:104|467:56,1,112.799996557617,10|2,2:2|2:2,0:0:0:0:
334,1,274696,1,2,1:2:0:0:
275,126,274942,1,2,2:2:0:0:
275,126,275065,1,2,2:2:0:0:
275,126,275188,2,0,P|313:95|380:107,1,112.799996557617,10|2,2:2|2:2,0:0:0:0:
281,217,275680,6,0,B|222:223|200:181|213:181|189:139|113:167,1,169.199994836426,2|0,1:2|0:0,0:0:0:0:
66,197,276172,2,0,P|95:236|157:232,1,112.799996557617,10|2,2:2|2:2,0:0:0:0:
268,130,276664,1,2,1:2:0:0:
158,33,276909,1,0,0:0:0:0:
158,33,277032,1,2,2:2:0:0:
158,33,277155,2,0,P|108:8|56:24,1,112.799996557617,10|2,2:2|2:2,0:0:0:0:
0,236,277647,6,0,P|106:199|226:173,1,225.599993115235,2|10,1:2|2:2,0:0:0:0:
362,74,278385,1,2,2:2:0:0:
244,34,278631,2,0,P|262:80|283:147,1,112.799996557617,2|2,1:2|2:2,0:0:0:0:
226,307,279123,2,0,P|176:281|158:230,1,112.799996557617,10|2,2:2|2:2,0:0:0:0:
352,224,279615,6,0,P|428:195|490:246,1,169.199994836426,2|0,1:2|0:0,0:0:0:0:
512,315,280106,1,10,2:2:0:0:
353,384,280352,1,2,2:2:0:0:
315,264,280598,2,0,P|366:275|430:289,1,112.799996557617,2|2,1:2|2:2,0:0:0:0:
244,356,281090,2,0,P|193:367|129:381,1,112.799996557617,10|2,2:2|2:2,0:0:0:0:
0,207,281582,6,0,B|75:187|140:169|140:169|98:201|78:246,1,225.599993115235,2|10,1:2|2:2,0:0:0:0:
15,343,282319,1,2,2:2:0:0:
158,292,282566,2,0,P|211:307|267:330,1,112.799996557617,2|2,1:2|2:2,0:0:0:0:
418,289,283057,2,0,P|423:343|387:384,1,112.799996557617,10|2,2:2|2:2,0:0:0:0:
248,209,283549,5,2,1:2:0:0:
388,166,283795,1,2,2:2:0:0:
388,166,283918,1,2,2:2:0:0:
388,166,284041,2,0,P|353:115|291:107,1,112.799996557617,10|2,2:2|2:2,0:0:0:0:
126,210,284533,2,0,P|179:194|208:148,1,112.799996557617,2|0,1:2|0:0,0:0:0:0:
156,36,285025,1,8,2:2:0:0:
0,148,285271,1,2,2:2:0:0:
0,19,285516,6,0,P|98:51|217:89,1,225.599993115235,2|10,1:2|2:2,0:0:0:0:
375,147,286254,1,2,2:2:0:0:
277,265,286500,2,0,P|262:204|245:150,1,112.799996557617,2|0,1:2|0:0,0:0:0:0:
413,265,286992,2,0,P|460:293|512:277,1,112.799996557617,10|2,2:2|2:2,0:0:0:0:
247,156,287484,6,0,B|191:118|138:147|138:147|133:206|73:229,1,225.599993115235,2|10,1:2|2:2,0:0:0:0:
205,324,288221,1,2,2:2:0:0:
104,380,288467,2,0,P|86:319|124:272,1,112.799996557617,2|2,1:2|2:2,0:0:0:0:
269,209,288959,2,0,P|323:225|377:240,1,112.799996557617,8|2,2:2|2:2,0:0:0:0:
512,36,289451,6,0,B|440:51|440:51|426:81|426:81|364:99,1,169.199994836426,4|0,1:2|0:0,0:0:0:0:
300,138,289943,1,10,2:2:0:0:
202,22,290189,1,2,2:2:0:0:
121,130,290434,2,0,P|176:110|234:96,1,112.799996557617,2|0,1:2|0:0,0:0:0:0:
344,232,290926,2,0,P|289:212|231:198,1,112.799996557617,10|2,2:2|2:2,0:0:0:0:
0,332,291418,6,0,P|104:305|176:384,1,225.599993115235,2|10,1:2|2:2,0:0:0:0:
319,284,292156,1,2,2:2:0:0:
202,214,292402,2,0,P|220:263|241:332,1,112.799996557617,2|0,1:2|0:0,0:0:0:0:
401,169,292893,2,0,P|383:218|362:287,1,112.799996557617,10|2,2:2|2:2,0:0:0:0:
476,378,293385,6,0,P|391:317|296:366,1,206.800006311035,2|8,1:2|2:2,0:0:0:0:
198,283,294123,1,2,2:2:0:0:
291,202,294369,2,0,P|343:215|402:239,1,103.400003155518,2|0,1:2|0:0,0:0:0:0:
286,93,294861,2,0,P|234:106|175:130,1,103.400003155518,10|2,2:2|2:2,0:0:0:0:
54,270,295352,6,0,B|119:246|179:230|179:230|142:258|123:307,1,206.800006311035,2|8,1:2|2:2,0:0:0:0:
43,177,296090,1,2,2:2:0:0:
145,78,296336,2,0,P|208:94|250:109,1,103.400003155518,2|0,1:2|0:0,0:0:0:0:
353,216,296828,2,0,P|386:177|375:124,1,103.400003155518,8|2,2:2|2:2,0:0:0:0:
256,192,297320,5,2,1:2:0:0:
256,192,297443,12,2,305189,0:0:0:0:
