osu file format v14

[General]
AudioFilename: Kimi no uta.mp3
AudioLeadIn: 0
PreviewTime: 64063
Countdown: 0
SampleSet: Soft
StackLeniency: 0.7
Mode: 0
LetterboxInBreaks: 0
WidescreenStoryboard: 0

[Editor]
Bookmarks: 16300,51826,62879,64458
DistanceSpacing: 1
BeatDivisor: 4
GridSize: 4
TimelineZoom: 1.5

[Metadata]
Title:Kimi no Uta TV ver.
TitleUnicode:きみのうた TV ver.
Artist:Yasuda Rei
ArtistUnicode:安田レイ
Creator:[ Abhor ]
Version:Normal
Source:夏目友人帳 陸
Tags:ending ed natsume yuujinchou roku tv size [Kamiya] TVアニメ
BeatmapID:1290069
BeatmapSetID:610059

[Difficulty]
HPDrainRate:4
CircleSize:3
OverallDifficulty:3
ApproachRate:4
SliderMultiplier:2.2
SliderTickRate:1

[Events]
//Background and Video events
0,0,"ed6.jpg",0,0
Video,-120,"ed6.avi"
//Break Periods
//Storyboard Layer 0 (Background)
//Storyboard Layer 1 (Fail)
//Storyboard Layer 2 (Pass)
//Storyboard Layer 3 (Foreground)
//Storyboard Sound Samples

[TimingPoints]
10774,789.473684210526,4,2,1,30,1,0
36037,-100,4,2,2,40,0,0
47089,-100,4,2,1,45,0,0
47879,-100,4,2,2,45,0,0
48076,-100,4,2,3,45,0,0
48668,-100,4,2,1,55,0,0
50445,-100,4,2,2,55,0,0
51826,-100,4,2,3,55,0,0
52221,-100,4,2,1,55,0,0
54984,-100,4,2,2,45,0,0
57747,-100,4,2,3,45,0,0
58142,-100,4,2,2,45,0,0
59721,-100,4,2,1,45,0,0
61300,-100,4,2,1,55,0,0
61695,-100,4,2,1,60,0,0
62089,-100,4,2,1,65,0,0
62484,-100,4,2,1,70,0,0
62879,-100,4,2,1,45,0,0
63405,-100,4,3,0,55,0,0
64063,-100,4,2,1,65,0,0
64458,-100,4,2,1,65,0,1
70181,-100,4,2,2,65,0,1
70773,-100,4,2,1,65,0,1
78668,-100,4,2,2,65,0,1
79458,-100,4,2,1,65,0,1
88668,-100,4,3,0,65,0,1
89721,-100,4,2,1,30,0,0
94458,909.090909090909,4,2,1,30,1,0
99458,-100,4,2,1,5,0,0

[Colours]
Combo1 : 250,145,122
Combo2 : 164,187,255
Combo3 : 145,219,255
Combo4 : 223,184,145

[HitObjects]
426,114,10774,6,0,B|345:108|345:108|309:176|211:161,1,220,4|0,0:3|0:0,0:0:0:0:
253,56,11958,1,0,0:0:0:0:
150,94,12352,2,0,P|124:147|134:207,1,110,2|0,0:0|0:0,0:0:0:0:
227,246,13142,2,0,P|241:302|228:355,1,110,0|0,0:0|0:0,0:0:0:0:
131,302,13931,6,0,B|181:294|240:311|240:311|297:331|358:306,1,220,2|0,0:0|0:0,0:0:0:0:
404,215,15116,1,0,0:0:0:0:
443,110,15510,2,0,P|339:125|294:221,1,220,2|0,0:0|0:0,0:0:0:0:
101,327,17089,6,0,B|123:270|97:201|97:201|139:219|188:199,1,220,4|0,0:3|0:0,0:0:0:0:
139,99,18274,1,0,0:0:0:0:
51,33,18668,2,0,P|30:88|38:137,1,110,2|0,0:0|0:0,0:0:0:0:
139,99,19458,2,0,L|265:86,1,110,0|0,0:0|0:0,0:0:0:0:
353,54,20247,6,0,B|370:115|332:161|332:161|396:151|435:199,1,220,2|0,0:0|0:0,0:0:0:0:
351,269,21431,1,0,0:0:0:0:
450,315,21826,2,0,P|357:373|261:328,1,220,2|0,0:0|0:0,0:0:0:0:
67,232,23405,6,0,B|119:245|119:245|177:228,1,110,4|0,0:3|0:0,0:0:0:0:
118,133,24195,2,0,P|107:81|131:17,1,110,0|0,0:0|0:0,0:0:0:0:
217,85,24984,2,0,B|286:72|321:116|321:116|364:68|442:84,1,220,0|0,0:0|0:0,0:0:0:0:
400,189,26168,1,0,0:0:0:0:
473,270,26563,6,0,P|422:297|368:293,1,110,2|0,0:0|0:0,0:0:0:0:
267,255,27352,2,0,P|212:241|157:263,1,110,0|0,0:0|0:0,0:0:0:0:
93,343,28142,2,0,P|113:267|89:120,1,220,0|0,0:0|0:0,0:0:0:0:
305,71,29721,6,0,P|290:184|325:297,1,220,4|0,0:3|0:0,0:0:0:0:
418,330,30905,1,0,0:0:0:0:
391,223,31300,2,0,P|379:172|389:108,1,110,2|0,0:0|0:0,0:0:0:0:
491,146,32089,2,0,P|503:197|493:261,1,110,0|0,0:0|0:0,0:0:0:0:
418,330,32879,6,0,B|377:313|329:316|329:316|281:363|202:333,1,220,2|0,0:0|0:0,0:0:0:0:
232,116,34458,2,0,B|218:186|251:248|251:248|210:227|166:249,1,220,2|0,0:0|0:0,0:0:0:0:
32,75,36037,6,0,B|82:46|150:53|150:53|118:96|135:151,1,220,4|8,0:0|0:0,0:0:0:0:
240,118,37221,1,0,0:0:0:0:
320,43,37616,2,0,L|433:37,1,110,8|2,0:0|0:0,0:0:0:0:
443,148,38405,2,0,L|329:155,1,110,8|0,0:1|0:0,0:0:0:0:
277,249,39195,6,0,P|289:302|330:348,1,110,4|0,0:0|0:0,0:0:0:0:
434,344,39984,2,0,P|469:302|481:249,1,110,8|0,0:0|0:0,0:0:0:0:
431,150,40773,2,0,P|375:138|305:159,2,110,8|2|8,0:0|0:0|0:1,0:0:0:0:
211,159,42352,6,0,B|154:177|102:165|102:165|112:209|112:209|105:244|105:244|110:286,1,220,4|8,0:0|0:0,0:0:0:0:
207,320,43537,1,0,0:0:0:0:
289,247,43931,2,0,P|343:265|395:249,1,110,8|2,0:0|0:0,0:0:0:0:
451,157,44721,2,0,L|461:39,1,110,8|0,0:1|0:0,0:0:0:0:
350,42,45510,6,0,L|341:156,1,110,4|0,0:2|0:0,0:0:0:0:
231,154,46300,2,0,L|240:39,1,110,8|0,0:0|0:0,0:0:0:0:
129,45,47089,2,0,P|74:32|19:49,1,110,2|0,0:0|3:0,0:0:0:0:
76,143,47879,2,0,L|67:208,2,55,8|2|2,1:0|0:0|0:0,0:0:0:0:
186,139,48668,6,0,P|177:205|205:264,1,110,4|0,0:0|0:0,0:0:0:0:
285,187,49458,2,0,P|333:204|396:192,1,110,8|0,0:0|0:0,0:0:0:0:
446,100,50247,2,0,L|453:35,2,55,2|2|0,0:0|0:0|0:0,0:0:0:0:
390,194,51037,2,0,B|405:254|405:254|393:319,1,110,8|0,0:1|0:0,0:0:0:0:
292,337,51826,5,2,0:0:0:0:
201,273,52221,1,2,0:0:0:0:
113,340,52616,1,2,0:0:0:0:
24,275,53010,2,0,B|14:141|14:141|33:86|76:77,1,220,4|4,0:0|0:0,0:0:0:0:
121,175,54195,2,0,L|184:169,2,55,8|0|0,0:0|0:0|3:0,0:0:0:0:
163,73,54984,6,0,L|290:64,1,110,4|0,0:0|0:0,0:0:0:0:
382,55,55773,2,0,P|367:112|379:165,1,110,8|0,0:0|0:0,0:0:0:0:
465,227,56563,2,0,P|362:221|299:312,1,220,8|8,0:0|0:0,0:0:0:0:
408,322,57747,1,2,0:0:0:0:
299,308,58142,6,0,P|245:324|172:322,1,110,4|0,0:0|0:0,0:0:0:0:
87,296,58931,2,0,L|102:171,1,110,8|10,0:0|0:0,0:0:0:0:
54,86,59721,2,0,B|99:68|161:93|161:93|212:115|268:103|268:103|322:86|382:110,1,330,4|0,0:3|0:0,0:0:0:0:
314,198,61300,5,0,1:0:0:0:
423,207,61695,1,0,1:0:0:0:
411,316,62089,1,0,1:0:0:0:
301,304,62484,1,0,1:0:0:0:
212,238,62879,2,0,B|130:276|57:239|57:239|57:160,1,220,2|8,0:0|0:0,0:0:0:0:
64,70,64063,1,0,0:0:0:0:
173,63,64458,6,0,P|227:48|285:69,2,110,4|0|8,0:0|0:0|0:0,0:0:0:0:
225,159,65642,2,0,P|230:189|248:217,1,55,0|0,0:0|0:0,0:0:0:0:
279,250,66037,2,0,P|318:282|394:290,2,110,2|2|8,0:0|0:0|0:0,0:0:0:0:
365,182,67221,2,0,L|374:118,1,55,0|0,0:0|0:0,0:0:0:0:
417,94,67616,6,0,P|455:144|463:204,1,110,4|0,0:0|0:0,0:0:0:0:
429,293,68405,2,0,P|370:283|302:300,1,110,8|0,0:0|0:0,0:0:0:0:
214,319,69195,2,0,B|160:331|160:331|93:315,1,110,2|2,0:0|0:0,0:0:0:0:
73,274,69787,1,0,0:0:0:0:
60,220,69984,2,0,L|53:155,2,55,8|0|0,0:0|3:0|3:0,0:0:0:0:
169,211,70773,6,0,P|160:153|188:97,2,110,4|0|8,0:0|0:0|0:0,0:0:0:0:
271,170,71958,2,0,P|299:174|332:174,1,55,0|0,0:0|0:0,0:0:0:0:
380,167,72352,2,0,P|396:223|373:283,1,110,2|2,0:0|0:0,0:0:0:0:
286,327,73142,2,0,P|231:344|176:332,1,110,8|0,0:0|0:0,0:0:0:0:
129,313,73734,1,0,0:0:0:0:
80,287,73931,6,0,L|72:167,1,110,4|0,0:0|0:0,0:0:0:0:
59,67,74721,2,0,B|90:82|90:82|178:68,1,110,8|0,0:0|0:0,0:0:0:0:
273,54,75510,1,2,0:0:0:0:
237,158,75905,1,2,0:0:0:0:
343,131,76300,2,0,L|412:126,2,55,2|0|2,3:0|3:0|0:0,0:0:0:0:
313,236,77089,6,0,B|423:227|423:227|473:269|464:329,1,220,4|8,0:0|0:0,0:0:0:0:
354,320,78273,1,0,0:0:0:0:
244,307,78668,2,0,P|219:257|224:192,1,110,2|2,0:0|0:0,0:0:0:0:
296,124,79458,2,0,P|247:96|187:100,1,110,4|0,0:0|0:0,0:0:0:0:
115,173,80247,5,4,0:0:0:0:
115,283,80642,2,0,L|181:289,1,55,2|0,0:0|0:0,0:0:0:0:
213,321,81037,2,0,P|260:333|341:324,1,110,8|2,0:0|0:0,0:0:0:0:
373,313,81629,1,0,0:0:0:0:
404,268,81826,2,0,L|415:200,2,55,8|0|8,0:0|0:0|0:0,0:0:0:0:
309,211,82616,1,8,0:0:0:0:
309,211,82813,2,0,P|301:123|234:71,1,165,4|2,0:0|0:0,0:0:0:0:
62,195,84195,6,0,P|118:203|170:185,1,110,8|0,0:0|0:0,0:0:0:0:
158,76,84984,2,0,P|102:66|51:85,1,110,2|2,0:0|0:0,0:0:0:0:
62,195,85773,2,0,L|57:323,1,110,8|0,0:0|0:0,0:0:0:0:
56,360,86366,1,0,0:0:0:0:
56,360,86563,5,0,1:0:0:0:
153,308,86958,1,0,1:0:0:0:
260,288,87352,1,0,1:0:0:0:
369,299,87747,1,0,1:0:0:0:
464,353,88142,2,0,L|473:230,1,110,4|0,0:0|0:0,0:0:0:0:
374,192,88931,2,0,P|351:128|369:73,1,110,0|0,1:0|1:0,0:0:0:0:
449,24,89721,6,0,P|366:52|220:37,1,220,4|2,0:3|0:0,0:0:0:0:
30,122,91300,1,2,0:0:0:0:
117,323,92089,2,0,P|104:272|118:212,1,110,2|0,0:0|0:0,0:0:0:0:
212,269,92879,6,0,B|255:277|255:277|337:266,1,110,2|0,0:0|0:0,0:0:0:0:
371,170,93668,2,0,P|353:278|435:342,1,220,2|0,0:0|0:0,0:0:0:0:
457,117,95367,1,0,0:0:0:0:
256,192,95821,12,0,99458,0:0:0:0:
