osu file format v14

[General]
AudioFilename: Kimi no uta.mp3
AudioLeadIn: 0
PreviewTime: 64063
Countdown: 0
SampleSet: Soft
StackLeniency: 0.7
Mode: 0
LetterboxInBreaks: 0
WidescreenStoryboard: 0

[Editor]
Bookmarks: 16300,51826,62879,64458
DistanceSpacing: 1.2
BeatDivisor: 4
GridSize: 4
TimelineZoom: 1.5

[Metadata]
Title:Kimi no Uta TV ver.
TitleUnicode:きみのうた TV ver.
Artist:Yasuda Rei
ArtistUnicode:安田レイ
Creator:[ Abhor ]
Version:Kamiya's Hard
Source:夏目友人帳 陸
Tags:ending ed natsume yuujinchou roku tv size [Kamiya] TVアニメ
BeatmapID:1290040
BeatmapSetID:610059

[Difficulty]
HPDrainRate:5
CircleSize:4
OverallDifficulty:6.3
ApproachRate:7
SliderMultiplier:2.5
SliderTickRate:1

[Events]
//Background and Video events
0,0,"ed6.jpg",0,0
Video,-120,"ed6.avi"
//Break Periods
//Storyboard Layer 0 (Background)
//Storyboard Layer 1 (Fail)
//Storyboard Layer 2 (Pass)
//Storyboard Layer 3 (Foreground)
//Storyboard Sound Samples

[TimingPoints]
10774,789.473684210526,4,2,1,30,1,0
36037,-100,4,2,2,40,0,0
47089,-100,4,2,1,45,0,0
47879,-100,4,2,2,45,0,0
48076,-100,4,2,3,45,0,0
48668,-100,4,2,1,55,0,0
50445,-100,4,2,2,55,0,0
51826,-100,4,2,3,55,0,0
52221,-100,4,2,1,55,0,0
54984,-125,4,2,2,45,0,0
57747,-100,4,2,3,45,0,0
58142,-125,4,2,2,45,0,0
59721,-133.333333333333,4,2,1,45,0,0
61300,-100,4,2,1,55,0,0
61695,-100,4,2,1,60,0,0
62089,-100,4,2,1,65,0,0
62484,-100,4,2,1,70,0,0
62879,-100,4,2,1,45,0,0
63405,-100,4,3,0,55,0,0
64063,-100,4,2,1,65,0,0
64458,-83.3333333333333,4,2,1,65,0,1
70181,-83.3333333333333,4,2,2,65,0,1
70773,-83.3333333333333,4,2,1,65,0,1
78668,-83.3333333333333,4,2,2,65,0,1
79458,-83.3333333333333,4,2,1,65,0,1
82813,-166.666666666667,4,2,1,65,0,1
83405,-83.3333333333333,4,2,1,65,0,1
88668,-83.3333333333333,4,3,0,65,0,1
89721,-100,4,2,1,30,0,0
94458,909.090909090909,4,2,1,30,1,0
99458,-100,4,2,1,5,0,0

[Colours]
Combo1 : 250,145,122
Combo2 : 164,187,255
Combo3 : 145,219,255
Combo4 : 223,184,145

[HitObjects]
256,188,10774,6,0,P|312:208|376:188,1,125,4|0,0:3|0:0,0:0:0:0:
316,52,11563,1,0,0:0:0:0:
168,76,11958,1,0,0:0:0:0:
168,76,12352,2,0,L|184:204,1,125,2|0,0:0|0:0,0:0:0:0:
180,352,13142,2,0,P|120:336|56:352,1,125,0|0,0:0|0:0,0:0:0:0:
168,248,13931,6,0,B|220:268|264:252|264:252|312:232|368:244,1,187.5,2|0,0:0|0:0,0:0:0:0:
412,284,14721,2,0,L|396:156,1,125,0|0,0:0|0:0,0:0:0:0:
384,84,15313,1,0,0:0:0:0:
384,84,15510,2,0,P|340:108|320:184,1,125,2|0,0:0|0:0,0:0:0:0:
168,176,16300,2,0,P|212:200|232:276,1,125,0|0,0:0|0:0,0:0:0:0:
84,260,17089,6,0,L|52:140,1,125,4|0,0:3|0:0,0:0:0:0:
160,32,17879,1,0,0:0:0:0:
260,144,18274,1,0,0:0:0:0:
260,144,18668,2,0,P|328:148|368:108,1,125,2|0,0:0|0:0,0:0:0:0:
220,72,19458,2,0,L|204:196,1,125,0|0,0:0|0:0,0:0:0:0:
332,276,20247,2,0,B|284:264|236:284|236:284|192:304|136:264,1,187.5,2|0,0:0|0:0,0:0:0:0:
96,336,21037,6,0,L|116:208,1,125,0|0,0:0|0:0,0:0:0:0:
128,140,21629,1,0,0:0:0:0:
128,140,21826,2,0,P|180:172|180:248,1,125,2|0,0:0|0:0,0:0:0:0:
336,216,22616,2,0,P|284:248|284:324,1,125,0|0,0:0|0:0,0:0:0:0:
424,336,23405,1,4,0:3:0:0:
452,188,23800,6,0,L|428:128,1,62.5,0|0,0:0|0:0,0:0:0:0:
400,60,24195,2,0,P|336:40|284:60,1,125,0|0,0:0|0:0,0:0:0:0:
232,116,24787,1,2,0:0:0:0:
232,116,24984,2,0,L|280:236,1,125,0|0,0:0|0:0,0:0:0:0:
144,300,25773,2,0,P|93:266|33:277,2,125,0|0|2,0:0|0:0|0:0,0:0:0:0:
284,356,26958,6,0,L|258:288,1,62.5,0|0,0:0|0:0,0:0:0:0:
232,228,27352,2,0,P|276:188|340:196,1,125,0|0,0:0|0:0,0:0:0:0:
404,152,27945,1,2,0:0:0:0:
404,152,28142,2,0,L|364:280,1,125,0|0,0:0|0:0,0:0:0:0:
264,160,28931,2,0,P|244:96|276:40,1,125,0|0,0:0|0:0,0:0:0:0:
408,104,29721,1,4,0:3:0:0:
264,160,30116,5,0,0:0:0:0:
132,92,30510,1,0,0:0:0:0:
268,46,30905,1,0,0:0:0:0:
408,104,31300,2,0,P|432:160|392:224,1,125,2|0,0:0|0:0,0:0:0:0:
288,284,32089,2,0,P|227:286|182:244,1,125,0|0,0:0|0:0,0:0:0:0:
168,96,32879,6,0,B|144:84|116:92|116:92|84:104|40:84|40:84|84:104|92:136|92:136|100:172|84:200,1,250,2|0,0:0|0:0,0:0:0:0:
368,300,34458,2,0,B|304:328|260:296|260:296|224:300|224:340|224:340|224:300|180:260,1,250
216,152,36037,6,0,B|240:136|244:92|244:92|296:132|344:104|344:104|384:80|432:108,1,250,4|8,0:0|0:0,0:0:0:0:
396,248,37221,2,0,L|324:232,1,62.5,0|0,0:0|0:0,0:0:0:0:
260,224,37616,2,0,P|224:276|240:348,2,125,8|2|8,0:0|0:0|0:1,0:0:0:0:
400,168,38800,6,0,L|384:96,1,62.5,0|0,0:0|0:0,0:0:0:0:
420,40,39195,2,0,P|360:72|296:64,1,125,4|0,0:0|0:0,0:0:0:0:
156,48,39984,2,0,B|132:72|100:72|100:72|144:108|132:148|132:148|120:192|148:248,1,250,8|8,0:0|0:0,0:0:0:0:
284,184,41168,2,0,P|348:160|404:176,1,125,2|8,0:0|0:1,0:0:0:0:
164,320,42352,6,0,B|212:344|256:320|256:320|288:300|336:304|336:304|288:300|268:268,1,250,4|8,0:0|0:0,0:0:0:0:
204,144,43537,2,0,L|168:88,1,62.5,0|0,0:0|0:0,0:0:0:0:
132,28,43931,2,0,P|76:40|48:112,2,125,8|2|8,0:0|0:0|0:1,0:0:0:0:
272,88,45116,1,0,0:0:0:0:
340,220,45510,6,0,P|348:156|400:128,1,125,4|0,0:2|0:0,0:0:0:0:
248,148,46300,2,0,P|232:84|172:56,1,125,8|0,0:0|0:0,0:0:0:0:
144,200,47089,1,2,0:0:0:0:
248,308,47484,2,0,P|276:304|312:308,1,62.5,0|0,3:0|3:0,0:0:0:0:
376,348,47879,2,0,P|408:352|444:348,2,62.5,8|2|2,1:0|0:0|0:0,0:0:0:0:
310,308,48471,1,2,0:0:0:0:
310,308,48668,6,0,L|308:184,1,125,4|0,0:0|0:0,0:0:0:0:
168,132,49458,2,0,P|172:196|220:228,1,125,8|0,0:0|0:0,0:0:0:0:
232,80,50247,2,0,P|208:60|168:48,1,62.5,2|2,0:0|0:0,0:0:0:0:
108,76,50642,1,0,0:0:0:0:
108,212,51037,2,0,L|172:324,1,125,8|0,0:1|0:0,0:0:0:0:
384,248,51826,5,2,0:0:0:0:
108,212,52221,1,2,0:0:0:0:
228,300,52616,1,2,0:0:0:0:
256,40,53010,2,0,B|300:52|344:32|344:32|328:80|360:108|360:108|392:136|376:200,1,250,4|4,0:0|0:0,0:0:0:0:
308,160,53997,1,0,0:0:0:0:
308,160,54195,6,0,L|248:184,1,62.5,8|0,0:0|0:0,0:0:0:0:
268,256,54589,2,0,L|188:288,1,62.5,0|0,3:0|0:0,0:0:0:0:
148,320,54984,6,0,B|128:280|144:244|144:244|164:212|136:200|136:200|104:188|64:172|64:172|104:188|164:164|164:164|208:144|228:100|228:100|256:144|316:132|316:132|296:188|324:228,1,600,4|8,0:0|0:0,0:0:0:0:
468,192,57747,2,0,L|392:168,1,62.5,2|0,0:0|0:0,0:0:0:0:
380,104,58142,2,0,B|360:56|316:48|292:60|280:88|292:60|284:40|268:12|232:20|188:16|160:40|176:60|168:88|128:100,1,300,4|10,0:0|0:0,0:0:0:0:
44,28,59721,6,0,B|128:56|112:132|112:132|88:224|168:256,1,281.250010728836,4|0,0:3|0:0,0:0:0:0:
284,320,61300,5,0,1:0:0:0:
196,164,61695,1,0,1:0:0:0:
400,204,62089,1,0,1:0:0:0:
188,292,62484,1,0,1:0:0:0:
328,88,62879,6,0,L|320:160,1,62.5,2|2,0:0|0:0,0:0:0:0:
264,196,63273,2,0,L|256:252,2,41.6666666666667,0|8|0,0:0|0:0|0:0,0:0:0:0:
321,150,63668,2,0,P|380:136|444:152,1,125,8|0,0:0|0:0,0:0:0:0:
464,224,64260,1,0,0:0:0:0:
464,224,64458,6,0,L|484:64,1,149.999995422363,4|0,0:0|0:0,0:0:0:0:
308,36,65247,2,0,P|272:108|304:168,1,149.999995422363,8|0,0:0|0:0,0:0:0:0:
388,152,65839,1,0,0:0:0:0:
388,152,66037,2,0,L|244:220,1,149.999995422363,2|2,0:0|0:0,0:0:0:0:
168,248,66629,1,0,0:0:0:0:
168,248,66826,2,0,L|160:160,1,74.9999977111817,8|0,0:0|0:0,0:0:0:0:
84,124,67221,2,0,P|88:84|112:56,1,74.9999977111817,0|0,0:0|0:0,0:0:0:0:
272,52,67616,6,0,P|220:116|144:108,1,149.999995422363,4|0,0:0|0:0,0:0:0:0:
312,212,68405,2,0,P|353:152|426:148,1,149.999995422363,8|0,0:0|0:0,0:0:0:0:
492,88,68997,1,0,0:0:0:0:
492,88,69195,2,0,L|428:236,1,149.999995422363,2|2,0:0|0:0,0:0:0:0:
252,208,69984,6,0,L|168:220,1,74.9999977111817,8|0,0:0|3:0,0:0:0:0:
112,280,70379,2,0,P|80:268|52:224,1,74.9999977111817,0|0,3:0|0:0,0:0:0:0:
44,148,70773,2,0,P|76:92|164:88,1,149.999995422363,4|0,0:0|0:0,0:0:0:0:
232,128,71366,1,0,0:0:0:0:
232,128,71563,2,0,L|192:276,1,149.999995422363,8|0,0:0|0:0,0:0:0:0:
364,328,72352,2,0,P|380:264|456:244,1,149.999995422363,2|2,0:0|0:0,0:0:0:0:
464,332,72945,1,0,0:0:0:0:
464,332,73142,6,0,L|444:172,1,149.999995422363,8|0,0:0|0:0,0:0:0:0:
316,64,73931,2,0,P|276:108|292:196,1,149.999995422363,4|0,0:0|0:0,0:0:0:0:
116,240,74721,2,0,P|152:300|240:312,1,149.999995422363,8|0,0:0|0:0,0:0:0:0:
304,272,75313,1,0,0:0:0:0:
304,272,75510,6,0,L|316:192,1,74.9999977111817,2|0,0:0|0:0,0:0:0:0:
404,212,75905,2,0,L|416:132,1,74.9999977111817,2|0,0:0|0:0,0:0:0:0:
384,52,76300,6,0,P|428:44|460:56,2,74.9999977111817,2|0|2,3:0|3:0|0:0,0:0:0:0:
300,88,76892,1,0,0:0:0:0:
300,88,77089,2,0,P|228:112|160:80,1,149.999995422363,4|0,0:0|0:0,0:0:0:0:
100,252,77879,2,0,P|176:232|248:276,1,149.999995422363,8|0,0:0|0:0,0:0:0:0:
284,340,78471,1,0,0:0:0:0:
284,340,78668,2,0,L|328:272,1,74.9999977111817,2|0,0:0|0:0,0:0:0:0:
400,324,79063,2,0,L|444:256,1,74.9999977111817,2|0,0:0|0:0,0:0:0:0:
376,64,79458,6,0,P|348:116|380:196,1,149.999995422363,4|0,0:0|0:0,0:0:0:0:
468,172,80050,1,0,0:0:0:0:
468,172,80247,2,0,L|304:172,1,149.999995422363,4|2,0:0|0:0,0:0:0:0:
240,216,80839,1,0,0:0:0:0:
240,216,81037,2,0,P|228:180|236:144,1,74.9999977111817,8|0,0:0|0:0,0:0:0:0:
168,88,81431,2,0,P|192:60|236:52,1,74.9999977111817,2|0,0:0|0:0,0:0:0:0:
400,100,81826,5,8,0:0:0:0:
336,136,82023,1,0,0:0:0:0:
332,60,82221,1,8,0:0:0:0:
400,176,82418,1,0,0:0:0:0:
272,100,82616,1,8,0:0:0:0:
400,100,82813,6,0,P|440:92|488:104,1,74.9999977111817,4|0,0:0|0:0,0:0:0:0:
440,168,83405,6,0,L|440:12,1,149.999995422363,2|0,0:0|0:0,0:0:0:0:
272,100,84195,6,0,P|204:68|140:100,1,149.999995422363,8|0,0:0|0:0,0:0:0:0:
76,164,84787,1,0,0:0:0:0:
76,164,84984,2,0,L|124:228,2,74.9999977111817,2|0|2,0:0|0:0|0:0,0:0:0:0:
116,336,85773,2,0,P|188:326|224:264,1,149.999995422363,8|0,0:0|0:0,0:0:0:0:
236,168,86366,1,0,0:0:0:0:
236,168,86563,5,0,1:0:0:0:
436,232,86958,1,0,1:0:0:0:
316,72,87352,1,0,1:0:0:0:
328,304,87747,1,0,1:0:0:0:
440,104,88142,1,4,0:0:0:0:
308,192,88537,6,0,P|336:188|360:192,2,49.9999984741211,0|0|0,0:0|1:0|0:0,0:0:0:0:
244,232,88931,2,0,P|228:255|212:271,2,49.9999984741211,0|0|0,1:0|0:0|0:0,0:0:0:0:
240,156,89326,2,0,P|220:136|208:116,2,49.9999984741211,0|0|0,1:0|0:0|0:0,0:0:0:0:
308,192,89721,6,0,P|372:208|436:188,1,125,4|0,0:3|0:0,0:0:0:0:
428,44,90510,2,0,B|364:64|304:32|304:32|364:64|372:148,1,250,2|2,0:0|0:0,0:0:0:0:
80,208,92089,6,0,B|136:156|192:212|192:212|244:260|320:212,1,250,2|2,0:0|0:0,0:0:0:0:
432,140,93273,1,0,0:0:0:0:
432,140,93668,2,0,B|352:176|288:132|288:132|264:180|308:224,1,250,2|0,0:0|0:0,0:0:0:0:
408,296,95367,1,0,0:0:0:0:
256,192,95821,12,0,99458,0:0:0:0:
