osu file format v14

[General]
AudioFilename: Kimi no uta.mp3
AudioLeadIn: 0
PreviewTime: 64063
Countdown: 0
SampleSet: Soft
StackLeniency: 0.7
Mode: 0
LetterboxInBreaks: 0
WidescreenStoryboard: 0

[Editor]
Bookmarks: 36037,51826,62879,64458
DistanceSpacing: 1.2
BeatDivisor: 8
GridSize: 32
TimelineZoom: 1.5

[Metadata]
Title:Kimi no Uta TV ver.
TitleUnicode:きみのうた TV ver.
Artist:Yasuda Rei
ArtistUnicode:安田レイ
Creator:[ Abhor ]
Version:Insane
Source:夏目友人帳 陸
Tags:ending ed natsume yuujinchou roku tv size [Kamiya] TVアニメ
BeatmapID:1378556
BeatmapSetID:610059

[Difficulty]
HPDrainRate:6
CircleSize:4.3
OverallDifficulty:7.5
ApproachRate:8.3
SliderMultiplier:2.7
SliderTickRate:1

[Events]
//Background and Video events
0,0,"ed6.jpg",0,0
Video,-120,"ed6.avi"
//Break Periods
//Storyboard Layer 0 (Background)
//Storyboard Layer 1 (Fail)
//Storyboard Layer 2 (Pass)
//Storyboard Layer 3 (Foreground)
//Storyboard Sound Samples

[TimingPoints]
10774,789.473684210526,4,2,1,30,1,0
36037,-100,4,2,2,40,0,0
47089,-100,4,2,1,45,0,0
47879,-100,4,2,2,45,0,0
48076,-100,4,2,3,45,0,0
48668,-100,4,2,1,55,0,0
50445,-100,4,2,2,55,0,0
51826,-80,4,2,3,55,0,0
52221,-100,4,2,1,55,0,0
53800,-133.333333333333,4,2,1,55,0,0
54195,-100,4,2,1,55,0,0
54984,-100,4,2,2,45,0,0
57747,-100,4,2,3,45,0,0
58142,-100,4,2,2,45,0,0
59721,-133.333333333333,4,2,1,45,0,0
61300,-100,4,2,1,55,0,0
61695,-83.3333333333333,4,2,1,60,0,0
62089,-71.4285714285714,4,2,1,65,0,0
62484,-62.5,4,2,1,70,0,0
62879,-100,4,2,1,45,0,0
63405,-100,4,3,0,55,0,0
64063,-100,4,2,1,65,0,0
64458,-83.3333333333333,4,2,1,65,0,1
70181,-83.3333333333333,4,2,2,65,0,1
70773,-83.3333333333333,4,2,1,65,0,1
78668,-83.3333333333333,4,2,2,65,0,1
79458,-66.6666666666667,4,2,1,65,0,1
80247,-83.3333333333333,4,2,1,65,0,1
82813,-166.666666666667,4,2,1,65,0,1
83405,-83.3333333333333,4,2,1,65,0,1
86958,-71.4285714285714,4,2,1,65,0,1
87352,-62.5,4,2,1,65,0,1
87747,-55.5555555555556,4,2,1,65,0,1
88142,-83.3333333333333,4,2,1,65,0,1
88668,-83.3333333333333,4,3,0,65,0,1
89721,-100,4,2,1,30,0,0
94458,909.090909090909,4,2,1,30,1,0
99458,-100,4,2,1,5,0,0

[Colours]
Combo1 : 250,145,122
Combo2 : 164,187,255
Combo3 : 145,219,255
Combo4 : 223,184,145

[HitObjects]
362,57,10774,6,0,B|350:90|360:123|360:123|373:157|359:205,1,135,4|0,0:3|0:0,0:0:0:0:
437,93,11563,1,0,0:0:0:0:
285,158,11958,2,0,L|214:163,1,67.5,0|0,0:0|0:0,0:0:0:0:
161,220,12352,2,0,P|139:159|176:96,1,135,2|0,0:0|0:0,0:0:0:0:
241,238,13142,2,0,P|203:290|120:291,1,135,0|0,0:0|0:0,0:0:0:0:
136,298,13931,6,0,B|173:292|208:309|208:309|247:325|283:315,1,135,2|0,0:0|0:0,0:0:0:0:
316,253,14523,2,0,P|316:324|365:366,1,135,0|0,0:0|0:0,0:0:0:0:
388,287,15116,2,0,L|398:215,1,67.5,0|0,0:0|0:0,0:0:0:0:
476,204,15510,2,0,P|472:130|445:61,1,135,2|0,0:0|0:0,0:0:0:0:
289,72,16300,2,0,P|227:46|158:82,1,135,0|0,0:0|0:0,0:0:0:0:
239,260,17089,6,0,B|228:235|238:202|238:202|231:186|231:186|239:156|227:128,1,135,4|0,0:3|0:0,0:0:0:0:
319,231,17879,1,0,0:0:0:0:
319,231,18274,2,0,L|389:235,1,67.5,0|0,0:0|0:0,0:0:0:0:
436,298,18668,2,0,P|426:235|449:156,1,135,2|0,0:0|0:0,0:0:0:0:
319,61,19458,1,0,0:0:0:0:
156,82,19852,1,0,0:0:0:0:
152,244,20247,6,0,B|128:213|135:166|135:166|101:160|84:125,1,135,2|0,0:0|0:0,0:0:0:0:
77,60,20839,2,0,P|21:100|17:166,1,135,0|0,0:0|0:0,0:0:0:0:
91,138,21431,2,0,P|125:130|169:135,1,67.5,0|0,0:0|0:0,0:0:0:0:
218,190,21826,2,0,B|251:179|283:191|283:191|320:207|365:184,1,135,2|0,0:0|0:0,0:0:0:0:
246,265,22616,1,0,0:0:0:0:
317,114,23010,1,0,0:0:0:0:
395,256,23405,6,0,P|429:203|403:131,1,135,4|0,0:3|0:0,0:0:0:0:
349,190,23997,1,0,0:0:0:0:
349,190,24195,2,0,L|276:197,1,67.5,0|0,0:0|0:0,0:0:0:0:
222,250,24589,1,0,0:0:0:0:
222,250,24787,2,0,B|198:227|197:188|197:188|166:213|123:203,1,135,2|0,0:0|0:0,0:0:0:0:
145,124,25379,2,0,P|132:95|132:58,1,67.5,0|0,0:0|0:0,0:0:0:0:
211,73,25773,2,0,B|276:58|276:58|350:76,1,135,0|0,0:0|0:0,0:0:0:0:
342,74,26563,5,2,0:0:0:0:
448,196,26958,2,0,P|455:229|448:263,1,67.5,0|0,0:0|0:0,0:0:0:0:
374,229,27352,2,0,B|338:226|309:245|309:245|279:224|239:229,1,135,0|0,0:0|0:0,0:0:0:0:
183,280,27945,2,0,P|165:219|203:159,1,135,2|0,0:0|0:0,0:0:0:0:
245,228,28537,2,0,P|261:258|261:298,1,67.5,0|0,0:0|0:0,0:0:0:0:
170,352,28931,2,0,P|96:338|26:353,1,135,0|0,0:0|0:0,0:0:0:0:
258,303,29721,6,0,P|332:317|402:302,1,135,4|0,0:3|0:0,0:0:0:0:
467,164,30510,1,0,0:0:0:0:
344,58,30905,2,0,L|274:61,1,67.5,0|0,0:0|0:0,0:0:0:0:
232,129,31300,2,0,P|221:58|161:23,1,135,2|0,0:0|0:0,0:0:0:0:
130,192,32089,2,0,P|77:154|67:84,1,135,0|0,0:0|0:0,0:0:0:0:
232,129,32879,6,0,B|183:139|150:108|150:108|137:211|187:298,1,270,2|0,0:0|0:0,0:0:0:0:
212,49,34458,2,0,P|314:117|241:211,1,270,2|0,0:0|0:0,0:0:0:0:
63,146,35642,2,0,P|105:153|157:143,1,90,0|0,0:0|0:0,0:0:0:0:
232,129,36037,6,0,P|298:150|322:230,1,135,4|0,0:0|0:0,0:0:0:0:
422,334,36826,1,8,0:0:0:0:
422,334,37221,2,0,L|433:254,1,67.5,0|0,0:0|0:0,0:0:0:0:
447,187,37616,1,8,0:0:0:0:
334,303,38010,1,2,0:0:0:0:
447,187,38405,1,8,0:1:0:0:
447,187,38800,2,0,L|454:116,1,67.5,0|0,0:0|0:0,0:0:0:0:
463,40,39195,6,0,P|402:56|373:120,1,135,4|0,0:0|0:0,0:0:0:0:
453,119,39787,1,0,0:0:0:0:
386,33,39984,2,0,P|320:54|241:42,1,135,8|0,0:0|0:0,0:0:0:0:
52,37,40773,2,0,P|86:39|121:49,1,67.5,8|0,0:0|0:0,0:0:0:0:
216,165,41168,2,0,P|228:200|228:244,1,67.5,2|0,0:0|0:0,0:0:0:0:
109,241,41563,2,0,P|51:206|31:143,1,135,8|0,0:1|0:0,0:0:0:0:
180,292,42352,6,0,B|240:272|301:289|301:289|356:279|375:224,1,202.5,4|0,0:0|0:0,0:0:0:0:
293,206,43142,1,8,0:0:0:0:
431,289,43537,2,0,P|442:254|438:217,1,67.5,0|0,0:0|0:0,0:0:0:0:
293,206,43931,1,8,0:0:0:0:
374,65,44326,1,2,0:0:0:0:
439,223,44721,2,0,P|418:191|409:152,1,67.5,8|0,0:1|0:0,0:0:0:0:
374,65,45116,2,0,P|358:101|325:122,1,67.5,0|0,0:0|0:0,0:0:0:0:
203,51,45510,6,0,B|242:62|291:57|291:57|270:82|236:85,1,135,4|0,0:2|0:0,0:0:0:0:
117,53,46300,2,0,B|78:64|29:59|29:59|50:84|84:87,1,135,8|0,0:0|0:0,0:0:0:0:
225,166,47089,6,0,B|163:132|163:132|104:167,1,135,2|0,0:0|3:0,0:0:0:0:
173,232,47681,1,0,3:0:0:0:
173,232,47780,1,0,3:0:0:0:
173,232,47879,1,8,1:0:0:0:
214,314,48076,1,2,0:0:0:0:
225,166,48273,1,2,0:0:0:0:
214,314,48471,1,2,0:0:0:0:
307,252,48668,6,0,L|158:230,1,135,4|0,0:0|0:0,0:0:0:0:
347,348,49458,2,0,L|491:327,1,135,8|0,0:0|0:0,0:0:0:0:
473,237,50050,1,0,0:0:0:0:
473,237,50148,1,0,0:0:0:0:
473,237,50247,1,2,0:0:0:0:
383,187,50445,1,2,0:0:0:0:
394,285,50642,2,0,P|382:252|385:212,1,67.5
472,156,51037,2,0,P|427:108|356:101,1,135,8|0,0:1|0:0,0:0:0:0:
383,187,51629,1,0,0:0:0:0:
335,20,51826,6,0,B|291:34|278:76|278:76|240:53|193:68,1,168.75,2|2,0:0|0:0,0:0:0:0:
360,99,52616,1,2,0:0:0:0:
111,101,53010,6,0,P|159:147|225:150,1,135,4|0,0:0|0:0,0:0:0:0:
212,20,53800,6,0,P|197:51|196:80,1,50.6250019311906,4|0,0:0|0:0,0:0:0:0:
310,169,54195,5,8,0:0:0:0:
195,66,54392,1,0,0:0:0:0:
134,174,54589,2,0,P|131:210|145:252,1,67.5,0|0,3:0|0:0,0:0:0:0:
195,306,54984,6,0,B|228:295|260:306|260:306|293:319|333:301,1,135,4|0,0:0|0:0,0:0:0:0:
290,230,55576,1,0,0:0:0:0:
226,341,55773,2,0,P|292:352|355:332,1,135,8|0,0:0|0:0,0:0:0:0:
377,244,56366,1,0,0:0:0:0:
389,159,56563,2,0,P|321:177|290:240,1,135,8|0,0:0|0:0,0:0:0:0:
465,194,57352,2,0,L|474:58,1,135,8|2,0:0|0:0,0:0:0:0:
392,33,57945,1,0,0:0:0:0:
319,68,58142,6,0,B|271:58|271:58|172:77,1,135,4|0,0:0|0:0,0:0:0:0:
127,130,58734,1,0,0:0:0:0:
205,149,58931,2,0,L|287:133,1,67.5,8|0,0:0|0:0,0:0:0:0:
292,214,59326,2,0,L|225:226,1,67.5,10|0,0:0|0:0,0:0:0:0:
150,262,59721,6,0,B|168:290|207:308|207:308|346:281|346:281|378:245|376:199,1,303.75,4|0,0:3|0:0,0:0:0:0:
374,116,61102,1,0,0:0:0:0:
374,116,61201,1,0,0:0:0:0:
374,116,61300,6,0,P|410:121|444:147,1,67.5,0|0,1:0|0:0,0:0:0:0:
385,283,61695,2,0,P|346:279|312:257,1,80.9999975280763,0|0,1:0|0:0,0:0:0:0:
397,55,62089,2,0,P|424:85|434:146,1,94.4999971160889,0|0,1:0|0:0,0:0:0:0:
334,356,62484,2,0,P|309:315|314:250,1,108,0|0,1:0|0:0,0:0:0:0:
457,252,62879,5,2,0:0:0:0:
457,252,63076,2,0,P|454:213|422:172,1,67.5,2|0,0:0|0:0,0:0:0:0:
375,121,63405,6,0,L|364:182,1,45,8|0,0:0|0:0,0:0:0:0:
311,256,63668,2,0,P|273:273|256:292,2,45,8|0|0,0:0|0:0|0:0,0:0:0:0:
287,173,64063,6,0,P|252:180|216:201,1,67.5,0|0,0:0|0:0,0:0:0:0:
268,356,64458,6,0,P|237:299|146:292,1,161.999995056153,4|0,0:0|0:0,0:0:0:0:
187,362,65050,1,0,0:0:0:0:
73,240,65247,2,0,L|64:322,1,80.9999975280763,8|0,0:0|0:0,0:0:0:0:
141,168,65642,1,0,0:0:0:0:
141,168,65839,1,0,0:0:0:0:
118,62,66037,2,0,P|78:60|40:47,1,80.9999975280763,2|0,0:0|0:0,0:0:0:0:
141,168,66431,2,0,P|101:157|56:162,1,80.9999975280763,2|0,0:0|0:0,0:0:0:0:
205,101,66826,2,0,B|258:90|258:90|365:103,1,161.999995056153,8|0,0:0|0:0,0:0:0:0:
443,124,67418,1,0,0:0:0:0:
291,160,67616,6,0,P|272:86|325:20,1,161.999995056153,4|0,0:0|0:0,0:0:0:0:
365,103,68208,1,0,0:0:0:0:
457,206,68405,2,0,L|376:197,1,80.9999975280763,8|0,0:0|0:0,0:0:0:0:
310,244,68800,1,0,0:0:0:0:
310,244,68997,1,0,0:0:0:0:
442,315,69195,2,0,L|352:304,1,80.9999975280763,2|0,0:0|0:0,0:0:0:0:
284,242,69589,2,0,P|241:240|190:255,1,80.9999975280763,2|0,0:0|0:0,0:0:0:0:
186,259,69885,1,0,0:0:0:0:
171,272,69984,1,8,0:0:0:0:
251,332,70181,1,0,3:0:0:0:
87,234,70379,2,0,P|82:287|93:320,1,80.9999975280763,0|0,3:0|0:0,0:0:0:0:
158,180,70773,6,0,B|163:141|148:100|148:100|137:57|159:18,1,161.999995056153,4|0,0:0|0:0,0:0:0:0:
226,71,71366,1,0,0:0:0:0:
77,152,71563,2,0,P|64:113|63:58,1,80.9999975280763,8|0,0:0|0:0,0:0:0:0:
156,21,71958,2,0,P|188:52|229:70,1,80.9999975280763,0|0,0:0|0:0,0:0:0:0:
379,49,72352,2,0,P|337:56|296:78,1,80.9999975280763,2|0,0:0|0:0,0:0:0:0:
274,224,72747,2,0,P|261:189|260:139,1,80.9999975280763,2|0,0:0|0:0,0:0:0:0:
413,122,73142,2,0,B|371:145|331:139|331:139|355:172|349:226,1,161.999995056153,8|0,0:0|0:0,0:0:0:0:
327,289,73734,1,0,0:0:0:0:
217,335,73931,6,0,P|195:257|131:187,1,161.999995056153,4|0,0:0|0:0,0:0:0:0:
64,176,74523,1,0,0:0:0:0:
39,330,74721,2,0,P|29:292|30:242,1,80.9999975280763,8|0,0:0|0:0,0:0:0:0:
87,99,75116,2,0,P|70:136|64:176,1,80.9999975280763,0|0,0:0|0:0,0:0:0:0:
211,48,75510,6,0,P|216:89|293:140,1,121.499996292114,2|0,0:0|0:0,0:0:0:0:
315,139,75905,2,0,L|409:132,1,80.9999975280763,2|0,0:0|0:0,0:0:0:0:
461,29,76300,1,2,3:0:0:0:
304,51,76497,1,0,3:0:0:0:
472,151,76695,2,0,P|439:135|392:133,1,80.9999975280763,2|0,0:0|0:0,0:0:0:0:
425,323,77089,6,0,B|414:210|414:210|391:259,1,161.999995056153,4|0,0:0|0:0,0:0:0:0:
167,345,77879,2,0,P|208:346|246:333,1,80.9999975280763,8|0,0:0|0:0,0:0:0:0:
146,161,78273,2,0,B|153:235|192:270|192:270|212:208,2,161.999995056153,0|2|2,0:0|0:0|0:0,0:0:0:0:
106,81,79260,1,0,0:0:0:0:
223,22,79458,6,0,P|196:70|208:127,1,101.250003862381,4|0,0:0|0:0,0:0:0:0:
378,71,79852,2,0,L|270:82,1,101.250003862381
282,217,80247,6,0,B|377:207|377:207|353:243,1,121.499996292114,4|0,0:0|0:0,0:0:0:0:
340,262,80642,1,2,0:0:0:0:
435,132,80839,1,0,0:0:0:0:
404,322,81037,2,0,P|348:348|280:325,1,121.499996292114,8|0,0:0|0:0,0:0:0:0:
263,305,81431,1,2,0:0:0:0:
377,208,81629,1,0,0:0:0:0:
404,322,81826,5,8,0:0:0:0:
282,217,82023,1,0,0:0:0:0:
328,347,82221,1,8,0:0:0:0:
377,208,82418,1,0,0:0:0:0:
189,226,82616,5,8,0:0:0:0:
189,226,82813,2,0,B|147:218|147:218|93:231,1,80.9999975280763,4|0,0:0|0:0,0:0:0:0:
150,295,83405,6,0,L|146:121,1,161.999995056153,2|0,0:0|0:0,0:0:0:0:
362,89,84195,2,0,L|366:263,1,161.999995056153,8|0,0:0|0:0,0:0:0:0:
364,331,84787,1,0,0:0:0:0:
284,214,84984,2,0,P|283:259|300:303,1,80.9999975280763,2|0,0:0|0:0,0:0:0:0:
434,294,85379,2,0,P|403:320|365:331,1,80.9999975280763,2|0,0:0|0:0,0:0:0:0:
363,172,85773,2,0,P|404:181|440:220,1,80.9999975280763,8|0,0:0|0:0,0:0:0:0:
365,250,86168,1,0,0:0:0:0:
365,250,86366,1,0,0:0:0:0:
218,360,86563,6,0,P|258:358|297:367,1,80.9999975280763,0|0,1:0|0:0,0:0:0:0:
129,350,86958,2,0,P|76:343|30:318,1,94.4999971160889,0|0,1:0|0:0,0:0:0:0:
254,278,87352,2,0,P|304:264|370:267,1,108,0|0,1:0|0:0,0:0:0:0:
119,261,87747,2,0,P|73:237|35:174,1,121.499996292114,0|0,1:0|0:0,0:0:0:0:
193,222,88142,6,0,B|221:184|207:144|207:144|192:103|209:66,1,161.999995056153,4|0,0:0|0:0,0:0:0:0:
129,171,88668,1,0,1:0:0:0:
129,171,88800,1,0,0:0:0:0:
129,171,88931,2,0,P|100:178|57:167,2,53.9999983520508,0|0|0,1:0|0:0|0:0,0:0:0:0:
287,106,89326,2,0,P|318:100|345:101,2,53.9999983520508,0|0|0,1:0|0:0|0:0,0:0:0:0:
400,35,89721,6,0,P|380:99|409:175,1,135,4|0,0:3|0:0,0:0:0:0:
459,216,90313,1,0,0:0:0:0:
459,216,90510,2,0,P|393:204|314:222,1,135,2|0,0:0|0:0,0:0:0:0:
174,271,91300,1,2,0:0:0:0:
174,271,92089,5,2,0:0:0:0:
58,158,92484,2,0,P|92:165|131:166,1,67.5,0|0,0:0|0:0,0:0:0:0:
174,102,92879,6,0,P|168:169|226:221,1,135,2|0,0:0|0:0,0:0:0:0:
244,142,93471,1,0,0:0:0:0:
244,142,93668,2,0,B|274:148|274:148|307:140|307:140|335:150|335:150|378:139|419:150|419:150|486:137|486:137|463:129,1,270,2|0,0:0|0:0,0:0:0:0:
464,129,95367,6,0,B|434:191|456:261,1,135
256,192,96048,12,0,99457,0:0:0:0:
