osu file format v14

[General]
AudioFilename: audio.mp3
AudioLeadIn: 1000
PreviewTime: 283985
Countdown: 1
SampleSet: Soft
StackLeniency: 0.4
Mode: 0
LetterboxInBreaks: 0
WidescreenStoryboard: 0

[Editor]
DistanceSpacing: 0.5
BeatDivisor: 8
GridSize: 4
TimelineZoom: 1

[Metadata]
Title:Kimi no Uta
TitleUnicode:きみのうた
Artist:Yasuda Rei
ArtistUnicode:安田レイ
Creator:Modem
Version:Our Song
Source:夏目友人帳 陸
Tags:natsume yuujinchou roku ending ed
BeatmapID:1395426
BeatmapSetID:658855

[Difficulty]
HPDrainRate:6
CircleSize:4
OverallDifficulty:6
ApproachRate:8.5
SliderMultiplier:3
SliderTickRate:1

[Events]
//Background and Video events
0,0,"bg.jpg",0,0
//Break Periods
//Storyboard Layer 0 (Background)
//Storyboard Layer 1 (Fail)
//Storyboard Layer 2 (Pass)
//Storyboard Layer 3 (Foreground)
//Storyboard Sound Samples

[TimingPoints]
369,789.473684210526,4,2,1,15,1,0
369,-142.857142857143,4,2,1,15,0,0
3526,-142.857142857143,4,2,1,25,0,0
9842,-142.857142857143,4,2,1,20,0,0
10237,-142.857142857143,4,2,1,25,0,0
13000,-142.857142857143,4,2,1,15,0,0
13395,-142.857142857143,4,2,1,25,0,0
14579,-142.857142857143,4,2,1,55,0,0
15368,-142.857142857143,4,2,1,5,0,0
16158,-200,4,2,1,10,0,0
16947,-200,4,2,1,20,0,0
22474,-200,4,2,1,15,0,0
23263,-200,4,2,1,20,0,0
38263,-200,4,2,1,60,0,0
39053,-200,4,2,1,20,0,0
41322,-200,4,2,1,5,0,0
41421,-142.857142857143,4,2,1,30,0,0
42211,-142.857142857143,4,2,2,40,0,0
43395,-142.857142857143,4,2,2,10,0,0
43790,-142.857142857143,4,2,2,40,0,0
44579,-142.857142857143,4,2,1,30,0,0
44974,-142.857142857143,4,2,2,40,0,0
46553,-142.857142857143,4,2,2,20,0,0
46947,-142.857142857143,4,2,2,40,0,0
47737,-142.857142857143,4,2,2,80,0,0
48526,-142.857142857143,4,2,2,40,0,0
49711,-142.857142857143,4,2,2,20,0,0
50105,-142.857142857143,4,2,2,40,0,0
50895,-142.857142857143,4,2,2,80,0,0
51290,-142.857142857143,4,2,2,40,0,0
53066,-142.857142857143,4,2,1,40,0,0
53263,-125,4,2,1,40,0,0
53954,-125,4,2,1,5,0,0
54053,-111.111111111111,4,2,1,50,0,0
54447,-111.111111111111,4,2,1,40,0,0
55434,-111.111111111111,4,2,1,30,0,0
55632,-111.111111111111,4,2,1,40,0,0
60368,-142.857142857143,4,2,1,40,0,0
60763,-142.857142857143,4,2,2,40,0,0
63132,-142.857142857143,4,2,1,40,0,0
63329,-142.857142857143,4,2,2,40,0,0
63526,-142.857142857143,4,2,1,40,0,0
65303,-142.857142857143,4,2,1,5,0,0
66684,-142.857142857143,4,2,1,50,0,0
69842,-100,4,2,1,75,0,1
70237,-100,4,2,1,55,0,1
75763,-100,4,2,1,55,0,0
76059,-100,4,2,1,5,0,0
76158,-100,4,2,1,75,0,1
76553,-100,4,2,1,55,0,1
81882,-100,4,2,1,35,0,1
82079,-100,4,2,1,35,0,0
82474,-100,4,2,1,75,0,1
82868,-100,4,2,1,55,0,1
85632,-100,4,2,1,85,0,1
86026,-100,4,2,1,55,0,1
88197,-142.857142857143,4,2,1,85,0,0
88790,-100,4,2,1,85,0,1
89184,-100,4,2,1,55,0,1
94711,-100,4,2,1,55,0,0
95105,-100,4,2,1,85,0,1
95500,-100,4,2,1,55,0,1
99645,-100,4,2,1,30,0,1
99842,-100,4,2,1,55,0,1
101026,-100,4,2,1,55,0,0
101421,-100,4,2,1,85,0,1
101816,-100,4,2,1,55,0,1
107145,-100,4,2,1,35,0,1
107737,-100,4,2,1,85,0,1
108132,-100,4,2,1,55,0,1
110895,-100,4,2,1,85,0,1
111290,-100,4,2,1,55,0,1
113461,-142.857142857143,4,2,1,85,0,0
114053,-100,4,2,1,85,0,1
114447,-100,4,2,1,55,0,1
116816,-100,4,2,1,55,0,0
117211,-83.3333333333333,4,2,1,85,0,1
117408,-83.3333333333333,4,2,1,55,0,1
117605,-76.9230769230769,4,2,1,55,0,1
118000,-71.4285714285714,4,2,1,55,0,1
118395,-66.6666666666667,4,2,1,55,0,1
118790,-100,4,2,1,55,0,1
119711,-100,4,2,1,35,0,1
120368,-142.857142857143,4,2,1,55,0,0
126092,789.473684210526,4,2,1,55,1,0
126536,789.473684210526,4,2,1,5,1,0
126536,-100,4,2,1,5,0,0
126733,789.473684210526,4,2,1,5,1,0
129841,789.473684210526,4,2,1,20,1,0
132998,-200,4,2,1,35,0,0
133788,-200,4,2,2,55,0,0
136156,-200,4,2,1,20,0,0
136748,-200,4,2,2,55,0,0
138130,-200,4,2,2,25,0,0
138525,-200,4,2,1,55,0,0
138919,-200,4,2,1,35,0,0
139314,-200,4,2,1,20,0,0
140104,-200,4,2,2,55,0,0
142472,-200,4,2,1,20,0,0
143064,-200,4,2,2,55,0,0
144446,-200,4,2,2,25,0,0
144841,-200,4,2,1,55,0,0
145235,-200,4,2,1,35,0,0
145630,-200,4,2,1,20,0,0
146419,-200,4,2,2,55,0,0
148788,-200,4,2,1,20,0,0
149577,-200,4,2,2,55,0,0
150762,-200,4,2,2,25,0,0
151156,-200,4,2,1,55,0,0
151551,-200,4,2,1,45,0,0
151946,-200,4,2,1,20,0,0
152735,-200,4,2,2,55,0,0
155104,-200,4,2,1,25,0,0
155893,-200,4,2,2,55,0,0
157077,-200,4,2,2,25,0,0
157472,-200,4,2,1,55,0,0
158163,-200,4,2,2,5,0,0
158262,-142.857142857143,4,2,1,35,0,0
159051,-142.857142857143,4,2,2,55,0,0
160235,-142.857142857143,4,2,2,25,0,0
160630,-142.857142857143,4,2,2,55,0,0
161419,-142.857142857143,4,2,1,35,0,0
162012,-142.857142857143,4,2,2,55,0,0
163393,-142.857142857143,4,2,2,25,0,0
163591,-142.857142857143,4,2,2,55,0,0
164577,-142.857142857143,4,2,1,30,0,0
165367,-142.857142857143,4,2,2,55,0,0
166551,-142.857142857143,4,2,2,25,0,0
166946,-142.857142857143,4,2,2,55,0,0
167735,-142.857142857143,4,2,1,25,0,0
168130,-142.857142857143,4,2,2,55,0,0
169709,-142.857142857143,4,2,2,35,0,0
169906,-142.857142857143,4,2,1,45,0,0
170104,-125,4,2,1,45,0,0
170794,-125,4,2,1,5,0,0
170893,-111.111111111111,4,2,1,65,0,0
171288,-111.111111111111,4,2,1,45,0,0
172275,-111.111111111111,4,2,1,30,0,0
172472,-111.111111111111,4,2,1,45,0,0
177209,-142.857142857143,4,2,1,35,0,0
177604,-142.857142857143,4,2,2,55,0,0
179972,-142.857142857143,4,2,1,55,0,0
180367,-142.857142857143,4,2,1,40,0,0
186683,-100,4,2,1,85,0,1
187077,-100,4,2,1,55,0,1
192604,-100,4,2,1,55,0,0
192900,-100,4,2,1,5,0,0
192998,-100,4,2,1,85,0,1
193393,-100,4,2,1,55,0,1
198919,-100,4,2,1,35,0,0
199314,-100,4,2,1,85,0,1
199709,-100,4,2,1,55,0,1
202472,-100,4,2,1,85,0,1
202867,-100,4,2,1,55,0,1
205038,-142.857142857143,4,2,1,85,0,0
205630,-100,4,2,1,85,0,1
206025,-100,4,2,1,55,0,1
211419,-100,4,2,1,35,0,1
211551,-100,4,2,1,35,0,0
211946,-100,4,2,1,85,0,1
212340,-100,4,2,1,55,0,1
216485,-100,4,2,1,30,0,1
216683,-100,4,2,1,55,0,1
217867,-100,4,2,1,55,0,0
218262,-100,4,2,1,85,0,1
218656,-100,4,2,1,55,0,1
224183,-100,4,2,1,55,0,0
224577,-100,4,2,1,85,0,1
224972,-100,4,2,1,55,0,1
227735,-100,4,2,1,85,0,1
228130,-100,4,2,1,55,0,1
230301,-142.857142857143,4,2,1,85,0,0
230893,-100,4,2,1,85,0,1
231288,-100,4,2,1,55,0,1
233656,-100,4,2,1,55,0,0
234051,-83.3333333333333,4,2,1,85,0,1
234248,-83.3333333333333,4,2,1,55,0,1
234446,-76.9230769230769,4,2,1,55,0,1
234840,-71.4285714285714,4,2,1,55,0,1
235235,-66.6666666666667,4,2,1,55,0,1
235630,-100,4,2,1,55,0,1
236551,-100,4,2,1,35,0,1
237209,-142.857142857143,4,2,1,55,0,0
240367,-111.111111111111,4,2,1,55,0,0
240959,-111.111111111111,4,2,1,35,0,0
241354,-111.111111111111,4,2,1,55,0,0
241551,-111.111111111111,4,2,1,35,0,0
241946,-111.111111111111,4,2,1,55,0,0
243130,-111.111111111111,4,2,1,45,0,0
243525,-100,4,2,1,85,0,0
243821,-100,4,2,1,5,0,0
243919,-100,4,2,1,85,0,0
244314,-100,4,2,1,65,0,0
244610,-100,4,2,1,5,0,0
244709,-100,4,2,1,65,0,0
246090,-100,4,2,1,35,0,0
246288,-100,4,2,1,30,0,0
246683,-100,4,2,1,85,0,0
246979,-100,4,2,1,5,0,0
247077,-100,4,2,1,85,0,0
247768,-100,4,2,1,5,0,0
247867,-100,4,2,1,65,0,0
249643,-100,4,2,1,35,0,0
249840,-90.9090909090909,4,2,1,85,0,0
250038,-90.9090909090909,4,2,1,65,0,0
252110,-90.9090909090909,4,2,1,5,0,0
252209,-90.9090909090909,4,2,1,55,0,0
252604,-90.9090909090909,4,2,1,85,0,0
253196,-90.9090909090909,4,2,1,55,0,0
253689,-90.9090909090909,4,2,1,35,0,0
253788,-90.9090909090909,4,2,1,55,0,0
254183,-90.9090909090909,4,2,1,65,0,0
255564,-90.9090909090909,4,2,1,45,0,0
255762,-90.9090909090909,4,2,1,55,0,0
256156,-86.9565217391304,4,2,1,85,0,0
256354,-86.9565217391304,4,2,1,75,0,0
258722,-86.9565217391304,4,2,1,65,0,0
258919,-86.9565217391304,4,2,1,55,0,0
259314,-86.9565217391304,4,2,1,75,0,0
262472,-86.9565217391304,4,2,1,95,0,0
262669,-86.9565217391304,4,2,1,75,0,0
265630,-86.9565217391304,4,2,1,95,0,0
265827,-86.9565217391304,4,2,1,75,0,0
267110,-86.9565217391304,4,2,1,5,0,0
267209,-86.9565217391304,4,2,1,75,0,0
268196,-86.9565217391304,4,2,1,65,0,0
268788,-86.9565217391304,4,2,1,75,0,0
272637,-86.9565217391304,4,2,1,5,0,0
272735,-86.9565217391304,4,2,1,55,0,0
274215,-86.9565217391304,4,2,1,5,0,0
274314,-86.9565217391304,4,2,1,55,0,0
275104,-86.9565217391304,4,2,1,85,0,0
275498,-86.9565217391304,4,2,1,75,0,0
278262,-83.3333333333333,4,2,1,85,0,0
278459,-83.3333333333333,4,2,1,55,0,0
278656,-76.9230769230769,4,2,1,75,0,0
279051,-71.4285714285714,4,2,1,75,0,0
279446,-66.6666666666667,4,2,1,75,0,0
280630,-100,4,2,1,95,0,0
280827,-100,4,2,1,5,0,0
282998,-100,4,2,1,75,0,0
283196,-100,4,2,1,55,0,0
283590,-100,4,2,1,45,0,0
284577,-76.9230769230769,4,2,1,95,0,1
284972,-76.9230769230769,4,2,1,75,0,1
290498,-76.9230769230769,4,2,1,75,0,0
290794,-76.9230769230769,4,2,1,5,0,0
290893,-76.9230769230769,4,2,1,95,0,1
291288,-76.9230769230769,4,2,1,75,0,1
296814,-76.9230769230769,4,2,1,75,0,0
297209,-76.9230769230769,4,2,1,95,0,1
297604,-76.9230769230769,4,2,1,75,0,1
300367,-76.9230769230769,4,2,1,95,0,1
300762,-76.9230769230769,4,2,1,75,0,1
302340,-76.9230769230769,4,2,1,55,0,1
302735,-76.9230769230769,4,2,1,75,0,1
302933,-125,4,2,1,95,0,0
303525,-76.9230769230769,4,2,1,95,0,1
303919,-76.9230769230769,4,2,1,75,0,1
308788,-76.9230769230769,4,2,1,55,0,1
309314,-76.9230769230769,4,2,1,45,0,1
309446,-76.9230769230769,4,2,1,45,0,0
309840,-76.9230769230769,4,2,1,95,0,1
310235,-76.9230769230769,4,2,1,75,0,1
315762,-76.9230769230769,4,2,1,75,0,0
316156,-76.9230769230769,4,2,1,95,0,1
316551,-76.9230769230769,4,2,1,75,0,1
322077,-76.9230769230769,4,2,1,75,0,0
322472,-76.9230769230769,4,2,1,95,0,1
322867,-76.9230769230769,4,2,1,75,0,1
325630,-76.9230769230769,4,2,1,95,0,1
326025,-76.9230769230769,4,2,1,75,0,1
328196,-125,4,2,1,95,0,0
328788,-76.9230769230769,4,2,1,95,0,1
329183,-76.9230769230769,4,2,1,75,0,1
331551,-76.9230769230769,4,2,1,75,0,0
331946,-71.4285714285714,4,2,1,95,0,1
332143,-71.4285714285714,4,2,1,75,0,1
332340,-66.6666666666667,4,2,1,75,0,1
332735,-62.5,4,2,1,75,0,1
333130,-58.8235294117647,4,2,1,75,0,1
333525,-76.9230769230769,4,2,1,75,0,1
334446,-76.9230769230769,4,2,1,35,0,1
335104,-142.857142857143,4,2,1,55,0,0
338262,-142.857142857143,4,2,1,75,0,0
338459,-142.857142857143,4,2,1,5,0,0
340827,-142.857142857143,4,2,1,55,0,0
341419,-125,4,2,1,95,0,0
341814,-125,4,2,1,55,0,0
342998,-125,4,2,1,75,0,0
343393,-125,4,2,1,55,0,0
344577,-125,4,2,1,75,0,0
344972,-125,4,2,1,55,0,0
345367,-125,4,2,1,75,0,0
345762,-125,4,2,1,55,0,0
346156,-125,4,2,1,75,0,0
346946,-125,4,2,1,55,0,0
347735,789.473684210526,4,2,1,75,1,0
347735,-125,4,2,1,75,0,0
347932,-125,4,2,1,5,0,0
349708,-125,4,2,1,55,0,0
350131,789.073684210526,4,2,1,55,1,0
350131,-166.666666666667,4,2,1,35,0,0
350920,834.043684210526,4,2,1,75,1,0
350920,-166.666666666667,4,2,1,75,0,0
351754,762.673684210526,4,2,1,35,1,0
352516,860.473684210526,4,2,1,55,1,0
352946,923.073684210525,4,2,1,35,1,0
353407,1160.37636363636,4,2,1,35,1,0
353987,987.090909090909,4,2,1,35,1,0
353987,-200,4,2,1,35,0,0
354233,-200,4,2,1,5,0,0
355961,789.473684210526,4,2,1,35,1,0
355961,-166.666666666667,4,2,1,55,0,0
356158,-166.666666666667,4,2,1,5,0,0
360401,789.473684210526,4,2,2,35,1,0

[Colours]
Combo1 : 128,64,64
Combo2 : 254,143,22
Combo3 : 254,203,84
SliderBorder : 253,224,157

[HitObjects]
112,288,369,6,0,P|99:235|122:173,1,104.999996795654,0|2,0:0|0:0,0:0:0:0:
248,128,1158,2,0,L|376:144,1,104.999996795654,2|0,0:0|0:0,0:0:0:0:
407,189,1750,2,0,P|423:155|384:75,1,104.999996795654,2|0,0:0|0:0,0:0:0:0:
340,60,2342,2,0,L|235:46,2,104.999996795654,2|2|0,0:0|0:0|0:0,0:0:0:0:
401,18,3329,1,2,0:0:0:0:
406,92,3526,6,0,P|424:140|407:189,1,104.999996795654,4|2,0:1|0:0,0:0:0:0:
248,128,4316,2,0,L|376:144,1,104.999996795654,2|0,0:0|0:0,0:0:0:0:
336,212,4908,2,0,B|281:205|281:205|198:252,1,104.999996795654,2|0,0:0|0:0,0:0:0:0:
268,296,5500,2,0,P|208:297|166:237,2,104.999996795654,2|2|0,0:0|0:0|0:0,0:0:0:0:
340,284,6487,1,2,0:0:0:0:
384,225,6684,6,0,P|413:277|389:339,1,104.999996795654,0|2,0:0|0:0,0:0:0:0:
315,201,7474,2,0,P|346:162|428:167,1,104.999996795654,2|0,0:0|0:0,0:0:0:0:
468,128,8066,2,0,L|460:16,1,104.999996795654,2|0,0:0|0:0,0:0:0:0:
388,24,8658,2,0,B|392:79|392:79|328:52,2,104.999996795654,2|2|0,0:0|0:0|0:0,0:0:0:0:
461,23,9645,1,2,0:0:0:0:
464,96,9842,6,0,P|434:140|378:152,1,104.999996795654,0|2,3:0|0:0,0:0:0:0:
360,300,10632,2,0,L|240:224,1,104.999996795654,2|0,0:0|0:0,0:0:0:0:
216,292,11224,2,0,B|166:306|166:306|79:281,1,104.999996795654,2|0,0:0|0:0,0:0:0:0:
54,333,11816,2,0,P|43:284|84:224,2,104.999996795654,2|2|0,0:0|0:0|0:0,0:0:0:0:
119,366,12803,1,2,0:0:0:0:
115,292,13000,6,0,P|139:243|110:177,1,104.999996795654,0|2,3:0|0:0,0:0:0:0:
72,60,13790,1,0,0:0:0:0:
208,112,14184,1,2,0:0:0:0:
304,224,14579,2,0,B|355:246|355:246|395:226|395:226|443:254|499:226,1,209.999993591309,0|0,1:0|0:0,0:0:0:0:
278,155,16158,6,0,P|231:224|283:295,1,150,0|0,3:0|0:0,0:0:0:0:
380,344,17342,1,2,0:0:0:0:
380,344,17737,2,0,L|372:256,1,75,0|2,0:0|0:0,0:0:0:0:
400,128,18526,2,0,P|360:136|320:124,1,75,0|2,0:0|0:0,0:0:0:0:
196,68,19316,6,0,P|139:55|64:84,1,112.5,2|0,0:0|0:0,0:0:0:0:
28,108,20105,1,2,0:0:0:0:
142,192,20500,1,2,0:0:0:0:
142,192,20697,1,0,0:0:0:0:
142,192,20895,2,0,L|148:266,1,75,2|0,0:0|0:0,0:0:0:0:
264,348,21684,2,0,L|258:274,1,75,2|0,0:0|0:0,0:0:0:0:
384,204,22474,6,0,P|444:184|460:100,1,150,0|0,3:0|0:0,0:0:0:0:
340,36,23658,1,2,0:0:0:0:
340,36,24053,2,0,L|240:60,1,75,0|2,0:0|0:0,0:0:0:0:
144,128,24842,2,0,P|180:119|216:127,1,75,0|2,0:0|0:0,0:0:0:0:
97,186,25632,6,0,P|71:138|103:66,1,112.5,2|0,0:0|0:0,0:0:0:0:
148,48,26421,1,2,0:0:0:0:
240,156,26816,1,2,0:0:0:0:
240,156,27013,1,0,0:0:0:0:
240,156,27211,2,0,L|234:230,1,75,2|0,0:0|0:0,0:0:0:0:
340,324,28000,2,0,L|334:250,1,75,2|0,0:0|0:0,0:0:0:0:
298,110,28790,6,0,P|231:83|170:133,1,150,0|2,3:0|0:0,0:0:0:0:
234,230,29974,1,2,0:0:0:0:
234,230,30368,2,0,L|240:156,1,75,2|0,0:0|0:0,0:0:0:0:
124,240,31158,2,0,L|130:314,1,75,2|2,0:0|0:0,0:0:0:0:
272,288,31947,6,0,B|314:306|352:284|352:284|408:352,2,150,2|2|2,0:0|0:0|0:0,0:0:0:0:
255,143,33921,1,2,0:0:0:0:
255,143,34118,1,0,0:0:0:0:
255,143,34316,2,0,L|315:215,1,75,2|0,0:0|0:0,0:0:0:0:
140,228,35105,6,0,P|170:156|132:83,1,150,0|2,3:0|0:0,0:0:0:0:
12,156,36290,1,2,0:0:0:0:
12,156,36684,2,0,P|48:165|84:157,2,75,2|2|2,0:0|0:0|0:0,0:0:0:0:
48,20,37868,1,2,0:0:0:0:
160,108,38263,6,0,B|189:151|189:151|223:151|223:151|143:200,2,150,0|2|2,1:2|1:2|1:2,0:0:0:0:
444,132,40632,2,0,P|472:133|432:113,1,131.25
388,116,41421,6,0,B|320:148|256:116|256:116|320:172,1,209.999993591309,4|0,0:1|1:0,0:0:0:0:
184,236,42605,2,0,L|126:186,1,52.4999983978272
71,192,43000,2,0,P|99:143|166:130,1,104.999996795654,0|4,1:0|0:0,0:0:0:0:
288,112,43790,1,0,1:0:0:0:
288,112,44184,2,0,L|346:62,1,52.4999983978272
384,128,44579,6,0,L|298:202,1,104.999996795654,0|0,3:0|0:0,0:0:0:0:
212,308,45368,2,0,P|260:294|331:322,1,104.999996795654,0|0,1:0|0:0,0:0:0:0:
374,344,45961,1,0,0:0:0:0:
440,374,46158,2,0,P|443:323|395:275,1,104.999996795654,0|4,1:0|0:0,0:0:0:0:
354,148,46947,1,0,1:0:0:0:
354,148,47737,6,0,B|288:184|222:152|222:152|262:172|270:220,1,209.999993591309,8|0,0:0|1:0,0:0:0:0:
152,300,48921,2,0,L|164:228,1,52.4999983978272
104,200,49316,2,0,P|90:147|120:87,1,104.999996795654,0|4,1:0|0:0,0:0:0:0:
252,96,50105,2,0,B|302:108|302:108|363:94,1,104.999996795654,0|0,1:0|0:0,0:0:0:0:
220,30,50895,6,0,P|184:67|192:137,2,104.999996795654,8|0|0,0:0|0:0|1:0,0:0:0:0:
256,172,52079,1,0,0:0:0:0:
256,172,52474,2,0,L|236:290,1,104.999996795654,0|0,1:0|0:0,0:0:0:0:
168,252,53066,1,8,0:0:0:0:
168,252,53165,1,8,0:0:0:0:
168,252,53263,6,0,L|182:171,1,60,8|8,0:0|0:0,0:0:0:0:
124,128,53658,2,0,P|100:100|140:116,1,90
184,108,54053,6,0,P|248:124|328:100,1,134.999995880127,4|0,0:1|0:0,0:0:0:0:
408,272,54842,2,0,B|434:250|434:250|470:298|416:368,1,134.999995880127,8|0,0:0|0:0,0:0:0:0:
336,336,55434,1,8,0:0:0:0:
336,336,55533,1,8,0:0:0:0:
336,336,55632,2,0,L|240:312,1,67.4999979400635,4|8,0:0|0:0,0:0:0:0:
188,272,56026,2,0,B|162:250|162:250|126:298|180:368,2,134.999995880127,4|8|0,0:0|0:0|0:0,0:0:0:0:
336,156,57211,6,0,B|352:108|352:108|340:56|340:56|312:108,2,134.999995880127,8|8|4,0:0|0:3|0:0,0:0:0:0:
336,156,58395,2,0,B|315:216|315:216|253:206|253:206|290:228|309:262|304:316|284:342,1,269.999991760254,4|4,0:1|0:3,0:0:0:0:
152,204,59579,2,0,L|176:136,1,67.4999979400635,8|8,0:0|0:0,0:0:0:0:
140,52,59974,1,4,0:0:0:0:
60,100,60171,1,0,0:0:0:0:
84,232,60368,6,0,P|122:272|190:266,1,104.999996795654,4|0,0:1|0:0,0:0:0:0:
308,320,61158,2,0,P|292:268|312:215,1,104.999996795654,0|0,1:0|1:0,0:0:0:0:
420,128,61947,1,0,1:0:0:0:
448,272,62342,1,0,1:0:0:0:
307,221,62737,2,0,L|199:240,1,104.999996795654,0|4,1:0|0:3,0:0:0:0:
148,192,63329,1,0,0:0:0:0:
75,204,63526,6,0,P|83:156|145:117,1,104.999996795654,4|0,0:1|0:0,0:0:0:0:
199,121,64118,2,0,P|248:136|298:121,1,104.999996795654
360,80,64711,1,0,0:0:0:0:
424,116,64908,1,0,0:0:0:0:
360,176,65105,2,0,B|404:188|404:188|364:212|364:212|304:200|304:200|264:216|240:260|240:288|260:332|277:353|339:374|394:315,1,419.999987182618,0|12,0:0|0:1,0:0:0:0:
488,232,67079,1,8,0:0:0:0:
326,275,67474,5,8,0:0:0:0:
244,152,67868,1,8,0:0:0:0:
96,144,68263,2,0,L|100:204,1,52.4999983978272,4|8,0:0|0:3,0:0:0:0:
200,268,68790,2,0,L|204:328,2,34.9999989318848,8|8|8,0:0|0:0|0:3,0:0:0:0:
284,148,69447,1,0,0:0:0:0:
344,188,69645,1,2,0:0:0:0:
322,85,69842,6,0,P|254:81|211:155,1,150,4|2,0:1|0:0,0:0:0:0:
277,224,70434,1,0,0:0:0:0:
376,260,70632,2,0,L|370:350,1,75,10|0,0:0|0:0,0:0:0:0:
268,324,71026,1,2,0:0:0:0:
180,264,71224,1,2,0:0:0:0:
180,264,71421,6,0,P|142:271|82:247,1,75,6|0,0:0|0:0,0:0:0:0:
44,105,71816,2,0,L|40:180,1,75,6|2,0:0|0:0,0:0:0:0:
236,140,72211,2,0,P|284:124|224:120,1,150,8|2,0:0|0:0,0:0:0:0:
140,144,72803,1,2,0:0:0:0:
140,144,73000,6,0,B|168:196|144:256|144:256|180:232,1,150,4|2,0:0|0:0,0:0:0:0:
264,292,73592,1,0,0:0:0:0:
264,292,73790,2,0,L|192:340,1,75,10|0,0:0|0:0,0:0:0:0:
333,334,74184,2,0,P|345:294|329:246,1,75,2|0,0:0|0:0,0:0:0:0:
264,188,74579,5,6,0:0:0:0:
340,116,74776,1,0,0:0:0:0:
268,36,74974,2,0,L|196:84,1,75,4|8,0:0|0:0,0:0:0:0:
200,92,75270,1,8,0:0:0:0:
196,104,75368,1,10,0:0:0:0:
104,56,75566,1,8,0:0:0:0:
44,140,75763,2,0,P|59:190|37:256,1,112.5,6|0,0:0|0:0,0:0:0:0:
76,288,76158,6,0,B|120:268|168:288|168:288|236:240,1,150,4|2,0:1|0:0,0:0:0:0:
144,176,76750,1,0,0:0:0:0:
228,112,76947,2,0,L|289:68,1,75,10|0,0:0|0:0,0:0:0:0:
308,172,77342,1,2,0:0:0:0:
388,104,77540,1,0,0:0:0:0:
243,207,77737,2,0,P|289:243|373:207,1,150,6|4,0:0|0:0,0:0:0:0:
171,136,78526,2,0,B|131:176|143:236|143:236|95:208,1,150,10|2,0:0|0:0,0:0:0:0:
0,216,79118,1,8,0:0:0:0:
121,305,79316,6,0,P|183:297|210:209,1,150,6|2,0:0|0:0,0:0:0:0:
248,124,79908,1,0,0:0:0:0:
248,124,80105,2,0,L|312:180,1,75,10|0,0:0|0:0,0:0:0:0:
408,188,80500,1,2,0:0:0:0:
344,272,80697,1,0,0:0:0:0:
304,173,80895,2,0,P|330:111|425:86,1,150,6|4,0:0|0:0,0:0:0:0:
344,272,81684,1,10,0:0:0:0:
240,252,81882,1,8,0:0:0:0:
304,173,82079,2,0,P|343:164|405:188,1,75,6|0,0:0|0:0,0:0:0:0:
282,314,82474,6,0,P|203:317|166:247,1,150,4|0,0:1|0:0,0:0:0:0:
108,60,83263,2,0,B|80:88|80:136|100:164|100:164|44:212,2,150,8|2|4,0:0|0:0|0:0,0:0:0:0:
252,212,84447,1,4,0:0:0:0:
460,184,84842,2,0,B|484:244|448:292|448:292|504:268,1,150,14|2,0:1|0:0,0:0:0:0:
448,72,85632,6,0,P|441:31|423:85,1,150,6|10,0:1|0:0,0:0:0:0:
324,136,86224,1,2,0:0:0:0:
324,136,86421,2,0,L|332:240,1,75,10|0,0:0|0:0,0:0:0:0:
242,335,86816,1,6,0:0:0:0:
330,211,87013,1,10,0:0:0:0:
171,282,87211,5,4,0:0:0:0:
110,141,87408,1,8,0:0:0:0:
250,247,87605,1,6,0:0:0:0:
101,229,87803,1,4,0:0:0:0:
162,370,88000,1,10,0:0:0:0:
180,194,88197,2,0,P|196:142|166:78,1,104.999996795654,4|0,0:1|0:0,0:0:0:0:
101,229,88790,6,0,B|130:284|194:280|194:280|224:336,1,150,4|0,0:1|0:0,0:0:0:0:
420,348,89579,2,0,B|395:302|395:302|395:259|395:259|352:179|352:179,1,150,10|0,0:0|0:0,0:0:0:0:
292,284,90171,1,0,0:0:0:0:
304,180,90368,2,0,P|332:148|392:144,1,75,6|0,0:0|0:0,0:0:0:0:
468,152,90763,2,0,L|507:224,1,75,4|0,0:0|0:0,0:0:0:0:
492,324,91158,2,0,P|420:348|329:299,1,150,10|0,0:0|0:0,0:0:0:0:
260,276,91750,1,10,0:0:0:0:
260,276,91849,1,8,0:0:0:0:
260,276,91947,6,0,L|252:384,1,75,6|0,0:0|0:0,0:0:0:0:
148,340,92342,2,0,P|141:299|155:252,1,75,12|0,0:1|0:0,0:0:0:0:
235,112,92737,1,6,0:0:0:0:
105,190,92934,1,8,0:0:0:0:
279,187,93132,1,4,0:0:0:0:
64,268,93329,1,4,0:0:0:0:
192,188,93526,5,10,0:0:0:0:
319,265,93724,1,0,0:0:0:0:
148,113,93921,1,4,0:0:0:0:
77,84,94053,2,0,L|80:34,3,50,8|8|8|8,0:0|0:0|0:0|0:0,0:0:0:0:
4,29,94579,2,0,L|1:79,3,50,8|6|4|4,0:3|0:0|0:0|0:0,0:0:0:0:
148,113,95105,6,0,P|220:106|279:197,1,150,4|2,0:1|0:0,0:0:0:0:
312,256,95697,1,0,0:0:0:0:
216,304,95895,2,0,L|128:296,1,75,10|0,0:0|0:0,0:0:0:0:
88,204,96290,1,2,0:0:0:0:
148,113,96487,1,2,0:0:0:0:
148,113,96684,6,0,P|185:106|246:129,1,75,6|0,0:0|0:0,0:0:0:0:
334,218,97079,2,0,L|260:212,1,75,6|2,0:0|0:0,0:0:0:0:
351,146,97474,2,0,P|407:211|363:287,1,150,8|2,0:0|0:0,0:0:0:0:
300,316,98066,1,2,0:0:0:0:
300,316,98263,6,0,B|244:311|244:311|209:321|209:321|123:313,1,150,6|2,0:0|0:0,0:0:0:0:
112,216,98855,1,0,0:0:0:0:
112,216,99053,2,0,L|186:222,1,75,10|0,0:0|0:0,0:0:0:0:
341,156,99447,2,0,P|304:148|268:156,1,75,2|8,0:0|0:0,0:0:0:0:
256,164,99743,1,8,0:0:0:0:
244,172,99842,5,6,0:0:0:0:
304,260,100040,1,0,0:0:0:0:
392,316,100237,2,0,L|400:216,1,75,4|0,0:0|0:0,0:0:0:0:
233,277,100632,2,0,P|263:321|350:315,2,112.5,10|2|8,0:0|0:0|0:0,0:0:0:0:
296,114,101421,6,0,B|313:156|313:156|302:284,1,150,6|2,0:1|0:0,0:0:0:0:
392,316,102013,1,0,0:0:0:0:
464,236,102211,2,0,L|472:136,1,75,10|0,0:0|0:0,0:0:0:0:
396,84,102605,1,2,0:0:0:0:
296,114,102803,1,0,0:0:0:0:
368,16,103000,2,0,P|432:20|469:92,1,150,6|4,0:0|0:0,0:0:0:0:
368,276,103790,2,0,P|385:239|384:295,1,150,10|2,0:0|0:0,0:0:0:0:
324,372,104382,1,8,0:0:0:0:
321,199,104579,6,0,B|360:160|414:167|414:167|360:120,1,150,6|2,0:0|0:0,0:0:0:0:
404,32,105171,1,0,0:0:0:0:
404,32,105368,2,0,L|482:100,1,75,10|0,0:0|0:0,0:0:0:0:
378,136,105763,1,2,0:0:0:0:
288,76,105961,1,0,0:0:0:0:
200,132,106158,2,0,P|120:124|96:52,1,150,6|4,0:0|0:0,0:0:0:0:
288,76,106947,1,10,0:0:0:0:
200,132,107145,1,8,0:0:0:0:
296,172,107342,2,0,L|384:132,1,75,6|0,0:0|0:0,0:0:0:0:
170,64,107737,6,0,P|126:140|179:204,1,150,4|0,0:1|0:0,0:0:0:0:
332,296,108526,2,0,B|288:288|288:288|176:340,2,150,8|2|4,0:0|0:0|0:0,0:0:0:0:
452,124,109711,1,4,0:0:0:0:
228,88,110105,2,0,B|240:56|224:40|224:40|168:68|112:32,1,150,14|2,0:1|0:0,0:0:0:0:
312,148,110895,6,0,B|300:180|316:196|316:196|372:168|428:204,1,150,6|10,0:1|0:0,0:0:0:0:
367,292,111487,1,2,0:0:0:0:
367,292,111684,2,0,L|271:336,1,75,10|0,0:0|0:0,0:0:0:0:
217,196,112079,1,6,0:0:0:0:
148,333,112276,1,10,0:0:0:0:
296,235,112474,5,4,0:0:0:0:
142,244,112671,1,8,0:0:0:0:
290,147,112868,1,6,0:0:0:0:
221,284,113066,1,4,0:0:0:0:
138,155,113263,1,10,0:0:0:0:
299,323,113461,2,0,P|353:303|376:215,1,104.999996795654,4|0,0:1|0:0,0:0:0:0:
211,209,114053,6,0,P|155:249|191:353,1,150,4|0,0:1|0:0,0:0:0:0:
288,160,114842,2,0,B|303:120|287:84|287:84|266:35|306:-21,1,150,10|0,0:0|0:0,0:0:0:0:
388,45,115434,1,0,0:0:0:0:
376,148,115632,2,0,L|368:240,1,75,6|0,0:0|0:0,0:0:0:0:
328,320,116026,2,0,P|369:313|416:327,1,75,4|0,0:0|0:0,0:0:0:0:
508,332,116421,2,0,B|472:356|472:356|484:216,1,150,10|0,0:0|0:0,0:0:0:0:
320,56,117211,6,0,L|312:148,1,89.9999972534181,4|0,0:1|0:0,0:0:0:0:
240,260,117605,6,0,L|216:136,1,97.4999955368044,8|0,0:0|0:0,0:0:0:0:
332,48,118000,6,0,L|322:157,1,104.999996795654,10|0,0:0|0:0,0:0:0:0:
232,280,118395,6,0,L|208:156,1,112.500004291535,8|0,0:0|0:0,0:0:0:0:
132,56,118790,6,0,B|106:56|84:36|84:36|46:107|-66:69,1,150,10|0,0:0|0:0,0:0:0:0:
44,160,119316,1,8,0:0:0:0:
44,160,119447,1,8,0:0:0:0:
44,160,119579,2,0,L|59:239,2,50,10|4|4,0:0|0:0|0:0,0:0:0:0:
123,105,119974,2,0,L|138:26,2,50,6|4|4,0:0|0:0|0:0,0:0:0:0:
152,192,120368,6,0,P|200:204|260:188,1,104.999996795654,4|0,0:1|0:0,0:0:0:0:
375,131,121158,2,0,B|410:121|423:155|422:180|384:194|369:175|363:154|363:154|387:212|343:264,1,209.999993591309,0|2,0:0|0:3,0:0:0:0:
92,352,122737,2,0,P|79:301|91:250,1,104.999996795654
212,172,123526,6,0,B|230:130|230:130|134:123|127:24|127:24|129:233|-10:259|-124:158|-24:-2|105:102,1,682.499979171754,2|0,0:3|0:0,0:0:0:0:
256,192,126536,12,0,129842,3:0:0:0:
256,192,132998,6,0,P|320:212|405:188,1,150,4|0,0:3|1:0,0:0:0:0:
484,76,134183,1,0,0:0:0:0:
484,76,134577,2,0,L|400:104,1,75,0|0,1:0|0:0,0:0:0:0:
280,152,135367,2,0,P|240:160|200:148,1,75,0|0,1:0|0:0,0:0:0:0:
268,280,136156,6,0,B|306:272|306:272|400:292,1,112.5,0|0,3:0|0:0,0:0:0:0:
446,309,136946,1,0,1:0:0:0:
372,188,137341,1,0,0:0:0:0:
372,188,137538,1,0,0:0:0:0:
372,188,137735,2,0,L|274:167,1,75,0|4,1:0|0:0,0:0:0:0:
228,48,138525,2,0,L|156:112,1,75,2|4,0:1|0:3,0:0:0:0:
92,216,139314,6,0,P|76:168|118:207,1,150,0|0,3:0|1:0,0:0:0:0:
166,337,140498,1,0,0:0:0:0:
302,375,140893,2,0,P|310:335|298:295,1,75,0|0,1:0|0:0,0:0:0:0:
244,172,141683,2,0,B|244:135|244:135|284:163,1,75,0|0,1:0|0:0,0:0:0:0:
336,205,142275,1,0,0:0:0:0:
336,205,142472,6,0,L|452:193,1,112.5,0|0,3:0|0:0,0:0:0:0:
492,137,143262,1,0,1:0:0:0:
368,68,143656,1,0,0:0:0:0:
368,68,143854,1,0,0:0:0:0:
368,68,144051,2,0,P|328:76|288:64,1,75,0|4,1:0|0:0,0:0:0:0:
164,124,144841,2,0,L|168:224,1,75,2|4,0:1|0:3,0:0:0:0:
244,320,145630,6,0,P|256:248|316:208,1,150,0|0,3:0|1:0,0:0:0:0:
415,311,146814,1,0,0:0:0:0:
415,311,147012,1,0,0:0:0:0:
415,311,147209,2,0,L|319:301,1,75,0|0,1:0|0:0,0:0:0:0:
392,156,147998,2,0,P|400:196|388:236,1,75,0|0,1:0|1:0,0:0:0:0:
260,174,148788,6,0,B|304:186|304:186|252:70,2,150,0|0|0,3:0|1:0|1:0,0:0:0:0:
360,72,150762,1,4,0:0:0:0:
360,72,150959,1,0,0:0:0:0:
360,72,151156,2,0,L|401:161,1,75,2|4,0:1|0:3,0:0:0:0:
348,276,151946,6,0,B|395:298|440:276|440:276|407:298|408:341,1,150,0|0,3:0|1:0,0:0:0:0:
276,352,153130,1,0,0:0:0:0:
276,352,153525,2,0,L|180:342,2,75,0|0|0,1:0|0:0|1:0,0:0:0:0:
248,212,154709,1,0,0:0:0:0:
388,244,155104,6,0,B|435:266|480:244|480:244|488:272|440:300,2,150,0|0|0,3:0|1:0|1:0,0:0:0:0:
425,106,157077,1,4,0:0:0:0:
425,106,157472,2,0,P|449:66|393:78,1,131.25,2|0,0:1|0:0,0:0:0:0:
425,106,158262,6,0,P|436:168|348:120,1,209.999993591309,4|0,0:1|1:0,0:0:0:0:
240,28,159446,2,0,L|180:32,1,52.4999983978272
172,106,159841,2,0,L|291:98,1,104.999996795654,0|4,1:0|0:0,0:0:0:0:
425,106,160630,1,8,1:1:0:0:
396,172,160827,2,0,P|382:220|410:291,1,104.999996795654
452,320,161419,6,0,P|356:320|304:364,1,157.499995193482,0|0,3:0|0:0,0:0:0:0:
240,376,162209,1,0,1:0:0:0:
116,300,162604,2,0,L|120:236,1,52.4999983978272
170,194,162998,1,0,1:0:0:0:
243,195,163196,2,0,L|307:199,2,52.4999983978272,0|4|0,0:0|0:0|0:0,0:0:0:0:
170,194,163788,1,8,1:1:0:0:
170,194,164380,1,0,0:0:0:0:
143,124,164577,6,0,P|100:221|189:267,1,209.999993591309,0|0,3:0|1:0,0:0:0:0:
320,260,165762,2,0,L|316:312,1,52.4999983978272
376,352,166156,2,0,B|412:360|412:360|500:340,1,104.999996795654,0|4,1:0|0:0,0:0:0:0:
488,196,166946,2,0,B|452:188|452:188|364:208,1,104.999996795654,8|0,1:1|0:0,0:0:0:0:
264,284,167735,6,0,B|272:244|252:212|252:212|260:160,2,104.999996795654,0|0|0,3:0|0:0|1:0,0:0:0:0:
120,266,168919,1,0,0:0:0:0:
120,266,169314,2,0,L|136:162,1,104.999996795654,0|4,1:0|0:0,0:0:0:0:
200,124,169906,1,8,0:0:0:0:
200,124,170005,1,8,0:0:0:0:
200,124,170104,2,0,L|284:124,1,60,8|8,0:0|0:0,0:0:0:0:
316,60,170498,2,0,P|344:108|336:160,1,90
348,188,170893,6,0,P|396:164|368:216,1,134.999995880127,4|0,0:1|0:0,0:0:0:0:
212,296,171683,2,0,P|173:230|184:159,1,134.999995880127,8|0,0:0|0:0,0:0:0:0:
236,96,172275,1,8,0:0:0:0:
236,96,172373,1,8,0:0:0:0:
236,96,172472,2,0,L|156:76,1,67.4999979400635,4|8,0:0|0:0,0:0:0:0:
80,51,172867,2,0,B|65:97|92:135|92:135|32:120,2,134.999995880127,4|8|0,0:0|0:0|0:0,0:0:0:0:
268,72,174051,6,0,B|292:32|344:76|311:102|296:120|296:120|304:172,2,134.999995880127,8|8|4,0:0|0:3|0:0,0:0:0:0:
196,184,175235,2,0,B|224:208|204:232|204:232|164:208|144:228|127:255|120:276|148:316|207:322|236:304|256:287,1,269.999991760254,4|4,0:1|0:3,0:0:0:0:
225,118,176419,2,0,P|186:112|140:142,1,67.4999979400635,8|8,0:0|0:0,0:0:0:0:
84,180,176814,1,4,0:0:0:0:
75,85,177012,1,0,0:0:0:0:
225,118,177209,6,0,L|217:246,1,104.999996795654,4|0,0:1|0:0,0:0:0:0:
308,340,177998,2,0,L|300:212,1,104.999996795654,0|0,1:0|0:0,0:0:0:0:
380,112,178788,1,0,1:0:0:0:
480,220,179183,1,0,1:0:0:0:
380,112,179577,2,0,P|331:127|281:112,1,104.999996795654,0|4,1:0|0:3,0:0:0:0:
212,92,180169,1,0,0:0:0:0:
168,32,180367,6,0,P|138:80|161:144,1,104.999996795654,4|0,0:1|0:0,0:0:0:0:
192,184,180959,1,0,0:0:0:0:
193,258,181156,2,0,P|244:238|264:177,1,104.999996795654
256,120,181748,1,0,0:0:0:0:
190,40,181946,2,0,B|234:59|270:36|270:36|306:64|306:64|338:31|362:19|435:25|402:56|463:72|518:44|518:44|470:96,1,419.999987182618,0|12,0:0|0:1,0:0:0:0:
456,236,183919,1,8,0:0:0:0:
374,114,184314,5,8,0:0:0:0:
280,228,184709,1,8,0:0:0:0:
156,144,185104,2,0,L|96:136,1,52.4999983978272,4|8,0:0|0:3,0:0:0:0:
92,260,185630,2,0,L|152:268,2,34.9999989318848,8|8|8,0:0|0:0|0:3,0:0:0:0:
12,136,186288,1,0,0:0:0:0:
48,72,186485,1,2,0:0:0:0:
214,97,186683,6,0,P|228:165|146:220,1,150,4|2,0:1|0:0,0:0:0:0:
72,240,187275,1,0,0:0:0:0:
82,135,187472,2,0,L|156:144,1,75,10|0,0:0|0:0,0:0:0:0:
132,40,187867,1,2,0:0:0:0:
214,97,188064,1,2,0:0:0:0:
300,36,188262,6,0,P|338:29|398:53,1,75,6|0,0:0|0:0,0:0:0:0:
332,210,188656,2,0,L|335:136,1,75,6|2,0:0|0:0,0:0:0:0:
418,250,189051,2,0,B|415:312|415:312|360:284|300:324,1,150,8|2,0:0|0:0,0:0:0:0:
232,348,189643,1,2,0:0:0:0:
232,348,189840,6,0,B|248:312|228:296|228:296|178:321|126:288,1,150,6|2,0:0|0:0,0:0:0:0:
40,336,190433,1,0,0:0:0:0:
40,336,190630,2,0,L|43:262,1,75,10|0,0:0|0:0,0:0:0:0:
124,118,191025,2,0,P|131:155|124:192,1,75,2|8,0:0|0:0,0:0:0:0:
116,204,191321,1,8,0:0:0:0:
108,216,191419,5,6,0:0:0:0:
24,152,191617,1,8,0:0:0:0:
44,48,191814,1,4,0:0:0:0:
124,118,192012,1,8,0:0:0:0:
136,108,192110,1,8,0:0:0:0:
148,100,192209,2,0,L|222:109,1,75,10|8,0:0|0:0,0:0:0:0:
378,113,192604,2,0,B|334:108|334:108|313:95|313:95|252:87,1,112.5,6|0,0:0|0:0,0:0:0:0:
222,109,192998,6,0,P|191:179|240:253,1,150,4|2,0:1|0:0,0:0:0:0:
320,280,193590,1,0,0:0:0:0:
375,188,193788,2,0,L|378:114,1,75,10|0,0:0|0:0,0:0:0:0:
316,28,194183,1,2,0:0:0:0:
420,16,194380,1,0,0:0:0:0:
449,187,194577,2,0,B|410:171|375:187|375:187|378:100,1,150,6|4,0:0|0:0,0:0:0:0:
316,28,195169,1,2,0:0:0:0:
236,96,195367,2,0,B|234:148|234:148|246:188|246:188|242:269,1,150,10|2,0:0|0:0,0:0:0:0:
148,200,195959,1,8,0:0:0:0:
333,128,196156,6,0,B|385:152|437:132|437:132|397:180,1,150,6|2,0:0|0:0,0:0:0:0:
348,252,196748,1,0,0:0:0:0:
348,252,196946,2,0,L|345:326,1,75,10|0,0:0|0:0,0:0:0:0:
252,276,197340,1,2,0:0:0:0:
224,376,197538,1,0,0:0:0:0:
178,281,197735,2,0,P|206:217|299:218,1,150,6|4,0:0|0:0,0:0:0:0:
460,316,198525,1,10,0:0:0:0:
380,248,198722,1,8,0:0:0:0:
448,168,198919,2,0,L|451:94,1,75,8|0,0:3|0:0,0:0:0:0:
279,206,199314,6,0,B|235:222|235:222|239:116,1,150,4|0,0:1|0:0,0:0:0:0:
451,93,200104,2,0,B|495:77|495:77|491:183,2,150,8|2|4,0:0|0:0|0:0,0:0:0:0:
288,224,201288,1,4,0:0:0:0:
184,40,201683,2,0,B|132:64|80:44|80:44|120:92,1,150,14|2,0:1|0:0,0:0:0:0:
288,224,202472,6,0,B|328:240|328:240|436:224,1,150,6|10,0:1|0:0,0:0:0:0:
412,120,203064,1,2,0:0:0:0:
412,120,203262,2,0,L|333:131,1,75,10|0,0:0|0:0,0:0:0:0:
205,251,203656,1,6,0:0:0:0:
75,132,203854,1,10,0:0:0:0:
224,164,204051,5,4,0:0:0:0:
187,336,204248,1,8,0:0:0:0:
141,189,204446,1,6,0:0:0:0:
269,310,204643,1,4,0:0:0:0:
104,364,204840,1,10,0:0:0:0:
288,224,205038,2,0,P|308:184|296:119,1,104.999996795654,4|0,0:1|0:0,0:0:0:0:
142,72,205630,6,0,P|158:144|246:156,1,150,4|0,0:1|0:0,0:0:0:0:
433,138,206419,2,0,P|360:102|289:138,1,150,10|0,0:0|0:0,0:0:0:0:
264,224,207012,1,0,0:0:0:0:
360,272,207209,2,0,L|464:264,1,75,6|0,0:0|0:0,0:0:0:0:
436,372,207604,2,0,P|399:365|362:372,1,75,4|0,0:0|0:0,0:0:0:0:
288,296,207998,2,0,P|297:229|381:199,1,150,10|0,0:0|0:0,0:0:0:0:
472,196,208590,1,10,0:0:0:0:
472,196,208689,1,8,0:0:0:0:
472,196,208788,6,0,L|468:104,1,75,6|0,0:0|0:0,0:0:0:0:
404,36,209183,2,0,P|367:43|330:36,1,75,12|0,0:1|0:0,0:0:0:0:
366,196,209577,1,6,0:0:0:0:
207,155,209775,1,8,0:0:0:0:
313,266,209972,1,4,0:0:0:0:
451,207,210169,1,4,0:0:0:0:
229,240,210367,5,10,0:0:0:0:
399,277,210564,1,0,0:0:0:0:
249,325,210762,1,4,0:0:0:0:
174,298,210893,2,0,L|106:294,3,50,8|8|8|8,0:0|0:0|0:0|0:0,0:0:0:0:
249,325,211419,2,0,L|298:327,3,50,4|6|4|4,0:0|0:0|0:0|0:0,0:0:0:0:
378,229,211946,6,0,P|311:257|299:328,1,150,4|2,0:1|0:0,0:0:0:0:
201,374,212538,1,0,0:0:0:0:
128,300,212735,2,0,L|46:295,1,75,10|0,0:0|0:0,0:0:0:0:
96,200,213130,1,2,0:0:0:0:
60,100,213327,1,2,0:0:0:0:
60,100,213525,6,0,P|97:93|134:100,1,75,6|0,0:0|0:0,0:0:0:0:
305,136,213919,2,0,P|268:142|232:136,1,75,6|2,0:0|0:0,0:0:0:0:
306,62,214314,2,0,P|372:104|365:180,1,150,8|2,0:0|0:0,0:0:0:0:
296,244,214906,1,2,0:0:0:0:
316,352,215104,6,0,B|264:356|256:312|256:312|299:336|356:305,1,150,6|2,0:0|0:0,0:0:0:0:
396,240,215696,1,0,0:0:0:0:
296,244,215893,2,0,L|292:152,1,75,10|0,0:0|0:0,0:0:0:0:
212,30,216288,2,0,P|205:67|212:104,1,75,2|8,0:0|0:0,0:0:0:0:
204,116,216584,1,8,0:0:0:0:
196,128,216683,5,6,0:0:0:0:
293,169,216880,1,0,0:0:0:0:
388,208,217077,2,0,L|384:116,1,75,4|0,0:0|0:0,0:0:0:0:
208,201,217472,2,0,P|149:187|124:114,2,112.5,10|2|8,0:0|0:0|0:0,0:0:0:0:
318,107,218262,6,0,P|247:83|195:131,1,150,6|2,0:1|0:0,0:0:0:0:
138,216,218854,1,0,0:0:0:0:
204,296,219051,2,0,L|200:380,1,75,10|0,0:0|0:0,0:0:0:0:
300,336,219446,1,2,0:0:0:0:
288,232,219643,1,0,0:0:0:0:
200,371,219840,2,0,P|136:325|156:238,1,150,6|4,0:0|0:0,0:0:0:0:
200,172,220433,1,2,0:0:0:0:
288,232,220630,2,0,B|335:254|381:232|381:232|347:254|348:297,1,150,10|2,0:0|0:0,0:0:0:0:
312,372,221222,1,8,0:0:0:0:
454,251,221419,6,0,P|450:201|361:160,1,150,6|2,0:0|0:0,0:0:0:0:
288,232,222012,1,0,0:0:0:0:
232,144,222209,2,0,L|235:69,1,75,10|0,0:0|0:0,0:0:0:0:
140,28,222604,1,2,0:0:0:0:
148,132,222801,1,0,0:0:0:0:
235,69,222998,2,0,B|272:90|309:77|309:77|356:60|399:93,1,150,6|4,0:0|0:0,0:0:0:0:
148,132,223788,1,10,0:0:0:0:
140,28,223985,1,8,0:0:0:0:
235,69,224183,2,0,L|315:65,1,75,6|0,0:0|0:0,0:0:0:0:
168,204,224577,6,0,P|94:184|76:115,1,150,4|0,0:1|0:0,0:0:0:0:
270,197,225367,2,0,B|263:308|263:308|223:252,2,150,8|2|4,0:0|0:0|0:0,0:0:0:0:
140,32,226551,1,4,0:0:0:0:
340,100,226946,2,0,P|396:92|340:64,1,150,14|2,0:1|0:0,0:0:0:0:
200,208,227735,6,0,P|144:200|200:172,1,150,6|10,0:1|0:0,0:0:0:0:
300,168,228327,1,2,0:0:0:0:
300,168,228525,2,0,L|296:244,1,75,10|0,0:0|0:0,0:0:0:0:
441,63,228919,1,6,0:0:0:0:
300,168,229117,1,8,0:0:0:0:
361,27,229314,5,6,0:0:0:0:
220,133,229512,1,8,0:0:0:0:
371,115,229709,1,6,0:0:0:0:
229,221,229906,1,4,0:0:0:0:
291,80,230104,1,10,0:0:0:0:
150,186,230301,2,0,P|132:140|152:80,1,104.999996795654,4|0,0:1|0:0,0:0:0:0:
206,258,230893,6,0,P|264:268|230:221,1,150,4|0,0:1|0:0,0:0:0:0:
76,289,231683,2,0,P|146:302|211:249,1,150,10|0,0:0|0:0,0:0:0:0:
212,152,232275,1,0,0:0:0:0:
312,128,232472,2,0,L|400:132,1,75,6|0,0:0|0:0,0:0:0:0:
448,44,232867,2,0,P|411:50|375:44,1,75,4|0,0:0|0:0,0:0:0:0:
276,32,233262,2,0,P|221:77|218:169,1,150,10|0,0:0|0:0,0:0:0:0:
272,240,233854,1,2,0:0:0:0:
212,352,234051,6,0,P|168:340|121:354,1,89.9999972534181,4|0,0:1|0:0,0:0:0:0:
272,240,234446,6,0,P|312:252|371:235,1,97.4999955368044,8|0,0:0|0:0,0:0:0:0:
220,340,234840,6,0,P|170:325|120:340,1,104.999996795654,10|0,0:0|0:0,0:0:0:0:
264,224,235235,6,0,P|318:240|374:221,1,112.500004291535,8|0,0:0|0:0,0:0:0:0:
216,140,235630,6,0,B|228:108|212:92|212:92|156:120|100:84,1,150,10|0,0:0|0:0,0:0:0:0:
37,148,236156,1,8,0:0:0:0:
37,148,236288,1,8,0:0:0:0:
37,148,236419,2,0,L|52:227,2,50,10|4|4,0:0|0:0|0:0,0:0:0:0:
117,93,236814,2,0,L|132:14,2,50,6|4|4,0:0|0:0|0:0,0:0:0:0:
116,184,237209,6,0,P|105:240|46:268,1,104.999996795654,4|0,0:1|0:0,0:0:0:0:
216,268,237998,2,0,B|216:220|216:220|188:156|188:156|236:176|288:148,1,209.999993591309,0|2,0:0|0:3,0:0:0:0:
512,32,239577,2,0,P|500:80|516:140,1,104.999996795654
432,256,240367,5,2,0:0:0:0:
432,256,240762,1,12,0:1:0:0:
359,254,240959,2,0,B|267:266|267:266|291:206,1,134.999995880127,4|12,0:0|0:1,0:0:0:0:
342,182,241551,2,0,P|408:199|430:272,1,134.999995880127,4|12,0:0|0:1,0:0:0:0:
400,323,242143,1,8,0:0:0:0:
359,254,242340,1,4,0:0:0:0:
359,254,242735,6,0,L|303:258,2,44.999998626709,8|8|8,0:0|0:0|0:0,0:0:0:0:
356,304,243130,1,4,0:0:0:0:
348,352,243262,1,4,0:0:0:0:
400,323,243393,1,4,0:0:0:0:
451,292,243525,6,0,P|457:237|408:171,1,112.5,4|0,0:1|0:0,0:0:0:0:
404,156,243919,1,4,0:1:0:0:
404,156,244314,2,0,P|352:172|279:140,1,112.5
260,140,244709,1,8,0:0:0:0:
228,64,244906,2,0,P|184:108|208:204,1,150,8|0,0:0|0:0,0:0:0:0:
260,140,245498,1,2,0:1:0:0:
310,74,245696,1,0,0:0:0:0:
260,140,245893,1,12,0:1:0:0:
268,220,246090,2,0,L|264:296,2,75,4|4|4,0:0|0:0|0:0,0:0:0:0:
260,140,246683,6,0,P|313:155|366:139,1,112.5,4|0,0:1|0:0,0:0:0:0:
404,124,247077,1,4,0:1:0:0:
404,124,247472,2,0,L|396:265,1,112.5
368,264,247867,1,0,0:0:0:0:
376,345,248064,2,0,P|300:312|291:240,1,150,8|0,0:0|0:0,0:0:0:0:
312,172,248656,1,8,0:0:0:0:
260,108,248854,1,0,0:0:0:0:
184,136,249051,2,0,L|100:140,1,75,8|8,0:0|0:3,0:0:0:0:
52,200,249446,1,8,0:3:0:0:
104,264,249643,1,4,0:0:0:0:
68,348,249840,6,0,L|150:344,1,82.5000025177003,4|0,0:1|0:0,0:0:0:0:
204,272,250235,2,0,P|240:280|296:266,1,82.5000025177003,2|0,0:0|0:0,0:0:0:0:
368,312,250630,2,0,P|359:271|367:231,1,82.5000025177003,10|0,0:0|0:0,0:0:0:0:
416,152,251025,2,0,P|424:116|410:60,1,82.5000025177003,6|0,0:0|0:0,0:0:0:0:
332,109,251419,2,0,L|249:112,1,82.5000025177003,6|0,0:0|0:0,0:0:0:0:
188,48,251814,2,0,P|160:104|201:189,1,123.75000377655,10|0,0:0|0:0,0:0:0:0:
192,200,252209,1,10,0:0:0:0:
192,200,252604,6,0,P|200:264|124:192,1,247.500007553101,4|4,0:1|0:0,0:0:0:0:
160,126,253393,2,0,P|194:119|262:158,1,82.5000025177003,10|0,0:0|0:0,0:0:0:0:
252,144,253689,1,8,0:0:0:0:
264,154,253788,2,0,L|347:151,1,82.5000025177003,10|0,0:0|0:0,0:0:0:0:
348,344,254183,1,6,0:0:0:0:
451,200,254380,1,8,0:0:0:0:
310,262,254577,5,6,0:0:0:0:
414,120,254775,1,8,0:0:0:0:
398,271,254972,1,6,0:0:0:0:
328,109,255169,1,6,0:0:0:0:
222,257,255367,1,8,0:0:0:0:
362,191,255564,1,6,0:0:0:0:
263,336,255762,1,4,0:0:0:0:
484,282,255959,1,6,0:0:0:0:
222,257,256156,6,0,L|104:261,1,86.2500016450882,4|0,0:1|0:0,0:0:0:0:
48,296,256551,2,0,P|57:254|47:213,1,86.2500016450882,6|0,0:0|0:0,0:0:0:0:
132,172,256946,2,0,P|122:130|132:89,1,86.2500016450882,10|0,0:0|0:0,0:0:0:0:
220,130,257340,2,0,P|261:139|302:129,1,86.2500016450882,6|0,0:0|0:0,0:0:0:0:
388,84,257735,2,0,L|392:200,1,86.2500016450882,6|0,0:0|0:0,0:0:0:0:
348,256,258130,2,0,P|337:297|347:338,1,86.2500016450882,6|0,0:0|0:0,0:0:0:0:
432,296,258525,1,10,0:0:0:0:
496,228,258722,1,8,0:3:0:0:
348,256,258919,1,4,0:0:0:0:
348,256,259314,6,0,L|230:252,1,86.2500016450882,6|0,0:0|0:0,0:0:0:0:
192,320,259709,2,0,P|150:330|106:318,1,86.2500016450882,6|0,0:0|0:0,0:0:0:0:
20,356,260104,2,0,P|30:314|21:272,1,86.2500016450882,10|0,0:0|0:0,0:0:0:0:
92,208,260498,2,0,L|178:210,1,86.2500016450882,6|0,0:0|0:0,0:0:0:0:
262,253,260893,2,0,P|303:263|344:253,1,86.2500016450882,6|0,0:0|0:0,0:0:0:0:
388,168,261288,2,0,P|346:157|305:167,1,86.2500016450882,6|0,0:0|0:0,0:0:0:0:
262,253,261683,1,10,0:0:0:0:
178,210,261880,1,8,0:3:0:0:
232,343,262077,1,4,0:0:0:0:
232,343,262472,6,0,L|318:345,1,86.2500016450882,4|0,0:1|0:0,0:0:0:0:
396,292,262867,1,6,0:0:0:0:
364,204,263064,1,2,0:0:0:0:
326,116,263262,2,0,P|367:106|408:117,1,86.2500016450882,10|0,0:0|0:0,0:0:0:0:
364,204,263656,2,0,L|278:202,1,86.2500016450882,4|2,0:0|0:0,0:0:0:0:
216,272,264051,5,4,0:0:0:0:
136,224,264248,1,2,0:0:0:0:
52,268,264446,2,0,P|41:227|51:186,1,86.2500016450882,6|0,0:0|0:0,0:0:0:0:
124,124,264840,2,0,B|136:96|136:96|133:7,1,86.2500016450882,8|2,0:0|0:0,0:0:0:0:
216,88,265235,1,2,0:1:0:0:
296,36,265433,1,2,0:0:0:0:
216,88,265630,6,0,L|220:204,1,86.2500016450882,4|0,0:1|0:0,0:0:0:0:
268,256,266025,2,0,P|277:297|266:338,1,86.2500016450882,10|0,0:0|0:0,0:0:0:0:
184,292,266419,2,0,P|142:303|101:293,1,86.2500016450882,10|0,0:0|0:0,0:0:0:0:
142,208,266814,2,0,L|137:74,1,129.375002467632,10|0,0:0|0:0,0:0:0:0:
176,52,267209,5,10,0:1:0:0:
276,142,267406,1,8,0:0:0:0:
377,58,267604,1,4,0:0:0:0:
137,79,267801,1,10,0:0:0:0:
137,79,268196,2,0,B|101:51|101:51|136:118|84:195,1,172.500003290176,12|0,0:1|0:0,0:0:0:0:
48,252,268788,6,0,L|134:254,1,86.2500016450882,6|8,0:0|0:0,0:0:0:0:
216,304,269183,2,0,P|205:263|215:222,1,86.2500016450882,6|0,0:0|0:0,0:0:0:0:
312,221,269577,2,0,P|322:262|311:303,2,86.2500016450882,10|2|2,0:0|0:0|0:0,0:0:0:0:
264,136,270169,1,8,0:0:0:0:
264,136,270268,1,8,0:0:0:0:
264,136,270367,6,0,L|262:50,1,86.2500016450882,6|0,0:0|0:0,0:0:0:0:
172,84,270762,2,0,P|130:94|89:83,1,86.2500016450882,6|2,0:0|0:0,0:0:0:0:
12,28,271156,2,0,P|47:80|-9:188,1,172.500003290176,8|2,0:0|0:0,0:0:0:0:
88,232,271748,1,8,0:0:0:0:
88,232,271847,1,8,0:0:0:0:
88,232,271946,6,0,L|86:318,1,86.2500016450882,6|2,0:0|0:0,0:0:0:0:
168,368,272340,2,0,P|240:360|271:301,1,129.375002467632,6|0,0:0|0:0,0:0:0:0:
288,272,272735,1,10,0:0:0:0:
194,297,272933,1,2,0:0:0:0:
241,214,273130,2,0,P|283:198|341:219,1,86.2500016450882,2|8,0:0|0:0,0:0:0:0:
336,220,273426,1,8,0:0:0:0:
348,232,273525,5,6,0:0:0:0:
428,184,273722,1,8,0:0:0:0:
428,280,273919,2,0,B|425:369|425:369|384:340,1,129.375002467632,6|0,0:0|0:0,0:0:0:0:
344,344,274314,1,10,0:0:0:0:
268,284,274512,1,8,0:0:0:0:
428,184,274709,1,6,0:0:0:0:
428,184,275104,6,0,B|376:208|324:184|324:184|320:224|388:244,1,172.500003290176,4|2,0:1|0:0,0:0:0:0:
199,333,275893,2,0,B|251:309|303:333|303:333|307:293|239:273,1,172.500003290176,10|2,0:0|0:0,0:0:0:0:
144,264,276485,1,8,0:0:0:0:
186,148,276683,1,6,0:0:0:0:
120,274,276880,1,8,0:0:0:0:
174,124,277078,1,4,0:0:0:0:
174,124,277472,2,0,B|152:84|152:84|222:116|299:71,1,172.500003290176,10|4,0:0|0:0,0:0:0:0:
360,44,278064,1,8,0:0:0:0:
304,175,278262,6,0,L|301:278,1,89.9999972534181,4|0,0:1|0:0,0:0:0:0:
416,348,278656,6,0,P|412:288|352:244,1,97.4999955368044,8|0,0:0|0:0,0:0:0:0:
288,160,279051,6,0,L|285:273,1,104.999996795654,8|0,0:0|0:0,0:0:0:0:
432,336,279446,6,0,P|428:276|368:232,1,112.500004291535,10|0,0:0|0:0,0:0:0:0:
176,289,279840,1,10,0:1:0:0:
176,289,280630,2,0,B|112:257|115:379|173:369|207:345|252:313|221:249|216:215|173:138|173:138|266:187|360:138|360:138|431:267|400:376|344:365|316:385|263:357|262:254|360:289|355:319,1,900,4|4,0:1|0:3,0:0:0:0:
452,344,283196,1,8,0:0:0:0:
508,284,283393,2,0,L|504:192,1,75,4|8,0:0|0:0,0:0:0:0:
492,196,283689,1,8,0:0:0:0:
480,184,283788,5,8,0:0:0:0:
468,172,283887,1,8,0:0:0:0:
456,160,283985,1,8,0:0:0:0:
444,148,284084,1,8,0:0:0:0:
420,188,284183,5,4,0:0:0:0:
420,208,284281,1,4,0:0:0:0:
420,228,284380,1,4,0:0:0:0:
420,248,284479,1,4,0:0:0:0:
344,236,284577,6,0,P|379:314|477:301,1,194.999991073609,4|2,0:1|0:0,0:0:0:0:
492,196,285169,1,0,0:0:0:0:
418,117,285367,2,0,L|302:121,1,97.4999955368044,10|0,0:0|0:0,0:0:0:0:
220,84,285762,1,2,0:0:0:0:
236,188,285959,1,2,0:0:0:0:
154,118,286156,6,0,P|147:71|188:17,1,97.4999955368044,6|0,0:0|0:0,0:0:0:0:
236,188,286551,2,0,L|232:304,1,97.4999955368044,6|2,0:0|0:0,0:0:0:0:
421,210,286946,2,0,B|353:174|293:210|293:210|221:182,1,194.999991073609,8|2,0:0|0:0,0:0:0:0:
306,104,287538,1,2,0:0:0:0:
305,103,287735,6,0,B|233:75|233:75|268:140|225:211,1,194.999991073609,6|2,0:0|0:0,0:0:0:0:
147,128,288327,1,0,0:0:0:0:
48,84,288525,2,0,P|35:128|66:195,1,97.4999955368044,10|0,0:0|0:0,0:0:0:0:
117,352,288919,2,0,P|130:305|116:260,1,97.4999955368044,2|8,0:0|0:0,0:0:0:0:
108,248,289215,1,8,0:0:0:0:
100,237,289314,5,6,0:0:0:0:
16,304,289512,1,8,0:0:0:0:
8,196,289709,1,4,0:0:0:0:
96,136,289906,1,8,0:0:0:0:
108,128,290005,1,8,0:0:0:0:
120,121,290104,2,0,L|232:125,1,97.4999955368044,10|8,0:1|0:0,0:0:0:0:
180,290,290498,2,0,P|152:226|216:162,1,146.249993305207,6|0,0:0|0:0,0:0:0:0:
218,125,290893,6,0,B|266:150|319:122|319:122|363:122|363:122|295:82,1,194.999991073609,4|2,0:1|0:0,0:0:0:0:
256,12,291485,1,0,0:0:0:0:
155,49,291683,2,0,P|121:97|139:168,1,97.4999955368044,10|0,0:0|0:0,0:0:0:0:
132,240,292077,1,2,0:0:0:0:
240,228,292275,1,0,0:0:0:0:
166,305,292472,2,0,P|71:281|75:194,1,194.999991073609,6|4,0:0|0:0,0:0:0:0:
276,136,293262,2,0,B|244:156|244:156|244:96|244:96|188:124|117:79,1,194.999991073609,10|2,0:0|0:0,0:0:0:0:
48,128,293854,1,8,0:0:0:0:
169,184,294051,6,0,B|169:228|169:228|185:260|185:260|185:328|185:328|213:288,1,194.999991073609,6|2,0:0|0:0,0:0:0:0:
320,292,294643,1,0,0:0:0:0:
320,292,294840,2,0,L|257:384,1,97.4999955368044,10|0,0:0|0:0,0:0:0:0:
372,372,295235,1,2,0:0:0:0:
416,272,295433,1,0,0:0:0:0:
460,176,295630,2,0,B|471:142|471:142|415:174|355:142|355:142|386:205,1,194.999991073609,6|4,0:0|0:0,0:0:0:0:
372,372,296419,1,10,0:0:0:0:
416,272,296617,1,8,0:0:0:0:
308,260,296814,2,0,P|246:270|189:241,1,97.4999955368044,6|0,0:0|0:0,0:0:0:0:
215,91,297209,6,0,P|255:156|196:270,1,194.999991073609,4|0,0:1|0:0,0:0:0:0:
425,305,297998,2,0,B|409:325|409:325|377:361|377:361|344:333|344:333|298:353|256:324,2,194.999991073609,8|2|4,0:0|0:0|0:0,0:0:0:0:
304,128,299183,1,4,0:0:0:0:
499,236,299577,2,0,B|528:212|528:212|499:182|499:182|463:204|463:204|417:184|375:213,1,194.999991073609,6|2,0:1|0:0,0:0:0:0:
196,292,300367,6,0,B|166:315|166:315|196:346|196:346|231:323|231:323|277:343|319:314,1,194.999991073609,6|10,0:1|0:0,0:0:0:0:
271,220,300959,1,2,0:0:0:0:
271,220,301156,2,0,L|275:116,1,97.4999955368044,10|0,0:0|0:0,0:0:0:0:
161,212,301551,1,6,0:0:0:0:
209,66,301748,1,10,0:0:0:0:
244,242,301946,5,4,0:0:0:0:
143,124,302143,1,8,0:0:0:0:
174,299,302340,1,4,0:0:0:0:
234,337,302472,1,4,0:0:0:0:
304,321,302604,1,4,0:0:0:0:
335,257,302735,1,10,0:1:0:0:
275,123,302933,2,0,P|254:69|298:-3,1,120,4|0,0:1|0:0,0:0:0:0:
346,210,303525,6,0,B|359:237|335:257|335:257|305:237|315:210|315:210|258:238|195:184,1,194.999991073609,4|0,0:1|0:0,0:0:0:0:
419,313,304314,2,0,P|355:357|243:301,1,194.999991073609,10|0,0:0|0:0,0:0:0:0:
232,209,304906,1,0,0:0:0:0:
132,252,305104,2,0,L|136:136,1,97.4999955368044,6|0,0:0|0:0,0:0:0:0:
236,120,305498,2,0,P|288:140|316:200,1,97.4999955368044,4|0,0:0|0:0,0:0:0:0:
316,280,305893,2,0,P|328:228|336:296,1,194.999991073609,10|0,0:0|0:0,0:0:0:0:
248,328,306485,1,8,0:0:0:0:
248,328,306584,1,8,0:0:0:0:
248,328,306683,6,0,B|224:312|224:312|178:329|132:296,1,97.4999955368044,6|0,0:0|0:0,0:0:0:0:
189,208,307077,2,0,L|193:92,1,97.4999955368044,12|0,0:1|0:0,0:0:0:0:
320,280,307472,1,6,0:0:0:0:
378,133,307669,1,8,0:0:0:0:
233,283,307867,1,4,0:0:0:0:
307,80,308064,1,4,0:0:0:0:
189,208,308262,5,10,0:0:0:0:
387,45,308459,1,0,0:0:0:0:
276,203,308656,1,4,0:0:0:0:
159,128,308788,2,0,L|224:132,3,64.9999970245363,8|8|8|8,0:0|0:0|0:0|0:0,0:0:0:0:
276,203,309314,2,0,L|352:207,3,64.9999970245363,4|4|4|4,0:0|0:0|0:0|0:0,0:0:0:0:
457,98,309840,6,0,P|363:129|301:22,1,194.999991073609,4|2,0:1|0:0,0:0:0:0:
200,28,310433,1,0,0:0:0:0:
108,84,310630,2,0,L|112:196,1,97.4999955368044,10|0,0:0|0:0,0:0:0:0:
184,260,311025,1,2,0:0:0:0:
276,208,311222,1,2,0:0:0:0:
276,208,311419,6,0,P|320:196|383:217,1,97.4999955368044,6|0,0:0|0:0,0:0:0:0:
320,304,311814,2,0,L|228:376,1,97.4999955368044,6|2,0:0|0:0,0:0:0:0:
144,324,312209,2,0,P|110:248|200:186,1,194.999991073609,8|2,0:0|0:0,0:0:0:0:
288,148,312801,1,2,0:0:0:0:
326,250,312998,6,0,B|301:299|301:299|269:259|269:259|213:289|153:239,1,194.999991073609,6|2,0:0|0:0,0:0:0:0:
100,192,313590,1,0,0:0:0:0:
24,116,313788,2,0,L|68:29,1,97.4999955368044,10|0,0:0|0:0,0:0:0:0:
239,116,314183,2,0,P|192:128|146:116,1,97.4999955368044,2|8,0:0|0:0,0:0:0:0:
134,108,314479,1,8,0:0:0:0:
122,100,314577,5,6,0:0:0:0:
195,20,314775,1,8,0:0:0:0:
292,64,314972,2,0,P|313:128|280:177,1,97.4999955368044,4|0,0:0|0:0,0:0:0:0:
220,334,315367,2,0,P|183:274|211:207,2,146.249993305207,10|2|8,0:1|0:0|0:0,0:0:0:0:
232,352,316058,1,8,0:0:0:0:
244,368,316156,6,0,B|260:300|329:290|329:290|252:264,1,194.999991073609,4|2,0:1|0:0,0:0:0:0:
296,164,316748,1,0,0:0:0:0:
296,164,316946,2,0,L|407:202,1,97.4999955368044,10|2,0:0|0:0,0:0:0:0:
484,152,317340,1,2,0:0:0:0:
400,84,317538,1,0,0:0:0:0:
300,48,317735,2,0,B|256:33|256:33|256:81|256:81|192:52|126:100,1,194.999991073609,6|4,0:0|0:0,0:0:0:0:
72,144,318327,1,2,0:0:0:0:
60,252,318525,2,0,B|49:289|49:289|89:272|126:288|126:288|171:306|208:273,1,194.999991073609,10|2,0:0|0:0,0:0:0:0:
155,164,319117,1,8,0:0:0:0:
224,352,319314,6,0,P|269:308|215:206,1,194.999991073609,6|2,0:0|0:0,0:0:0:0:
192,100,319906,1,0,0:0:0:0:
283,157,320104,2,0,P|320:194|348:273,1,97.4999955368044,10|0,0:0|0:0,0:0:0:0:
372,336,320498,1,2,0:0:0:0:
472,300,320696,1,0,0:0:0:0:
444,196,320893,2,0,B|424:141|456:100|456:100|440:68|440:68|429:126|368:120,1,194.999991073609,6|4,0:0|0:0,0:0:0:0:
372,336,321683,1,10,0:0:0:0:
472,300,321881,1,8,0:0:0:0:
444,196,322077,2,0,L|336:192,1,97.4999955368044,6|0,0:0|0:0,0:0:0:0:
300,43,322472,6,0,P|352:71|344:195,1,194.999991073609,4|0,0:1|0:0,0:0:0:0:
144,268,323262,2,0,B|200:300|264:272|264:272|200:324,2,194.999991073609,8|2|4,0:0|0:0|0:0,0:0:0:0:
36,84,324446,1,4,0:0:0:0:
244,36,324840,2,0,B|304:36|304:36|284:60|284:60|312:112|272:176,1,194.999991073609,6|2,0:1|0:0,0:0:0:0:
112,292,325630,6,0,B|128:224|92:180|92:180|128:96,1,194.999991073609,6|10,0:1|0:0,0:0:0:0:
228,100,326222,1,2,0:0:0:0:
228,100,326419,2,0,L|185:201,1,97.4999955368044,10|0,0:0|0:0,0:0:0:0:
358,142,326814,1,6,0:0:0:0:
234,265,327012,1,10,0:0:0:0:
294,81,327209,5,4,0:0:0:0:
190,190,327406,1,8,0:0:0:0:
419,203,327604,1,6,0:0:0:0:
292,331,327801,1,4,0:0:0:0:
274,168,327998,1,10,0:1:0:0:
147,267,328196,2,0,P|107:219|119:144,1,120,4|0,0:1|0:0,0:0:0:0:
253,97,328788,6,0,P|317:108|321:225,1,194.999991073609,4|0,0:1|0:0,0:0:0:0:
315,26,329577,2,0,B|351:35|383:66|383:66|445:66|445:66|399:102,1,194.999991073609,10|0,0:0|0:0,0:0:0:0:
396,208,330169,1,0,0:0:0:0:
480,276,330367,2,0,P|504:224|484:156,1,97.4999955368044,6|0,0:0|0:0,0:0:0:0:
396,208,330762,2,0,L|400:316,1,97.4999955368044,4|0,0:0|0:0,0:0:0:0:
308,252,331156,2,0,P|212:240|156:344,1,194.999991073609,10|0,0:0|0:0,0:0:0:0:
68,372,331748,1,2,0:0:0:0:
24,264,331946,6,0,B|12:228|12:228|24:140,1,104.999996795654,4|0,0:1|0:0,0:0:0:0:
132,112,332340,6,0,P|146:163|114:241,1,112.500004291535,8|0,0:0|0:0,0:0:0:0:
0,264,332735,6,0,B|-12:228|-12:228|0:140,1,120,10|0,0:0|0:0,0:0:0:0:
151,101,333130,6,0,P|161:153|122:228,1,127.50000243187,8|0,0:0|0:0,0:0:0:0:
280,176,333525,6,0,B|340:196|340:196|389:177|389:177|328:200|332:260,1,194.999991073609,10|0,0:0|0:0,0:0:0:0:
430,284,334051,1,8,0:0:0:0:
430,284,334183,1,8,0:0:0:0:
430,284,334314,2,0,L|498:257,2,64.9999970245363,8|6|4,0:0|0:0|0:0,0:0:0:0:
376,368,334709,2,0,L|308:341,2,64.9999970245363,6|4|4,0:0|0:0|0:0,0:0:0:0:
430,284,335104,6,0,P|444:232|419:171,1,104.999996795654,4|0,0:1|0:0,0:0:0:0:
332,128,335893,2,0,P|372:172|360:84,1,209.999993591309,0|2,0:0|0:3,0:0:0:0:
156,32,337472,2,0,B|148:71|148:71|156:94|156:94|144:156,1,104.999996795654
240,203,338262,6,0,B|316:203|316:203|322:136|249:91|170:110|136:147|136:243|164:243|187:295|230:282|274:276|309:280|309:280|232:279|184:299|152:367,1,682.499979171754,0|0,1:0|0:0,0:0:0:0:
96,168,341419,6,0,P|124:112|187:67,1,120,0|0,1:0|0:0,0:0:0:0:
312,76,342209,2,0,P|357:114|383:168,1,120,2|0,0:0|0:0,0:0:0:0:
316,296,342998,2,0,B|269:295|269:295|244:283|244:283|191:284,1,120,0|0,1:0|0:0,0:0:0:0:
64,340,343788,2,0,P|81:283|63:226,1,120,2|0,0:0|0:0,0:0:0:0:
192,160,344577,6,0,B|214:106|214:106|288:84,2,120,0|2|0,1:0|0:0|1:0,0:0:0:0:
316,232,345762,1,2,0:0:0:0:
208,328,346156,2,0,B|156:296|164:228|164:228|120:256|120:256|78:238|40:264,1,240,0|2,1:0|0:0,0:0:0:0:
340,256,347735,6,0,B|412:176|408:92|328:68|268:104|264:188|324:216|437:234|437:234|474:175|454:77|386:51,1,600,0|0,1:0|0:0,0:0:0:0:
296,36,350131,6,0,L|196:36,1,89.9999972534181,2|0,0:0|0:0,0:0:0:0:
196,136,350920,6,0,B|254:168|312:139|312:139|274:205,1,179.999994506836,0|2,1:0|0:0,0:0:0:0:
283,190,352516,1,0,1:0:0:0:
184,324,352946,1,0,0:0:0:0:
144,188,353407,1,2,0:0:0:0:
219,262,353987,6,0,P|183:322|267:274,1,262.5,2|0,0:0|0:0,0:0:0:0:
256,156,355961,6,0,B|311:199|311:199|378:199|378:199|338:288|410:373|410:373|428:266|536:241|536:241|472:241|472:241|508:150|459:132|383:29|409:68|396:-59|521:11|535:56|499:118|349:95|349:95,1,1012.49996910095,0|2,1:0|0:0,0:0:0:0:
