osu file format v14

[General]
AudioFilename: audio.mp3
AudioLeadIn: 0
PreviewTime: 64048
Countdown: 0
SampleSet: Soft
StackLeniency: 0.3
Mode: 0
LetterboxInBreaks: 0
WidescreenStoryboard: 0

[Editor]
Bookmarks: 10758,36022,64443,89706
DistanceSpacing: 0.5
BeatDivisor: 4
GridSize: 32
TimelineZoom: 2.6

[Metadata]
Title:Kimi no Uta
TitleUnicode:きみのうた
Artist:Yasuda Rei
ArtistUnicode:安田レイ
Creator:L u R i
Version:Letter
Source:夏目友人帳 陸
Tags:natsume yuujinchou roku luri
BeatmapID:1291136
BeatmapSetID:611677

[Difficulty]
HPDrainRate:7
CircleSize:4
OverallDifficulty:8
ApproachRate:8.8
SliderMultiplier:1.6
SliderTickRate:1

[Events]
//Background and Video events
0,0,"BG.jpg",0,0
Video,-15,"video.avi"
//Break Periods
//Storyboard Layer 0 (Background)
//Storyboard Layer 1 (Fail)
//Storyboard Layer 2 (Pass)
//Storyboard Layer 3 (Foreground)
//Storyboard Sound Samples

[TimingPoints]
10759,394.736842105263,4,1,0,100,1,0
10759,-100,4,2,0,20,0,0
36022,-100,4,2,1,40,0,0
48653,-100,4,2,0,50,0,0
51811,-83.3333333333333,4,2,1,40,0,0
52995,-71.4285714285714,4,2,1,40,0,0
53489,-83.3333333333333,4,2,1,40,0,0
55364,-83.3333333333333,4,2,0,20,0,0
58127,-100,4,2,0,30,0,0
61285,-76.9230769230769,4,2,1,50,0,0
64443,-71.4285714285714,4,2,1,70,0,1
89706,-71.4285714285714,4,2,1,40,0,0
91285,-71.4285714285714,4,2,0,40,0,0
94443,-71.4285714285714,4,2,0,20,0,0

[Colours]
Combo1 : 245,69,10
Combo2 : 235,192,20
Combo3 : 252,155,67
Combo4 : 248,113,39

[HitObjects]
352,136,10758,6,0,P|428:148|496:84,1,160,2|0,0:0|0:0,0:0:0:0:
304,40,11548,2,0,P|252:92|260:188,1,160
302,356,12140,1,0,0:0:0:0:
302,356,12337,2,0,P|330:329|344:292,1,80
168,292,12732,2,0,P|181:329|209:356,1,80
256,280,13127,1,0,0:0:0:0:
120,140,13522,1,0,0:0:0:0:
9,301,13916,6,0,B|84:308|84:308|197:281,1,160,2|0,0:0|0:0,0:0:0:0:
292,196,14508,1,0,0:0:0:0:
180,20,14706,2,0,P|164:92|188:188,1,160
276,308,15298,1,0,0:0:0:0:
276,308,15495,2,0,L|372:300,1,80
440,240,15890,2,0,P|464:208|464:152,1,80
372,20,16285,2,0,B|372:64|395:95|395:95|364:128|368:192,1,160
367,168,17074,6,0,B|350:161|350:161|326:181|326:181|268:164|206:189,1,160,2|0,0:0|0:0,0:0:0:0:
60,328,17864,2,0,P|140:348|224:328,1,160
272,256,18456,1,0,0:0:0:0:
272,256,18653,2,0,L|284:176,1,80
160,140,19048,2,0,L|172:220,1,80
252,32,19443,2,0,P|332:28|400:88,1,160
400,84,20232,6,0,B|404:124|388:144|388:144|404:164|404:164|384:192|400:236,1,160,2|0,0:0|0:0,0:0:0:0:
484,288,20824,2,0,P|416:332|328:304,1,160
256,244,21416,2,0,P|208:244|172:264,1,80
88,328,21811,2,0,B|104:296|104:296|88:280|88:280|112:236|84:176,1,160
12,240,22601,2,0,P|96:280|176:172,1,240
177,181,23390,1,2,0:0:0:0:
48,72,23785,5,0,0:0:0:0:
48,72,23982,1,0,0:0:0:0:
48,72,24180,1,0,0:0:0:0:
8,216,24574,2,0,P|24:248|32:292,1,80
120,344,24969,2,0,L|204:324,1,80
256,236,25364,2,0,L|333:254,1,80
392,348,25758,2,0,B|416:320|456:308|456:308|448:268|464:220,1,160
432,60,26548,6,0,B|356:36|356:36|272:64,1,160,2|0,0:0|0:0,0:0:0:0:
192,92,27140,1,0,0:0:0:0:
192,92,27337,1,0,0:0:0:0:
252,232,27732,2,0,L|260:144,1,80
168,256,28127,2,0,P|220:316|308:300,1,160
336,208,28719,1,0,0:0:0:0:
336,208,28916,2,0,P|284:148|196:164,1,160
40,320,29706,6,0,B|32:272|32:272|44:216|44:216|32:148,1,160,2|0,0:0|0:0,0:0:0:0:
104,44,30495,2,0,P|144:36|204:48,1,80
232,144,30890,2,0,P|192:152|132:140,1,80
260,32,31285,1,0,0:0:0:0:
268,112,31680,1,0,0:0:0:0:
280,192,32074,1,0,0:0:0:0:
292,272,32469,1,0,0:0:0:0:
304,352,32864,6,0,P|396:352|412:220,1,240,2|0,0:0|0:0,0:0:0:0:
344,276,33653,2,0,B|284:256|224:292|224:292|248:248,1,160
320,184,34443,2,0,B|360:172|400:196|400:196|436:136|436:136|356:84|252:132,1,320
84,304,35824,5,0,0:0:0:0:
84,304,36022,2,0,L|68:212,1,80,8|0,0:0|0:0,0:0:0:0:
172,184,36416,2,0,P|212:188|260:180,1,80
132,88,36811,2,0,P|96:48|92:120,1,160
251,182,37403,2,0,L|264:140,2,40
216,288,37798,1,0,0:0:0:0:
360,176,37995,1,8,0:0:0:0:
416,344,38193,1,0,0:0:0:0:
284,228,38390,2,0,P|212:196|140:232,1,160,0|0,1:0|0:0,0:0:0:0:
60,312,38982,5,0,0:0:0:0:
196,364,39180,2,0,P|212:328|216:288,1,80,8|0,0:0|0:0,0:0:0:0:
204,176,39574,1,0,0:0:0:0:
64,256,39772,2,0,P|36:184|44:104,1,160
176,24,40364,1,0,0:0:0:0:
176,24,40561,2,0,B|212:40|212:40|276:8|348:48,1,160
448,144,41153,1,8,0:0:0:0:
272,120,41351,2,0,L|220:112,2,40,0|0|0,0:0|0:0|1:0,0:0:0:0:
404,240,41745,1,0,0:0:0:0:
368,56,41943,1,0,0:0:0:0:
292,228,42140,1,0,0:0:0:0:
472,312,42337,6,0,P|504:232|452:156,1,160,8|0,0:0|0:0,0:0:0:0:
368,336,42930,1,0,0:0:0:0:
368,336,43127,2,0,L|288:320,1,80
368,152,43522,2,0,L|289:167,1,80
289,167,43818,1,0,0:0:0:0:
289,167,43916,1,0,0:0:0:0:
212,296,44114,1,0,0:0:0:0:
8,216,44311,2,0,L|88:228,1,80,8|0,0:0|0:0,0:0:0:0:
112,88,44706,2,0,P|72:44|44:104,1,120,0|0,1:0|0:0,0:0:0:0:
68,152,45101,2,0,P|116:164|184:120,1,120
244,60,45495,6,0,P|312:32|396:68,1,160,8|0,0:0|0:0,0:0:0:0:
492,208,46285,2,0,P|452:204|404:176,1,80
320,128,46680,2,0,P|336:164|336:220,1,80
340,320,47074,2,0,P|363:287|411:259,1,80,10|0,0:0|0:0,0:0:0:0:
424,348,47469,1,8,0:0:0:0:
320,128,47666,1,0,3:2:0:0:
320,128,47765,1,0,3:2:0:0:
320,128,47864,1,2,3:2:0:0:
240,296,48061,1,0,0:0:0:0:
400,92,48258,2,0,P|360:48|280:56,1,120,2|0,3:0|0:0,0:0:0:0:
224,80,48653,6,0,L|232:160,1,80,0|0,1:0|0:0,0:0:0:0:
304,292,49048,2,0,L|312:212,1,80
192,272,49443,2,0,B|152:248|80:304|28:272,1,160,2|0,0:0|0:0,0:0:0:0:
68,124,50035,1,0,0:0:0:0:
68,124,50133,1,0,0:0:0:0:
68,124,50232,1,0,1:0:0:0:
220,96,50430,1,0,3:0:0:0:
44,32,50627,2,0,P|0:56|-28:104,1,80,2|0,3:0|0:0,0:0:0:0:
88,211,51022,2,0,P|123:194|150:164,1,80,2|0,0:0|0:0,0:0:0:0:
272,16,51416,1,0,0:0:0:0:
444,152,51614,5,0,0:0:0:0:
444,152,51712,1,0,0:0:0:0:
444,152,51811,2,0,B|432:132|432:132|412:168|412:168|440:208|424:256,1,143.999995605469,12|0,1:2|0:0,0:0:0:0:
492,296,52206,2,0,P|420:328|352:276,1,143.999995605469,8|0,1:2|0:0,0:0:0:0:
348,220,52601,2,0,P|312:240|332:244,1,95.9999970703126,8|0,0:0|0:0,0:0:0:0:
336,100,52995,2,0,P|232:136|204:240,1,223.999993164063,2|0,0:0|0:0,0:0:0:0:
260,344,53785,5,0,3:0:0:0:
488,184,54180,2,0,L|392:168,1,95.9999970703126,2|2,3:0|0:0,0:0:0:0:
380,84,54574,2,0,L|285:99,1,95.9999970703126,8|8,3:0|3:0,0:0:0:0:
224,108,54870,1,0,3:0:0:0:
204,112,54969,1,4,3:0:0:0:
116,256,55364,5,0,0:0:0:0:
144,88,55758,1,2,0:0:0:0:
173,285,56153,1,0,0:0:0:0:
84,96,56548,1,0,0:0:0:0:
237,283,56943,1,0,0:0:0:0:
28,124,57337,1,2,0:0:0:0:
293,248,57732,1,0,0:0:0:0:
304,228,57930,1,0,0:0:0:0:
312,212,58127,6,0,P|368:252|316:316,1,160
200,212,58916,2,0,P|144:252|196:316,1,160,2|0,0:0|0:0,0:0:0:0:
293,248,59508,2,0,L|320:196,2,40
256,192,59805,12,0,61087,0:0:0:0:
352,216,61285,6,0,P|464:208|488:172,1,155.999992858887,2|0,0:0|0:0,0:0:0:0:
276,160,61680,2,0,P|284:272|320:296,1,155.999992858887,2|0,0:0|0:0,0:0:0:0:
328,84,62074,2,0,P|216:92|192:128,1,155.999992858887,2|0,0:0|0:0,0:0:0:0:
404,140,62469,2,0,P|396:28|360:4,1,155.999992858887,2|0,0:0|0:0,0:0:0:0:
268,0,62864,5,8,0:0:0:0:
24,168,63061,2,0,L|44:284,1,103.999995239258,2|0,0:0|0:0,0:0:0:0:
108,320,63390,5,8,0:0:0:0:
192,304,63522,5,8,0:0:0:0:
228,228,63653,5,2,0:0:0:0:
216,144,63785,5,0,0:0:0:0:
248,68,63916,5,2,0:0:0:0:
328,40,64048,5,2,0:0:0:0:
404,72,64180,5,2,0:0:0:0:
436,148,64311,5,2,0:0:0:0:
404,224,64443,6,0,B|328:264|244:224|244:224|284:268,1,223.999993164063,12|0,0:0|0:0,0:0:0:0:
404,348,65035,1,0,0:0:0:0:
328,164,65232,2,0,P|268:188|240:244,1,111.999996582031,2|0,0:0|0:0,0:0:0:0:
96,348,65627,2,0,P|120:292|112:236,1,111.999996582031,8|0,0:0|0:0,0:0:0:0:
114,242,65923,1,0,0:0:0:0:
114,242,66022,5,8,0:0:0:0:
96,40,66219,1,0,0:0:0:0:
16,204,66416,2,0,P|11:259|34:309,1,111.999996582031
192,172,66811,2,0,P|272:144|352:176,1,167.999994873047,2|0,0:0|0:0,0:0:0:0:
500,240,67206,2,0,P|448:256|384:236,1,111.999996582031,8|0,0:0|0:0,0:0:0:0:
272,144,67601,6,0,P|192:116|112:148,1,167.999994873047,8|0,0:0|0:0,0:0:0:0:
52,220,67995,2,0,L|100:260,1,55.9999982910157,8|0,0:0|0:0,0:0:0:0:
80,352,68193,2,0,P|136:352|192:216,1,223.999993164063,8|0,0:0|0:0,0:0:0:0:
104,24,68785,2,0,P|92:80|112:140,1,111.999996582031,8|0,0:0|0:0,0:0:0:0:
148,176,69081,1,0,0:0:0:0:
148,176,69180,6,0,L|260:164,1,111.999996582031,8|0,0:0|0:0,0:0:0:0:
484,92,69574,1,8,0:0:0:0:
304,28,69772,1,8,0:0:0:0:
304,28,69870,1,8,0:0:0:0:
304,28,69969,1,2,0:0:0:0:
232,248,70166,1,0,0:0:0:0:
432,336,70364,2,0,P|452:260|444:208,1,111.999996582031,8|0,3:0|0:0,0:0:0:0:
304,28,70758,6,0,B|336:104|304:188|304:188|356:124,1,223.999993164063,12|0,0:0|0:0,0:0:0:0:
200,56,71351,1,0,0:0:0:0:
112,248,71548,2,0,P|108:304|120:360,1,111.999996582031,2|0,0:0|0:0,0:0:0:0:
207,166,71943,2,0,P|211:110|199:54,1,111.999996582031
11,189,72337,6,0,B|35:197|35:197|50:167|50:167|95:197|171:197|211:161,1,223.999993164063,8|8,0:0|0:0,0:0:0:0:
128,56,72930,1,0,0:0:0:0:
128,56,73028,1,0,0:0:0:0:
128,56,73127,1,2,0:0:0:0:
68,268,73324,1,0,0:0:0:0:
276,340,73522,2,0,L|416:344,1,111.999996582031,0|0,3:0|0:0,0:0:0:0:
496,152,73916,6,0,B|468:136|456:108|456:108|444:152|404:176|348:168,1,167.999994873047,8|0,0:0|0:0,0:0:0:0:
344,52,74311,2,0,P|368:72|384:104,1,55.9999982910157,8|0,0:0|0:0,0:0:0:0:
328,232,74508,2,0,B|292:208|292:152|312:120|312:120|256:152|208:136,1,223.999993164063,8|0,0:0|0:0,0:0:0:0:
28,60,75101,2,0,P|80:44|136:60,1,111.999996582031,8|0,0:0|0:0,0:0:0:0:
134,58,75397,1,0,0:0:0:0:
134,58,75495,5,8,0:0:0:0:
64,200,75693,1,0,0:0:0:0:
136,68,75890,1,8,0:0:0:0:
208,264,76087,1,0,0:0:0:0:
52,204,76285,1,2,0:0:0:0:
240,136,76482,1,0,0:0:0:0:
40,208,76680,2,0,P|-4:272|64:316,1,167.999994873047,0|0,3:0|0:0,0:0:0:0:
156,352,77074,6,0,L|268:340,1,111.999996582031,12|0,0:0|0:0,0:0:0:0:
448,240,77469,1,0,0:0:0:0:
280,184,77666,1,0,0:0:0:0:
392,336,77864,1,2,0:0:0:0:
436,120,78061,1,0,0:0:0:0:
224,36,78258,2,0,P|168:32|108:60,1,111.999996582031,8|0,0:0|0:0,0:0:0:0:
88,76,78555,1,0,0:0:0:0:
88,76,78653,5,8,0:0:0:0:
204,216,78851,1,0,0:0:0:0:
44,344,79048,2,0,P|16:296|4:232,1,111.999996582031,8|0,0:0|0:0,0:0:0:0:
88,76,79443,1,2,0:0:0:0:
188,304,79640,1,0,0:0:0:0:
188,304,79739,1,0,0:0:0:0:
188,304,79837,2,0,P|248:296|288:256,1,111.999996582031,0|0,0:0|3:0,0:0:0:0:
364,88,80232,6,0,L|348:204,1,111.999996582031,14|0,0:0|0:0,0:0:0:0:
148,88,80627,2,0,L|164:204,1,111.999996582031,8|0,0:0|0:0,0:0:0:0:
420,56,81022,2,0,P|380:92|356:148,1,111.999996582031,10|0,0:0|0:0,0:0:0:0:
92,56,81416,2,0,P|132:92|156:148,1,111.999996582031,8|0,0:0|0:0,0:0:0:0:
155,144,81712,1,0,0:0:0:0:
155,144,81811,5,2,0:0:0:0:
384,256,82008,1,0,0:0:0:0:
252,60,82206,1,0,0:0:0:0:
128,256,82403,1,0,0:0:0:0:
356,144,82601,1,2,0:0:0:0:
72,344,82798,2,0,P|28:240|112:156,1,223.999993164063,2|0,0:0|0:0,0:0:0:0:
328,272,83390,6,0,B|388:280|388:280|436:256,1,111.999996582031,12|0,0:0|0:0,0:0:0:0:
488,188,83785,2,0,L|496:76,1,111.999996582031
384,4,84180,1,2,0:0:0:0:
280,196,84377,1,0,0:0:0:0:
440,128,84574,1,0,0:0:0:0:
272,44,84772,1,0,0:0:0:0:
192,220,84969,6,0,P|224:268|284:284,1,111.999996582031,8|0,0:0|0:0,0:0:0:0:
368,172,85364,2,0,P|336:124|276:108,1,111.999996582031,8|0,0:0|0:0,0:0:0:0:
160,124,85758,1,2,0:0:0:0:
48,196,85956,1,0,0:0:0:0:
84,24,86153,1,0,0:0:0:0:
232,164,86351,1,0,0:0:0:0:
132,340,86548,6,0,P|76:324|44:280,1,111.999996582031,8|0,0:0|0:0,0:0:0:0:
380,340,86943,2,0,P|436:324|468:280,1,111.999996582031,8|0,0:0|0:0,0:0:0:0:
44,282,87337,2,0,P|36:228|68:168,1,111.999996582031,8|0,0:0|0:0,0:0:0:0:
467,282,87732,2,0,P|476:228|444:168,1,111.999996582031,8|0,0:0|0:0,0:0:0:0:
58,177,88127,2,0,P|100:148|164:144,1,111.999996582031,8|0,1:2|0:0,0:0:0:0:
453,177,88522,1,8,1:2:0:0:
408,144,88719,2,0,P|380:140|344:148,1,55.9999982910157
160,144,88916,5,0,3:0:0:0:
204,128,89048,1,0,3:0:0:0:
232,92,89180,1,0,3:0:0:0:
256,56,89311,1,0,3:0:0:0:
280,92,89443,1,0,3:0:0:0:
308,128,89575,1,0,3:0:0:0:
352,144,89706,1,4,3:2:0:0:
352,144,91285,6,0,P|432:160|272:252,1,447.999986328125,2|0,0:0|0:0,0:0:0:0:
264,264,92864,5,2,0:0:0:0:
256,228,94443,5,0,0:0:0:0:
256,192,96022,12,0,99180,0:0:0:0:
