osu file format v14

[General]
AudioFilename: Brand New Day.mp3
AudioLeadIn: 1500
PreviewTime: 47402
Countdown: 0
SampleSet: None
StackLeniency: 0.3
Mode: 0
LetterboxInBreaks: 0
WidescreenStoryboard: 1

[Editor]
DistanceSpacing: 0.8
BeatDivisor: 4
GridSize: 32
TimelineZoom: 1.6

[Metadata]
Title:Brand New Day (Short ver.)
TitleUnicode:Brand New Day (Short ver.)
Artist:Yasuda Rei
ArtistUnicode:安田レイ
Creator:NEVlR
Version:Cheerful
Source:
Tags:
BeatmapID:1843974
BeatmapSetID:881969

[Difficulty]
HPDrainRate:6
CircleSize:3.9
OverallDifficulty:8
ApproachRate:8.5
SliderMultiplier:1.6
SliderTickRate:1

[Events]
//Background and Video events
0,0,"asdfff.jpg",0,0
//Break Periods
//Storyboard Layer 0 (Background)
//Storyboard Layer 1 (Fail)
//Storyboard Layer 2 (Pass)
//Storyboard Layer 3 (Foreground)
//Storyboard Sound Samples

[TimingPoints]
402,500,4,2,2,20,1,0
16402,-100,4,2,2,35,0,0
32402,-86.9565217391304,4,2,2,50,0,0
44402,-142.857142857143,4,2,2,40,0,0
46402,-100,4,2,2,40,0,0
48402,-80,4,2,2,75,0,0

[Colours]
Combo1 : 104,217,217
Combo2 : 5,250,91
Combo3 : 53,103,157
Combo4 : 197,224,41

[HitObjects]
358,158,402,6,0,P|271:151|167:153,1,160,2|0,0:2|0:2,0:2:0:0:
71,244,1152,2,0,P|158:251|262:249,1,160,2|0,0:2|0:2,0:2:0:0:
128,90,1902,2,0,P|116:129|120:180,1,80,2|0,0:2|0:2,0:2:0:0:
193,298,2402,6,0,B|178:224|223:214|202:132,1,160,2|0,0:2|0:2,0:2:0:0:
276,63,3152,2,0,P|343:44|409:97,1,160,2|0,0:2|0:2,0:2:0:0:
346,219,3902,1,2,0:2:0:0:
330,130,4152,1,2,0:2:0:0:
420,240,4402,6,0,B|372:252|372:252|321:237|321:237|259:251,1,160,2|2,0:2|0:2,0:2:0:0:
188,327,5402,2,0,P|250:358|342:327,1,160,2|2,0:2|0:2,0:2:0:0:
450,69,6402,5,2,0:2:0:0:
335,140,6902,1,2,0:2:0:0:
220,69,7402,1,2,0:2:0:0:
105,140,7902,1,2,0:2:0:0:
65,251,8152,1,0,0:2:0:0:
63,274,8277,1,0,0:2:0:0:
61,297,8402,6,0,B|142:268|142:324|216:295,1,160,2|0,1:2|0:2,0:2:0:0:
296,117,9152,2,0,P|229:126|179:215,1,160,2|0,0:2|0:2,0:2:0:0:
274,212,9902,2,0,L|356:208,1,80,2|0,0:2|0:2,0:2:0:0:
393,210,10277,1,0,0:2:0:0:
393,210,10402,6,0,B|426:173|426:173|426:52,1,160,2|0,1:2|0:2,0:2:0:0:
493,96,11152,2,0,P|429:136|352:78,1,160,2|0,0:2|0:2,0:2:0:0:
245,38,11902,2,0,P|206:41|156:69,1,80,2|2,0:2|0:2,0:2:0:0:
147,79,12277,1,0,0:2:0:0:
147,79,12402,6,0,P|170:114|103:208,1,160,2|2,1:2|0:2,0:2:0:0:
57,304,13402,2,0,P|139:299|232:303,1,160,2|2,0:2|0:2,0:2:0:0:
364,294,14152,1,0,0:2:0:0:
364,294,14277,1,0,0:2:0:0:
364,294,14402,6,0,P|365:208|387:128,1,160,2|0,1:2|0:2,0:2:0:0:
148,294,15402,2,0,P|147:208|125:128,1,160,2|0,0:2|0:2,0:2:0:0:
400,313,16402,6,0,P|403:272|398:232,1,80,0|0,1:2|0:2,0:2:0:0:
334,171,16902,1,0,1:2:0:0:
398,233,17152,1,0,0:2:0:0:
271,229,17402,2,0,P|252:189|256:147,1,80,0|0,1:2|0:2,0:2:0:0:
466,68,17902,2,0,P|440:104|402:121,1,80,0|0,1:2|0:2,0:2:0:0:
310,91,18402,6,0,P|247:71|192:95,1,120,0|0,1:2|0:2,0:2:0:0:
178,114,18902,2,0,P|125:137|91:134,1,80,0|0,1:2|0:2,0:2:0:0:
36,52,19402,2,0,L|123:55,1,80,0|0,1:2|0:2,0:2:0:0:
276,197,19902,2,0,L|189:194,1,80,0|0,1:2|0:2,0:2:0:0:
39,305,20402,6,0,P|102:344|205:309,1,160,0|0,1:2|1:2,0:2:0:0:
231,154,21152,1,0,0:2:0:0:
124,242,21402,2,0,L|206:238,1,80,0|0,1:2|0:2,0:2:0:0:
305,302,21902,2,0,L|387:298,1,80,0|0,1:2|0:2,0:2:0:0:
402,66,22402,5,0,1:2:0:0:
334,202,22652,1,0,0:2:0:0:
311,53,22902,1,0,1:2:0:0:
411,155,23152,1,0,0:2:0:0:
258,134,23402,2,0,P|217:125|132:145,1,120,0|0,1:2|0:2,0:2:0:0:
141,139,23902,2,0,P|148:187|146:230,1,80,0|0,1:2|0:2,0:2:0:0:
71,77,24402,5,0,1:2:0:0:
50,195,24652,1,0,0:2:0:0:
167,50,24902,2,0,P|212:37|249:44,1,80,0|0,1:2|0:2,0:2:0:0:
410,133,25402,2,0,P|365:146|328:139,1,80,0|0,1:2|0:2,0:2:0:0:
296,127,25777,1,0,0:2:0:0:
296,127,25902,2,0,L|199:126,1,80,0|0,1:2|0:2,0:2:0:0:
95,196,26402,6,0,P|82:242|90:283,1,80,0|0,1:2|0:2,0:2:0:0:
127,344,26777,1,0,0:2:0:0:
127,344,26902,1,0,1:2:0:0:
227,259,27152,1,0,0:2:0:0:
302,318,27402,2,0,P|340:335|381:331,1,80,0|0,1:2|0:2,0:2:0:0:
479,217,27902,2,0,P|440:199|399:203,1,80,0|0,1:2|0:2,0:2:0:0:
227,259,28402,6,0,P|183:263|125:172,1,160,0|0,1:2|1:2,0:2:0:0:
287,135,29152,1,0,0:2:0:0:
206,177,29402,2,0,L|209:88,1,80,0|0,1:2|0:2,0:2:0:0:
275,44,29777,1,0,0:2:0:0:
275,44,29902,1,0,1:2:0:0:
362,166,30152,1,0,0:2:0:0:
451,57,30402,6,0,L|360:75,1,80,0|0,1:2|0:2,0:2:0:0:
372,72,30777,1,0,0:2:0:0:
372,72,30902,1,0,1:2:0:0:
305,243,31152,1,0,0:2:0:0:
439,177,31402,2,0,P|388:163|343:172,1,80,0|0,1:2|0:2,0:2:0:0:
212,272,31902,1,0,1:2:0:0:
199,160,32152,1,0,0:2:0:0:
274,331,32402,6,0,P|231:356|179:352,1,92.0000017547608,0|0,1:2|0:2,0:2:0:0:
149,343,32777,1,0,0:2:0:0:
149,343,32902,2,0,P|129:288|97:266,1,92.0000017547608,8|0,1:2|0:2,0:2:0:0:
59,48,33402,2,0,B|40:135|40:135|63:133|91:150,1,138.000002632141,0|0,1:2|0:2,0:2:0:0:
44,212,33902,1,8,1:2:0:0:
155,78,34152,1,0,0:2:0:0:
332,145,34402,6,0,P|277:193|171:152,1,184.000003509522,0|8,1:2|1:2,0:2:0:0:
155,78,35152,1,0,0:2:0:0:
248,110,35402,1,0,1:2:0:0:
161,251,35652,1,0,0:2:0:0:
155,78,35902,1,8,1:2:0:0:
94,167,36152,1,0,0:2:0:0:
248,110,36402,6,0,B|295:101|295:101|325:76|325:76|375:67,1,138.000002632141,0|0,1:2|0:2,0:2:0:0:
409,65,36902,2,0,P|433:107|423:165,1,92.0000017547608,8|0,1:2|0:2,0:2:0:0:
370,224,37402,2,0,P|368:269|391:308,1,92.0000017547608,0|0,1:2|0:2,0:2:0:0:
470,344,37777,1,0,0:2:0:0:
470,344,37902,1,8,1:2:0:0:
450,248,38152,1,0,0:2:0:0:
284,323,38402,5,0,1:2:0:0:
241,221,38652,1,0,0:2:0:0:
335,336,38902,2,0,P|298:333|246:358,1,92.0000017547608,8|0,1:2|0:2,0:2:0:0:
142,324,39402,2,0,P|101:302|76:265,1,92.0000017547608,0|0,1:2|0:2,0:2:0:0:
203,134,39902,1,8,1:2:0:0:
158,235,40152,1,0,0:2:0:0:
136,79,40402,6,0,P|194:52|277:87,1,138.000002632141,0|0,1:2|0:2,0:2:0:0:
290,95,40902,2,0,P|336:89|389:69,1,92.0000017547608,8|0,1:2|0:2,0:2:0:0:
264,200,41402,2,0,P|282:245|322:276,1,92.0000017547608,0|0,1:2|0:2,0:2:0:0:
354,271,41777,1,0,0:2:0:0:
354,271,41902,2,0,P|300:279|272:311,1,92.0000017547608,8|0,1:2|0:2,0:2:0:0:
445,311,42402,6,0,P|455:270|441:217,1,92.0000017547608,0|0,1:2|0:2,0:2:0:0:
329,82,42902,2,0,P|319:123|333:176,1,92.0000017547608,8|0,1:2|0:2,0:2:0:0:
443,222,43402,1,0,1:2:0:0:
404,129,43652,1,0,0:2:0:0:
280,248,43902,2,0,P|225:263|188:252,1,92.0000017547608,8|0,1:2|0:2,0:2:0:0:
163,242,44277,1,0,0:2:0:0:
163,242,44402,6,0,P|174:206|45:202,1,223.999993164063,2|0,0:2|0:2,0:2:0:0:
64,308,45902,1,0,0:2:0:0:
269,208,46402,6,0,B|313:219|342:190|342:190|368:214|399:220|434:209|456:185|460:154|452:125|433:105|404:91|376:102,1,320,2|0,0:2|0:2,0:2:0:0:
272,113,47652,1,0,0:2:0:0:
176,185,47902,1,0,0:2:0:0:
219,298,48152,1,0,0:2:0:0:
453,158,48402,6,0,L|456:52,1,100,4|0,1:2|0:2,0:2:0:0:
374,31,48777,1,0,0:2:0:0:
374,31,48902,1,8,1:2:0:0:
318,216,49152,1,0,0:2:0:0:
188,114,49402,2,0,P|242:98|296:108,1,100,0|0,1:2|0:2,0:2:0:0:
473,301,49902,2,0,P|419:317|365:307,1,100,8|0,1:2|0:2,0:2:0:0:
100,214,50402,6,0,L|93:107,1,100,0|0,1:2|0:2,0:2:0:0:
93,114,50777,1,0,0:2:0:0:
93,114,50902,1,8,1:2:0:0:
311,135,51152,1,0,0:2:0:0:
123,246,51402,1,0,1:2:0:0:
209,46,51652,1,0,0:2:0:0:
257,259,51902,2,0,P|314:262|355:272,1,100,8|0,1:2|0:2,0:2:0:0:
395,274,52277,1,0,0:2:0:0:
432,259,52402,6,0,P|444:206|432:143,1,100,0|0,1:2|0:2,0:2:0:0:
258,41,52902,1,8,1:2:0:0:
324,170,53152,1,0,0:2:0:0:
77,51,53402,1,0,1:2:0:0:
280,46,53652,1,0,0:2:0:0:
33,165,53902,2,0,P|28:217|30:268,1,100,8|0,1:2|0:2,0:2:0:0:
322,208,54402,6,0,P|272:200|225:225,1,100,0|0,1:2|0:2,0:2:0:0:
197,307,54777,1,0,0:2:0:0:
197,307,54902,1,8,1:2:0:0:
163,75,55152,1,0,0:2:0:0:
76,160,55402,2,0,P|69:209|79:281,1,100,0|0,1:2|0:2,0:2:0:0:
254,120,55902,2,0,P|261:71|251:-1,1,100,8|0,1:2|0:2,0:2:0:0:
250,309,56402,6,0,P|298:339|391:279,1,150,4|0,1:2|0:2,0:2:0:0:
402,267,56902,1,8,1:2:0:0:
165,145,57152,1,0,0:2:0:0:
353,89,57402,2,0,P|410:79|457:76,1,100,0|0,1:2|0:2,0:2:0:0:
214,241,57902,2,0,P|164:237|115:228,1,100,8|0,1:2|0:2,0:2:0:0:
86,199,58277,1,0,0:2:0:0:
69,162,58402,6,0,P|73:113|73:62,1,100,0|0,1:2|0:2,0:2:0:0:
73,62,58777,1,0,0:2:0:0:
73,62,58902,1,8,1:2:0:0:
319,156,59152,1,0,0:2:0:0:
180,239,59402,2,0,P|176:288|176:339,1,100,0|0,1:2|0:2,0:2:0:0:
382,213,59902,2,0,P|406:159|396:114,1,100,8|0,1:2|0:2,0:2:0:0:
372,90,60277,1,0,0:2:0:0:
334,75,60402,6,0,B|287:97|280:60|224:83,1,100,0|0,1:2|0:2,0:2:0:0:
52,240,60902,1,8,1:2:0:0:
140,59,61152,1,0,0:2:0:0:
200,277,61402,1,0,1:2:0:0:
65,131,61652,1,0,0:2:0:0:
332,63,61902,2,0,L|439:72,1,100,8|0,1:2|0:2,1:2:0:0:
420,226,62402,6,0,B|367:221|367:221|329:193|329:193|266:188,1,150,0|0,1:2|0:2,0:2:0:0:
237,198,62902,1,8,1:2:0:0:
318,318,63152,1,0,0:2:0:0:
407,138,63402,1,0,1:2:0:0:
134,215,63652,1,0,0:2:0:0:
348,224,63902,1,8,1:2:0:0:
202,30,64152,1,0,0:2:0:0:
231,307,64402,5,4,1:2:0:0:
123,114,64652,1,0,0:2:0:0:
362,121,64902,1,8,1:2:0:0:
362,121,65027,2,0,P|401:159|408:216,1,100,0|0,0:2|0:2,0:2:0:0:
410,202,65402,2,0,L|311:193,1,100,0|0,1:2|0:2,0:2:0:0:
165,277,65777,1,0,0:2:0:0:
165,277,65902,2,0,L|264:286,1,100,8|0,1:2|0:2,0:2:0:0:
355,346,66277,1,0,0:0:0:0:
355,346,66402,5,0,1:2:0:0:
397,45,66652,1,0,0:2:0:0:
264,286,66902,1,8,1:2:0:0:
264,286,67027,2,0,L|259:175,1,100,0|0,0:2|0:2,0:2:0:0:
248,151,67402,2,0,P|196:165|151:156,1,100,0|0,1:2|0:2,0:2:0:0:
38,52,67777,1,0,0:2:0:0:
38,52,67902,2,0,P|90:38|135:47,1,100,8|0,1:2|0:2,0:2:0:0:
151,156,68277,1,0,0:0:0:0:
151,156,68402,5,0,1:2:0:0:
238,59,68652,1,0,0:2:0:0:
83,310,68902,1,8,0:2:0:0:
83,310,69027,2,0,P|121:348|171:354,1,100,0|0,0:2|0:2,0:2:0:0:
203,342,69402,2,0,P|255:320|318:320,1,100,0|0,1:2|0:2,0:2:0:0:
409,345,69777,1,0,0:2:0:0:
409,345,69902,2,0,L|416:240,1,100,8|0,0:2|0:2,0:2:0:0:
424,63,70402,5,0,1:2:0:0:
229,144,70652,1,0,0:2:0:0:
357,162,70902,1,8,0:2:0:0:
175,62,71152,1,0,0:2:0:0:
261,235,71402,2,0,L|154:238,1,100,0|0,1:2|0:2,0:2:0:0:
91,181,71777,1,0,0:2:0:0:
91,181,71902,1,8,0:2:0:0:
305,67,72152,1,0,0:2:0:0:
232,324,72402,6,0,P|258:330|291:325,1,50,0|0,1:2|0:2,0:2:0:0:
391,195,72652,1,0,0:2:0:0:
132,85,72902,1,8,1:2:0:0:
132,85,73027,2,0,L|25:87,1,100,0|0,0:2|0:2,0:2:0:0:
95,162,73402,2,0,P|145:170|194:147,1,100,0|0,1:2|0:2,0:2:0:0:
221,75,73777,1,0,0:2:0:0:
221,75,73902,1,8,1:2:0:0:
91,273,74152,1,0,0:2:0:0:
341,99,74402,5,0,1:2:0:0:
213,352,74652,1,0,0:2:0:0:
415,231,74902,1,8,1:2:0:0:
415,231,75027,2,0,P|363:217|317:228,1,100,0|0,0:2|0:2,0:2:0:0:
217,262,75402,2,0,B|186:242|186:242|184:172,1,100,0|0,1:2|0:2,0:2:0:0:
233,113,75777,1,0,0:2:0:0:
233,113,75902,1,8,1:2:0:0:
357,308,76152,1,0,0:2:0:0:
461,59,76402,6,0,L|349:51,1,100,0|0,1:0|0:0,0:0:0:0:
404,294,76902,2,0,P|431:252|422:195,1,100,8|0,0:2|0:2,1:2:0:0:
273,165,77277,1,0,0:2:0:0:
273,165,77402,2,0,P|295:209|349:230,1,100,0|0,1:2|0:2,1:2:0:0:
426,203,77777,1,0,0:0:0:0:
426,203,77902,1,8,0:0:0:0:
225,36,78152,1,0,0:0:0:0:
234,306,78402,5,0,1:0:0:0:
73,142,78652,1,0,0:0:0:0:
279,190,78902,1,8,0:0:0:0:
56,254,79152,1,0,0:0:0:0:
355,139,79402,6,0,P|369:187|353:238,1,100,0|0,1:0|0:0,0:0:0:0:
295,299,79777,1,0,0:0:0:0:
256,308,79902,1,8,0:0:0:0:
157,44,80152,1,0,0:0:0:0:
62,346,80402,5,0,1:0:0:0:
