osu file format v14

[General]
AudioFilename: audio.mp3
AudioLeadIn: 0
PreviewTime: 82090
Countdown: 1
SampleSet: Soft
StackLeniency: 0.7
Mode: 0
LetterboxInBreaks: 0
WidescreenStoryboard: 0

[Editor]
DistanceSpacing: 1.5
BeatDivisor: 8
GridSize: 16
TimelineZoom: 2.3

[Metadata]
Title:Best of my Love
TitleUnicode:Best of my Love
Artist:Yasuda Rei
ArtistUnicode:安田レイ
Creator:Komore
Version:A Colorful Path Of Love
Source:
Tags:Rachel Rhodes
BeatmapID:1266886
BeatmapSetID:599457

[Difficulty]
HPDrainRate:6
CircleSize:4
OverallDifficulty:7
ApproachRate:8
SliderMultiplier:1.6
SliderTickRate:1

[Events]
//Background and Video events
0,0,"1403204867-cherryblos-o.jpg",0,0
//Break Periods
2,138491,145041
2,244491,251541
2,262490,269541
//Storyboard Layer 0 (Background)
//Storyboard Layer 1 (Fail)
//Storyboard Layer 2 (Pass)
//Storyboard Layer 3 (Foreground)
//Storyboard Sound Samples

[TimingPoints]
291,500,4,2,1,56,1,0
8291,-100,4,2,1,71,0,0
24291,-100,4,2,1,65,0,0
32291,-111.111111111111,4,2,1,61,0,0
64291,-133.333333333333,4,2,1,56,0,0
72291,-105.263157894737,4,2,1,67,0,0
82291,-100,4,2,1,71,0,1
114291,-100,4,2,1,71,0,0
145791,-100,4,2,1,57,0,0
146291,-117.647058823529,4,2,1,57,0,0
154291,-111.111111111111,4,2,1,61,0,0
170291,-133.333333333333,4,2,1,56,0,0
178291,-105.263157894737,4,2,1,67,0,0
188291,-100,4,2,1,73,0,1
220291,-100,4,2,1,73,0,0
223791,-90.9090909090909,4,2,1,73,0,0
224291,-100,4,2,1,73,0,0
252291,-100,4,2,1,56,0,0
255291,-100,4,2,1,59,0,0
256291,-100,4,2,1,63,0,0
257291,-100,4,2,1,65,0,0
258291,-100,4,2,1,68,0,0
260041,-76.9230769230769,4,2,1,68,0,0
260291,-76.9230769230769,4,2,1,73,0,0
270291,-125,4,2,1,61,0,0
274103,-125,4,2,1,45,0,0
274291,-125,4,2,1,65,0,0
275291,-125,4,2,1,67,0,0
276291,-125,4,2,1,69,0,0
277791,-62.5,4,2,1,69,0,0
278291,-100,4,2,1,76,0,1
310291,-100,4,2,1,76,0,0
327291,-100,4,2,1,61,0,0
328291,-100,4,2,1,53,0,0
329291,-100,4,2,1,40,0,0
330291,-100,4,2,1,31,0,0

[Colours]
Combo1 : 174,174,255
Combo2 : 255,187,221
Combo3 : 159,207,255
Combo4 : 254,235,254

[HitObjects]
256,192,6291,12,0,8041,0:0:0:0:
115,146,8291,6,0,P|186:135|207:127,1,80,6|0,1:3|0:0,0:0:0:0:
336,277,8791,2,0,P|297:266|257:263,1,80,8|0,0:0|0:0,0:0:0:0:
356,91,9291,1,2,1:2:0:0:
285,179,9541,1,0,0:0:0:0:
446,105,9791,2,0,P|441:63|431:23,1,80,8|0,0:0|0:0,0:0:0:0:
369,227,10291,6,0,P|440:206|496:273,2,160,2|8|2,1:2|0:0|1:2,0:0:0:0:
242,174,11541,1,0,0:0:0:0:
331,68,11791,2,0,P|327:105|323:150,1,80,8|0,0:0|0:0,0:0:0:0:
219,283,12291,5,6,1:2:0:0:
369,227,12541,1,0,0:0:0:0:
217,153,12791,1,8,0:0:0:0:
321,308,13041,1,0,0:0:0:0:
434,161,13291,2,0,P|428:123|418:76,1,80,2|0,1:2|0:0,0:0:0:0:
350,289,13791,2,0,P|389:293|428:304,1,80,8|0,0:0|0:0,0:0:0:0:
294,142,14291,6,0,P|256:151|216:154,1,80,2|0,1:2|0:0,0:0:0:0:
55,314,14791,2,0,B|148:323|118:263|205:274,1,160,8|2,0:0|1:2,0:0:0:0:
203,273,15416,1,0,0:0:0:0:
203,273,15541,1,2,0:0:0:0:
64,148,15791,2,0,P|70:188|75:228,1,80,10|0,0:0|0:0,0:0:0:0:
75,228,16166,1,0,0:0:0:0:
75,228,16291,5,6,1:2:0:0:
214,87,16541,2,0,P|166:83|123:67,1,80,0|8,0:0|0:0,0:0:0:0:
190,178,17041,1,0,0:0:0:0:
317,76,17291,2,0,P|306:36|291:-12,1,80,2|0,1:2|0:0,0:0:0:0:
276,160,17791,1,8,0:0:0:0:
425,60,18041,1,0,0:0:0:0:
489,207,18291,6,0,P|441:192|402:193,1,80,2|0,1:2|0:0,0:0:0:0:
237,82,18791,2,0,P|275:79|325:75,1,80,8|0,0:0|0:0,0:0:0:0:
242,226,19291,2,0,B|156:206|156:206|173:221|190:253,1,120,2|2,1:2|0:0,0:0:0:0:
97,272,19791,2,0,P|90:228|81:168,1,80,8|0,0:0|0:0,0:0:0:0:
341,231,20291,5,6,1:2:0:0:
245,62,20541,1,0,0:0:0:0:
407,130,20791,1,8,0:0:0:0:
293,303,21041,1,0,0:0:0:0:
296,146,21291,5,6,1:2:0:0:
470,228,21541,1,0,0:0:0:0:
220,210,21791,1,8,0:0:0:0:
407,130,22041,1,0,0:0:0:0:
381,297,22291,5,6,1:2:0:0:
390,324,22416,1,8,0:0:0:0:
398,351,22541,1,10,0:0:0:0:
498,217,22791,1,10,0:0:0:0:
470,228,22916,1,8,0:0:0:0:
441,230,23041,1,10,0:0:0:0:
412,223,23166,1,8,0:0:0:0:
388,207,23291,1,10,0:0:0:0:
306,113,23541,1,10,0:0:0:0:
415,61,23791,6,0,P|412:80|409:100,1,40,2|0,1:0|0:0,0:0:0:0:
332,0,24041,2,0,P|334:19|336:39,1,40,2|0,1:0|0:0,0:0:0:0:
282,198,24291,6,0,P|244:188|204:188,1,80,6|0,1:2|0:0,0:0:0:0:
79,46,24791,1,8,0:0:0:0:
218,97,25041,1,0,0:0:0:0:
81,213,25291,2,0,P|74:179|68:124,1,80,2|0,1:2|0:0,0:0:0:0:
194,254,25791,1,8,0:0:0:0:
38,317,26041,1,0,0:0:0:0:
223,353,26291,5,2,1:2:0:0:
81,213,26541,1,0,0:0:0:0:
302,283,26791,1,8,0:0:0:0:
126,334,27041,1,0,0:0:0:0:
314,191,27291,2,0,P|354:196|411:194,1,80,2|0,1:2|0:0,0:0:0:0:
183,264,27791,2,0,P|174:225|161:188,1,80,8|0,0:0|0:0,0:0:0:0:
322,297,28291,6,0,P|320:335|309:379,1,80,6|0,1:2|0:0,0:0:0:0:
432,170,28791,2,0,P|445:203|450:269,1,80,8|0,0:0|0:0,0:0:0:0:
354,228,29291,1,2,1:2:0:0:
511,150,29541,1,0,0:0:0:0:
373,13,29791,2,0,P|377:44|384:92,1,80,8|0,0:0|0:0,0:0:0:0:
342,252,30291,5,2,1:2:0:0:
255,40,30541,1,0,0:0:0:0:
372,163,30791,1,8,0:0:0:0:
211,237,31041,1,0,0:0:0:0:
340,73,31291,1,2,1:2:0:0:
140,150,31541,1,2,0:1:0:0:
367,240,31791,1,8,0:0:0:0:
107,327,32041,1,2,0:1:0:0:
228,370,32291,6,0,B|314:384|285:331|368:344,1,143.999995605469,6|8,1:2|0:0,0:0:0:0:
458,379,33041,1,0,0:0:0:0:
511,220,33291,2,0,P|452:256|386:234,1,143.999995605469,2|8,1:2|0:0,0:0:0:0:
295,158,34041,6,0,P|301:119|311:62,1,71.9999978027344,0|2,0:0|1:2,0:0:0:0:
394,148,34541,1,0,0:0:0:0:
225,252,34791,2,0,P|218:212|212:169,1,71.9999978027344,8|0,0:0|0:0,0:0:0:0:
361,305,35291,2,0,P|355:340|349:376,1,71.9999978027344,2|0,1:2|0:0,0:0:0:0:
509,247,35791,2,0,P|452:240|419:219,1,71.9999978027344,8|0,0:0|0:0,0:0:0:0:
279,96,36291,5,6,1:2:0:0:
345,207,36541,1,0,0:0:0:0:
207,152,36791,1,8,0:0:0:0:
373,46,37041,1,2,0:0:0:0:
373,46,37166,1,0,0:0:0:0:
373,46,37291,2,0,L|383:130,1,71.9999978027344,2|0,1:2|0:0,0:0:0:0:
263,236,37791,2,0,P|226:230|181:227,1,71.9999978027344,8|0,0:0|0:0,0:0:0:0:
82,80,38291,5,2,1:2:0:0:
243,138,38541,1,0,0:0:0:0:
80,165,38791,1,8,0:0:0:0:
295,59,39041,2,0,P|335:103|321:192,1,143.999995605469,2|0,0:0|0:0,0:0:0:0:
190,74,39791,2,0,P|195:33|207:-13,1,71.9999978027344,8|0,0:0|0:0,0:0:0:0:
231,150,40291,6,0,B|150:134|176:188|91:172,1,143.999995605469,6|8,1:2|0:0,0:0:0:0:
19,107,41041,1,0,0:0:0:0:
0,297,41291,2,0,P|45:247|118:269,1,143.999995605469,2|8,1:2|0:0,0:0:0:0:
245,155,42041,6,0,P|205:157|157:144,1,71.9999978027344,0|2,0:0|1:2,0:0:0:0:
60,41,42541,2,0,L|67:116,1,71.9999978027344,0|8,0:0|0:0,0:0:0:0:
168,63,43041,1,0,0:0:0:0:
90,212,43291,2,0,P|54:201|18:202,1,71.9999978027344,2|0,1:2|0:0,0:0:0:0:
233,286,43791,2,0,P|290:268|326:269,1,71.9999978027344,8|0,0:0|0:0,0:0:0:0:
115,345,44291,5,6,1:2:0:0:
204,187,44541,2,0,P|194:133|186:102,2,71.9999978027344,0|8|0,0:0|0:0|0:0,0:0:0:0:
35,303,45291,2,0,P|88:258|160:265,1,143.999995605469,2|8,1:2|0:0,0:0:0:0:
115,345,46041,1,0,0:0:0:0:
35,181,46291,6,0,P|42:143|48:94,1,71.9999978027344,2|0,1:2|0:0,0:0:0:0:
2,13,46791,1,8,0:0:0:0:
154,141,47041,2,0,B|240:155|211:102|294:115,1,143.999995605469,2|0,0:0|0:0,0:0:0:0:
396,197,47791,2,0,P|393:233|389:289,1,71.9999978027344,8|0,0:0|0:0,0:0:0:0:
288,192,48291,5,6,1:2:0:0:
478,255,48541,1,0,0:0:0:0:
300,322,48791,2,0,P|265:316|220:313,1,71.9999978027344,8|0,0:0|0:0,0:0:0:0:
131,172,49291,1,2,1:2:0:0:
255,231,49541,1,0,0:0:0:0:
144,371,49791,2,0,P|139:329|133:280,1,71.9999978027344,8|0,0:0|0:0,0:0:0:0:
180,110,50291,5,2,1:2:0:0:
135,299,50541,1,0,0:0:0:0:
323,231,50791,2,0,P|248:207|167:225,1,143.999995605469,8|2,0:0|1:2,0:0:0:0:
94,154,51541,1,0,0:0:0:0:
205,38,51791,2,0,P|209:71|215:117,1,71.9999978027344,8|0,0:0|0:0,0:0:0:0:
363,237,52291,5,6,1:2:0:0:
270,171,52541,1,0,0:0:0:0:
451,236,52791,1,8,0:0:0:0:
300,321,53041,1,2,0:0:0:0:
300,321,53166,1,0,0:0:0:0:
300,321,53291,5,2,1:2:0:0:
380,137,53541,1,0,0:0:0:0:
243,199,53791,1,8,0:0:0:0:
410,329,54041,1,0,0:0:0:0:
214,279,54291,5,2,1:2:0:0:
264,98,54541,1,2,1:2:0:0:
214,279,54791,1,10,1:2:0:0:
264,98,55041,1,2,1:2:0:0:
95,152,55291,5,2,1:2:0:0:
321,196,55541,1,2,1:2:0:0:
76,267,55791,1,10,1:2:0:0:
302,311,56041,1,2,1:2:0:0:
223,184,56291,5,6,1:2:0:0:
376,70,56541,2,0,P|370:37|360:-14,1,71.9999978027344,0|8,0:0|0:0,0:0:0:0:
289,95,57041,1,0,0:0:0:0:
442,159,57291,2,0,P|482:149|535:144,1,71.9999978027344,2|0,1:2|0:0,0:0:0:0:
323,253,57791,2,0,P|307:185|299:161,1,71.9999978027344,8|0,0:0|0:0,0:0:0:0:
444,260,58291,5,2,1:2:0:0:
254,355,58541,1,0,0:0:0:0:
379,323,58791,1,8,0:0:0:0:
204,218,59041,1,0,0:0:0:0:
358,124,59291,2,0,P|355:160|352:205,1,71.9999978027344,2|0,1:2|0:0,0:0:0:0:
343,350,59791,1,8,0:0:0:0:
175,300,60041,6,0,P|249:308|294:253,1,143.999995605469,2|0,0:0|0:0,0:0:0:0:
117,167,60791,1,8,0:0:0:0:
222,94,61041,1,2,0:0:0:0:
222,94,61166,1,0,0:0:0:0:
222,94,61291,2,0,P|218:132|216:173,1,71.9999978027344,2|0,1:2|0:0,0:0:0:0:
52,275,61791,2,0,P|49:237|46:203,1,71.9999978027344,8|0,0:0|0:0,0:0:0:0:
191,307,62291,5,6,1:2:0:0:
212,293,62416,1,8,0:0:0:0:
237,289,62541,1,10,0:0:0:0:
261,292,62666,1,8,0:0:0:0:
284,301,62791,1,10,0:0:0:0:
397,217,63041,1,10,0:0:0:0:
393,192,63166,1,8,0:0:0:0:
389,166,63291,1,10,0:0:0:0:
384,141,63416,1,8,0:0:0:0:
378,116,63541,1,10,0:0:0:0:
491,142,63791,1,10,0:0:0:0:
295,213,64041,1,10,0:0:0:0:
295,213,64166,1,8,0:0:0:0:
295,213,64291,6,0,B|229:199|244:242|175:225,1,120.000004577637,6|8,0:0|0:0,0:0:0:0:
93,170,65041,1,0,0:0:0:0:
186,78,65291,2,0,P|182:108|178:145,1,60.0000022888184,2|0,1:2|0:0,0:0:0:0:
86,260,65791,1,8,0:0:0:0:
66,158,66041,1,0,0:0:0:0:
190,249,66291,6,0,P|184:301|177:383,1,120.000004577637,2|8,1:2|0:0,0:0:0:0:
43,328,67041,1,0,0:0:0:0:
105,235,67291,2,0,P|109:266|116:315,1,60.0000022888184,2|0,1:2|0:0,0:0:0:0:
26,219,67791,1,8,0:0:0:0:
79,120,68041,1,0,0:0:0:0:
79,120,68166,1,0,0:0:0:0:
79,120,68291,6,0,P|126:132|187:87,1,120.000004577637,6|2,1:2|0:0,0:0:0:0:
297,122,69041,1,0,0:0:0:0:
259,0,69291,2,0,P|252:29|249:58,1,60.0000022888184,2|0,1:2|0:0,0:0:0:0:
380,144,69791,2,0,P|377:112|373:73,1,60.0000022888184,8|0,0:0|0:0,0:0:0:0:
306,208,70291,5,2,1:2:0:0:
456,162,70541,1,0,0:0:0:0:
297,122,70791,1,8,0:0:0:0:
451,25,71041,2,0,P|448:56|445:97,1,60.0000022888184,0|2,0:0|1:2,0:0:0:0:
278,23,71541,1,0,0:0:0:0:
297,122,71791,2,0,P|302:151|308:180,1,60.0000022888184,8|0,0:0|0:0,0:0:0:0:
315,329,72291,5,6,1:2:0:0:
430,199,72541,1,0,0:0:0:0:
251,253,72791,1,8,0:0:0:0:
407,282,73041,1,0,0:0:0:0:
330,103,73291,2,0,P|317:136|313:191,1,75.9999979705811,2|0,1:2|0:0,0:0:0:0:
484,343,73791,2,0,P|497:307|501:269,1,75.9999979705811,8|0,0:0|0:0,0:0:0:0:
322,340,74291,6,0,B|281:348|245:331|245:331|218:352|166:350,1,151.999995941162,2|8,1:2|0:0,0:0:0:0:
85,266,75041,1,0,0:0:0:0:
215,152,75291,2,0,P|205:205|195:274,2,113.999996955872,2|2|2,1:2|0:0|0:0,0:0:0:0:
125,34,76291,5,6,1:2:0:0:
78,179,76541,1,0,0:0:0:0:
244,87,76791,2,0,P|239:48|229:1,1,75.9999979705811,8|0,0:0|0:0,0:0:0:0:
179,202,77291,1,2,1:2:0:0:
320,135,77541,1,0,0:0:0:0:
114,81,77791,2,0,P|80:115|91:201,1,113.999996955872,8|2,0:0|0:0,0:0:0:0:
93,212,78291,5,2,1:2:0:0:
268,88,78541,1,0,0:0:0:0:
152,152,78791,1,8,0:0:0:0:
343,196,79041,2,0,P|347:157|352:114,1,75.9999979705811,0|2,0:0|1:2,0:0:0:0:
231,240,79541,1,0,0:0:0:0:
372,303,79791,2,0,P|412:291|465:288,1,75.9999979705811,8|0,0:0|0:0,0:0:0:0:
251,348,80291,5,6,1:2:0:0:
246,321,80416,1,8,0:0:0:0:
241,294,80541,1,10,0:0:0:0:
236,267,80666,1,8,0:0:0:0:
231,240,80791,1,10,0:0:0:0:
388,145,81041,1,10,0:0:0:0:
388,171,81166,1,8,0:0:0:0:
376,195,81291,1,10,0:0:0:0:
355,211,81416,1,8,0:0:0:0:
328,211,81541,1,10,0:0:0:0:
237,135,81791,1,10,0:0:0:0:
322,321,82041,1,10,0:0:0:0:
322,321,82166,1,8,0:0:0:0:
322,321,82291,6,0,P|374:310|430:310,1,80,14|0,1:3|0:0,0:0:0:0:
196,225,82791,2,0,P|181:275|152:320,1,80,8|0,0:0|0:0,0:0:0:0:
321,202,83291,1,2,1:2:0:0:
295,68,83541,1,0,0:0:0:0:
437,197,83791,2,0,L|428:277,1,80,8|0,0:0|0:0,0:0:0:0:
250,348,84291,6,0,P|166:362|113:307,2,160,2|8|2,1:2|0:0|1:2,0:0:0:0:
421,183,85541,1,0,0:0:0:0:
285,229,85791,1,8,0:0:0:0:
445,316,86041,1,0,0:0:0:0:
318,128,86291,5,6,1:2:0:0:
487,225,86541,1,0,0:0:0:0:
347,330,86791,1,8,0:0:0:0:
441,140,87041,1,2,0:0:0:0:
441,140,87166,1,0,0:0:0:0:
441,140,87291,2,0,P|437:98|428:48,1,80,2|0,1:2|0:0,0:0:0:0:
318,273,87791,2,0,P|365:278|406:289,1,80,8|0,0:0|0:0,0:0:0:0:
312,141,88291,6,0,P|271:149|219:148,1,80,2|0,1:2|0:0,0:0:0:0:
78,298,88791,2,0,P|119:291|171:291,1,80,8|0,0:0|0:0,0:0:0:0:
118,169,89291,1,2,1:2:0:0:
118,169,89416,1,0,0:0:0:0:
118,169,89541,1,2,0:0:0:0:
304,262,89791,1,10,0:0:0:0:
125,373,90041,1,2,0:0:0:0:
125,373,90166,1,0,0:0:0:0:
125,373,90291,6,0,P|111:307|113:278,1,80,6|0,1:2|0:0,0:0:0:0:
293,147,90791,2,0,P|304:185|306:225,1,80,8|0,0:0|0:0,0:0:0:0:
78,166,91291,1,2,1:2:0:0:
214,205,91541,1,0,0:0:0:0:
42,261,91791,1,8,0:0:0:0:
201,114,92041,1,0,0:0:0:0:
276,318,92291,6,0,P|220:307|182:309,1,80,2|0,1:2|0:0,0:0:0:0:
15,186,92791,2,0,P|56:181|108:174,1,80,8|0,0:0|0:0,0:0:0:0:
118,162,93166,1,2,0:0:0:0:
138,143,93291,2,0,P|135:97|129:53,1,80,2|0,1:2|0:0,0:0:0:0:
269,254,93791,2,0,P|221:224|175:226,1,100,8|2,0:0|0:0,0:0:0:0:
101,270,94291,5,6,1:2:0:0:
282,110,94541,1,0,0:0:0:0:
86,156,94791,1,8,0:0:0:0:
269,254,95041,1,0,0:0:0:0:
174,87,95291,5,6,1:2:0:0:
135,243,95541,1,0,0:0:0:0:
328,195,95791,1,8,0:0:0:0:
289,351,96041,1,0,0:0:0:0:
476,200,96291,5,6,1:2:0:0:
472,227,96416,1,8,0:0:0:0:
468,254,96541,1,10,0:0:0:0:
364,113,96791,1,10,0:0:0:0:
391,117,96916,1,8,0:0:0:0:
418,112,97041,1,10,0:0:0:0:
442,97,97166,1,8,0:0:0:0:
456,72,97291,1,10,0:0:0:0:
319,18,97541,1,10,0:0:0:0:
309,181,97791,6,0,P|313:202|318:233,1,40,2|0,1:0|0:0,0:0:0:0:
377,290,98041,1,2,0:0:0:0:
376,317,98166,1,0,0:0:0:0:
372,344,98291,6,0,P|332:337|272:336,1,80,6|0,1:2|0:0,0:0:0:0:
151,181,98791,1,8,0:0:0:0:
196,317,99041,1,0,0:0:0:0:
10,277,99291,2,0,P|51:271|113:262,1,80,2|0,1:2|0:0,0:0:0:0:
222,170,99791,2,0,P|212:127|200:82,1,80,8|0,0:0|0:0,0:0:0:0:
196,317,100291,6,0,P|244:299|309:308,1,80,2|0,1:2|0:0,0:0:0:0:
379,108,100791,1,8,0:0:0:0:
222,170,101041,1,0,0:0:0:0:
393,311,101291,2,0,P|404:271|400:221,1,80,2|0,1:2|0:0,0:0:0:0:
293,60,101791,2,0,L|301:157,1,80,8|2,0:0|0:0,0:0:0:0:
300,140,102166,1,0,0:0:0:0:
300,140,102291,5,6,1:2:0:0:
229,337,102541,1,0,0:0:0:0:
400,231,102791,1,8,0:0:0:0:
191,164,103041,1,0,0:0:0:0:
331,289,103291,5,2,1:2:0:0:
122,323,103541,1,0,0:0:0:0:
285,209,103791,1,8,0:0:0:0:
82,121,104041,1,0,0:0:0:0:
63,245,104291,6,0,P|119:239|150:221,1,80,2|0,1:2|0:0,0:0:0:0:
373,357,104791,2,0,P|333:314|240:331,1,160,8|2,0:0|1:2,0:0:0:0:
240,330,105416,1,0,0:0:0:0:
240,330,105541,1,2,0:0:0:0:
370,221,105791,1,10,0:0:0:0:
179,147,106041,1,2,0:0:0:0:
179,147,106166,1,0,0:0:0:0:
179,147,106291,6,0,P|186:199|200:242,1,80,6|0,1:2|0:0,0:0:0:0:
437,147,106791,2,0,P|396:127|340:128,1,80,8|0,0:0|0:0,0:0:0:0:
273,219,107291,1,2,1:2:0:0:
362,124,107541,1,0,0:0:0:0:
235,12,107791,2,0,L|248:115,1,80,8|0,0:0|0:0,0:0:0:0:
14,228,108291,6,0,B|107:237|77:177|164:188,1,160,2|8,1:2|0:0,0:0:0:0:
452,72,109291,2,0,P|392:66|311:51,1,120,2|0,1:2|0:0,0:0:0:0:
307,49,109791,2,0,P|302:88|297:128,1,80,8|0,0:0|0:0,0:0:0:0:
362,278,110291,5,6,1:2:0:0:
215,156,110541,1,0,0:0:0:0:
416,211,110791,1,8,0:0:0:0:
257,348,111041,1,0,0:0:0:0:
325,118,111291,5,6,1:2:0:0:
186,255,111541,1,0,0:0:0:0:
406,331,111791,1,8,0:0:0:0:
131,365,112041,1,0,0:0:0:0:
98,165,112291,5,6,1:2:0:0:
98,165,112416,1,8,0:0:0:0:
98,165,112541,1,10,0:0:0:0:
265,225,112791,1,10,0:0:0:0:
261,197,112916,1,8,0:0:0:0:
257,169,113041,1,10,0:0:0:0:
253,141,113166,1,8,0:0:0:0:
249,113,113291,1,10,0:0:0:0:
151,247,113541,1,10,0:0:0:0:
319,334,113791,6,0,P|316:303|312:275,1,40,2|0,1:0|0:0,0:0:0:0:
397,222,114041,2,0,P|395:245|394:273,1,40,0|0,1:0|0:0,0:0:0:0:
446,347,114291,5,6,1:2:0:0:
305,193,114541,1,0,0:0:0:0:
493,241,114791,1,8,0:0:0:0:
319,334,115041,1,0,0:0:0:0:
388,120,115291,2,0,P|393:156|399:203,1,80,2|0,1:2|0:0,0:0:0:0:
232,290,115791,2,0,P|193:279|127:273,1,80,8|0,0:0|0:0,0:0:0:0:
84,164,116291,5,2,1:2:0:0:
218,108,116541,1,0,0:0:0:0:
22,47,116791,1,8,0:0:0:0:
246,2,117041,1,0,0:0:0:0:
311,208,117291,5,2,1:2:0:0:
118,105,117541,1,2,0:0:0:0:
311,208,117791,1,10,0:0:0:0:
118,105,118041,1,2,0:0:0:0:
174,239,118291,5,6,1:2:0:0:
241,13,118541,2,0,P|252:49|260:107,1,80,0|8,0:0|0:0,0:0:0:0:
87,198,119041,2,0,P|91:153|95:103,1,80,0|2,0:0|1:2,0:0:0:0:
288,229,119541,6,0,P|326:213|387:207,1,80,0|8,0:0|0:0,0:0:0:0:
160,350,120041,2,0,P|153:311|141:265,1,80,0|2,0:0|1:2,0:0:0:0:
333,337,120541,5,0,0:0:0:0:
200,209,120791,1,8,0:0:0:0:
371,127,121041,2,0,L|362:221,1,80,0|2,0:0|1:2,0:0:0:0:
363,206,121416,1,0,0:0:0:0:
363,206,121541,1,2,0:0:0:0:
221,113,121791,1,8,0:0:0:0:
419,39,122041,1,2,0:0:0:0:
419,39,122166,1,0,0:0:0:0:
419,39,122291,6,0,P|464:45|511:29,1,80,6|0,1:2|0:0,0:0:0:0:
341,123,122791,1,8,0:0:0:0:
477,164,123041,1,0,0:0:0:0:
259,210,123291,2,0,P|253:167|245:109,1,80,2|0,1:2|0:0,0:0:0:0:
371,219,123791,1,8,0:0:0:0:
216,306,124041,6,0,P|176:292|109:300,1,80,0|2,0:0|1:2,0:0:0:0:
41,141,124541,1,0,0:0:0:0:
150,203,124791,1,8,0:0:0:0:
25,256,125041,1,0,0:0:0:0:
110,49,125291,2,0,P|122:88|125:127,1,80,2|0,1:2|0:0,0:0:0:0:
25,256,125791,1,8,0:0:0:0:
230,151,126041,1,2,0:0:0:0:
230,151,126166,1,0,0:0:0:0:
230,151,126291,5,6,1:2:0:0:
35,74,126541,2,0,P|39:111|45:153,1,80,0|8,0:0|1:2,0:0:0:0:
250,38,127041,2,0,P|207:38|168:23,1,80,0|8,0:0|0:0,0:0:0:0:
360,141,127541,6,0,P|400:130|447:121,1,80,0|8,0:0|0:0,0:0:0:0:
187,204,128041,2,0,P|176:162|160:109,1,80,0|6,0:0|1:2,0:0:0:0:
147,105,128416,1,8,0:0:0:0:
120,96,128541,1,10,0:0:0:0:
92,100,128666,1,8,0:0:0:0:
69,116,128791,1,10,0:0:0:0:
217,224,129041,1,10,0:0:0:0:
244,221,129166,1,8,0:0:0:0:
271,218,129291,1,10,0:0:0:0:
298,215,129416,1,8,0:0:0:0:
325,212,129541,1,10,0:0:0:0:
392,96,129791,6,0,P|366:99|343:102,1,40,2|0,1:0|0:0,0:0:0:0:
461,42,130041,2,0,P|487:43|515:46,1,40,2|0,1:1|0:0,0:0:0:0:
464,170,130291,6,0,P|458:209|450:248,1,80,6|0,1:2|0:0,0:0:0:0:
276,142,130791,1,8,0:0:0:0:
378,38,131041,2,0,P|384:77|390:117,1,80,0|2,0:0|1:2,0:0:0:0:
473,42,131541,1,0,0:0:0:0:
270,110,131791,2,0,P|232:105|191:95,1,80,8|0,0:0|0:0,0:0:0:0:
57,31,132291,5,2,1:2:0:0:
134,196,132541,1,0,0:0:0:0:
26,111,132791,1,8,0:0:0:0:
214,172,133041,1,0,0:0:0:0:
49,262,133291,2,0,P|35:223|29:173,1,80,2|0,1:2|0:0,0:0:0:0:
217,305,133791,2,0,P|212:344|197:382,1,80,8|0,0:0|0:0,0:0:0:0:
136,174,134291,5,6,1:2:0:0:
313,107,134541,1,0,0:0:0:0:
188,14,134791,2,0,P|183:48|177:93,1,80,8|0,0:0|0:0,0:0:0:0:
309,206,135291,1,2,1:2:0:0:
272,83,135541,1,0,0:0:0:0:
159,194,135791,2,0,P|119:182|63:189,1,80,8|0,0:0|0:0,0:0:0:0:
8,81,136291,5,6,1:2:0:0:
35,83,136416,1,8,0:0:0:0:
61,74,136541,1,10,0:0:0:0:
82,55,136666,1,8,0:0:0:0:
94,30,136791,1,10,0:0:0:0:
215,168,137041,1,10,0:0:0:0:
196,146,137166,1,8,0:0:0:0:
170,134,137291,1,10,0:0:0:0:
142,134,137416,1,8,0:0:0:0:
116,145,137541,1,10,0:0:0:0:
225,36,137791,1,10,0:0:0:0:
328,237,138041,1,2,1:2:0:0:
328,237,138166,1,0,0:0:0:0:
328,237,138291,5,2,1:2:0:0:
147,127,145791,5,8,0:0:0:0:
147,127,146291,6,0,P|160:194|155:277,1,136.000002593994,6|8,1:2|0:0,0:0:0:0:
59,217,147041,1,0,0:0:0:0:
181,356,147291,2,0,B|261:370|238:317|313:328,1,136.000002593994,2|8,1:2|0:0,0:0:0:0:
425,240,148041,6,0,P|431:189|443:159,1,68.0000012969971,0|2,0:0|1:2,0:0:0:0:
494,84,148541,1,0,0:0:0:0:
382,0,148791,2,0,L|393:99,1,68.0000012969971,8|0,0:0|0:0,0:0:0:0:
237,158,149291,1,2,1:2:0:0:
298,45,149541,1,0,0:0:0:0:
429,170,149791,2,0,P|494:161|518:146,1,68.0000012969971,8|0,0:0|0:0,0:0:0:0:
305,127,150291,5,6,1:2:0:0:
358,310,150541,1,0,0:0:0:0:
223,227,150791,1,8,0:0:0:0:
388,154,151041,1,2,0:0:0:0:
388,154,151166,1,0,0:0:0:0:
388,153,151291,2,0,P|390:120|392:86,1,68.0000012969971,2|0,1:2|0:0,0:0:0:0:
490,299,151791,2,0,P|439:276|400:281,1,68.0000012969971,8|0,0:0|0:0,0:0:0:0:
255,344,152291,5,2,1:2:0:0:
328,174,152541,1,0,0:0:0:0:
169,241,152791,1,8,0:0:0:0:
375,321,153041,2,0,B|454:300|432:352|510:333,1,136.000002593994,2|0,0:0|0:0,0:0:0:0:
303,180,153791,2,0,P|308:208|317:261,1,68.0000012969971,8|0,0:0|0:0,0:0:0:0:
419,104,154291,5,6,1:2:0:0:
210,188,154541,1,0,0:0:0:0:
414,213,154791,1,10,0:0:0:0:
215,79,155041,1,0,0:0:0:0:
419,104,155291,1,2,1:2:0:0:
302,197,155541,1,0,0:0:0:0:
512,129,155791,2,0,P|496:55|486:35,1,71.9999978027344,8|0,0:0|0:0,0:0:0:0:
414,213,156291,5,2,1:2:0:0:
333,105,156541,1,0,0:0:0:0:
511,212,156791,1,8,0:0:0:0:
333,285,157041,1,0,0:0:0:0:
444,124,157291,2,0,P|480:125|532:130,1,71.9999978027344,2|0,1:2|0:0,0:0:0:0:
303,193,157791,2,0,P|294:161|284:105,1,71.9999978027344,8|2,0:0|0:0,0:0:0:0:
286,123,158166,1,0,0:0:0:0:
286,123,158291,5,6,1:2:0:0:
424,263,158541,2,0,P|421:298|414:348,2,71.9999978027344,0|8|0,0:0|0:0|0:0,0:0:0:0:
225,187,159291,2,0,P|264:217|365:187,1,143.999995605469,2|8,1:2|0:0,0:0:0:0:
454,139,160041,1,0,0:0:0:0:
331,70,160291,5,2,1:2:0:0:
353,202,160541,1,2,1:2:0:0:
226,45,160791,1,10,1:2:0:0:
253,246,161041,1,2,1:2:0:0:
127,132,161291,5,2,1:2:0:0:
352,201,161541,1,2,1:2:0:0:
147,248,161791,1,10,1:2:0:0:
311,318,162041,1,2,1:2:0:0:
84,340,162291,5,6,1:2:0:0:
232,228,162541,2,0,P|229:194|223:145,1,71.9999978027344,0|8,0:0|0:0,0:0:0:0:
75,80,163041,1,2,0:0:0:0:
75,80,163166,1,0,0:0:0:0:
75,80,163291,2,0,P|79:47|86:6,1,71.9999978027344,2|0,1:2|0:0,0:0:0:0:
140,195,163791,2,0,P|95:208|54:204,1,71.9999978027344,8|0,0:0|0:0,0:0:0:0:
216,92,164291,5,2,1:2:0:0:
316,248,164541,1,0,0:0:0:0:
140,195,164791,1,8,0:0:0:0:
336,140,165041,1,0,0:0:0:0:
231,323,165291,2,0,P|226:289|219:248,1,71.9999978027344,2|0,1:2|0:0,0:0:0:0:
196,132,165791,1,8,0:0:0:0:
330,260,166041,6,0,B|416:274|387:221|470:234,1,143.999995605469,2|0,0:0|0:0,0:0:0:0:
500,327,166791,1,8,0:0:0:0:
351,172,167041,1,2,0:0:0:0:
351,172,167166,1,0,0:0:0:0:
351,172,167291,2,0,P|354:132|362:88,1,71.9999978027344,2|0,1:2|0:0,0:0:0:0:
200,222,167791,2,0,P|202:260|208:293,1,71.9999978027344,8|0,0:0|0:0,0:0:0:0:
268,135,168291,5,6,1:2:0:0:
245,122,168416,1,8,0:0:0:0:
220,116,168541,1,10,0:0:0:0:
194,115,168666,1,8,0:0:0:0:
169,121,168791,1,10,0:0:0:0:
316,232,169041,1,10,0:0:0:0:
341,230,169166,1,8,0:0:0:0:
366,228,169291,1,10,0:0:0:0:
391,226,169416,1,8,0:0:0:0:
416,224,169541,1,10,0:0:0:0:
223,347,169791,1,10,0:0:0:0:
216,318,169916,1,8,0:0:0:0:
209,289,170041,1,10,0:0:0:0:
203,260,170166,1,8,0:0:0:0:
194,229,170291,6,0,P|136:247|86:218,1,120.000004577637,6|8,0:0|0:0,0:0:0:0:
31,143,171041,1,0,0:0:0:0:
18,267,171291,2,0,L|10:345,1,60.0000022888184,2|0,1:2|0:0,0:0:0:0:
140,271,171791,1,8,0:0:0:0:
126,157,172041,1,0,0:0:0:0:
255,244,172291,6,0,B|274:235|291:226|291:226|334:244|375:238,1,120.000004577637,2|8,1:2|0:0,0:0:0:0:
468,153,173041,1,0,0:0:0:0:
400,75,173291,2,0,P|391:103|385:141,1,60.0000022888184,2|0,1:2|0:0,0:0:0:0:
488,54,173791,1,8,0:0:0:0:
303,90,174041,1,0,0:0:0:0:
303,90,174166,1,0,0:0:0:0:
303,90,174291,6,0,P|234:81|161:77,1,120.000004577637,6|10,1:2|0:0,0:0:0:0:
50,128,175041,1,0,0:0:0:0:
183,77,175291,1,2,1:2:0:0:
66,34,175541,1,0,0:0:0:0:
152,176,175791,2,0,P|183:169|230:165,1,60.0000022888184,8|0,0:0|0:0,0:0:0:0:
351,220,176291,5,2,1:2:0:0:
295,58,176541,1,0,0:0:0:0:
211,165,176791,1,8,0:0:0:0:
387,63,177041,2,0,P|381:30|373:-8,1,60.0000022888184,0|2,0:0|1:2,0:0:0:0:
501,150,177541,1,0,0:0:0:0:
410,192,177791,2,0,P|346:180|325:183,1,60.0000022888184,8|0,0:0|0:0,0:0:0:0:
186,219,178291,5,6,1:2:0:0:
235,59,178541,1,0,0:0:0:0:
92,154,178791,1,8,0:0:0:0:
281,219,179041,1,0,0:0:0:0:
107,63,179291,2,0,P|68:66|22:92,1,75.9999979705811,2|0,1:2|0:0,0:0:0:0:
306,118,179791,2,0,P|325:65|324:33,1,75.9999979705811,8|0,0:0|0:0,0:0:0:0:
162,187,180291,6,0,P|195:219|172:343,1,151.999995941162,2|8,1:2|0:0,0:0:0:0:
101,280,181041,1,0,0:0:0:0:
286,323,181291,2,0,P|343:315|401:310,2,113.999996955872,2|2|2,1:2|0:0|0:0,0:0:0:0:
286,323,182166,1,0,0:0:0:0:
286,323,182291,5,6,1:2:0:0:
208,139,182541,1,0,0:0:0:0:
83,296,182791,2,0,P|120:285|159:284,1,75.9999979705811,8|0,0:0|0:0,0:0:0:0:
110,89,183291,2,0,P|101:124|91:165,1,75.9999979705811,2|0,1:2|0:0,0:0:0:0:
292,202,183791,2,0,P|258:152|205:140,1,113.999996955872,8|2,0:0|0:0,0:0:0:0:
174,156,184291,5,2,1:2:0:0:
352,262,184541,1,0,0:0:0:0:
188,271,184791,1,8,0:0:0:0:
366,161,185041,2,0,B|416:171|441:165|441:165|465:183|525:195,1,151.999995941162,0|0,0:0|0:0,0:0:0:0:
333,78,185791,2,0,P|295:85|237:96,1,75.9999979705811,8|0,0:0|0:0,0:0:0:0:
119,47,186291,5,6,1:2:0:0:
125,72,186416,1,8,0:0:0:0:
131,97,186541,1,10,0:0:0:0:
137,122,186666,1,8,0:0:0:0:
143,147,186791,1,10,0:0:0:0:
29,281,187041,1,10,0:0:0:0:
50,265,187166,1,8,0:0:0:0:
75,259,187291,1,10,0:0:0:0:
101,261,187416,1,8,0:0:0:0:
125,270,187541,1,10,0:0:0:0:
34,143,187791,1,10,0:0:0:0:
223,269,188041,1,10,0:0:0:0:
223,269,188166,1,8,0:0:0:0:
223,269,188291,6,0,P|218:310|212:365,1,80,14|0,1:3|0:0,0:0:0:0:
369,189,188791,2,0,P|364:148|346:101,1,80,8|0,0:0|0:0,0:0:0:0:
305,246,189291,1,2,1:2:0:0:
468,150,189541,1,0,0:0:0:0:
274,32,189791,2,0,L|259:128,1,80,8|0,0:0|0:0,0:0:0:0:
179,238,190291,6,0,B|63:217|63:217|78:236|82:265,1,160,2|8,1:2|0:0,0:0:0:0:
358,172,191291,2,0,P|350:109|338:49,1,120,2|0,1:2|0:0,0:0:0:0:
317,32,191791,1,8,0:0:0:0:
455,157,192041,1,0,0:0:0:0:
301,234,192291,6,0,P|263:226|202:222,1,80,6|0,1:2|0:0,0:0:0:0:
87,121,192791,2,0,P|49:129|5:135,1,80,8|2,0:0|0:0,0:0:0:0:
229,35,193291,1,2,1:2:0:0:
185,148,193541,1,0,0:0:0:0:
354,75,193791,2,0,P|351:37|342:-6,1,80,8|0,0:0|0:0,0:0:0:0:
480,200,194291,6,0,P|411:187|364:256,2,160,2|8|2,1:2|0:0|1:2,0:0:0:0:
481,201,195416,1,0,0:0:0:0:
481,201,195541,1,2,0:0:0:0:
320,66,195791,2,0,P|314:101|304:153,1,80,10|2,0:0|0:0,0:0:0:0:
305,144,196166,1,0,0:0:0:0:
305,144,196291,5,6,1:2:0:0:
411,74,196541,1,0,0:0:0:0:
222,10,196791,2,0,P|227:47|233:92,1,80,8|0,0:0|0:0,0:0:0:0:
65,157,197291,2,0,P|68:122|82:79,1,80,2|0,1:2|0:0,0:0:0:0:
201,188,197791,1,8,0:0:0:0:
0,234,198041,1,0,0:0:0:0:
284,238,198291,6,0,P|294:202|292:153,1,80,2|0,1:2|0:0,0:0:0:0:
135,331,198791,2,0,B|209:320|186:355|254:345,1,120,8|2,0:0|0:0,0:0:0:0:
277,330,199291,1,2,1:2:0:0:
378,233,199541,1,0,0:0:0:0:
220,140,199791,2,0,P|225:177|231:224,1,80,8|0,0:0|0:0,0:0:0:0:
68,287,200291,6,0,P|36:266|-6:258,1,80,6|0,1:2|0:0,0:0:0:0:
199,340,200791,2,0,P|236:332|281:327,1,80,8|0,0:0|0:0,0:0:0:0:
177,155,201291,2,0,P|163:188|160:233,1,80,6|0,1:2|0:0,0:0:0:0:
370,369,201791,2,0,P|366:325|361:281,1,80,8|0,0:0|0:0,0:0:0:0:
488,111,202291,5,6,1:2:0:0:
485,138,202416,1,8,0:0:0:0:
482,165,202541,1,10,0:0:0:0:
296,45,202791,1,10,0:0:0:0:
321,56,202916,1,8,0:0:0:0:
348,58,203041,1,10,0:0:0:0:
374,47,203166,1,8,0:0:0:0:
395,28,203291,1,10,0:0:0:0:
346,181,203541,1,10,0:0:0:0:
124,184,203791,6,0,P|121:165|117:137,1,40,2|0,1:0|0:0,0:0:0:0:
194,241,204041,2,0,L|189:287,1,40,2|0,0:0|0:0,0:0:0:0:
23,279,204291,6,0,P|61:268|106:269,1,80,6|0,1:2|0:0,0:0:0:0:
291,324,204791,1,8,0:0:0:0:
118,362,205041,1,0,0:0:0:0:
237,182,205291,2,0,L|228:267,1,80,2|0,1:2|0:0,0:0:0:0:
63,127,205791,2,0,P|104:121|146:103,1,80,8|0,0:0|0:0,0:0:0:0:
334,219,206291,6,0,B|365:204|386:194|386:194|425:232|494:222,2,160,2|8|2,1:2|0:0|1:2,0:0:0:0:
221,141,207541,1,0,0:0:0:0:
331,25,207791,2,0,P|327:60|321:117,1,80,8|2,0:0|0:0,0:0:0:0:
181,254,208291,5,6,1:2:0:0:
94,108,208541,1,0,0:0:0:0:
252,160,208791,1,8,0:0:0:0:
93,301,209041,1,2,0:0:0:0:
93,301,209166,1,0,0:0:0:0:
93,301,209291,2,0,P|87:256|80:201,1,80,2|0,1:2|0:0,0:0:0:0:
327,338,209791,2,0,P|288:348|229:377,1,80,8|0,0:0|0:0,0:0:0:0:
218,141,210291,5,2,1:2:0:0:
266,268,210541,1,0,0:0:0:0:
318,67,210791,1,8,0:0:0:0:
114,140,211041,1,0,0:0:0:0:
377,207,211291,5,2,1:2:0:0:
377,207,211416,1,0,0:0:0:0:
377,207,211541,1,2,0:0:0:0:
144,278,211791,1,10,0:0:0:0:
196,61,212041,1,2,0:0:0:0:
196,61,212166,1,0,0:0:0:0:
196,61,212291,5,6,1:2:0:0:
5,180,212541,2,0,P|41:174|86:167,1,80,0|8,0:0|0:0,0:0:0:0:
240,252,213041,1,0,0:0:0:0:
106,298,213291,1,2,1:2:0:0:
310,339,213541,1,0,0:0:0:0:
150,212,213791,1,8,0:0:0:0:
341,128,214041,1,0,0:0:0:0:
447,283,214291,6,0,B|354:292|384:232|297:243,1,160,2|8,1:2|0:0,0:0:0:0:
78,82,215291,2,0,P|135:101|126:174,1,120,2|0,1:2|0:0,0:0:0:0:
79,209,215791,2,0,P|37:201|-14:200,1,80,8|0,0:0|0:0,0:0:0:0:
182,297,216291,5,6,1:2:0:0:
375,194,216541,1,0,0:0:0:0:
244,52,216791,1,8,0:0:0:0:
340,280,217041,1,0,0:0:0:0:
191,152,217291,5,6,1:2:0:0:
410,92,217541,1,0,0:0:0:0:
191,152,217791,1,8,0:0:0:0:
410,92,218041,1,0,0:0:0:0:
251,274,218291,5,6,1:2:0:0:
223,270,218416,1,8,0:0:0:0:
195,266,218541,1,10,0:0:0:0:
386,358,218791,1,10,0:0:0:0:
377,331,218916,1,8,0:0:0:0:
378,303,219041,1,10,0:0:0:0:
386,276,219166,1,8,0:0:0:0:
406,256,219291,1,10,0:0:0:0:
512,172,219541,1,10,0:0:0:0:
290,53,219791,6,0,P|293:74|301:121,1,40,2|0,1:0|0:0,0:0:0:0:
232,179,220041,1,0,1:0:0:0:
230,206,220166,1,0,0:0:0:0:
228,233,220291,5,6,1:2:0:0:
386,153,220541,1,0,0:0:0:0:
162,91,220791,1,8,0:0:0:0:
328,240,221041,1,0,0:0:0:0:
105,262,221291,5,2,1:2:0:0:
287,101,221541,1,0,0:0:0:0:
111,172,221791,1,8,0:0:0:0:
268,330,222041,1,0,0:0:0:0:
386,153,222291,5,2,1:2:0:0:
206,221,222541,2,0,P|198:183|193:135,1,80,0|8,0:0|0:0,0:0:0:0:
328,256,223041,1,0,0:0:0:0:
111,333,223291,2,0,L|124:233,1,80,2|2,1:2|0:0,0:0:0:0:
363,334,223791,2,0,B|441:316|441:316|428:331|422:344,1,110.000003356934,10|0,0:0|0:0,0:0:0:0:
502,384,224291,5,6,1:2:0:0:
418,207,224541,2,0,P|424:167|439:124,1,80,0|8,0:0|0:0,0:0:0:0:
430,338,225041,2,0,P|399:327|351:322,1,80,0|2,0:0|1:2,0:0:0:0:
174,229,225541,6,0,L|183:312,1,80,0|8,0:0|0:0,0:0:0:0:
326,115,226041,2,0,L|317:198,1,80,0|2,0:0|1:2,0:0:0:0:
198,98,226541,5,0,0:0:0:0:
403,186,226791,1,8,0:0:0:0:
202,303,227041,2,0,P|196:263|191:223,1,80,0|2,0:0|1:2,0:0:0:0:
191,223,227416,1,0,0:0:0:0:
191,223,227541,1,2,0:0:0:0:
318,298,227791,1,8,0:0:0:0:
115,374,228041,1,2,0:0:0:0:
115,374,228166,1,0,0:0:0:0:
114,373,228291,6,0,P|77:360|37:356,1,80,6|0,1:2|0:0,0:0:0:0:
245,217,228791,1,8,0:0:0:0:
196,342,229041,1,0,0:0:0:0:
125,181,229291,2,0,L|140:102,1,80,2|0,1:2|0:0,0:0:0:0:
0,259,229791,1,8,0:0:0:0:
196,342,230041,6,0,P|235:330|311:329,1,80,0|2,0:0|1:2,0:0:0:0:
446,165,230541,1,0,0:0:0:0:
333,236,230791,1,8,0:0:0:0:
469,288,231041,1,0,0:0:0:0:
355,76,231291,2,0,P|341:113|337:164,1,80,2|0,1:2|0:0,0:0:0:0:
440,138,231791,1,8,0:0:0:0:
245,28,232041,1,2,0:0:0:0:
245,28,232166,1,0,0:0:0:0:
245,28,232291,5,6,1:2:0:0:
320,184,232541,2,0,P|361:175|414:169,1,80,0|8,0:0|1:2,0:0:0:0:
182,131,233041,2,0,P|155:166|109:194,1,80,0|8,0:0|0:0,0:0:0:0:
345,87,233541,6,0,P|338:49|328:-12,1,80,0|8,0:0|0:0,0:0:0:0:
486,191,234041,2,0,L|479:230|472:269,1,80,0|6,0:0|1:2,0:0:0:0:
462,295,234416,1,8,0:0:0:0:
438,309,234541,1,10,0:0:0:0:
410,308,234666,1,8,0:0:0:0:
387,290,234791,1,10,0:0:0:0:
267,190,235041,1,10,0:0:0:0:
263,217,235166,1,8,0:0:0:0:
259,244,235291,1,10,0:0:0:0:
255,271,235416,1,8,0:0:0:0:
251,298,235541,1,10,0:0:0:0:
379,153,235791,6,0,L|374:107,1,40,2|0,1:0|0:0,0:0:0:0:
449,45,236041,2,0,L|455:88,1,40,2|0,1:1|0:0,0:0:0:0:
351,24,236291,6,0,P|281:40|243:36,1,80,6|0,1:2|0:0,0:0:0:0:
96,147,236791,2,0,P|135:150|173:162,1,80,8|0,0:0|0:0,0:0:0:0:
66,18,237291,1,2,1:2:0:0:
238,111,237541,1,0,0:0:0:0:
18,214,237791,1,8,0:0:0:0:
120,75,238041,1,0,0:0:0:0:
178,202,238291,5,2,1:2:0:0:
229,332,238541,1,0,0:0:0:0:
304,202,238791,5,8,0:0:0:0:
121,287,239041,1,0,0:0:0:0:
367,314,239291,5,2,1:2:0:0:
253,122,239541,1,0,0:0:0:0:
458,214,239791,5,8,0:0:0:0:
229,332,240041,1,0,0:0:0:0:
165,140,240291,5,6,1:2:0:0:
343,36,240541,2,0,P|301:31|238:17,1,80,0|8,0:0|0:0,0:0:0:0:
117,234,241041,2,0,P|189:202|267:214,1,160,0|0,0:0|0:0,0:0:0:0:
415,79,241791,1,8,0:0:0:0:
264,123,242041,1,0,0:0:0:0:
412,204,242291,5,6,1:2:0:0:
432,185,242416,1,8,0:0:0:0:
458,175,242541,1,10,0:0:0:0:
485,173,242666,1,8,0:0:0:0:
512,177,242791,1,10,0:0:0:0:
373,328,243041,1,10,0:0:0:0:
346,318,243166,1,8,0:0:0:0:
323,301,243291,1,10,0:0:0:0:
307,277,243416,1,8,0:0:0:0:
301,249,243541,1,10,0:0:0:0:
481,319,243791,1,10,0:0:0:0:
268,375,244041,1,2,1:2:0:0:
268,375,244166,1,0,0:0:0:0:
268,375,244291,5,2,1:2:0:0:
256,192,252291,12,0,254041,0:0:0:0:
246,112,254291,6,0,L|255:191,1,80,2|0,1:2|1:0,0:0:0:0:
106,317,254791,1,0,1:2:0:0:
165,156,255041,1,0,1:0:0:0:
330,292,255291,1,2,1:2:0:0:
129,239,255541,1,0,1:0:0:0:
345,198,255791,1,0,1:2:0:0:
246,366,256041,1,0,1:0:0:0:
256,127,256291,5,2,1:2:0:0:
457,188,256541,1,0,1:0:0:0:
236,278,256791,1,2,1:2:0:0:
467,345,257041,1,0,1:0:0:0:
333,113,257291,5,2,1:2:0:0:
353,303,257541,1,0,1:0:0:0:
162,324,257791,1,2,1:2:0:0:
142,133,258041,1,0,1:0:0:0:
319,51,258291,5,10,0:2:0:0:
326,82,258416,1,8,0:0:0:0:
333,113,258541,1,10,0:0:0:0:
339,144,258666,1,8,0:0:0:0:
346,175,258791,1,10,0:0:0:0:
84,292,259041,1,10,0:0:0:0:
99,259,259166,1,8,0:0:0:0:
129,240,259291,1,10,0:0:0:0:
164,238,259416,1,8,0:0:0:0:
198,247,259541,1,10,0:0:0:0:
45,135,259791,1,10,0:0:0:0:
45,135,259916,1,8,0:0:0:0:
45,135,260041,2,0,L|37:97,2,25.9999988098145,2|0|0,1:2|1:2|1:2,0:0:0:0:
36,171,260291,6,0,P|28:195|20:223,1,51.999997619629,2|0,1:2|0:0,0:0:0:0:
170,103,260541,2,0,P|165:76|154:51,1,51.999997619629,2|0,1:2|0:0,0:0:0:0:
111,210,260791,2,0,L|163:205,1,51.999997619629,2|0,1:2|0:0,0:0:0:0:
297,194,261041,2,0,L|348:189,1,51.999997619629,2|0,1:2|0:0,0:0:0:0:
492,252,261291,6,0,L|487:226,6,25.9999988098145,0|0|0|0|0|0|0,1:0|1:0|1:0|1:0|1:0|1:0|1:0,0:0:0:0:
454,148,261791,6,0,L|457:127,16,12.9999994049073,0|0|0|0|0|0|0|0|0|0|0|0|0|0|0|0|6,1:2|1:2|1:2|1:2|1:2|1:2|1:2|1:2|1:2|1:2|1:2|1:2|1:2|1:2|1:2|1:2|1:2,0:0:0:0:
75,123,270291,6,0,P|84:153|85:185,1,64,6|0,1:2|0:0,0:0:0:0:
30,313,270791,2,0,P|59:293|100:280,1,64,8|0,0:0|0:0,0:0:0:0:
225,242,271291,2,0,P|162:227|143:217,1,64,10|0,0:2|0:0,0:0:0:0:
292,338,271791,2,0,P|325:334|356:332,1,64,8|0,0:0|0:0,0:0:0:0:
453,211,272291,6,0,P|461:150|474:75,2,128,10|8|10,1:2|0:0|0:0,0:0:0:0:
178,105,273791,2,0,B|208:96|220:87|220:87|239:90|266:88,1,80,10|0,0:0|0:0,0:0:0:0:
332,37,274291,5,14,0:2:0:0:
257,217,274541,1,10,0:0:0:0:
189,19,274791,5,10,0:0:0:0:
403,86,275041,1,10,0:0:0:0:
118,167,275291,5,10,0:2:0:0:
332,37,275541,1,10,0:0:0:0:
417,250,275791,5,10,0:0:0:0:
162,89,276041,1,10,0:0:0:0:
15,287,276291,5,10,0:0:0:0:
47,266,276416,1,8,0:0:0:0:
88,266,276541,1,10,0:0:0:0:
122,283,276666,1,8,0:0:0:0:
151,307,276791,1,10,0:0:0:0:
179,333,276916,1,8,0:0:0:0:
214,347,277041,1,10,0:0:0:0:
252,341,277166,1,8,0:0:0:0:
288,330,277291,6,0,L|283:304,6,16,2|0|0|0|0|0|0,1:0|1:0|1:0|1:0|1:0|1:0|1:0,0:0:0:0:
325,339,277791,6,2,B|355:330|367:317|367:317|400:342|440:350|462:319|452:283|411:276|393:303,1,192
325,339,278291,5,14,1:3:0:0:
180,153,278541,1,0,0:0:0:0:
335,224,278791,1,8,0:0:0:0:
151,296,279041,1,0,0:0:0:0:
309,128,279291,2,0,P|348:129|386:141,1,80,2|0,1:2|0:0,0:0:0:0:
145,200,279791,2,0,P|137:160|130:115,1,80,8|0,0:0|0:0,0:0:0:0:
333,295,280291,6,0,B|449:274|449:274|434:293|430:322,2,160,2|8|2,1:2|0:0|1:2,0:0:0:0:
230,227,281541,1,0,0:0:0:0:
337,131,281791,2,0,P|333:167|329:212,1,80,8|0,0:0|0:0,0:0:0:0:
140,120,282291,6,0,P|206:102|219:94,1,80,6|0,1:2|0:0,0:0:0:0:
422,220,282791,1,8,0:0:0:0:
260,176,283041,1,2,0:0:0:0:
378,20,283291,2,0,P|373:59|370:99,1,80,2|0,1:2|0:0,0:0:0:0:
510,249,283791,2,0,P|509:199|496:170,1,80,8|0,0:0|0:0,0:0:0:0:
354,338,284291,6,0,P|395:331|433:335,1,80,2|0,1:2|0:0,0:0:0:0:
271,217,284791,2,0,B|211:212|157:232|157:232|124:204,1,160,8|2,0:0|1:2,0:0:0:0:
123,203,285416,1,0,0:0:0:0:
123,203,285541,1,2,0:0:0:0:
260,18,285791,2,0,P|255:54|252:105,1,80,10|2,0:0|0:0,0:0:0:0:
271,118,286166,1,0,0:0:0:0:
295,131,286291,6,0,P|336:121|392:122,1,80,6|0,1:2|0:0,0:0:0:0:
499,221,286791,1,8,0:0:0:0:
347,312,287041,2,0,P|350:270|353:232,1,80,0|2,0:0|1:2,0:0:0:0:
228,65,287541,1,0,0:0:0:0:
373,119,287791,1,8,0:0:0:0:
240,257,288041,1,0,0:0:0:0:
5,174,288291,6,0,B|55:156|75:134|75:134|109:148|167:143,1,160,2|8,1:2|0:0,0:0:0:0:
412,43,289291,2,0,P|402:95|393:174,1,120,2|0,1:2|0:0,0:0:0:0:
415,250,289791,2,0,P|378:240|322:240,1,80,8|0,0:0|0:0,0:0:0:0:
87,333,290291,5,6,1:2:0:0:
147,145,290541,1,0,0:0:0:0:
0,269,290791,1,8,0:0:0:0:
214,320,291041,1,0,0:0:0:0:
78,81,291291,5,6,1:2:0:0:
129,281,291541,1,0,0:0:0:0:
238,113,291791,1,8,0:0:0:0:
13,182,292041,1,0,0:0:0:0:
282,313,292291,5,6,1:2:0:0:
309,309,292416,1,8,0:0:0:0:
336,312,292541,1,10,0:0:0:0:
498,202,292791,1,10,0:0:0:0:
476,219,292916,1,8,0:0:0:0:
448,225,293041,1,10,0:0:0:0:
420,221,293166,1,8,0:0:0:0:
395,207,293291,1,10,0:0:0:0:
302,115,293541,1,10,0:0:0:0:
123,270,293791,6,0,P|130:295|140:329,1,40,2|0,1:0|0:0,0:0:0:0:
145,181,294041,2,0,P|121:172|77:156,1,40,2|0,0:0|0:0,0:0:0:0:
215,242,294291,6,0,P|262:238|308:234,1,80,6|0,1:2|0:0,0:0:0:0:
469,124,294791,2,0,P|409:113|372:89,1,80,8|0,0:0|0:0,0:0:0:0:
299,41,295291,1,2,1:2:0:0:
381,197,295541,1,0,0:0:0:0:
208,119,295791,1,8,0:0:0:0:
407,31,296041,1,0,0:0:0:0:
294,235,296291,5,2,1:2:0:0:
174,33,296541,1,0,0:0:0:0:
310,128,296791,1,8,0:0:0:0:
138,203,297041,1,0,0:0:0:0:
356,297,297291,2,0,P|395:288|448:291,1,80,2|0,1:2|0:0,0:0:0:0:
154,364,297791,2,0,P|115:355|62:358,1,80,8|2,0:0|0:0,0:0:0:0:
214,175,298291,5,6,1:2:0:0:
258,329,298541,1,0,0:0:0:0:
103,211,298791,1,8,0:0:0:0:
306,119,299041,2,0,P|303:156|298:208,1,80,0|2,0:0|1:2,0:0:0:0:
158,291,299541,1,0,0:0:0:0:
210,138,299791,1,8,0:0:0:0:
368,257,300041,2,0,P|406:259|445:245,1,80,0|2,0:0|1:2,0:0:0:0:
210,138,300541,6,0,P|202:173|194:218,1,80,0|8,0:0|0:0,0:0:0:0:
377,92,301041,2,0,P|364:42|349:16,1,80,0|2,0:0|1:2,0:0:0:0:
350,17,301416,1,0,0:0:0:0:
350,17,301541,1,2,0:0:0:0:
242,150,301791,1,10,0:0:0:0:
433,226,302041,1,2,0:0:0:0:
433,226,302166,1,0,0:0:0:0:
433,226,302291,6,0,P|472:220|518:213,1,80,6|0,1:2|0:0,0:0:0:0:
273,191,302791,2,0,P|246:236|219:258,1,80,8|0,0:0|0:0,0:0:0:0:
396,117,303291,2,0,P|391:72|384:18,1,80,2|0,1:2|0:0,0:0:0:0:
273,191,303791,1,8,0:0:0:0:
485,128,304041,1,0,0:0:0:0:
235,67,304291,5,2,1:2:0:0:
374,213,304541,1,0,0:0:0:0:
202,151,304791,1,8,0:0:0:0:
395,84,305041,1,0,0:0:0:0:
162,12,305291,2,0,P|149:45|150:102,1,80,2|0,1:2|0:0,0:0:0:0:
334,272,305791,2,0,P|347:234|348:194,1,80,8|0,0:0|0:0,0:0:0:0:
139,261,306291,5,6,1:2:0:0:
251,117,306541,2,0,P|245:77|238:37,1,80,0|8,0:0|0:0,0:0:0:0:
419,225,307041,2,0,P|457:214|497:209,1,80,0|6,0:0|1:2,0:0:0:0:
265,224,307541,6,0,P|249:262|215:301,1,80,0|8,0:0|0:0,0:0:0:0:
417,108,308041,2,0,P|409:64|403:25,1,80,0|6,0:0|1:2,0:0:0:0:
382,17,308416,1,8,0:0:0:0:
358,14,308541,1,10,0:0:0:0:
334,19,308666,1,0,0:0:0:0:
317,36,308791,1,10,0:0:0:0:
500,171,309041,1,10,0:0:0:0:
500,147,309166,1,8,0:0:0:0:
501,123,309291,1,10,0:0:0:0:
502,99,309416,1,0,0:0:0:0:
503,75,309541,1,10,0:0:0:0:
347,171,309791,6,0,P|349:195|354:220,1,40,2|0,1:0|0:0,0:0:0:0:
423,286,310041,2,0,P|421:311|415:345,1,40,0|0,1:0|0:0,0:0:0:0:
329,379,310291,6,0,P|292:373|245:371,1,80,6|0,1:2|0:0,0:0:0:0:
115,287,310791,1,8,0:0:0:0:
248,195,311041,2,0,P|243:234|238:288,1,80,0|2,0:0|1:2,0:0:0:0:
29,207,311541,2,0,P|72:198|121:180,1,80,0|8,0:0|0:0,0:0:0:0:
239,274,312041,1,0,0:0:0:0:
42,336,312291,5,2,1:2:0:0:
206,182,312541,1,0,0:0:0:0:
29,207,312791,1,8,0:0:0:0:
174,303,313041,1,0,0:0:0:0:
297,156,313291,2,0,P|294:116|284:77,1,80,2|0,1:2|0:0,0:0:0:0:
198,321,313791,2,0,P|245:328|295:340,1,80,10|0,0:0|0:0,0:0:0:0:
408,156,314291,5,6,1:2:0:0:
371,287,314541,1,0,0:0:0:0:
502,162,314791,2,0,P|494:120|481:77,1,80,8|0,0:0|0:0,0:0:0:0:
343,211,315291,1,2,1:2:0:0:
489,281,315541,1,0,0:0:0:0:
354,120,315791,2,0,P|314:127|270:132,1,80,8|0,0:0|0:0,0:0:0:0:
99,71,316291,5,2,1:2:0:0:
165,263,316541,1,0,0:0:0:0:
62,168,316791,1,8,0:0:0:0:
271,245,317041,1,0,0:0:0:0:
87,354,317291,1,2,1:2:0:0:
87,354,317416,1,2,0:0:0:0:
87,354,317541,1,2,0:0:0:0:
200,182,317791,1,8,0:0:0:0:
320,359,318041,1,2,0:0:0:0:
320,359,318166,1,2,0:0:0:0:
320,359,318291,5,6,1:2:0:0:
160,257,318541,1,0,0:0:0:0:
374,176,318791,1,8,0:0:0:0:
266,289,319041,1,0,0:0:0:0:
462,344,319291,1,2,1:2:0:0:
306,216,319541,1,0,0:0:0:0:
487,112,319791,2,0,P|481:148|475:206,1,80,8|0,0:0|0:0,0:0:0:0:
257,90,320291,6,0,P|292:70|348:67,1,80,2|0,1:2|0:0,0:0:0:0:
117,189,320791,2,0,P|105:151|102:106,1,80,8|0,0:0|0:0,0:0:0:0:
287,264,321291,2,0,L|279:348,1,80,2|0,1:2|0:0,0:0:0:0:
218,161,321791,1,8,0:0:0:0:
394,275,322041,1,0,0:0:0:0:
156,330,322291,5,6,1:2:0:0:
333,202,322541,1,0,0:0:0:0:
106,136,322791,1,8,0:0:0:0:
232,243,323041,1,0,0:0:0:0:
54,354,323291,2,0,P|46:319|43:261,1,80,2|0,1:2|0:0,0:0:0:0:
185,79,323791,2,0,P|192:117|195:158,1,80,8|0,0:0|0:0,0:0:0:0:
351,325,324291,5,6,1:2:0:0:
374,321,324416,1,8,0:0:0:0:
397,318,324541,1,10,0:0:0:0:
239,376,324791,1,10,0:0:0:0:
233,352,324916,1,8,0:0:0:0:
227,328,325041,1,10,0:0:0:0:
222,304,325166,1,8,0:0:0:0:
217,280,325291,1,10,0:0:0:0:
324,147,325541,1,10,0:0:0:0:
130,228,325791,6,0,P|103:225|73:223,1,40,2|0,1:0|0:0,0:0:0:0:
20,163,326041,1,2,0:0:0:0:
16,139,326166,1,0,0:0:0:0:
24,116,326291,5,6,1:2:0:0:
256,192,326416,12,0,330291,0:0:0:0:
