osu file format v14

[General]
AudioFilename: yoake no bell ga naru.mp3
AudioLeadIn: 0
PreviewTime: 64728
Countdown: 0
SampleSet: Soft
StackLeniency: 0.4
Mode: 3
LetterboxInBreaks: 0
SpecialStyle: 0
WidescreenStoryboard: 1

[Editor]
Bookmarks: 83915
DistanceSpacing: 2
BeatDivisor: 4
GridSize: 4
TimelineZoom: 1.3

[Metadata]
Title:Yoake no Bell ga Naru
TitleUnicode:夜明けのベルが鳴る
Artist:Yasuda Mizuho
ArtistUnicode:安田みずほ
Creator:Riana
Version:Murumoo's Normal
Source:彼女のセイイキ
Tags:kanojo no seiiki japanese pop jpop j-pop rock video game feng eroge ending ed theme galge visual novel vn murumoo
BeatmapID:2507451
BeatmapSetID:1070997

[Difficulty]
HPDrainRate:7.5
CircleSize:4
OverallDifficulty:7.2
ApproachRate:9.3
SliderMultiplier:1.7
SliderTickRate:1

[Events]
//Background and Video events
0,0,"kanojo.jpg",0,0
//Break Periods
//Storyboard Layer 0 (Background)
//Storyboard Layer 1 (Fail)
//Storyboard Layer 2 (Pass)
//Storyboard Layer 3 (Foreground)
//Storyboard Layer 4 (Overlay)
//Storyboard Sound Samples
Sample,42016,0,"finish.wav",50

[TimingPoints]
322,338.983050847458,4,2,1,30,1,0
21169,-100,4,2,1,45,0,0
65406,-100,4,2,1,45,0,1
76254,-100,4,2,1,45,0,0
87101,-100,4,2,1,45,0,1
97949,-100,4,2,1,45,0,0
108796,-100,4,2,1,45,0,1
119644,-100,4,2,1,45,0,0
127779,357.142857142857,4,2,1,45,1,0
127779,-94.9152542887676,4,2,1,45,0,0
128136,342.857142857143,4,2,1,45,1,0
128136,-98.8700564999681,4,2,1,45,0,0
128478,350.877192982456,4,2,1,45,1,0
128478,-96.6101694915483,4,2,1,45,0,0
128828,357.142857142857,4,2,1,45,1,0
128828,-94.9152542374168,4,2,1,45,0,0
129006,375,4,2,1,45,1,0
129006,-90.3954802259887,4,2,1,45,0,0
129193,402.684563758389,4,2,1,45,1,0
129193,-84.1807911792269,4,2,1,45,0,0
129394,425.531914893617,4,2,1,45,1,0
129394,-79.6610170085607,4,2,1,45,0,0
129606,461.538461538462,4,2,1,45,1,0
129606,-73.446327766606,4,2,1,45,0,0
129836,476.190476190476,4,2,1,45,1,0
129836,-71.1864409192761,4,2,1,45,0,0
130074,571.428571428571,4,2,1,45,1,0
130074,-59.3220369146798,4,2,1,45,0,0
130359,625,4,2,1,45,1,0
130359,-54.2372881355932,4,2,1,45,0,0
130671,722.89156626506,4,2,1,45,1,0
130671,-46.8926558176131,4,2,1,45,0,0
131032,1276.59574468085,4,2,1,45,1,0
131032,-26.5536723164442,4,2,1,45,0,0
131670,1408.45070422535,4,2,1,45,1,0
131670,-24.0677966105448,4,2,1,45,0,0
135895,585.365853658537,4,2,1,45,1,0
135895,-57.8760887087976,4,2,1,45,0,0

[HitObjects]
320,192,322,5,0,0:0:0:0:
448,192,322,1,0,0:0:0:0:
192,192,660,1,0,0:0:0:0:
64,192,999,1,0,0:0:0:0:
448,192,999,1,0,0:0:0:0:
320,192,1338,1,0,0:0:0:0:
64,192,1677,1,0,0:0:0:0:
192,192,1677,1,0,0:0:0:0:
320,192,2016,1,0,0:0:0:0:
192,192,2355,1,0,0:0:0:0:
448,192,2355,1,0,0:0:0:0:
64,192,2694,1,0,0:0:0:0:
192,192,3033,1,0,0:0:0:0:
320,192,3033,1,0,0:0:0:0:
448,192,3372,1,0,0:0:0:0:
64,192,3711,1,0,0:0:0:0:
320,192,3711,1,0,0:0:0:0:
192,192,4050,1,0,0:0:0:0:
320,192,4389,1,0,0:0:0:0:
448,192,4389,1,0,0:0:0:0:
64,192,4728,1,0,0:0:0:0:
192,192,5067,1,0,0:0:0:0:
448,192,5067,1,0,0:0:0:0:
320,192,5406,1,0,0:0:0:0:
64,192,5745,1,0,0:0:0:0:
192,192,5745,1,0,0:0:0:0:
448,192,6084,1,0,0:0:0:0:
64,192,6423,1,0,0:0:0:0:
320,192,6423,1,0,0:0:0:0:
192,192,6762,1,0,0:0:0:0:
320,192,7101,1,0,0:0:0:0:
448,192,7101,1,0,0:0:0:0:
64,192,7440,1,0,0:0:0:0:
192,192,7779,1,0,0:0:0:0:
448,192,7779,1,0,0:0:0:0:
320,192,8118,1,0,0:0:0:0:
64,192,8457,1,0,0:0:0:0:
448,192,8457,1,0,0:0:0:0:
192,192,8796,1,0,0:0:0:0:
64,192,9135,1,0,0:0:0:0:
448,192,9135,1,0,0:0:0:0:
320,192,9474,1,0,0:0:0:0:
64,192,9813,1,0,0:0:0:0:
192,192,9813,1,0,0:0:0:0:
448,192,10152,1,0,0:0:0:0:
64,192,10491,1,0,0:0:0:0:
320,192,10491,1,0,0:0:0:0:
192,192,10830,1,0,0:0:0:0:
448,192,11169,1,0,0:0:0:0:
320,192,11169,1,0,0:0:0:0:
192,192,11508,1,0,0:0:0:0:
64,192,11847,1,0,0:0:0:0:
448,192,11847,1,0,0:0:0:0:
320,192,12186,1,0,0:0:0:0:
64,192,12525,1,0,0:0:0:0:
192,192,12525,1,0,0:0:0:0:
320,192,12864,1,0,0:0:0:0:
192,192,13203,1,0,0:0:0:0:
448,192,13203,1,0,0:0:0:0:
64,192,13542,1,0,0:0:0:0:
320,192,13881,1,0,0:0:0:0:
448,192,13881,1,0,0:0:0:0:
192,192,14220,1,0,0:0:0:0:
64,192,14559,1,0,0:0:0:0:
448,192,14559,1,0,0:0:0:0:
320,192,14898,1,0,0:0:0:0:
64,192,15237,1,0,0:0:0:0:
192,192,15237,1,0,0:0:0:0:
320,192,15576,1,0,0:0:0:0:
64,192,15915,1,0,0:0:0:0:
448,192,15915,1,0,0:0:0:0:
192,192,16254,1,0,0:0:0:0:
64,192,16593,1,0,0:0:0:0:
320,192,16593,1,0,0:0:0:0:
448,192,16932,1,0,0:0:0:0:
64,192,17271,1,0,0:0:0:0:
192,192,17271,1,0,0:0:0:0:
320,192,17610,1,0,0:0:0:0:
448,192,17949,1,0,0:0:0:0:
192,192,17949,1,0,0:0:0:0:
320,192,18288,1,0,0:0:0:0:
64,192,18627,1,0,0:0:0:0:
448,192,18627,1,0,0:0:0:0:
192,192,18966,1,0,0:0:0:0:
448,192,19305,1,0,0:0:0:0:
320,192,19305,1,0,0:0:0:0:
64,192,19644,1,0,0:0:0:0:
192,192,19983,1,0,0:0:0:0:
320,192,19983,1,0,0:0:0:0:
448,192,20322,1,0,0:0:0:0:
64,192,20660,1,0,0:0:0:0:
192,192,20660,1,0,0:0:0:0:
320,192,20999,1,0,0:0:0:0:
64,192,21169,1,0,0:0:0:60:drum.wav
192,192,21169,1,0,0:0:0:0:
320,192,21338,1,0,0:0:0:0:
192,192,21508,1,0,0:0:0:0:
64,192,21677,1,0,0:0:0:60:drum.wav
448,192,21677,1,0,0:0:0:0:
64,192,22016,1,0,0:0:0:60:drum.wav
320,192,22016,1,0,0:0:0:50:finish.wav
192,192,22186,1,0,0:0:0:0:
448,192,22355,1,0,0:0:0:60:drum.wav
320,192,22525,1,0,0:0:0:0:
64,192,22694,1,0,0:0:0:60:drum.wav
192,192,22694,1,0,0:0:0:0:
448,192,22864,1,0,0:0:0:0:
320,192,23033,1,0,0:0:0:60:drum.wav
192,192,23203,1,0,0:0:0:0:
64,192,23372,1,0,0:0:0:60:drum.wav
448,192,23372,1,0,0:0:0:0:
320,192,23542,1,0,0:0:0:0:
192,192,23711,1,0,0:0:0:60:drum.wav
64,192,23881,1,0,0:0:0:0:
320,192,24050,1,0,0:0:0:60:drum.wav
448,192,24050,1,0,0:0:0:0:
192,192,24220,1,0,0:0:0:0:
64,192,24389,1,0,0:0:0:60:drum.wav
320,192,24559,1,0,0:0:0:0:
64,192,24728,1,0,0:0:0:60:drum.wav
192,192,24728,1,0,0:0:0:0:
448,192,24898,1,0,0:0:0:0:
320,192,25067,1,0,0:0:0:60:drum.wav
64,192,25237,1,0,0:0:0:0:
192,192,25406,1,0,0:0:0:60:drum.wav
448,192,25406,1,0,0:0:0:0:
320,192,25576,1,0,0:0:0:0:
64,192,25745,1,0,0:0:0:60:drum.wav
448,192,25915,1,0,0:0:0:0:
64,192,26084,1,0,0:0:0:60:drum.wav
320,192,26084,1,0,0:0:0:0:
192,192,26254,1,0,0:0:0:0:
448,192,26423,1,0,0:0:0:60:drum.wav
64,192,26593,1,0,0:0:0:0:
192,192,26762,1,0,0:0:0:60:drum.wav
320,192,26762,1,0,0:0:0:0:
448,192,26932,1,0,0:0:0:0:
64,192,27101,1,0,0:0:0:60:drum.wav
192,192,27271,1,0,0:0:0:0:
320,192,27355,1,0,0:0:0:60:snare.wav
64,192,27440,1,0,0:0:0:60:drum.wav
448,192,27440,1,0,0:0:0:0:
64,192,27779,1,0,0:0:0:60:drum.wav
192,192,27949,1,0,0:0:0:0:
320,192,28118,1,0,0:0:0:60:drum.wav
448,192,28118,1,0,0:0:0:0:
64,192,28288,1,0,0:0:0:0:
192,192,28457,1,0,0:0:0:60:drum.wav
320,192,28627,1,0,0:0:0:0:
64,192,28796,1,0,0:0:0:60:drum.wav
448,192,28796,1,0,0:0:0:0:
192,192,28966,1,0,0:0:0:0:
320,192,29135,1,0,0:0:0:60:drum.wav
448,192,29305,1,0,0:0:0:0:
64,192,29474,1,0,0:0:0:60:drum.wav
192,192,29474,1,0,0:0:0:0:
320,192,29644,1,0,0:0:0:0:
448,192,29813,1,0,0:0:0:60:drum.wav
192,192,29983,1,0,0:0:0:0:
320,192,30152,1,0,0:0:0:60:drum.wav
448,192,30152,1,0,0:0:0:0:
64,192,30322,1,0,0:0:0:0:
192,192,30491,1,0,0:0:0:60:drum.wav
448,192,30660,1,0,0:0:0:0:
64,192,30830,1,0,0:0:0:60:drum.wav
320,192,30830,1,0,0:0:0:0:
192,192,30999,1,0,0:0:0:0:
448,192,31169,1,0,0:0:0:60:drum.wav
64,192,31338,1,0,0:0:0:0:
192,192,31508,1,0,0:0:0:60:drum.wav
448,192,31508,1,0,0:0:0:0:
320,192,31677,1,0,0:0:0:0:
64,192,31847,1,0,0:0:0:60:drum.wav
192,192,32016,1,0,0:0:0:60:snare.wav
448,192,32016,1,0,0:0:0:50:finish.wav
320,192,32186,1,0,0:0:0:60:drum.wav
64,192,32355,1,0,0:0:0:60:snare.wav
192,192,32355,1,0,0:0:0:50:finish.wav
448,192,32525,1,0,0:0:0:60:drum.wav
320,192,32694,1,0,0:0:0:60:drum.wav
192,192,32779,1,0,0:0:0:60:drum.wav
64,192,32864,1,0,0:0:0:60:drum.wav
448,192,32864,1,0,0:0:0:50:finish.wav
320,192,33203,1,0,0:0:0:60:drum.wav
192,192,33372,1,0,0:0:0:0:
64,192,33542,128,0,33881:0:0:0:60:drum.wav
448,192,33711,1,0,0:0:0:0:
320,192,33881,1,0,0:0:0:60:drum.wav
448,192,34050,128,0,34559:0:0:0:0:
64,192,34220,1,0,0:0:0:60:drum.wav
192,192,34389,1,0,0:0:0:0:
320,192,34559,128,0,34898:0:0:0:60:drum.wav
192,192,34728,1,0,0:0:0:0:
64,192,34898,1,0,0:0:0:60:drum.wav
448,192,34898,1,0,0:0:0:0:
192,192,35067,1,0,0:0:0:0:
320,192,35237,1,0,0:0:0:60:drum.wav
64,192,35406,1,0,0:0:0:0:
192,192,35491,1,0,0:0:0:60:snare.wav
320,192,35576,1,0,0:0:0:60:drum.wav
448,192,35576,1,0,0:0:0:0:
192,192,35745,1,0,0:0:0:0:
320,192,35915,1,0,0:0:0:60:drum.wav
64,192,36084,128,0,36593:0:0:0:0:
192,192,36254,1,0,0:0:0:60:drum.wav
448,192,36423,1,0,0:0:0:0:
320,192,36593,1,0,0:0:0:60:drum.wav
192,192,36762,128,0,37271:0:0:0:0:
448,192,36932,1,0,0:0:0:60:drum.wav
320,192,37101,1,0,0:0:0:0:
64,192,37271,1,0,0:0:0:60:drum.wav
192,192,37440,1,0,0:0:0:60:drum.wav
448,192,37610,1,0,0:0:0:60:drum.wav
320,192,37779,1,0,0:0:0:60:drum.wav
192,192,37949,128,0,38288:0:0:0:60:drum.wav
320,192,38288,1,0,0:0:0:60:drum.wav
448,192,38288,1,0,0:0:0:50:finish.wav
192,192,38627,1,0,0:0:0:60:drum.wav
320,192,38796,1,0,0:0:0:0:
64,192,38966,1,0,0:0:0:60:drum.wav
448,192,38966,1,0,0:0:0:0:
192,192,39135,1,0,0:0:0:0:
320,192,39305,1,0,0:0:0:60:drum.wav
448,192,39474,1,0,0:0:0:0:
64,192,39644,1,0,0:0:0:60:drum.wav
192,192,39644,1,0,0:0:0:0:
448,192,39813,1,0,0:0:0:0:
320,192,39983,1,0,0:0:0:60:drum.wav
192,192,40152,1,0,0:0:0:0:
64,192,40322,1,0,0:0:0:60:drum.wav
320,192,40322,1,0,0:0:0:0:
448,192,40491,1,0,0:0:0:0:
192,192,40660,1,0,0:0:0:60:drum.wav
64,192,40830,128,0,41508:0:0:0:0:
320,192,40999,1,0,0:0:0:60:drum.wav
192,192,41169,1,0,0:0:0:0:
448,192,41338,1,0,0:0:0:60:drum.wav
320,192,41508,1,0,0:0:0:0:
64,192,41677,1,0,0:0:0:60:drum.wav
192,192,41677,1,0,0:0:0:0:
320,192,41847,1,0,0:0:0:0:
64,192,42016,1,0,0:0:0:60:drum.wav
448,192,42186,1,0,0:0:0:0:
320,192,42271,1,0,0:0:0:60:snare.wav
192,192,42355,1,0,0:0:0:60:drum.wav
64,192,42355,1,0,0:0:0:50:finish.wav
448,192,42525,1,0,0:0:0:0:
320,192,42694,1,0,0:0:0:60:snare.wav
192,192,42694,1,0,0:0:0:0:
64,192,42864,1,0,0:0:0:60:snare.wav
448,192,43033,1,0,0:0:0:60:snare.wav
320,192,43033,1,0,0:0:0:0:
192,192,43203,1,0,0:0:0:60:snare.wav
64,192,43372,1,0,0:0:0:60:drum.wav
448,192,43372,1,0,0:0:0:0:
64,192,43711,1,0,0:0:0:60:drum.wav
448,192,43711,128,0,44050:0:0:0:50:finish.wav
192,192,44050,1,0,0:0:0:0:
320,192,44220,1,0,0:0:0:60:drum.wav
64,192,44389,128,0,44728:0:0:0:60:snare.wav
448,192,44389,1,0,0:0:0:0:
448,192,44728,1,0,0:0:0:0:
320,192,44898,1,0,0:0:0:60:drum.wav
64,192,45067,1,0,0:0:0:60:drum.wav
192,192,45067,1,0,0:0:0:0:
320,192,45237,1,0,0:0:0:60:snare.wav
448,192,45237,1,0,0:0:0:0:
192,192,45406,1,0,0:0:0:0:
320,192,45576,1,0,0:0:0:60:drum.wav
64,192,45745,128,0,46084:0:0:0:60:snare.wav
448,192,45745,1,0,0:0:0:0:
320,192,46084,128,0,46423:0:0:0:0:
192,192,46423,128,0,46762:0:0:0:60:drum.wav
448,192,46423,1,0,0:0:0:0:
64,192,46762,128,0,47101:0:0:0:0:
192,192,46932,1,0,0:0:0:60:drum.wav
320,192,47101,128,0,47440:0:0:0:60:snare.wav
448,192,47101,1,0,0:0:0:0:
192,192,47440,128,0,47779:0:0:0:0:
320,192,47779,1,0,0:0:0:60:drum.wav
448,192,47779,1,0,0:0:0:0:
64,192,47949,1,0,0:0:0:60:snare.wav
192,192,47949,1,0,0:0:0:0:
320,192,48118,1,0,0:0:0:0:
192,192,48288,1,0,0:0:0:60:drum.wav
320,192,48372,1,0,0:0:0:60:drum.wav
64,192,48457,1,0,0:0:0:60:snare.wav
448,192,48457,1,0,0:0:0:0:
192,192,48627,1,0,0:0:0:60:snare.wav
320,192,48796,1,0,0:0:0:60:drum.wav
192,192,48966,1,0,0:0:0:60:drum.wav
64,192,49135,128,0,49474:0:0:0:60:drum.wav
448,192,49135,1,0,0:0:0:50:finish.wav
192,192,49474,128,0,49813:0:0:0:0:
320,192,49813,128,0,50152:0:0:0:0:
448,192,50152,128,0,50491:0:0:0:0:
64,192,50491,128,0,50830:0:0:0:60:drum.wav
192,192,50491,1,0,0:0:0:50:finish.wav
448,192,51169,128,0,51508:0:0:0:0:
192,192,51508,128,0,51847:0:0:0:0:
448,192,51847,128,0,52186:0:0:0:60:drum.wav
64,192,51847,1,0,0:0:0:50:finish.wav
320,192,52186,128,0,52525:0:0:0:0:
192,192,52525,128,0,52864:0:0:0:0:
320,192,52864,128,0,53203:0:0:0:0:
448,192,53203,1,0,0:0:0:60:drum.wav
64,192,53203,128,0,53542:0:0:0:50:finish.wav
192,192,53881,1,0,0:0:0:60:snare.wav
320,192,53994,1,0,0:0:0:60:snare.wav
448,192,54107,1,0,0:0:0:60:snare.wav
64,192,54220,1,0,0:0:0:60:snare.wav
192,192,54333,1,0,0:0:0:60:drum.wav
320,192,54446,1,0,0:0:0:60:drum.wav
64,192,54559,1,0,0:0:0:60:snare.wav
448,192,54559,128,0,55576:0:0:0:50:finish.wav
192,192,55576,1,0,0:0:0:0:
192,192,55745,128,0,56593:0:0:0:0:
320,192,56593,128,0,56932:0:0:0:0:
64,192,56932,128,0,57271:0:0:0:0:
192,192,57271,128,0,57949:0:0:0:0:
448,192,57271,1,0,0:0:0:60:drum.wav
448,192,57949,128,0,58288:0:0:0:0:
320,192,58288,128,0,58627:0:0:0:0:
192,192,58627,128,0,58966:0:0:0:0:
320,192,58966,128,0,59305:0:0:0:0:
64,192,59305,128,0,59644:0:0:0:0:
192,192,59644,128,0,59983:0:0:0:0:
448,192,59983,1,0,0:0:0:60:snare.wav
64,192,59983,1,0,0:0:0:50:finish.wav
192,192,60152,1,0,0:0:0:0:
448,192,60322,1,0,0:0:0:60:drum.wav
320,192,60322,1,0,0:0:0:0:
192,192,60491,1,0,0:0:0:60:snare.wav
448,192,60660,1,0,0:0:0:60:drum.wav
64,192,60660,1,0,0:0:0:0:
320,192,60830,1,0,0:0:0:60:snare.wav
192,192,60999,1,0,0:0:0:60:drum.wav
64,192,60999,1,0,0:0:0:0:
320,192,61169,1,0,0:0:0:60:snare.wav
64,192,61338,1,0,0:0:0:60:drum.wav
192,192,61338,1,0,0:0:0:0:
320,192,61508,1,0,0:0:0:60:snare.wav
448,192,61508,1,0,0:0:0:0:
64,192,61677,1,0,0:0:0:60:drum.wav
192,192,61677,1,0,0:0:0:0:
320,192,61847,1,0,0:0:0:60:snare.wav
448,192,61847,1,0,0:0:0:0:
64,192,62016,1,0,0:0:0:60:drum.wav
192,192,62016,1,0,0:0:0:0:
320,192,62186,1,0,0:0:0:60:snare.wav
448,192,62186,1,0,0:0:0:0:
64,192,62355,1,0,0:0:0:60:drum.wav
192,192,62355,1,0,0:0:0:0:
320,192,62525,1,0,0:0:0:60:snare.wav
448,192,62525,1,0,0:0:0:50:finish.wav
64,192,62694,128,0,64559:0:0:0:0:
320,192,64728,128,0,65237:0:0:0:0:
64,192,65406,1,0,0:0:0:60:drum.wav
192,192,65406,128,0,65745:0:0:0:50:finish.wav
320,192,65745,1,0,0:0:0:60:snare.wav
448,192,65745,1,0,0:0:0:0:
192,192,65915,1,0,0:0:0:0:
64,192,66084,1,0,0:0:0:60:drum.wav
64,192,66254,1,0,0:0:0:60:drum.wav
320,192,66423,1,0,0:0:0:60:snare.wav
448,192,66423,1,0,0:0:0:0:
192,192,66593,1,0,0:0:0:0:
320,192,66762,128,0,67101:0:0:0:60:drum.wav
64,192,67101,1,0,0:0:0:60:snare.wav
448,192,67101,1,0,0:0:0:0:
320,192,67271,1,0,0:0:0:0:
192,192,67440,1,0,0:0:0:60:drum.wav
192,192,67610,1,0,0:0:0:60:drum.wav
64,192,67779,1,0,0:0:0:60:snare.wav
448,192,67779,1,0,0:0:0:0:
320,192,67949,1,0,0:0:0:0:
448,192,68118,128,0,68457:0:0:0:60:drum.wav
64,192,68457,1,0,0:0:0:60:snare.wav
320,192,68457,1,0,0:0:0:0:
192,192,68627,1,0,0:0:0:0:
320,192,68796,1,0,0:0:0:60:drum.wav
320,192,68966,1,0,0:0:0:60:drum.wav
64,192,69135,1,0,0:0:0:60:snare.wav
448,192,69135,1,0,0:0:0:0:
192,192,69305,1,0,0:0:0:0:
64,192,69474,1,0,0:0:0:60:drum.wav
320,192,69474,1,0,0:0:0:0:
448,192,69644,1,0,0:0:0:60:drum.wav
64,192,69813,1,0,0:0:0:60:snare.wav
192,192,69813,1,0,0:0:0:0:
64,192,70152,1,0,0:0:0:60:drum.wav
192,192,70152,1,0,0:0:0:0:
320,192,70322,1,0,0:0:0:60:drum.wav
192,192,70491,1,0,0:0:0:60:snare.wav
448,192,70491,1,0,0:0:0:50:finish.wav
64,192,70660,1,0,0:0:0:60:snare.wav
192,192,70745,1,0,0:0:0:60:snare.wav
320,192,70830,128,0,71169:0:0:0:60:drum.wav
448,192,70830,1,0,0:0:0:50:finish.wav
64,192,71169,1,0,0:0:0:60:snare.wav
192,192,71169,1,0,0:0:0:0:
320,192,71338,1,0,0:0:0:0:
192,192,71508,1,0,0:0:0:60:drum.wav
192,192,71677,1,0,0:0:0:60:drum.wav
64,192,71847,1,0,0:0:0:60:snare.wav
448,192,71847,1,0,0:0:0:0:
320,192,72016,1,0,0:0:0:0:
192,192,72186,128,0,72525:0:0:0:60:drum.wav
64,192,72525,1,0,0:0:0:60:snare.wav
448,192,72525,1,0,0:0:0:0:
192,192,72694,1,0,0:0:0:0:
320,192,72864,1,0,0:0:0:60:drum.wav
320,192,73033,1,0,0:0:0:60:drum.wav
64,192,73203,1,0,0:0:0:60:snare.wav
448,192,73203,1,0,0:0:0:0:
192,192,73372,1,0,0:0:0:0:
64,192,73542,128,0,73881:0:0:0:60:drum.wav
320,192,73881,1,0,0:0:0:60:snare.wav
448,192,73881,1,0,0:0:0:0:
192,192,74050,1,0,0:0:0:0:
320,192,74220,1,0,0:0:0:60:drum.wav
320,192,74389,1,0,0:0:0:60:drum.wav
64,192,74559,1,0,0:0:0:60:snare.wav
192,192,74559,1,0,0:0:0:0:
320,192,74728,1,0,0:0:0:0:
64,192,74898,1,0,0:0:0:60:drum.wav
448,192,74898,1,0,0:0:0:50:finish.wav
320,192,75067,1,0,0:0:0:60:drum.wav
192,192,75237,1,0,0:0:0:60:snare.wav
448,192,75237,1,0,0:0:0:0:
64,192,75406,1,0,0:0:0:60:drum.wav
320,192,75576,1,0,0:0:0:60:drum.wav
448,192,75576,1,0,0:0:0:0:
64,192,75745,1,0,0:0:0:60:snare.wav
192,192,75830,1,0,0:0:0:60:snare.wav
320,192,75915,1,0,0:0:0:60:drum.wav
448,192,76084,1,0,0:0:0:60:snare.wav
320,192,76169,1,0,0:0:0:60:snare.wav
64,192,76254,128,0,76593:0:0:0:60:drum.wav
192,192,76254,1,0,0:0:0:50:finish.wav
320,192,76593,1,0,0:0:0:60:snare.wav
448,192,76593,1,0,0:0:0:0:
192,192,76932,1,0,0:0:0:60:drum.wav
320,192,77101,1,0,0:0:0:60:drum.wav
448,192,77271,1,0,0:0:0:60:snare.wav
64,192,77271,1,0,0:0:0:0:
448,192,77440,1,0,0:0:0:0:
192,192,77610,1,0,0:0:0:60:drum.wav
320,192,77779,1,0,0:0:0:60:drum.wav
64,192,77949,1,0,0:0:0:60:snare.wav
448,192,77949,1,0,0:0:0:0:
192,192,78118,1,0,0:0:0:0:
320,192,78288,1,0,0:0:0:60:drum.wav
192,192,78457,1,0,0:0:0:60:drum.wav
64,192,78627,1,0,0:0:0:60:snare.wav
448,192,78627,1,0,0:0:0:0:
320,192,78796,1,0,0:0:0:0:
192,192,78966,128,0,79305:0:0:0:60:drum.wav
64,192,79305,1,0,0:0:0:60:snare.wav
448,192,79305,1,0,0:0:0:0:
320,192,79474,1,0,0:0:0:0:
64,192,79644,1,0,0:0:0:60:drum.wav
192,192,79813,1,0,0:0:0:60:drum.wav
320,192,79983,1,0,0:0:0:60:snare.wav
448,192,79983,1,0,0:0:0:0:
192,192,80152,128,0,80491:0:0:0:0:
448,192,80491,1,0,0:0:0:60:drum.wav
64,192,80660,128,0,80999:0:0:0:60:snare.wav
320,192,80660,1,0,0:0:0:0:
320,192,80999,1,0,0:0:0:60:drum.wav
192,192,81169,1,0,0:0:0:60:drum.wav
64,192,81338,1,0,0:0:0:60:snare.wav
448,192,81338,1,0,0:0:0:0:
320,192,81677,128,0,82016:0:0:0:60:drum.wav
448,192,81677,1,0,0:0:0:50:finish.wav
64,192,82016,1,0,0:0:0:60:snare.wav
192,192,82016,1,0,0:0:0:0:
320,192,82186,1,0,0:0:0:0:
192,192,82355,1,0,0:0:0:60:drum.wav
192,192,82525,1,0,0:0:0:60:drum.wav
64,192,82694,1,0,0:0:0:60:snare.wav
320,192,82694,1,0,0:0:0:0:
448,192,82864,128,0,83203:0:0:0:0:
192,192,83203,1,0,0:0:0:60:drum.wav
64,192,83372,1,0,0:0:0:60:snare.wav
320,192,83372,1,0,0:0:0:0:
448,192,83542,1,0,0:0:0:0:
64,192,83711,1,0,0:0:0:60:drum.wav
64,192,83881,1,0,0:0:0:60:drum.wav
192,192,84050,1,0,0:0:0:60:snare.wav
448,192,84050,1,0,0:0:0:0:
320,192,84220,1,0,0:0:0:0:
64,192,84389,1,0,0:0:0:60:drum.wav
192,192,84389,1,0,0:0:0:50:finish.wav
192,192,84559,1,0,0:0:0:60:drum.wav
320,192,84728,1,0,0:0:0:60:snare.wav
448,192,84728,1,0,0:0:0:0:
64,192,84898,1,0,0:0:0:60:drum.wav
320,192,85067,1,0,0:0:0:60:drum.wav
320,192,85237,1,0,0:0:0:60:drum.wav
64,192,85406,1,0,0:0:0:60:snare.wav
192,192,85576,128,0,85915:0:0:0:60:drum.wav
448,192,85576,1,0,0:0:0:50:finish.wav
448,192,85915,1,0,0:0:0:60:drum.wav
64,192,86084,1,0,0:0:0:60:snare.wav
320,192,86084,1,0,0:0:0:0:
192,192,86254,1,0,0:0:0:60:drum.wav
320,192,86423,1,0,0:0:0:60:snare.wav
448,192,86423,1,0,0:0:0:0:
64,192,86593,1,0,0:0:0:60:snare.wav
448,192,86762,1,0,0:0:0:60:drum.wav
320,192,86847,1,0,0:0:0:60:snare.wav
192,192,86932,1,0,0:0:0:60:snare.wav
64,192,87016,1,0,0:0:0:60:snare.wav
320,192,87101,128,0,87440:0:0:0:60:drum.wav
448,192,87101,1,0,0:0:0:50:finish.wav
64,192,87440,1,0,0:0:0:60:snare.wav
192,192,87440,1,0,0:0:0:0:
320,192,87610,1,0,0:0:0:0:
192,192,87779,1,0,0:0:0:60:drum.wav
192,192,87949,1,0,0:0:0:60:drum.wav
64,192,88118,1,0,0:0:0:60:snare.wav
448,192,88118,1,0,0:0:0:0:
320,192,88288,1,0,0:0:0:0:
192,192,88457,128,0,88796:0:0:0:60:drum.wav
64,192,88796,1,0,0:0:0:60:snare.wav
448,192,88796,1,0,0:0:0:0:
192,192,88966,1,0,0:0:0:0:
320,192,89135,1,0,0:0:0:60:drum.wav
320,192,89305,1,0,0:0:0:60:drum.wav
64,192,89474,1,0,0:0:0:60:snare.wav
448,192,89474,1,0,0:0:0:0:
192,192,89644,1,0,0:0:0:0:
64,192,89813,128,0,90152:0:0:0:60:drum.wav
192,192,90152,1,0,0:0:0:60:snare.wav
448,192,90152,1,0,0:0:0:0:
320,192,90322,1,0,0:0:0:0:
192,192,90491,1,0,0:0:0:60:drum.wav
192,192,90660,1,0,0:0:0:60:drum.wav
64,192,90830,1,0,0:0:0:60:snare.wav
448,192,90830,1,0,0:0:0:0:
320,192,90999,1,0,0:0:0:0:
64,192,91169,1,0,0:0:0:60:drum.wav
192,192,91169,1,0,0:0:0:0:
320,192,91338,1,0,0:0:0:60:drum.wav
192,192,91508,1,0,0:0:0:60:snare.wav
448,192,91508,1,0,0:0:0:0:
64,192,91677,1,0,0:0:0:0:
320,192,91847,1,0,0:0:0:60:drum.wav
448,192,91847,1,0,0:0:0:0:
192,192,92016,1,0,0:0:0:60:drum.wav
64,192,92186,1,0,0:0:0:60:snare.wav
320,192,92186,1,0,0:0:0:50:finish.wav
448,192,92355,1,0,0:0:0:60:snare.wav
320,192,92440,1,0,0:0:0:60:snare.wav
64,192,92525,1,0,0:0:0:60:drum.wav
192,192,92525,128,0,92864:0:0:0:50:finish.wav
320,192,92864,1,0,0:0:0:60:snare.wav
448,192,92864,1,0,0:0:0:0:
192,192,93033,1,0,0:0:0:0:
320,192,93203,1,0,0:0:0:60:drum.wav
320,192,93372,1,0,0:0:0:60:drum.wav
64,192,93542,1,0,0:0:0:60:snare.wav
448,192,93542,1,0,0:0:0:0:
192,192,93711,1,0,0:0:0:0:
320,192,93881,128,0,94220:0:0:0:60:drum.wav
64,192,94220,1,0,0:0:0:60:snare.wav
448,192,94220,1,0,0:0:0:0:
320,192,94389,1,0,0:0:0:0:
192,192,94559,1,0,0:0:0:60:drum.wav
192,192,94728,1,0,0:0:0:60:drum.wav
448,192,94898,1,0,0:0:0:60:snare.wav
64,192,94898,1,0,0:0:0:0:
192,192,95067,1,0,0:0:0:0:
64,192,95237,128,0,95576:0:0:0:60:drum.wav
448,192,95576,1,0,0:0:0:60:snare.wav
192,192,95576,1,0,0:0:0:0:
320,192,95745,1,0,0:0:0:0:
192,192,95915,1,0,0:0:0:60:drum.wav
192,192,96084,1,0,0:0:0:60:drum.wav
448,192,96254,1,0,0:0:0:60:snare.wav
64,192,96254,1,0,0:0:0:0:
320,192,96423,1,0,0:0:0:0:
64,192,96593,1,0,0:0:0:60:drum.wav
448,192,96593,1,0,0:0:0:0:
192,192,96762,1,0,0:0:0:60:drum.wav
64,192,96932,1,0,0:0:0:60:snare.wav
320,192,96932,1,0,0:0:0:50:finish.wav
448,192,97101,1,0,0:0:0:0:
64,192,97271,1,0,0:0:0:60:drum.wav
192,192,97271,1,0,0:0:0:0:
448,192,97440,1,0,0:0:0:60:snare.wav
320,192,97525,1,0,0:0:0:60:snare.wav
192,192,97610,1,0,0:0:0:60:drum.wav
64,192,97779,1,0,0:0:0:60:snare.wav
192,192,97864,1,0,0:0:0:60:snare.wav
320,192,97949,1,0,0:0:0:60:drum.wav
448,192,97949,128,0,98288:0:0:0:50:finish.wav
64,192,98288,1,0,0:0:0:60:drum.wav
192,192,98627,128,0,98966:0:0:0:60:drum.wav
448,192,98627,1,0,0:0:0:0:
320,192,98966,1,0,0:0:0:60:snare.wav
64,192,99305,128,0,99644:0:0:0:60:drum.wav
192,192,99305,1,0,0:0:0:0:
448,192,99644,1,0,0:0:0:60:snare.wav
320,192,99813,1,0,0:0:0:0:
192,192,99983,128,0,100322:0:0:0:60:drum.wav
64,192,100322,1,0,0:0:0:60:snare.wav
320,192,100322,128,0,100660:0:0:0:0:
64,192,100660,128,0,101338:0:0:0:60:drum.wav
448,192,100660,1,0,0:0:0:0:
320,192,100999,1,0,0:0:0:60:snare.wav
192,192,101338,1,0,0:0:0:60:drum.wav
448,192,101338,1,0,0:0:0:0:
448,192,101677,1,0,0:0:0:60:snare.wav
320,192,101762,1,0,0:0:0:60:snare.wav
192,192,101847,1,0,0:0:0:60:snare.wav
64,192,101932,1,0,0:0:0:60:snare.wav
320,192,102016,1,0,0:0:0:60:drum.wav
448,192,102016,128,0,102355:0:0:0:50:finish.wav
64,192,102355,1,0,0:0:0:60:drum.wav
192,192,102355,128,0,102694:0:0:0:50:finish.wav
320,192,102694,128,0,103033:0:0:0:60:drum.wav
448,192,102694,1,0,0:0:0:50:finish.wav
64,192,103033,128,0,103372:0:0:0:60:snare.wav
192,192,103033,1,0,0:0:0:0:
320,192,103372,1,0,0:0:0:60:drum.wav
448,192,103372,1,0,0:0:0:50:finish.wav
192,192,103711,1,0,0:0:0:0:
448,192,103881,1,0,0:0:0:60:drum.wav
64,192,104050,1,0,0:0:0:60:snare.wav
192,192,104050,1,0,0:0:0:0:
320,192,104389,1,0,0:0:0:0:
192,192,104559,1,0,0:0:0:60:drum.wav
448,192,104728,1,0,0:0:0:60:drum.wav
64,192,104898,1,0,0:0:0:60:snare.wav
320,192,104898,1,0,0:0:0:0:
192,192,105067,1,0,0:0:0:0:
320,192,105237,1,0,0:0:0:60:drum.wav
192,192,105406,1,0,0:0:0:60:snare.wav
448,192,105406,128,0,105745:0:0:0:0:
320,192,105745,128,0,106084:0:0:0:0:
64,192,106084,128,0,106593:0:0:0:60:drum.wav
448,192,106084,1,0,0:0:0:50:finish.wav
320,192,106423,1,0,0:0:0:60:drum.wav
192,192,106593,1,0,0:0:0:60:snare.wav
64,192,106762,1,0,0:0:0:60:drum.wav
448,192,106762,1,0,0:0:0:0:
320,192,106932,1,0,0:0:0:60:snare.wav
64,192,107101,1,0,0:0:0:60:snare.wav
192,192,107101,1,0,0:0:0:0:
448,192,107271,1,0,0:0:0:60:snare.wav
64,192,107440,1,0,0:0:0:60:drum.wav
320,192,107440,1,0,0:0:0:50:finish.wav
448,192,107610,1,0,0:0:0:0:
320,192,107694,1,0,0:0:0:60:snare.wav
192,192,107779,1,0,0:0:0:60:snare.wav
64,192,107949,1,0,0:0:0:60:snare.wav
192,192,108033,1,0,0:0:0:60:snare.wav
320,192,108118,1,0,0:0:0:60:drum.wav
448,192,108288,1,0,0:0:0:60:snare.wav
320,192,108372,1,0,0:0:0:60:snare.wav
192,192,108457,1,0,0:0:0:60:drum.wav
64,192,108627,1,0,0:0:0:60:snare.wav
192,192,108711,1,0,0:0:0:60:snare.wav
320,192,108796,1,0,0:0:0:60:drum.wav
448,192,108796,1,0,0:0:0:50:finish.wav
192,192,108966,1,0,0:0:0:0:
320,192,109135,1,0,0:0:0:60:snare.wav
448,192,109305,1,0,0:0:0:0:
64,192,109474,1,0,0:0:0:60:drum.wav
192,192,109474,1,0,0:0:0:0:
192,192,109644,1,0,0:0:0:60:drum.wav
320,192,109813,1,0,0:0:0:60:snare.wav
64,192,109983,1,0,0:0:0:0:
192,192,110152,1,0,0:0:0:60:drum.wav
448,192,110152,1,0,0:0:0:0:
448,192,110322,1,0,0:0:0:60:drum.wav
320,192,110491,1,0,0:0:0:60:snare.wav
192,192,110660,1,0,0:0:0:0:
64,192,110830,1,0,0:0:0:60:drum.wav
448,192,110830,1,0,0:0:0:0:
64,192,110999,1,0,0:0:0:60:drum.wav
320,192,111169,1,0,0:0:0:60:snare.wav
192,192,111338,1,0,0:0:0:0:
320,192,111508,1,0,0:0:0:60:drum.wav
448,192,111508,1,0,0:0:0:0:
448,192,111677,1,0,0:0:0:0:
192,192,111847,1,0,0:0:0:60:snare.wav
320,192,112016,1,0,0:0:0:0:
64,192,112186,1,0,0:0:0:60:drum.wav
192,192,112186,1,0,0:0:0:0:
64,192,112355,1,0,0:0:0:60:drum.wav
448,192,112525,1,0,0:0:0:60:snare.wav
320,192,112610,1,0,0:0:0:0:
192,192,112694,1,0,0:0:0:0:
64,192,112779,1,0,0:0:0:0:
320,192,112864,1,0,0:0:0:60:drum.wav
448,192,112864,1,0,0:0:0:50:finish.wav
64,192,113203,1,0,0:0:0:60:drum.wav
448,192,113203,1,0,0:0:0:0:
320,192,113372,1,0,0:0:0:0:
192,192,113542,1,0,0:0:0:60:snare.wav
448,192,113542,1,0,0:0:0:50:finish.wav
320,192,113711,1,0,0:0:0:60:snare.wav
64,192,113881,1,0,0:0:0:60:snare.wav
192,192,113966,1,0,0:0:0:60:snare.wav
320,192,114050,1,0,0:0:0:60:snare.wav
448,192,114135,1,0,0:0:0:60:snare.wav
64,192,114220,1,0,0:0:0:60:drum.wav
192,192,114220,1,0,0:0:0:50:finish.wav
320,192,114389,1,0,0:0:0:0:
192,192,114559,1,0,0:0:0:60:snare.wav
64,192,114728,1,0,0:0:0:0:
320,192,114898,1,0,0:0:0:60:drum.wav
448,192,114898,1,0,0:0:0:0:
320,192,115067,1,0,0:0:0:60:drum.wav
192,192,115237,1,0,0:0:0:60:snare.wav
448,192,115406,1,0,0:0:0:0:
64,192,115576,1,0,0:0:0:60:drum.wav
320,192,115576,1,0,0:0:0:0:
64,192,115745,1,0,0:0:0:60:drum.wav
192,192,115915,1,0,0:0:0:60:snare.wav
320,192,116084,1,0,0:0:0:0:
64,192,116254,1,0,0:0:0:60:drum.wav
448,192,116254,1,0,0:0:0:0:
448,192,116423,1,0,0:0:0:60:drum.wav
192,192,116593,1,0,0:0:0:60:snare.wav
320,192,116762,1,0,0:0:0:0:
64,192,116932,1,0,0:0:0:60:drum.wav
192,192,116932,1,0,0:0:0:0:
64,192,117101,1,0,0:0:0:60:drum.wav
320,192,117271,1,0,0:0:0:60:snare.wav
192,192,117440,1,0,0:0:0:0:
320,192,117610,1,0,0:0:0:60:drum.wav
448,192,117610,1,0,0:0:0:0:
448,192,117779,1,0,0:0:0:60:drum.wav
64,192,117949,1,0,0:0:0:60:snare.wav
192,192,118033,1,0,0:0:0:0:
320,192,118118,1,0,0:0:0:0:
448,192,118203,1,0,0:0:0:0:
64,192,118288,1,0,0:0:0:60:drum.wav
192,192,118288,1,0,0:0:0:50:finish.wav
64,192,118627,1,0,0:0:0:60:snare.wav
448,192,118627,1,0,0:0:0:0:
192,192,118796,1,0,0:0:0:0:
64,192,118966,1,0,0:0:0:60:drum.wav
320,192,118966,1,0,0:0:0:0:
192,192,119135,1,0,0:0:0:0:
320,192,119305,1,0,0:0:0:60:snare.wav
448,192,119305,1,0,0:0:0:0:
192,192,119474,1,0,0:0:0:60:drum.wav
320,192,119559,1,0,0:0:0:60:drum.wav
64,192,119644,1,0,0:0:0:60:drum.wav
448,192,119644,128,0,119983:0:0:0:50:finish.wav
192,192,119983,1,0,0:0:0:0:
320,192,120152,1,0,0:0:0:60:drum.wav
64,192,120322,1,0,0:0:0:60:snare.wav
192,192,120322,128,0,120660:0:0:0:0:
320,192,120830,1,0,0:0:0:60:drum.wav
64,192,120999,1,0,0:0:0:60:snare.wav
320,192,120999,128,0,121338:0:0:0:0:
448,192,121338,1,0,0:0:0:0:
320,192,121508,1,0,0:0:0:60:drum.wav
64,192,121677,128,0,122016:0:0:0:60:snare.wav
192,192,121677,1,0,0:0:0:50:finish.wav
448,192,122016,128,0,122355:0:0:0:0:
64,192,122355,1,0,0:0:0:60:snare.wav
192,192,122355,128,0,122694:0:0:0:50:finish.wav
320,192,122694,128,0,123033:0:0:0:0:
192,192,122864,1,0,0:0:0:60:drum.wav
64,192,123033,1,0,0:0:0:60:snare.wav
448,192,123033,1,0,0:0:0:0:
320,192,123203,1,0,0:0:0:60:drum.wav
192,192,123372,1,0,0:0:0:0:
320,192,123542,1,0,0:0:0:60:drum.wav
192,192,123627,1,0,0:0:0:60:drum.wav
64,192,123711,1,0,0:0:0:60:snare.wav
448,192,123711,1,0,0:0:0:0:
192,192,123881,1,0,0:0:0:60:drum.wav
320,192,124050,1,0,0:0:0:60:snare.wav
448,192,124050,1,0,0:0:0:0:
64,192,124220,1,0,0:0:0:60:drum.wav
192,192,124389,1,0,0:0:0:60:snare.wav
448,192,124389,1,0,0:0:0:0:
320,192,124559,1,0,0:0:0:0:
64,192,124728,1,0,0:0:0:60:snare.wav
192,192,124813,1,0,0:0:0:0:
320,192,124898,1,0,0:0:0:0:
448,192,124983,1,0,0:0:0:0:
64,192,125067,128,0,125406:0:0:0:60:drum.wav
192,192,125067,1,0,0:0:0:50:finish.wav
320,192,125406,1,0,0:0:0:60:drum.wav
448,192,125406,1,0,0:0:0:0:
192,192,125576,1,0,0:0:0:0:
64,192,125745,1,0,0:0:0:60:drum.wav
320,192,125745,1,0,0:0:0:0:
448,192,125915,1,0,0:0:0:0:
64,192,126084,1,0,0:0:0:60:drum.wav
192,192,126084,1,0,0:0:0:0:
320,192,126254,1,0,0:0:0:0:
192,192,126423,1,0,0:0:0:60:drum.wav
448,192,126423,1,0,0:0:0:0:
64,192,126593,1,0,0:0:0:0:
320,192,126762,1,0,0:0:0:60:drum.wav
448,192,126762,1,0,0:0:0:0:
192,192,126932,1,0,0:0:0:0:
64,192,127101,1,0,0:0:0:60:drum.wav
448,192,127101,1,0,0:0:0:0:
320,192,127271,1,0,0:0:0:0:
192,192,127440,1,0,0:0:0:0:
64,192,127440,1,0,0:0:0:60:drum.wav
320,192,127610,1,0,0:0:0:60:drum.wav
448,192,127779,128,0,128136:0:0:0:50:finish.wav
64,192,127779,1,0,0:0:0:60:drum.wav
192,192,128136,1,0,0:0:0:0:
64,192,128136,1,0,0:0:0:60:drum.wav
448,192,128307,1,0,0:0:0:0:
320,192,128478,1,0,0:0:0:0:
64,192,128478,1,0,0:0:0:60:drum.wav
192,192,128653,1,0,0:0:0:60:drum.wav
448,192,128828,1,0,0:0:0:0:
320,192,128828,1,0,0:0:0:60:drum.wav
64,192,129006,1,0,0:0:0:60:snare.wav
320,192,129193,1,0,0:0:0:0:
192,192,129193,1,0,0:0:0:60:drum.wav
448,192,129394,1,0,0:0:0:60:snare.wav
192,192,129606,1,0,0:0:0:0:
64,192,129606,1,0,0:0:0:60:drum.wav
320,192,129836,1,0,0:0:0:60:snare.wav
448,192,130074,1,0,0:0:0:0:
192,192,130074,1,0,0:0:0:60:drum.wav
64,192,130359,1,0,0:0:0:60:drum.wav
448,192,130671,1,0,0:0:0:0:
320,192,130671,1,0,0:0:0:60:drum.wav
192,192,131032,1,0,0:0:0:0:
64,192,131032,1,0,0:0:0:60:drum.wav
192,192,131670,128,0,135895:0:0:0:50:finish.wav
64,192,131670,128,0,135895:0:0:0:60:drum.wav
448,192,135895,1,0,0:0:0:70:snare.wav
