osu file format v14

[General]
AudioFilename: yoake no bell ga naru.mp3
AudioLeadIn: 0
PreviewTime: 64728
Countdown: 0
SampleSet: Soft
StackLeniency: 0.4
Mode: 3
LetterboxInBreaks: 0
SpecialStyle: 0
WidescreenStoryboard: 1

[Editor]
DistanceSpacing: 2
BeatDivisor: 2
GridSize: 4
TimelineZoom: 0.8999999

[Metadata]
Title:Yoake no Bell ga Naru
TitleUnicode:夜明けのベルが鳴る
Artist:Yasuda Mizuho
ArtistUnicode:安田みずほ
Creator:Riana
Version:Easy
Source:彼女のセイイキ
Tags:kanojo no seiiki japanese pop jpop j-pop rock video game feng eroge ending ed theme galge visual novel vn murumoo
BeatmapID:2243068
BeatmapSetID:1070997

[Difficulty]
HPDrainRate:7
CircleSize:4
OverallDifficulty:6.5
ApproachRate:9.3
SliderMultiplier:1.7
SliderTickRate:1

[Events]
//Background and Video events
0,0,"kanojo.jpg",0,0
//Break Periods
//Storyboard Layer 0 (Background)
//Storyboard Layer 1 (Fail)
//Storyboard Layer 2 (Pass)
//Storyboard Layer 3 (Foreground)
//Storyboard Layer 4 (Overlay)
//Storyboard Sound Samples
Sample,32016,0,"finish.wav",50
Sample,32355,0,"finish.wav",50
Sample,32864,0,"finish.wav",50
Sample,42016,0,"finish.wav",50
Sample,46423,0,"finish.wav",50
Sample,70491,0,"finish.wav",50
Sample,92186,0,"finish.wav",50
Sample,97949,0,"finish.wav",50
Sample,106084,0,"finish.wav",50
Sample,107440,0,"finish.wav",50

[TimingPoints]
322,338.983050847458,4,2,1,30,1,0
21169,-100,4,2,1,45,0,0
65406,-100,4,2,1,45,0,1
76254,-100,4,2,1,45,0,0
87101,-100,4,2,1,45,0,1
97949,-100,4,2,1,45,0,0
108796,-100,4,2,1,45,0,1
119644,-100,4,2,1,45,0,0
127779,357.142857142857,4,2,1,45,1,0
127779,-94.9152542887676,4,2,1,45,0,0
128136,342.857142857143,4,2,1,45,1,0
128136,-98.8700564999681,4,2,1,45,0,0
128478,350.877192982456,4,2,1,45,1,0
128478,-96.6101694915483,4,2,1,45,0,0
128828,357.142857142857,4,2,1,45,1,0
128828,-94.9152542374168,4,2,1,45,0,0
129006,375,4,2,1,45,1,0
129006,-90.3954802259887,4,2,1,45,0,0
129193,402.684563758389,4,2,1,45,1,0
129193,-84.1807911792269,4,2,1,45,0,0
129394,425.531914893617,4,2,1,45,1,0
129394,-79.6610170085607,4,2,1,45,0,0
129606,461.538461538462,4,2,1,45,1,0
129606,-73.446327766606,4,2,1,45,0,0
129836,476.190476190476,4,2,1,45,1,0
129836,-71.1864409192761,4,2,1,45,0,0
130074,571.428571428571,4,2,1,45,1,0
130074,-59.3220369146798,4,2,1,45,0,0
130359,625,4,2,1,45,1,0
130359,-54.2372881355932,4,2,1,45,0,0
130671,722.89156626506,4,2,1,45,1,0
130671,-46.8926558176131,4,2,1,45,0,0
131032,1276.59574468085,4,2,1,45,1,0
131032,-26.5536723164442,4,2,1,45,0,0
131670,1408.45070422535,4,2,1,45,1,0
131670,-24.0677966105448,4,2,1,45,0,0
135895,585.365853658537,4,2,1,45,1,0
135895,-57.8760887087976,4,2,1,45,0,0

[HitObjects]
448,192,322,5,0,0:0:0:0:
320,192,999,1,0,0:0:0:0:
192,192,1677,1,0,0:0:0:0:
64,192,2355,1,0,0:0:0:0:
320,192,3033,1,0,0:0:0:0:
192,192,3711,1,0,0:0:0:0:
64,192,4389,1,0,0:0:0:0:
448,192,5067,1,0,0:0:0:0:
192,192,5745,1,0,0:0:0:0:
64,192,6423,1,0,0:0:0:0:
320,192,7101,1,0,0:0:0:0:
448,192,7779,1,0,0:0:0:0:
64,192,8457,1,0,0:0:0:0:
192,192,9135,1,0,0:0:0:0:
320,192,9813,1,0,0:0:0:0:
448,192,10491,1,0,0:0:0:0:
192,192,11169,1,0,0:0:0:0:
320,192,11847,1,0,0:0:0:0:
448,192,12525,1,0,0:0:0:0:
64,192,13203,1,0,0:0:0:0:
320,192,13881,1,0,0:0:0:0:
192,192,14559,1,0,0:0:0:0:
448,192,15237,1,0,0:0:0:0:
320,192,15915,1,0,0:0:0:0:
64,192,16593,1,0,0:0:0:0:
192,192,17271,1,0,0:0:0:0:
448,192,17949,1,0,0:0:0:0:
320,192,18627,1,0,0:0:0:0:
192,192,19305,128,0,19983:0:0:0:0:
64,192,19983,128,0,20660:0:0:0:0:
320,192,20660,128,0,21169:0:0:0:0:
64,192,21169,1,0,0:0:0:60:drum.wav
448,192,21169,1,0,0:0:0:0:
192,192,21508,1,0,0:0:0:0:
64,192,21677,1,0,0:0:0:60:drum.wav
192,192,22016,1,0,0:0:0:60:drum.wav
448,192,22016,1,0,0:0:0:50:finish.wav
320,192,22355,1,0,0:0:0:60:drum.wav
448,192,22694,1,0,0:0:0:60:drum.wav
448,192,23033,1,0,0:0:0:60:drum.wav
192,192,23372,1,0,0:0:0:60:drum.wav
320,192,23711,1,0,0:0:0:60:drum.wav
64,192,24050,1,0,0:0:0:60:drum.wav
64,192,24389,1,0,0:0:0:60:drum.wav
192,192,24728,1,0,0:0:0:60:drum.wav
320,192,25067,1,0,0:0:0:60:drum.wav
448,192,25406,1,0,0:0:0:60:drum.wav
448,192,25745,1,0,0:0:0:60:drum.wav
192,192,26084,1,0,0:0:0:60:drum.wav
320,192,26423,1,0,0:0:0:60:drum.wav
64,192,26762,1,0,0:0:0:60:drum.wav
448,192,27101,1,0,0:0:0:60:drum.wav
64,192,27440,1,0,0:0:0:60:drum.wav
448,192,27779,1,0,0:0:0:60:drum.wav
192,192,28118,1,0,0:0:0:60:drum.wav
192,192,28457,1,0,0:0:0:60:drum.wav
64,192,28796,1,0,0:0:0:60:drum.wav
192,192,29135,1,0,0:0:0:60:drum.wav
448,192,29474,1,0,0:0:0:60:drum.wav
448,192,29813,1,0,0:0:0:60:drum.wav
192,192,30152,1,0,0:0:0:60:drum.wav
320,192,30491,1,0,0:0:0:60:drum.wav
64,192,30830,1,0,0:0:0:60:drum.wav
64,192,31169,1,0,0:0:0:60:drum.wav
448,192,31508,1,0,0:0:0:60:drum.wav
192,192,31847,1,0,0:0:0:60:drum.wav
320,192,32016,1,0,0:0:0:60:snare.wav
320,192,32355,1,0,0:0:0:60:snare.wav
192,192,32525,1,0,0:0:0:60:drum.wav
64,192,32694,1,0,0:0:0:60:drum.wav
448,192,32864,1,0,0:0:0:60:drum.wav
192,192,33203,1,0,0:0:0:60:drum.wav
320,192,33542,1,0,0:0:0:60:drum.wav
320,192,33881,1,0,0:0:0:60:drum.wav
64,192,34220,1,0,0:0:0:60:drum.wav
448,192,34559,1,0,0:0:0:60:drum.wav
192,192,34898,1,0,0:0:0:60:drum.wav
192,192,35237,1,0,0:0:0:60:drum.wav
64,192,35576,1,0,0:0:0:60:drum.wav
320,192,35915,1,0,0:0:0:60:drum.wav
448,192,36254,1,0,0:0:0:60:drum.wav
448,192,36593,1,0,0:0:0:60:drum.wav
64,192,36932,1,0,0:0:0:60:drum.wav
192,192,37271,1,0,0:0:0:60:drum.wav
320,192,37440,1,0,0:0:0:60:drum.wav
448,192,37610,1,0,0:0:0:60:drum.wav
64,192,37779,1,0,0:0:0:60:drum.wav
192,192,37949,1,0,0:0:0:60:drum.wav
64,192,38288,1,0,0:0:0:60:drum.wav
448,192,38288,1,0,0:0:0:50:finish.wav
320,192,38627,1,0,0:0:0:60:drum.wav
192,192,38966,1,0,0:0:0:60:drum.wav
192,192,39305,1,0,0:0:0:60:drum.wav
448,192,39644,1,0,0:0:0:60:drum.wav
320,192,39983,1,0,0:0:0:60:drum.wav
64,192,40322,1,0,0:0:0:60:drum.wav
64,192,40660,1,0,0:0:0:60:drum.wav
448,192,40999,1,0,0:0:0:60:drum.wav
320,192,41338,1,0,0:0:0:60:drum.wav
64,192,41677,1,0,0:0:0:60:drum.wav
192,192,42016,1,0,0:0:0:60:drum.wav
64,192,42355,1,0,0:0:0:60:drum.wav
448,192,42355,1,0,0:0:0:50:finish.wav
192,192,42694,1,0,0:0:0:60:snare.wav
64,192,42864,1,0,0:0:0:60:snare.wav
448,192,43033,1,0,0:0:0:60:snare.wav
320,192,43203,1,0,0:0:0:60:snare.wav
192,192,43372,1,0,0:0:0:60:drum.wav
64,192,43711,128,0,44050:0:0:0:60:drum.wav
448,192,43711,1,0,0:0:0:50:finish.wav
320,192,44220,1,0,0:0:0:60:drum.wav
192,192,44389,1,0,0:0:0:60:snare.wav
448,192,44389,128,0,44728:0:0:0:0:
320,192,44728,128,0,45067:0:0:0:0:
192,192,45067,1,0,0:0:0:60:drum.wav
64,192,45237,1,0,0:0:0:60:snare.wav
448,192,45237,1,0,0:0:0:0:
320,192,45576,1,0,0:0:0:60:drum.wav
448,192,45745,1,0,0:0:0:60:snare.wav
64,192,45745,128,0,46084:0:0:0:0:
192,192,46084,128,0,46423:0:0:0:0:
448,192,46423,128,0,46762:0:0:0:60:drum.wav
64,192,46423,1,0,0:0:0:0:
192,192,46932,1,0,0:0:0:60:drum.wav
320,192,47101,128,0,47440:0:0:0:60:snare.wav
448,192,47101,1,0,0:0:0:0:
64,192,47440,128,0,47779:0:0:0:0:
448,192,47779,1,0,0:0:0:60:drum.wav
192,192,47949,1,0,0:0:0:60:snare.wav
320,192,47949,1,0,0:0:0:0:
448,192,48457,1,0,0:0:0:60:snare.wav
320,192,48627,1,0,0:0:0:60:snare.wav
192,192,48796,1,0,0:0:0:60:drum.wav
320,192,48966,1,0,0:0:0:60:drum.wav
64,192,49135,1,0,0:0:0:60:drum.wav
448,192,49135,1,0,0:0:0:50:finish.wav
320,192,49474,1,0,0:0:0:0:
192,192,49813,1,0,0:0:0:0:
448,192,50152,1,0,0:0:0:0:
64,192,50491,1,0,0:0:0:60:drum.wav
320,192,50491,128,0,50830:0:0:0:50:finish.wav
64,192,51169,1,0,0:0:0:0:
192,192,51508,1,0,0:0:0:0:
64,192,51847,1,0,0:0:0:60:drum.wav
448,192,51847,1,0,0:0:0:50:finish.wav
320,192,52186,1,0,0:0:0:0:
192,192,52525,1,0,0:0:0:0:
448,192,52864,1,0,0:0:0:0:
64,192,53203,128,0,53542:0:0:0:60:drum.wav
320,192,53203,1,0,0:0:0:50:finish.wav
192,192,53881,128,0,54220:0:0:0:60:snare.wav
320,192,54220,128,0,54559:0:0:0:60:snare.wav
64,192,54559,1,0,0:0:0:60:snare.wav
448,192,54559,128,0,55915:0:0:0:50:finish.wav
64,192,55915,128,0,56593:0:0:0:0:
192,192,56593,1,0,0:0:0:0:
448,192,56932,1,0,0:0:0:0:
320,192,57271,128,0,57949:0:0:0:60:drum.wav
192,192,57949,1,0,0:0:0:0:
448,192,58288,1,0,0:0:0:0:
64,192,58627,1,0,0:0:0:0:
192,192,58966,1,0,0:0:0:0:
320,192,59305,1,0,0:0:0:0:
64,192,59644,1,0,0:0:0:0:
192,192,59983,1,0,0:0:0:60:snare.wav
448,192,59983,128,0,60322:0:0:0:50:finish.wav
320,192,60322,1,0,0:0:0:60:drum.wav
64,192,60491,1,0,0:0:0:60:snare.wav
192,192,60660,128,0,60999:0:0:0:60:drum.wav
448,192,60999,1,0,0:0:0:60:drum.wav
320,192,61169,1,0,0:0:0:60:snare.wav
64,192,61338,128,0,61677:0:0:0:60:drum.wav
448,192,61677,1,0,0:0:0:60:drum.wav
192,192,61847,1,0,0:0:0:60:snare.wav
320,192,62016,128,0,62355:0:0:0:60:drum.wav
192,192,62355,1,0,0:0:0:60:drum.wav
64,192,62525,1,0,0:0:0:60:snare.wav
448,192,62525,1,0,0:0:0:50:finish.wav
192,192,65406,128,0,65745:0:0:0:60:drum.wav
320,192,65406,1,0,0:0:0:50:finish.wav
448,192,65745,1,0,0:0:0:60:snare.wav
64,192,66084,1,0,0:0:0:60:drum.wav
192,192,66254,1,0,0:0:0:60:drum.wav
320,192,66423,1,0,0:0:0:60:snare.wav
448,192,66423,1,0,0:0:0:0:
192,192,66762,1,0,0:0:0:60:drum.wav
320,192,66932,1,0,0:0:0:60:drum.wav
64,192,67101,1,0,0:0:0:60:snare.wav
448,192,67101,1,0,0:0:0:0:
320,192,67440,1,0,0:0:0:60:drum.wav
192,192,67610,1,0,0:0:0:60:drum.wav
64,192,67779,1,0,0:0:0:60:snare.wav
448,192,67779,1,0,0:0:0:0:
320,192,68118,128,0,68457:0:0:0:60:drum.wav
64,192,68457,1,0,0:0:0:60:snare.wav
192,192,68796,1,0,0:0:0:60:drum.wav
320,192,68966,1,0,0:0:0:60:drum.wav
64,192,69135,1,0,0:0:0:60:snare.wav
448,192,69135,1,0,0:0:0:0:
64,192,69474,1,0,0:0:0:60:drum.wav
320,192,69474,128,0,69813:0:0:0:0:
192,192,69813,128,0,70152:0:0:0:60:snare.wav
448,192,70152,128,0,70491:0:0:0:60:drum.wav
192,192,70491,1,0,0:0:0:60:snare.wav
320,192,70660,1,0,0:0:0:60:snare.wav
64,192,70830,128,0,71169:0:0:0:60:drum.wav
448,192,70830,1,0,0:0:0:50:finish.wav
320,192,71169,1,0,0:0:0:60:snare.wav
192,192,71508,1,0,0:0:0:60:drum.wav
320,192,71677,1,0,0:0:0:60:drum.wav
64,192,71847,1,0,0:0:0:60:snare.wav
448,192,71847,1,0,0:0:0:0:
192,192,72186,1,0,0:0:0:60:drum.wav
320,192,72355,1,0,0:0:0:60:drum.wav
64,192,72525,1,0,0:0:0:60:snare.wav
448,192,72525,1,0,0:0:0:0:
320,192,72864,1,0,0:0:0:60:drum.wav
192,192,73033,1,0,0:0:0:60:drum.wav
64,192,73203,1,0,0:0:0:60:snare.wav
448,192,73203,1,0,0:0:0:0:
192,192,73542,128,0,73881:0:0:0:60:drum.wav
320,192,73881,1,0,0:0:0:60:snare.wav
64,192,74220,1,0,0:0:0:60:drum.wav
192,192,74389,1,0,0:0:0:60:drum.wav
320,192,74559,1,0,0:0:0:60:snare.wav
448,192,74559,1,0,0:0:0:0:
448,192,74898,128,0,75237:0:0:0:60:drum.wav
64,192,74898,1,0,0:0:0:50:finish.wav
320,192,75237,128,0,75576:0:0:0:60:snare.wav
192,192,75576,128,0,75915:0:0:0:60:drum.wav
448,192,75915,1,0,0:0:0:60:drum.wav
320,192,76084,1,0,0:0:0:60:snare.wav
64,192,76254,1,0,0:0:0:60:drum.wav
192,192,76254,1,0,0:0:0:50:finish.wav
320,192,76593,1,0,0:0:0:60:snare.wav
448,192,76593,1,0,0:0:0:0:
192,192,76932,1,0,0:0:0:60:drum.wav
64,192,77271,1,0,0:0:0:60:snare.wav
320,192,77271,1,0,0:0:0:0:
448,192,77610,1,0,0:0:0:60:drum.wav
192,192,77949,1,0,0:0:0:60:snare.wav
320,192,77949,1,0,0:0:0:0:
64,192,78288,1,0,0:0:0:60:drum.wav
192,192,78627,1,0,0:0:0:60:snare.wav
448,192,78627,1,0,0:0:0:0:
320,192,78966,128,0,79305:0:0:0:60:drum.wav
64,192,79305,1,0,0:0:0:60:snare.wav
448,192,79305,1,0,0:0:0:0:
192,192,79644,1,0,0:0:0:60:drum.wav
320,192,79983,1,0,0:0:0:60:snare.wav
448,192,79983,1,0,0:0:0:0:
64,192,80322,128,0,80660:0:0:0:60:drum.wav
192,192,80660,1,0,0:0:0:60:snare.wav
448,192,80660,1,0,0:0:0:0:
320,192,80999,1,0,0:0:0:60:drum.wav
64,192,81338,1,0,0:0:0:60:snare.wav
448,192,81338,1,0,0:0:0:0:
192,192,81677,128,0,82016:0:0:0:60:drum.wav
320,192,81677,1,0,0:0:0:50:finish.wav
64,192,82016,1,0,0:0:0:60:snare.wav
448,192,82016,1,0,0:0:0:0:
320,192,82355,128,0,82694:0:0:0:60:drum.wav
64,192,82694,1,0,0:0:0:60:snare.wav
192,192,82694,1,0,0:0:0:0:
448,192,83033,128,0,83372:0:0:0:60:drum.wav
64,192,83372,1,0,0:0:0:60:snare.wav
320,192,83372,1,0,0:0:0:0:
192,192,83711,128,0,84050:0:0:0:60:drum.wav
64,192,84050,1,0,0:0:0:60:snare.wav
320,192,84050,1,0,0:0:0:0:
192,192,84389,1,0,0:0:0:60:drum.wav
448,192,84389,128,0,84728:0:0:0:50:finish.wav
64,192,84728,1,0,0:0:0:60:snare.wav
320,192,84728,1,0,0:0:0:0:
192,192,85067,128,0,85406:0:0:0:60:drum.wav
64,192,85406,1,0,0:0:0:60:snare.wav
320,192,85576,1,0,0:0:0:60:drum.wav
448,192,85576,1,0,0:0:0:50:finish.wav
192,192,85915,1,0,0:0:0:60:drum.wav
64,192,86084,1,0,0:0:0:60:snare.wav
448,192,86084,1,0,0:0:0:0:
320,192,86423,1,0,0:0:0:60:snare.wav
192,192,86593,1,0,0:0:0:60:snare.wav
64,192,86762,1,0,0:0:0:60:drum.wav
448,192,86932,1,0,0:0:0:60:snare.wav
192,192,87101,1,0,0:0:0:60:drum.wav
320,192,87101,128,0,87440:0:0:0:50:finish.wav
64,192,87440,1,0,0:0:0:60:snare.wav
448,192,87779,1,0,0:0:0:60:drum.wav
320,192,87949,1,0,0:0:0:60:drum.wav
64,192,88118,1,0,0:0:0:60:snare.wav
192,192,88118,1,0,0:0:0:0:
320,192,88457,1,0,0:0:0:60:drum.wav
192,192,88627,1,0,0:0:0:60:drum.wav
64,192,88796,1,0,0:0:0:60:snare.wav
448,192,88796,1,0,0:0:0:0:
192,192,89135,1,0,0:0:0:60:drum.wav
320,192,89305,1,0,0:0:0:60:drum.wav
64,192,89474,1,0,0:0:0:60:snare.wav
448,192,89474,1,0,0:0:0:0:
192,192,89813,128,0,90152:0:0:0:60:drum.wav
448,192,90152,1,0,0:0:0:60:snare.wav
320,192,90491,1,0,0:0:0:60:drum.wav
192,192,90660,1,0,0:0:0:60:drum.wav
64,192,90830,1,0,0:0:0:60:snare.wav
448,192,90830,1,0,0:0:0:0:
192,192,91169,128,0,91508:0:0:0:60:drum.wav
448,192,91169,1,0,0:0:0:0:
320,192,91508,128,0,91847:0:0:0:60:snare.wav
64,192,91847,128,0,92186:0:0:0:60:drum.wav
320,192,92186,1,0,0:0:0:60:snare.wav
192,192,92355,1,0,0:0:0:60:snare.wav
320,192,92525,1,0,0:0:0:60:drum.wav
448,192,92525,128,0,92864:0:0:0:50:finish.wav
64,192,92864,1,0,0:0:0:60:snare.wav
320,192,93203,1,0,0:0:0:60:drum.wav
192,192,93372,1,0,0:0:0:60:drum.wav
64,192,93542,1,0,0:0:0:60:snare.wav
448,192,93542,1,0,0:0:0:0:
192,192,93881,1,0,0:0:0:60:drum.wav
320,192,94050,1,0,0:0:0:60:drum.wav
64,192,94220,1,0,0:0:0:60:snare.wav
448,192,94220,1,0,0:0:0:0:
320,192,94559,1,0,0:0:0:60:drum.wav
192,192,94728,1,0,0:0:0:60:drum.wav
64,192,94898,1,0,0:0:0:60:snare.wav
448,192,94898,1,0,0:0:0:0:
320,192,95237,128,0,95576:0:0:0:60:drum.wav
192,192,95576,1,0,0:0:0:60:snare.wav
448,192,95915,1,0,0:0:0:60:drum.wav
320,192,96084,1,0,0:0:0:60:drum.wav
64,192,96254,1,0,0:0:0:60:snare.wav
192,192,96254,1,0,0:0:0:0:
64,192,96593,1,0,0:0:0:60:drum.wav
448,192,96593,128,0,96932:0:0:0:0:
320,192,96932,128,0,97271:0:0:0:60:snare.wav
192,192,96932,1,0,0:0:0:50:finish.wav
64,192,97271,1,0,0:0:0:60:drum.wav
192,192,97440,1,0,0:0:0:60:snare.wav
320,192,97610,1,0,0:0:0:60:drum.wav
448,192,97779,1,0,0:0:0:60:snare.wav
64,192,97949,128,0,98288:0:0:0:60:drum.wav
320,192,98288,1,0,0:0:0:60:drum.wav
448,192,98627,128,0,98966:0:0:0:60:drum.wav
192,192,98966,1,0,0:0:0:60:snare.wav
320,192,99305,128,0,99813:0:0:0:60:drum.wav
192,192,99813,128,0,100322:0:0:0:0:
64,192,100322,128,0,100660:0:0:0:60:snare.wav
448,192,100660,1,0,0:0:0:60:drum.wav
320,192,100999,1,0,0:0:0:60:snare.wav
64,192,101338,128,0,101677:0:0:0:60:drum.wav
192,192,101677,1,0,0:0:0:60:snare.wav
320,192,101847,1,0,0:0:0:60:snare.wav
192,192,102016,1,0,0:0:0:60:drum.wav
448,192,102016,1,0,0:0:0:50:finish.wav
64,192,102355,1,0,0:0:0:60:drum.wav
320,192,102355,1,0,0:0:0:50:finish.wav
64,192,102694,1,0,0:0:0:60:drum.wav
448,192,102694,128,0,103033:0:0:0:50:finish.wav
192,192,103033,128,0,103372:0:0:0:60:snare.wav
320,192,103033,1,0,0:0:0:0:
64,192,103372,1,0,0:0:0:60:drum.wav
448,192,103372,1,0,0:0:0:50:finish.wav
320,192,103881,1,0,0:0:0:60:drum.wav
64,192,104050,128,0,104389:0:0:0:60:snare.wav
448,192,104050,1,0,0:0:0:0:
192,192,104389,1,0,0:0:0:0:
320,192,104559,1,0,0:0:0:60:drum.wav
448,192,104728,1,0,0:0:0:60:drum.wav
192,192,104898,1,0,0:0:0:60:snare.wav
320,192,104898,1,0,0:0:0:0:
64,192,105237,1,0,0:0:0:70:drum.wav
192,192,105406,128,0,105745:0:0:0:60:snare.wav
448,192,105406,1,0,0:0:0:0:
320,192,105745,128,0,106084:0:0:0:0:
448,192,106084,128,0,106423:0:0:0:60:drum.wav
64,192,106423,1,0,0:0:0:60:drum.wav
192,192,106593,1,0,0:0:0:60:snare.wav
320,192,106762,1,0,0:0:0:60:drum.wav
448,192,106932,1,0,0:0:0:60:snare.wav
192,192,107101,128,0,107440:0:0:0:60:snare.wav
64,192,107440,128,0,107779:0:0:0:60:drum.wav
320,192,107779,1,0,0:0:0:60:snare.wav
448,192,107949,128,0,108457:0:0:0:60:snare.wav
320,192,108457,128,0,108796:0:0:0:60:drum.wav
64,192,108796,128,0,109135:0:0:0:60:drum.wav
192,192,108796,1,0,0:0:0:50:finish.wav
320,192,109135,1,0,0:0:0:60:snare.wav
448,192,109474,1,0,0:0:0:60:drum.wav
320,192,109644,1,0,0:0:0:60:drum.wav
64,192,109813,1,0,0:0:0:60:snare.wav
192,192,109813,1,0,0:0:0:0:
320,192,110152,128,0,110491:0:0:0:60:drum.wav
448,192,110491,1,0,0:0:0:60:snare.wav
192,192,110830,1,0,0:0:0:60:drum.wav
320,192,110999,1,0,0:0:0:60:drum.wav
64,192,111169,1,0,0:0:0:60:snare.wav
448,192,111169,1,0,0:0:0:0:
320,192,111508,128,0,111847:0:0:0:60:drum.wav
64,192,111847,1,0,0:0:0:60:snare.wav
192,192,112186,1,0,0:0:0:60:drum.wav
64,192,112355,1,0,0:0:0:60:drum.wav
320,192,112525,1,0,0:0:0:60:snare.wav
448,192,112525,1,0,0:0:0:0:
64,192,112864,128,0,113203:0:0:0:60:drum.wav
448,192,112864,1,0,0:0:0:50:finish.wav
192,192,113203,128,0,113542:0:0:0:60:drum.wav
320,192,113542,1,0,0:0:0:60:snare.wav
448,192,113542,128,0,113881:0:0:0:50:finish.wav
64,192,113881,1,0,0:0:0:60:snare.wav
320,192,114050,1,0,0:0:0:60:snare.wav
192,192,114220,128,0,114559:0:0:0:60:drum.wav
448,192,114220,1,0,0:0:0:50:finish.wav
64,192,114559,1,0,0:0:0:60:snare.wav
448,192,114898,1,0,0:0:0:60:drum.wav
320,192,115067,1,0,0:0:0:60:drum.wav
64,192,115237,1,0,0:0:0:60:snare.wav
192,192,115237,1,0,0:0:0:0:
320,192,115576,128,0,115915:0:0:0:60:drum.wav
448,192,115915,1,0,0:0:0:60:snare.wav
192,192,116254,1,0,0:0:0:60:drum.wav
320,192,116423,1,0,0:0:0:60:drum.wav
64,192,116593,1,0,0:0:0:60:snare.wav
448,192,116593,1,0,0:0:0:0:
320,192,116932,128,0,117271:0:0:0:60:drum.wav
64,192,117271,1,0,0:0:0:60:snare.wav
192,192,117271,128,0,117610:0:0:0:0:
448,192,117610,128,0,117949:0:0:0:60:drum.wav
64,192,117949,1,0,0:0:0:60:snare.wav
320,192,117949,1,0,0:0:0:0:
192,192,118288,128,0,118627:0:0:0:60:drum.wav
448,192,118288,1,0,0:0:0:50:finish.wav
320,192,118627,128,0,118966:0:0:0:60:snare.wav
448,192,118966,128,0,119305:0:0:0:60:drum.wav
64,192,119305,1,0,0:0:0:60:snare.wav
192,192,119474,1,0,0:0:0:60:drum.wav
320,192,119644,128,0,119983:0:0:0:60:drum.wav
448,192,119644,1,0,0:0:0:50:finish.wav
64,192,120152,1,0,0:0:0:60:drum.wav
192,192,120322,128,0,120999:0:0:0:60:snare.wav
448,192,120322,1,0,0:0:0:0:
64,192,120999,1,0,0:0:0:60:snare.wav
320,192,120999,128,0,121338:0:0:0:0:
192,192,121508,1,0,0:0:0:60:drum.wav
64,192,121677,1,0,0:0:0:60:snare.wav
448,192,121677,1,0,0:0:0:50:finish.wav
320,192,122016,128,0,122355:0:0:0:0:
64,192,122355,1,0,0:0:0:60:snare.wav
192,192,122355,128,0,122694:0:0:0:50:finish.wav
320,192,122864,1,0,0:0:0:60:drum.wav
64,192,123033,1,0,0:0:0:60:snare.wav
448,192,123033,1,0,0:0:0:0:
192,192,123372,1,0,0:0:0:0:
320,192,123711,1,0,0:0:0:60:snare.wav
448,192,123711,128,0,124050:0:0:0:0:
64,192,124050,128,0,124389:0:0:0:60:snare.wav
192,192,124050,1,0,0:0:0:0:
320,192,124389,1,0,0:0:0:60:snare.wav
448,192,124389,128,0,124728:0:0:0:0:
64,192,124728,1,0,0:0:0:60:snare.wav
192,192,124728,1,0,0:0:0:0:
320,192,124898,1,0,0:0:0:0:
64,192,125067,1,0,0:0:0:60:drum.wav
448,192,125067,1,0,0:0:0:50:finish.wav
192,192,125406,1,0,0:0:0:60:drum.wav
64,192,125745,1,0,0:0:0:60:drum.wav
320,192,126084,1,0,0:0:0:60:drum.wav
448,192,126423,1,0,0:0:0:60:drum.wav
192,192,126762,1,0,0:0:0:60:drum.wav
64,192,127101,1,0,0:0:0:60:drum.wav
320,192,127440,1,0,0:0:0:60:drum.wav
192,192,127779,1,0,0:0:0:50:finish.wav
64,192,127779,1,0,0:0:0:60:drum.wav
320,192,128136,1,0,0:0:0:60:drum.wav
448,192,128478,1,0,0:0:0:0:
64,192,128478,1,0,0:0:0:60:drum.wav
320,192,128653,1,0,0:0:0:60:drum.wav
192,192,128828,1,0,0:0:0:60:drum.wav
64,192,129006,1,0,0:0:0:60:snare.wav
448,192,129193,128,0,129606:0:0:0:60:drum.wav
320,192,129606,128,0,130074:0:0:0:60:drum.wav
192,192,130074,128,0,130671:0:0:0:60:drum.wav
64,192,130671,128,0,131670:0:0:0:60:drum.wav
320,192,131670,1,0,0:0:0:60:drum.wav
448,192,131670,128,0,135895:0:0:0:50:finish.wav
64,192,135895,1,0,0:0:0:60:snare.wav
