osu file format v14

[General]
AudioFilename: audio.mp3
AudioLeadIn: 0
PreviewTime: 162218
Countdown: 0
SampleSet: Soft
StackLeniency: 0.7
Mode: 0
LetterboxInBreaks: 0
WidescreenStoryboard: 1

[Editor]
Bookmarks: 269,21963,43658,65353,87048,108743,119591,141285,162980,184675,200946,211794,238901
DistanceSpacing: 0.9
BeatDivisor: 2
GridSize: 32
TimelineZoom: 1

[Metadata]
Title:Yoake no Bell ga Naru
TitleUnicode:夜明けのベルが鳴る
Artist:Yasuda Mizuho
ArtistUnicode:安田みずほ
Creator:Kowari
Version:Normal
Source:彼女のセイイキ
Tags:silky kanau mamayu fuyuyu- feng kanojo no seiiki ending eroge visual novel japanese video game
BeatmapID:2201830
BeatmapSetID:1036799

[Difficulty]
HPDrainRate:3.5
CircleSize:3
OverallDifficulty:4
ApproachRate:5
SliderMultiplier:1.08
SliderTickRate:1

[Events]
//Background and Video events
0,0,"BG2.jpg",0,0
//Break Periods
//Storyboard Layer 0 (Background)
//Storyboard Layer 1 (Fail)
//Storyboard Layer 2 (Pass)
//Storyboard Layer 3 (Foreground)
//Storyboard Layer 4 (Overlay)
//Storyboard Sound Samples

[TimingPoints]
274,338.983050847458,4,2,1,35,1,0
274,-142.857142857143,4,2,1,35,0,0
21290,-100,4,2,1,45,0,0
21968,-111.111111111111,4,2,1,65,0,0
43663,-111.111111111111,4,2,1,55,0,0
49087,-100,4,2,1,50,0,0
50443,-125,4,2,1,50,0,0
53833,-100,4,2,1,50,0,0
54511,-111.111111111111,4,2,1,40,0,0
56545,-111.111111111111,4,2,1,40,0,0
57901,-111.111111111111,4,2,1,50,0,0
59765,-100,4,2,1,50,0,0
59766,-100,4,2,1,70,0,0
59935,-100,4,2,1,70,0,0
64680,-100,4,2,1,50,0,0
65018,-100,4,2,1,5,0,0
65019,-100,4,2,1,5,0,0
65189,-100,4,2,1,40,0,0
65358,-100,4,2,1,80,0,1
86968,-100,4,2,1,80,0,0
87053,-100,4,2,1,80,0,1
101799,-100,4,2,1,80,0,1
103324,-100,4,2,1,70,0,1
108409,-100,4,2,1,70,0,1
108748,-100,4,2,1,75,0,0
114172,-100,4,2,1,70,0,0
116884,-100,4,2,1,75,0,0
119596,-111.111111111111,4,2,1,65,0,0
141290,-111.111111111111,4,2,1,55,0,0
146036,-111.111111111111,4,2,1,70,0,0
146290,-100,4,2,1,70,0,0
146714,-125,4,2,1,50,0,0
151290,-111.111111111111,4,2,1,50,0,0
152138,-111.111111111111,4,2,1,60,0,0
157392,-100,4,2,1,70,0,0
162307,-100,4,2,1,50,0,0
162561,-100,4,2,1,50,0,0
162562,-100,4,2,1,5,0,0
162645,-100,4,2,1,5,0,0
162646,-100,4,2,1,40,0,0
162901,-100,4,2,1,40,0,0
162985,-100,4,2,1,80,0,1
182052,-100,4,2,1,80,0,1
182138,-100,4,2,1,80,0,1
182222,-100,4,2,1,80,0,1
182306,-100,4,2,1,80,0,1
182307,-100,4,2,1,80,0,1
184595,-100,4,2,1,80,0,1
184596,-100,4,2,1,60,0,0
184680,-100,4,2,1,80,0,1
199596,-100,4,2,1,80,0,1
200951,-100,4,2,1,75,0,1
206375,-100,4,2,1,70,0,1
211799,-100,4,2,1,75,0,0
222646,-100,4,2,1,70,0,0
226714,-100,4,2,1,75,0,0
230777,352.941176470588,4,2,1,75,1,0
232188,428.571428571429,4,2,1,70,1,0
232616,461.538461538462,4,2,1,65,1,0
233077,588.235294117647,4,2,1,60,1,0
233677,750,4,2,1,55,1,0
234052,1224.48979591837,4,2,1,50,1,0
234664,338.983050847458,4,2,1,70,1,0

[Colours]
Combo1 : 255,151,151
Combo2 : 255,255,130
Combo3 : 0,118,174
Combo4 : 136,136,255

[HitObjects]
28,339,274,6,0,L|184:327,1,151.199995385742,2|2,0:2|0:2,0:2:0:0:
224,245,1290,1,0,0:2:0:0:
142,202,1629,2,0,P|115:159|162:70,1,151.199995385742,2|2,0:2|0:2,0:2:0:0:
241,39,2646,1,0,0:2:0:0:
295,112,2985,6,0,L|449:120,1,151.199995385742,2|2,0:2|0:2,0:2:0:0:
502,194,4002,1,0,0:0:0:0:
451,271,4341,2,0,L|297:263,1,151.199995385742,2|2,0:2|0:2,0:2:0:0:
241,190,5358,1,2,0:2:0:0:
282,107,5697,6,0,P|242:72|147:93,1,151.199995385742,2|2,0:2|0:2,0:2:0:0:
100,168,6714,1,0,0:2:0:0:
143,248,7053,2,0,B|223:223|211:282|294:259,1,151.199995385742,2|2,0:2|0:2,0:2:0:0:
335,179,8070,1,0,0:2:0:0:
297,94,8409,6,0,L|218:108,1,75.5999976928712,2|0,0:2|0:0,0:2:0:0:
160,176,9087,2,0,L|80:162,1,75.5999976928712,2|0,0:2|0:0,0:0:0:0:
19,228,9765,2,0,P|6:276|22:306,1,75.5999976928712,2|0,0:2|0:0,0:2:0:0:
79,366,10443,2,0,P|127:379|157:363,1,75.5999976928712,2|0,0:2|0:0,0:0:0:0:
183,281,11121,6,0,B|246:291|246:291|262:311|262:311|331:321,1,151.199995385742,2|2,0:2|0:2,0:2:0:0:
403,271,12138,1,2,0:2:0:0:
375,183,12477,2,0,P|319:192|276:111,1,151.199995385742
333,46,13494,1,2,0:2:0:0:
417,83,13833,6,0,L|407:175,1,75.5999976928712,2|0,0:2|0:0,0:2:0:0:
340,221,14511,2,0,L|350:313,1,75.5999976928712,2|0,0:2|0:0,0:2:0:0:
285,366,15189,2,0,P|244:375|203:354,1,75.5999976928712,2|0,0:0|0:0,0:0:0:0:
170,280,15867,1,2,0:0:0:0:
216,200,16206,1,2,0:0:0:0:
154,132,16545,6,0,L|1:156,1,151.199995385742,2|2,0:2|0:2,0:2:0:0:
8,291,17901,2,0,P|57:271|112:308,1,113.399996539307,2|2,0:2|0:2,0:2:0:0:
150,379,18748,2,0,L|197:369,1,37.7999988464356,0|2,0:2|0:2,0:0:0:0:
278,351,19257,6,0,L|261:181,1,151.199995385742,2|2,0:2|0:2,0:2:0:0:
411,72,20612,2,0,L|424:186,1,113.399996539307,2|8,0:2|0:3,0:2:0:0:
428,225,21290,1,0,3:2:0:0:
357,273,21629,1,4,0:3:0:0:
268,254,21968,6,0,L|298:133,1,97.1999970336915,4|0,3:2|3:2,0:2:0:0:
235,91,22646,2,0,P|173:76|122:107,1,97.1999970336915,2|2,3:2|3:2,0:2:0:0:
103,107,23155,2,0,L|135:262,1,145.799995550537,2|2,0:2|3:2,0:0:0:0:
145,292,23833,1,2,0:2:0:0:
226,257,24172,1,2,0:2:0:0:
244,343,24511,6,0,P|287:363|334:354,1,97.1999970336915,2|2,0:2|0:2,0:0:0:0:
362,320,25019,1,2,3:2:0:0:
397,240,25358,2,0,L|380:112,1,97.1999970336915,0|0,3:2|3:2,0:2:0:0:
305,105,26036,2,0,L|204:119,2,97.1999970336915,0|0|0,3:2|3:2|3:2,0:2:0:0:
356,33,27053,1,2,3:2:0:0:
442,49,27392,6,0,P|470:102|453:144,1,97.1999970336915,0|0,3:2|3:2,0:2:0:0:
407,206,28070,2,0,L|304:199,1,97.1999970336915,2|2,3:2|3:2,0:2:0:0:
265,191,28579,2,0,P|202:230|207:305,1,145.799995550537,2|0,0:2|3:2,0:0:0:0:
237,321,29257,1,2,0:2:0:0:
163,369,29596,1,2,0:2:0:0:
87,323,29935,5,2,0:2:0:0:
87,323,30104,2,0,L|110:194,1,97.1999970336915,0|2,3:2|3:2,0:2:0:0:
52,155,30782,2,0,L|0:165,2,48.5999985168458,0|0|0,3:2|0:2|3:2,0:2:0:0:
106,85,31460,2,0,L|224:105,1,97.1999970336915,0|0,3:2|3:2,0:0:0:0:
246,110,31968,1,8,0:2:0:0:
332,124,32307,1,8,0:2:0:0:
332,124,32477,1,0,3:2:0:0:
419,132,32816,6,0,P|438:189|418:232,1,97.1999970336915,4|0,3:2|3:2,0:2:0:0:
352,270,33494,2,0,L|226:249,1,97.1999970336915,2|2,3:2|3:2,0:2:0:0:
203,245,34002,2,0,P|242:184|222:105,1,145.799995550537,2|2,0:2|3:2,0:0:0:0:
195,87,34680,2,0,L|195:28,1,48.5999985168458,2|0,0:2|3:2,0:0:0:0:
96,25,35189,1,2,3:2:0:0:
27,79,35528,6,0,L|40:194,1,97.1999970336915,2|2,3:2|3:2,0:2:0:0:
51,217,36036,2,0,L|29:327,1,97.1999970336915,2|0,0:2|0:2,0:0:0:0:
48,354,36545,1,2,3:2:0:0:
48,354,36714,2,0,P|99:366|144:327,1,97.1999970336915,2|0,0:2|0:0,0:0:0:0:
162,261,37392,1,8,0:3:0:0:
243,310,37731,1,4,0:3:0:0:
243,310,37901,1,2,3:2:0:0:
314,259,38240,6,0,L|434:273,1,97.1999970336915,6|0,3:2|3:2,0:2:0:0:
450,251,38748,1,2,0:2:0:0:
450,251,38918,2,0,B|470:206|470:206|445:149,1,97.1999970336915,2|0,3:2|3:2,0:2:0:0:
417,80,39596,2,0,L|310:99,1,97.1999970336915,2|2,3:2|3:2,0:2:0:0:
290,66,40104,1,2,0:2:0:0:
222,121,40443,1,2,0:2:0:0:
222,121,40612,2,0,L|240:195,1,48.5999985168458,2|2,0:2|0:2,0:0:0:0:
240,211,40951,6,0,P|193:247|138:238,1,97.1999970336915,0|0,3:2|3:2,0:2:0:0:
77,205,41629,2,0,L|85:84,1,97.1999970336915,0|8,3:2|0:2,0:0:0:0:
143,42,42307,5,12,0:2:0:0:
216,91,42646,1,8,0:2:0:0:
300,69,42985,2,0,L|353:58,1,48.5999985168458,8|4,0:3|0:3,0:0:0:0:
391,49,43324,1,2,3:2:0:0:
465,95,43663,6,0,P|482:156|448:206,1,97.1999970336915,6|0,3:2|3:2,0:2:0:0:
412,252,44341,2,0,L|295:241,1,97.1999970336915,10|2,0:2|0:2,0:2:0:0:
272,227,44850,1,0,3:2:0:0:
272,227,45019,2,0,L|200:240,2,48.5999985168458,2|8|0,3:2|0:2|0:2,0:0:0:0:
318,152,45697,2,0,P|318:90|288:66,1,97.1999970336915,10|2,0:2|0:2,0:2:0:0:
210,41,46375,6,0,B|180:44|166:61|166:61|146:53|99:56,1,97.1999970336915,2|2,3:2|0:2,0:2:0:0:
37,91,47053,2,0,P|18:143|38:190,1,97.1999970336915,10|2,0:2|0:2,0:2:0:0:
118,192,47731,2,0,L|180:181,1,48.5999985168458,6|8,3:2|0:2,0:0:0:0:
209,173,48070,1,0,3:2:0:0:
274,229,48409,2,0,L|264:291,1,48.5999985168458,2|0,3:2|3:2,0:0:0:0:
225,294,48748,2,0,L|232:342,1,48.5999985168458,8|4,0:3|0:3,0:0:0:0:
262,380,49087,5,6,0:2:0:0:
389,232,49765,1,2,0:2:0:0:
257,152,50443,6,0,L|435:121,1,172.8,6|0,3:2|0:0,0:2:0:0:
489,187,51460,1,0,0:2:0:0:
456,267,51799,2,0,B|389:284|389:284|366:310|366:310|265:335,1,172.8,4|2,3:2|0:2,0:2:0:0:
224,298,52816,1,0,0:0:0:0:
155,258,53155,2,0,L|173:108,2,129.6,4|0|8,3:2|3:2|0:3,0:0:0:0:
76,296,54511,5,4,0:2:0:0:
170,51,55528,1,0,0:0:0:0:
94,94,55867,2,0,L|120:215,2,97.1999970336915,2|0|2,0:2|0:0|0:2,0:0:0:0:
158,34,56884,1,2,0:2:0:0:
220,94,57223,6,0,P|283:117|323:96,1,97.1999970336915,2|0,3:2|0:0,0:0:0:0:
384,64,57901,2,0,L|401:184,1,97.1999970336915,2|2,0:2|0:2,0:2:0:0:
403,247,58579,1,2,0:2:0:0:
315,245,58918,1,2,0:2:0:0:
256,310,59257,2,0,P|187:343|137:332,1,97.1999970336915,2|2,0:2|3:2,0:0:0:0:
88,285,59935,6,0,B|108:231|108:231|80:169,1,108,4|8,0:2|0:2,0:2:0:0:
52,150,60443,1,8,0:2:0:0:
65,52,60782,1,8,0:2:0:0:
65,52,60951,2,0,L|137:68,1,54,8|8,0:2|0:2,0:0:0:0:
167,63,61290,6,0,L|280:57,1,108,8|8,0:2|0:2,0:0:0:0:
348,122,61968,2,0,L|402:123,2,54,8|8|8,0:2|0:2|0:2,0:0:0:0:
317,160,62477,1,2,3:3:0:0:
69,351,64680,1,2,0:2:0:0:
251,280,65358,6,0,L|395:296,1,108,6|8,3:2|0:2,0:2:0:0:
406,298,65867,1,2,0:2:0:0:
406,298,66036,2,0,P|460:264|463:209,1,108,2|8,3:2|0:2,0:2:0:0:
432,132,66714,2,0,P|361:120|317:167,1,108,2|8,3:2|0:2,0:2:0:0:
298,171,67223,1,2,0:2:0:0:
298,171,67392,2,0,L|224:160,2,54,2|0|8,3:2|3:2|0:2,0:0:0:0:
369,237,68070,6,0,P|374:290|344:334,1,108,4|8,3:2|0:2,0:2:0:0:
296,342,68579,1,2,0:2:0:0:
296,342,68748,2,0,L|175:324,1,108,2|8,3:2|0:2,0:2:0:0:
97,293,69426,6,0,L|112:173,1,108,4|10,3:2|0:2,0:2:0:0:
204,158,70104,2,0,L|195:23,1,108,2|10,3:2|0:2,0:2:0:0:
198,1,70612,1,8,0:2:0:0:
198,1,70782,6,0,B|245:10|245:10|263:26|263:26|314:38,1,108,6|8,3:2|0:2,0:2:0:0:
346,29,71290,1,2,0:2:0:0:
346,29,71460,2,0,P|393:68|396:121,1,108,2|8,3:2|0:2,0:2:0:0:
377,207,72138,2,0,L|262:188,1,108,2|8,3:2|0:2,0:2:0:0:
237,225,72646,1,2,0:2:0:0:
237,225,72816,2,0,L|247:294,2,54,2|0|8,3:2|3:2|0:2,0:0:0:0:
141,203,73494,6,0,P|130:136|159:94,1,108,6|8,3:2|0:2,0:2:0:0:
186,73,74002,1,2,0:2:0:0:
186,73,74172,2,0,L|310:99,1,108,2|8,3:2|0:2,0:2:0:0:
387,113,74850,6,0,L|364:240,1,108,6|14,3:2|0:2,0:2:0:0:
270,216,75528,2,0,L|293:344,1,108,2|10,3:2|0:2,0:0:0:0:
298,370,76036,1,10,0:2:0:0:
298,370,76206,6,0,B|358:359|330:325|434:319,1,108,4|8,3:2|0:2,0:2:0:0:
441,238,76884,2,0,B|414:189|414:189|441:120,1,108,0|10,3:2|0:2,0:2:0:0:
454,96,77392,1,2,0:2:0:0:
454,96,77562,2,0,L|510:95,2,54,0|0|8,3:2|3:2|0:2,0:2:0:0:
383,28,78240,1,0,3:2:0:0:
289,46,78579,2,0,L|209:35,1,54,10|2,0:2|0:2,0:0:0:0:
186,41,78918,6,0,P|150:92|164:147,1,108,2|10,3:2|0:2,0:2:0:0:
191,167,79426,1,10,0:2:0:0:
282,200,79765,2,0,L|263:265,1,54,2|10,3:2|0:2,0:0:0:0:
248,297,80104,2,0,L|130:291,1,108,0|2,0:2|3:2,0:0:0:0:
89,289,80612,1,10,0:2:0:0:
53,197,80951,2,0,L|-15:202,2,54,0|0|10,3:2|0:2|0:2,0:0:0:0:
105,114,81629,6,0,L|239:134,1,108,6|10,3:2|0:2,0:2:0:0:
259,115,82138,1,0,0:2:0:0:
349,76,82477,1,0,3:2:0:0:
430,130,82816,2,0,P|457:192|378:271,1,162,2|10,0:2|0:2,0:0:0:0:
359,254,83494,1,2,0:2:0:0:
280,312,83833,1,2,3:2:0:0:
190,274,84172,5,2,3:2:0:0:
190,274,84342,2,0,L|200:166,1,108,4|10,3:2|0:2,0:0:0:0:
203,117,84850,1,2,3:2:0:0:
130,51,85189,2,0,L|51:60,1,54,2|10,3:2|0:2,0:0:0:0:
28,68,85528,2,0,P|-6:113|8:169,1,108,6|2,3:2|3:2,0:2:0:0:
41,190,86036,1,10,0:2:0:0:
104,264,86375,1,8,0:2:0:0:
66,354,86714,2,0,L|152:348,1,54,10|8,0:2|0:2,0:2:0:0:
165,331,87053,6,0,L|285:346,1,108,6|8,3:2|0:2,0:2:0:0:
317,324,87562,1,2,0:2:0:0:
317,324,87731,2,0,L|442:306,1,108,2|8,3:2|0:2,0:2:0:0:
470,222,88409,2,0,P|453:167|383:135,1,108,2|8,3:2|0:2,0:2:0:0:
365,147,88918,1,2,0:2:0:0:
365,147,89087,2,0,L|303:160,2,54,2|0|8,3:2|3:2|0:2,0:0:0:0:
384,51,89765,6,0,L|261:75,1,108,0|8,3:2|0:2,0:2:0:0:
229,67,90274,1,2,0:2:0:0:
229,67,90443,2,0,L|118:54,1,108,2|8,3:2|0:2,0:2:0:0:
41,109,91121,6,0,P|24:159|37:211,1,108,4|10,3:2|0:2,0:2:0:0:
122,259,91799,2,0,L|228:241,1,108,2|10,3:2|0:2,0:2:0:0:
258,148,92477,6,0,B|307:123|307:123|379:141,1,108,6|8,3:2|0:2,0:2:0:0:
393,170,92985,1,2,0:2:0:0:
393,170,93155,2,0,L|395:289,1,108,2|8,3:2|0:2,0:2:0:0:
323,344,93833,2,0,B|255:346|281:305|191:319,1,108,2|8,3:2|0:2,0:2:0:0:
173,328,94341,1,2,0:2:0:0:
173,328,94511,2,0,L|176:381,2,54,2|0|8,3:2|3:2|0:2,0:0:0:0:
82,290,95189,6,0,B|61:238|61:238|84:191,1,108,2|8,3:2|0:2,0:2:0:0:
125,166,95697,1,2,0:2:0:0:
125,166,95867,2,0,L|245:175,1,108,2|8,3:2|0:2,0:2:0:0:
328,189,96545,6,0,L|339:122,1,54,6|0,3:2|3:2,0:0:0:0:
345,87,96884,1,10,0:2:0:0:
279,15,97223,1,0,3:2:0:0:
189,53,97562,1,8,0:2:0:0:
98,17,97901,6,0,P|38:1|-13:31,1,108,4|10,3:2|0:2,0:2:0:0:
0,116,98579,2,0,L|16:242,1,108,0|8,3:2|0:2,0:2:0:0:
110,233,99257,2,0,B|95:298|95:298|76:319|76:319|52:417,2,162,2|2|10,3:2|0:2|0:2,0:2:0:0:
188,175,100612,2,0,P|261:184|281:242,1,108,2|8,3:2|0:2,0:2:0:0:
280,305,101290,2,0,L|409:287,1,108,0|10,3:2|0:2,0:2:0:0:
446,213,101968,5,6,3:2:0:0:
426,117,102307,1,6,3:2:0:0:
357,48,102646,2,0,L|245:25,1,108,6|8,3:2|0:2,0:2:0:0:
153,26,103324,6,0,B|143:123|201:70|196:178,1,162,6|0,3:2|3:2,0:2:0:0:
171,217,104002,1,8,0:2:0:0:
133,306,104341,2,0,L|60:289,2,54,2|0|0,0:2|3:2|3:2,0:0:0:0:
167,343,104850,1,8,0:2:0:0:
259,314,105189,1,0,3:2:0:0:
259,314,105358,2,0,L|376:286,1,108,10|0,0:2|0:0,0:0:0:0:
457,260,106036,5,6,3:2:0:0:
457,260,106206,2,0,P|485:209|432:123,1,162,8|12,0:2|0:2,0:0:0:0:
350,84,107053,1,0,3:2:0:0:
252,83,107392,2,0,L|133:73,1,108,8|8,0:2|0:2,0:0:0:0:
109,108,107901,2,0,P|100:176|173:213,1,108,8|8,0:2|0:2,0:0:0:0:
170,218,108409,1,8,0:2:0:0:
263,243,108748,6,0,L|387:237,1,108,4|8,3:2|0:2,0:2:0:0:
467,223,109426,2,0,L|479:162,2,54,0|0|8,3:2|3:2|0:2,0:2:0:0:
509,310,110104,2,0,P|451:334|390:303,1,108,0|8,3:2|0:2,0:2:0:0:
315,367,110782,2,0,L|207:362,1,108,0|8,3:2|0:2,0:0:0:0:
127,305,111460,6,0,B|134:242|134:242|152:219|152:219|160:125,1,162,4|8,3:2|0:2,0:2:0:0:
197,121,112138,2,0,L|189:36,2,81,2|2|2,3:2|0:2|0:2,0:0:0:0:
241,140,112816,1,4,3:2:0:0:
293,221,113155,1,8,0:2:0:0:
281,315,113494,2,0,L|218:304,2,54,0|0|4,3:2|3:2|0:2,0:2:0:0:
371,351,114172,6,0,L|477:331,1,108,4|8,3:2|0:2,0:2:0:0:
506,238,114850,2,0,B|520:183|520:183|491:121,1,108,0|8,3:2|0:2,0:2:0:0:
405,106,115528,2,0,L|284:112,1,108,0|8,3:2|0:2,0:2:0:0:
210,66,116206,2,0,L|132:73,1,54,8|8,0:2|0:2,0:0:0:0:
115,44,116545,2,0,L|61:40,1,54,8|8,0:2|0:2,0:2:0:0:
15,57,116884,6,0,P|-3:109|23:168,1,108,12|0,0:2|3:2,0:0:0:0:
103,193,117562,2,0,L|115:245,2,54,8|8|8,0:2|0:2|0:2,0:0:0:0:
187,143,118240,1,8,0:2:0:0:
187,143,118409,1,8,0:2:0:0:
194,288,118918,1,8,0:2:0:0:
194,288,119088,1,8,0:2:0:0:
53,186,119596,6,0,P|6:238|5:284,1,97.1999970336915,4|0,3:2|3:2,0:2:0:0:
61,328,120274,2,0,L|189:322,1,97.1999970336915,2|2,3:2|3:2,0:2:0:0:
200,309,120782,2,0,P|223:234|171:179,1,145.799995550537,2|2,0:2|3:2,0:0:0:0:
143,168,121460,1,2,0:2:0:0:
90,97,121799,1,2,0:2:0:0:
151,34,122138,6,0,L|247:44,1,97.1999970336915,10|2,0:2|0:2,0:0:0:0:
292,48,122645,1,2,3:2:0:0:
359,103,122985,2,0,P|378:161|360:206,1,97.1999970336915,0|2,3:2|3:2,0:2:0:0:
289,232,123663,2,0,P|262:285|277:327,1,97.1999970336915,0|0,3:2|3:2,0:2:0:0:
310,342,124172,1,8,0:3:0:0:
398,335,124511,1,0,0:2:0:0:
398,335,124680,1,0,3:2:0:0:
485,324,125019,6,0,L|468:197,1,97.1999970336915,4|0,3:2|3:2,0:2:0:0:
425,152,125697,2,0,L|436:39,1,97.1999970336915,0|2,3:2|3:2,0:2:0:0:
414,14,126206,2,0,B|340:-7|340:-7|256:33,1,145.799995550537,2|0,0:2|3:2,0:0:0:0:
247,54,126884,1,10,0:2:0:0:
163,26,127223,1,10,0:2:0:0:
96,84,127562,5,2,3:2:0:0:
96,84,127731,2,0,L|118:194,1,97.1999970336915,0|0,3:2|3:2,0:2:0:0:
131,266,128409,2,0,P|191:288|241:263,1,97.1999970336915,0|0,3:2|3:2,0:2:0:0:
270,205,129087,2,0,L|258:101,1,97.1999970336915,4|0,3:2|3:2,0:2:0:0:
301,31,129765,2,0,L|365:45,2,48.5999985168458,0|8|8,3:2|0:2|0:2,0:0:0:0:
261,9,130274,1,8,0:2:0:0:
261,9,130443,6,0,P|199:18|168:51,1,97.1999970336915,4|8,3:2|0:2,0:2:0:0:
126,113,131121,2,0,L|156:222,1,97.1999970336915,2|8,3:2|0:2,0:2:0:0:
163,249,131629,2,0,P|107:295|33:285,1,145.799995550537,2|10,0:2|0:2,0:0:0:0:
2,261,132307,2,0,L|10:151,1,97.1999970336915,2|0,0:2|3:2,0:2:0:0:
83,112,132985,5,2,0:2:0:0:
83,112,133155,1,2,3:2:0:0:
155,162,133494,1,10,0:2:0:0:
155,162,133663,2,0,L|259:150,1,97.1999970336915,2|2,0:2|3:2,0:2:0:0:
295,148,134172,1,10,0:2:0:0:
348,77,134511,2,0,L|335:21,2,48.5999985168458,0|0|8,3:2|3:2|0:2,0:0:0:0:
385,100,135019,2,0,L|386:226,1,97.1999970336915,2|0,0:2|3:2,0:2:0:0:
385,241,135528,1,8,0:2:0:0:
363,326,135867,6,0,B|305:325|305:325|276:310|276:310|208:309,1,145.799995550537,2|2,3:2|0:2,0:2:0:0:
176,314,136545,1,0,3:2:0:0:
112,252,136884,1,8,0:2:0:0:
150,173,137223,2,0,L|263:176,1,97.1999970336915,2|10,3:2|0:2,0:0:0:0:
281,147,137731,2,0,P|299:88|276:53,1,97.1999970336915,2|2,0:2|3:2,0:2:0:0:
247,33,138240,1,10,0:2:0:0:
159,21,138579,6,0,L|41:31,1,97.1999970336915,6|8,3:2|0:2,0:2:0:0:
7,99,139257,1,0,3:2:0:0:
72,158,139596,1,8,0:2:0:0:
26,232,139935,2,0,P|15:291|42:321,1,97.1999970336915,4|8,3:2|0:2,0:0:0:0:
117,354,140612,1,2,3:2:0:0:
177,289,140951,2,0,L|266:276,1,48.5999985168458,2|0,3:2|0:2,0:2:0:0:
267,270,141290,6,0,L|251:152,1,97.1999970336915,6|0,3:2|0:0,0:0:0:0:
310,106,141968,2,0,P|369:76|422:97,1,97.1999970336915,10|2,0:2|0:2,0:2:0:0:
437,100,142477,1,0,3:2:0:0:
437,100,142646,2,0,L|512:90,2,48.5999985168458,2|8|0,3:2|0:2|0:2,0:0:0:0:
401,181,143324,2,0,L|419:285,1,97.1999970336915,10|2,0:2|0:2,0:2:0:0:
353,337,144002,6,0,B|307:333|307:333|292:341|292:341|248:340,1,97.1999970336915,2|0,3:2|0:2,0:2:0:0:
189,284,144680,2,0,L|211:176,1,97.1999970336915,10|2,0:2|0:2,0:2:0:0:
160,114,145358,2,0,L|90:118,1,48.5999985168458,6|8,3:2|0:2,0:0:0:0:
66,116,145697,1,0,3:2:0:0:
66,203,146036,2,0,P|29:223|-21:214,2,72.8999977752686,10|8|8,0:2|0:2|0:0,0:0:0:0:
91,244,146714,5,2,0:0:0:0:
200,353,147392,1,2,0:0:0:0:
340,285,148070,2,0,P|441:273|471:196,1,172.8,2|2,0:2|0:2,0:2:0:0:
441,144,149087,1,2,0:2:0:0:
378,98,149426,2,0,B|285:100|321:164|202:169,1,172.8,2|2,0:2|0:2,0:2:0:0:
152,137,150443,1,2,0:2:0:0:
134,61,150782,2,0,L|272:51,2,129.6,2|8|8,0:2|0:0|0:3,0:0:0:0:
57,101,152138,5,4,0:3:0:0:
92,181,152477,1,0,3:2:0:0:
57,261,152816,2,0,P|110:286|160:266,1,97.1999970336915,0|2,3:2|3:2,0:2:0:0:
175,244,153324,1,2,0:2:0:0:
175,244,153494,2,0,P|223:224|276:238,1,97.1999970336915,0|0,3:2|3:2,0:2:0:0:
350,254,154172,2,0,L|334:320,2,48.5999985168458,0|0|2,3:2|0:2|3:2,0:2:0:0:
379,220,154680,1,2,0:2:0:0:
379,220,154850,6,0,L|367:94,1,97.1999970336915,0|0,3:2|3:2,0:2:0:0:
344,39,155528,2,0,P|301:21|241:37,1,97.1999970336915,0|0,3:2|3:2,0:2:0:0:
205,103,156206,2,0,L|228:207,1,97.1999970336915,0|0,3:2|3:2,0:2:0:0:
189,277,156884,2,0,P|129:301|78:284,1,97.1999970336915,0|8,3:2|0:2,0:0:0:0:
34,222,157562,6,0,L|51:112,1,108,0|0,3:2|3:2,0:0:0:0:
54,66,158070,1,8,0:2:0:0:
132,7,158409,1,0,3:2:0:0:
132,7,158579,2,0,L|195:26,1,54,10|2,0:2|3:2,0:0:0:0:
233,28,158918,6,0,P|257:75|234:129,1,108,8|8,0:2|0:2,0:0:0:0:
182,203,159596,2,0,L|125:195,2,54,8|8|8,0:2|0:2|0:2,0:0:0:0:
215,239,160104,1,8,0:2:0:0:
504,70,162307,1,2,0:2:0:0:
311,30,162985,6,0,B|337:79|337:79|314:137,1,108,6|8,3:2|0:2,0:2:0:0:
282,161,163494,1,2,0:2:0:0:
282,161,163663,2,0,L|163:151,1,108,2|8,3:2|0:2,0:2:0:0:
77,142,164341,2,0,P|53:198|72:250,1,108,2|8,3:2|0:2,0:2:0:0:
101,273,164850,1,2,0:2:0:0:
101,273,165019,2,0,L|107:332,2,54,2|0|8,3:2|3:2|0:2,0:0:0:0:
198,276,165697,6,0,L|191:163,1,108,0|8,3:2|0:2,0:2:0:0:
194,123,166206,1,2,0:2:0:0:
194,123,166375,2,0,P|251:96|305:114,1,108,2|8,3:2|0:2,0:2:0:0:
336,192,167053,6,0,L|326:311,1,108,4|10,3:2|0:2,0:2:0:0:
397,367,167731,2,0,P|458:382|499:356,1,108,2|10,3:2|0:2,0:2:0:0:
486,318,168240,1,8,0:2:0:0:
486,318,168409,6,0,B|480:259|517:277|505:204,1,108,6|8,3:2|0:2,0:2:0:0:
489,168,168918,1,2,0:2:0:0:
489,168,169087,2,0,L|467:49,1,108,2|8,3:2|0:2,0:2:0:0:
383,16,169765,2,0,B|338:-7|338:-7|274:18,1,108,2|8,3:2|0:2,0:2:0:0:
267,59,170274,1,2,0:2:0:0:
267,59,170443,2,0,L|276:125,2,54,2|0|8,3:2|3:2|0:2,0:0:0:0:
169,24,171121,6,0,L|44:14,1,108,2|8,3:2|0:2,0:2:0:0:
19,39,171629,1,2,0:2:0:0:
19,39,171799,2,0,P|38:98|13:144,1,108,2|8,3:2|0:2,0:2:0:0:
90,188,172477,6,0,L|214:181,1,108,6|14,3:2|0:2,0:2:0:0:
307,158,173155,2,0,P|284:109|304:59,1,108,2|10,3:2|0:2,0:0:0:0:
347,41,173663,1,10,0:2:0:0:
347,41,173833,6,0,L|200:12,1,108,4|8,3:2|0:2,0:2:0:0:
153,65,174511,2,0,P|128:128|148:171,1,108,0|10,3:2|0:2,0:2:0:0:
187,177,175019,1,2,0:2:0:0:
187,177,175189,2,0,L|252:161,2,54,0|0|8,3:2|3:2|0:2,0:2:0:0:
216,268,175867,1,0,3:2:0:0:
118,254,176206,2,0,L|59:248,1,54,10|2,0:2|0:2,0:0:0:0:
14,246,176545,6,0,B|-6:301|-6:301|16:356,1,108,2|10,3:2|0:2,0:2:0:0:
53,373,177053,1,10,0:2:0:0:
147,346,177392,2,0,L|215:334,1,54,2|10,3:2|0:2,0:0:0:0:
244,313,177731,2,0,L|375:330,1,108,0|2,0:2|3:2,0:0:0:0:
396,307,178240,1,10,0:2:0:0:
465,238,178579,2,0,P|474:174|445:135,1,108,0|10,3:2|0:2,0:0:0:0:
362,98,179257,6,0,L|242:127,1,108,6|10,3:2|0:2,0:2:0:0:
209,135,179765,1,0,0:2:0:0:
116,101,180104,1,0,3:2:0:0:
36,158,180443,2,0,P|17:220|77:302,1,162,2|10,0:2|0:2,0:0:0:0:
116,300,181121,1,2,0:2:0:0:
212,280,181460,1,2,3:2:0:0:
305,253,181799,5,2,3:2:0:0:
305,253,181968,2,0,L|280:119,1,108,6|10,3:2|0:2,0:0:0:0:
307,102,182477,1,2,3:2:0:0:
386,45,182816,2,0,L|448:51,1,54,2|10,3:2|0:2,0:0:0:0:
488,57,183155,2,0,P|510:112|486:152,1,108,6|2,3:2|3:2,0:2:0:0:
439,165,183663,1,10,0:2:0:0:
371,235,184002,1,8,0:2:0:0:
430,313,184341,2,0,L|372:329,1,54,10|8,0:2|0:2,0:2:0:0:
334,352,184680,6,0,L|205:327,1,108,6|8,3:2|0:2,0:2:0:0:
181,315,185189,1,2,0:2:0:0:
181,315,185358,2,0,P|166:240|196:204,1,108,2|8,3:2|0:2,0:2:0:0:
275,196,186036,2,0,L|274:64,1,108,2|8,3:2|0:2,0:2:0:0:
243,49,186545,1,2,0:2:0:0:
243,49,186714,2,0,L|178:33,2,54,2|0|8,3:2|3:2|0:2,0:0:0:0:
328,2,187392,6,0,P|394:-6|436:24,1,108,0|8,3:2|0:2,0:2:0:0:
449,58,187901,1,2,0:2:0:0:
449,58,188070,2,0,L|436:177,1,108,2|8,3:2|0:2,0:2:0:0:
409,258,188748,6,0,B|364:244|364:244|349:250|349:250|298:234,1,108,4|10,3:2|0:2,0:2:0:0:
209,242,189426,2,0,P|191:319|211:354,1,108,2|10,3:2|0:2,0:2:0:0:
230,382,189935,1,8,0:2:0:0:
230,382,190104,6,0,L|106:365,1,108,6|8,3:2|0:2,0:2:0:0:
75,356,190612,1,2,0:2:0:0:
75,356,190782,2,0,B|55:303|55:303|87:238,1,108,2|8,3:2|0:2,0:2:0:0:
136,178,191460,2,0,L|261:187,1,108,2|8,3:2|0:2,0:2:0:0:
286,209,191968,1,2,0:2:0:0:
286,209,192138,2,0,L|277:272,2,54,2|0|8,3:2|3:2|0:2,0:0:0:0:
361,147,192816,6,0,P|381:90|355:51,1,108,2|8,3:2|0:2,0:2:0:0:
310,41,193324,1,2,0:2:0:0:
310,41,193494,2,0,L|182:53,1,108,2|8,3:2|0:2,0:2:0:0:
105,55,194172,2,0,L|126:120,1,54,6|0,3:2|3:2,0:0:0:0:
134,153,194511,1,10,0:2:0:0:
162,245,194850,1,0,3:2:0:0:
103,322,195189,1,8,0:2:0:0:
186,376,195528,6,0,B|256:368|220:333|320:323,1,108,4|10,3:2|0:2,0:2:0:0:
359,270,196206,2,0,L|343:147,1,108,0|8,3:2|0:2,0:2:0:0:
279,89,196884,2,0,B|218:81|218:81|189:54|189:54|83:38,2,162,2|2|10,3:2|0:2|0:2,0:2:0:0:
364,39,198240,5,2,3:2:0:0:
442,97,198579,1,8,0:2:0:0:
413,190,198918,2,0,P|381:238|384:309,1,108,0|10,3:2|0:2,0:2:0:0:
310,359,199596,5,6,3:2:0:0:
216,332,199935,1,6,3:2:0:0:
123,298,200274,2,0,L|13:271,1,108,6|8,3:2|0:2,0:2:0:0:
9,175,200951,6,0,P|33:119|90:93,1,108,6|0,3:2|3:2,0:2:0:0:
165,128,201629,2,0,L|288:181,1,108,0|0,3:2|3:2,0:2:0:0:
313,169,202138,1,2,0:2:0:0:
313,169,202307,2,0,P|349:121|345:63,1,108,2|0,3:2|3:2,0:2:0:0:
283,2,202985,1,10,0:2:0:0:
210,66,203324,2,0,L|143:64,1,54,2|8,0:2|0:2,0:0:0:0:
110,80,203663,6,0,B|80:127|80:127|97:188,1,108,4|0,3:2|3:2,3:2:0:0:
169,240,204341,2,0,L|294:229,1,108,0|2,3:2|3:2,0:2:0:0:
374,216,205019,1,6,3:2:0:0:
453,273,205358,2,0,L|444:336,1,54,8|0,0:2|0:0,0:0:0:0:
434,374,205697,1,10,0:2:0:0:
342,339,206036,2,0,P|315:325|270:331,1,54,8|0,0:3|0:0,0:0:0:0:
251,351,206375,6,0,B|194:352|194:352|168:325|168:325|65:323,1,162,6|0,3:2|0:2,0:2:0:0:
56,299,207053,1,8,0:2:0:0:
91,207,207392,2,0,L|156:202,2,54,0|2|2,0:2|3:2|3:2,0:0:0:0:
53,175,207901,1,8,0:2:0:0:
21,82,208240,1,0,3:2:0:0:
21,82,208409,2,0,P|66:48|119:53,1,108,10|0,0:2|0:0,0:0:0:0:
185,121,209087,5,2,3:2:0:0:
260,59,209426,2,0,L|339:59,1,54,0|0,3:2|3:2,0:0:0:0:
340,101,209765,2,0,L|411:110,2,54,8|8|10,0:2|0:2|0:2,0:0:0:0:
270,171,210443,2,0,P|237:220|252:274,1,108,2|2,3:2|3:2,0:0:0:0:
281,297,210951,2,0,L|410:293,1,108,10|10,0:2|0:2,0:0:0:0:
439,297,211460,1,10,0:2:0:0:
490,213,211799,6,0,B|503:158|503:158|473:81,1,108,4|8,3:2|0:2,0:2:0:0:
398,61,212477,2,0,L|406:-1,2,54,0|0|8,3:2|3:2|0:2,0:2:0:0:
322,124,213155,2,0,L|191:115,1,108,0|8,3:2|0:2,0:2:0:0:
115,115,213833,2,0,P|86:172|104:226,1,108,0|8,3:2|0:2,0:0:0:0:
174,270,214511,6,0,B|272:266|219:219|359:217,1,162,4|8,3:2|0:2,0:2:0:0:
365,245,215189,2,0,L|373:318,2,54,0|0|8,3:2|3:2|0:2,0:0:0:0:
429,172,215867,1,4,3:2:0:0:
386,83,216206,1,0,3:2:0:0:
288,70,216545,2,0,L|168:96,1,108,4|8,0:2|0:2,0:2:0:0:
119,168,217223,6,0,P|176:204|177:255,1,108,4|8,3:2|0:2,0:2:0:0:
111,309,217901,2,0,L|124:370,2,54,0|0|8,3:2|0:2|0:2,0:2:0:0:
19,272,218579,2,0,L|39:131,1,108,0|8,3:2|0:2,0:2:0:0:
59,69,219257,2,0,B|110:46|110:46|173:73,1,108,2|8,3:2|0:2,0:0:0:0:
223,141,219935,6,0,L|198:256,1,108,0|8,3:2|0:2,0:2:0:0:
223,289,220443,1,0,0:0:0:0:
223,289,220612,1,0,3:2:0:0:
285,363,220951,1,8,0:2:0:0:
372,319,221290,2,0,P|395:264|366:216,1,108,4|8,3:2|0:2,0:0:0:0:
297,163,221968,1,0,3:2:0:0:
280,66,222307,1,8,0:3:0:0:
357,5,222646,6,0,L|490:19,1,108,4|0,3:2|0:2,0:2:0:0:
508,104,223324,2,0,L|498:161,1,54,8|0,0:2|3:2,0:2:0:0:
400,162,223833,1,0,3:2:0:0:
400,162,224002,2,0,B|347:162|347:162|330:171|330:171|282:171,1,108,8|0,0:2|0:0,0:0:0:0:
256,153,224511,2,0,L|188:136,1,54,0|12,3:2|0:2,0:0:0:0:
114,100,225019,2,0,L|46:114,1,54,2|0,0:2|3:2,0:2:0:0:
20,138,225358,6,0,P|1:193|29:239,1,108,12|0,0:2|0:2,0:2:0:0:
100,294,226036,2,0,L|80:356,2,54,10|2|2,0:2|3:2|0:2,0:0:0:0:
160,216,226714,5,12,0:2:0:0:
252,185,227053,1,12,0:2:0:0:
338,229,227392,2,0,L|343:341,1,108,8|8,0:2|0:2,0:0:0:0:
438,360,228070,6,0,L|445:220,1,108,6|0,3:2|3:2,0:0:0:0:
480,161,228748,2,0,L|466:83,1,54,2|0,3:2|3:2,0:0:0:0:
463,58,229087,1,2,3:2:0:0:
364,54,229426,2,0,L|369:-11,2,54,0|2|0,3:2|3:2|3:2,0:0:0:0:
294,123,230104,1,2,3:2:0:0:
211,71,230443,1,2,3:2:0:0:
128,117,230777,6,0,L|144:239,1,108,6|2,3:2|3:2,0:0:0:0:
160,320,231482,2,0,B|113:346|113:346|55:333,1,108,8|8,0:2|0:2,0:0:0:0:
18,262,232188,6,0,L|31:134,1,108,8|8,0:2|0:2,0:0:0:0:
43,75,233077,2,0,L|173:91,1,108,8|0,0:3|0:0,0:0:0:0:
230,99,234052,1,6,0:3:0:0:
405,109,234664,5,4,0:2:0:0:
256,192,234833,12,8,238901,0:2:0:0:
