osu file format v14

[General]
AudioFilename: audio.mp3
AudioLeadIn: 0
PreviewTime: 162218
Countdown: 0
SampleSet: Soft
StackLeniency: 0.7
Mode: 0
LetterboxInBreaks: 0
WidescreenStoryboard: 1

[Editor]
Bookmarks: 269,21963,43658,65353,87048,108743,119591,141285,162980,184675,200946,211794,238901
DistanceSpacing: 1.3
BeatDivisor: 4
GridSize: 32
TimelineZoom: 1

[Metadata]
Title:Yoake no Bell ga Naru
TitleUnicode:夜明けのベルが鳴る
Artist:Yasuda Mizuho
ArtistUnicode:安田みずほ
Creator:Kowari
Version:Hard
Source:彼女のセイイキ
Tags:silky kanau mamayu fuyuyu- feng kanojo no seiiki ending eroge visual novel japanese video game
BeatmapID:2201713
BeatmapSetID:1036799

[Difficulty]
HPDrainRate:5
CircleSize:4
OverallDifficulty:6
ApproachRate:7.6
SliderMultiplier:1.35
SliderTickRate:1

[Events]
//Background and Video events
0,0,"BG3.jpg",0,0
//Break Periods
//Storyboard Layer 0 (Background)
//Storyboard Layer 1 (Fail)
//Storyboard Layer 2 (Pass)
//Storyboard Layer 3 (Foreground)
//Storyboard Layer 4 (Overlay)
//Storyboard Sound Samples

[TimingPoints]
274,338.983050847458,4,2,1,35,1,0
274,-200,4,2,1,35,0,0
21290,-133.333333333333,4,2,1,45,0,0
21968,-111.111111111111,4,2,1,65,0,0
43663,-133.333333333333,4,2,1,55,0,0
49087,-133.333333333333,4,2,1,50,0,0
53833,-133.333333333333,4,2,1,50,0,0
54511,-133.333333333333,4,2,1,40,0,0
56545,-181.818181818181,4,2,1,40,0,0
57901,-200,4,2,1,50,0,0
59765,-200,4,2,1,70,0,0
59766,-200,4,2,1,70,0,0
59935,-133.333333333333,4,2,1,70,0,0
64680,-222.222222222222,4,2,1,50,0,0
65018,-400,4,2,1,5,0,0
65019,-400,4,2,1,5,0,0
65189,-400,4,2,1,40,0,0
65358,-100,4,2,1,80,0,1
86968,-100,4,2,1,80,0,0
87053,-100,4,2,1,80,0,1
101799,-90.9090909090909,4,2,1,80,0,1
103324,-111.111111111111,4,2,1,70,0,1
108409,-100,4,2,1,70,0,1
108748,-100,4,2,1,75,0,0
114172,-111.111111111111,4,2,1,70,0,0
116884,-100,4,2,1,75,0,0
119596,-111.111111111111,4,2,1,65,0,0
141290,-133.333333333333,4,2,1,55,0,0
146036,-100,4,2,1,70,0,0
146290,-80,4,2,1,70,0,0
146714,-133.333333333333,4,2,1,50,0,0
151290,-133.333333333333,4,2,1,50,0,0
152138,-133.333333333333,4,2,1,60,0,0
157223,-133.333333333333,4,2,1,70,0,0
162307,-399.999999999997,4,2,1,50,0,0
162561,-133.333333333333,4,2,1,50,0,0
162562,-133.333333333333,4,2,1,5,0,0
162645,-133.333333333333,4,2,1,40,0,0
162646,-133.333333333333,4,2,1,40,0,0
162901,-133.333333333333,4,2,1,40,0,0
162985,-100,4,2,1,80,0,1
184596,-100,4,2,1,60,0,0
184680,-100,4,2,1,80,0,1
199596,-90.9090909090909,4,2,1,80,0,1
200951,-111.111111111111,4,2,1,75,0,1
206375,-111.111111111111,4,2,1,70,0,1
211799,-100,4,2,1,75,0,0
222646,-117.647058823529,4,2,1,70,0,0
226714,-100,4,2,1,75,0,0
230777,352.941176470588,4,2,1,75,1,0
232188,428.571428571429,4,2,1,70,1,0
232616,461.538461538462,4,2,1,65,1,0
233077,588.235294117647,4,2,1,60,1,0
233677,750,4,2,1,55,1,0
234052,1224.48979591837,4,2,1,50,1,0
234664,338.983050847458,4,2,1,70,1,0

[Colours]
Combo1 : 255,151,151
Combo2 : 255,255,130
Combo3 : 0,118,174
Combo4 : 136,136,255

[HitObjects]
480,65,274,6,0,P|436:105|358:82,1,135,2|2,0:2|0:2,0:2:0:0:
300,33,1290,1,0,0:2:0:0:
235,92,1629,2,0,P|245:131|251:162,1,67.5,2|0,0:2|0:2,0:2:0:0:
314,217,2307,2,0,P|308:251|296:297,1,67.5,2|0,0:2|0:2,0:2:0:0:
226,331,2985,6,0,B|186:300|186:300|148:302|103:331,1,135,2|2,0:2|0:2,0:2:0:0:
7,183,4341,2,0,P|46:162|119:214,1,135,2|2,0:2|0:2,0:2:0:0:
149,286,5358,1,2,0:2:0:0:
220,235,5697,6,0,P|274:225|356:212,1,135,2|2,0:2|0:2,0:2:0:0:
433,249,6714,1,0,0:2:0:0:
481,176,7053,2,0,P|468:138|460:104,1,67.5,2|0,0:2|0:2,0:2:0:0:
464,23,7731,2,0,P|427:15|394:14,1,67.5,2|0,0:2|0:2,0:2:0:0:
346,85,8409,6,0,B|302:103|302:103|268:101|217:66,1,135,2|2,0:2|0:2,0:2:0:0:
47,51,9765,2,0,B|73:116|73:116|70:153|46:180,1,135,2|2,0:2|0:2,0:2:0:0:
100,247,10782,1,0,0:0:0:0:
180,211,11121,6,0,P|168:166|162:134,1,67.5,2|0,0:2|0:2,0:2:0:0:
226,83,11799,2,0,P|262:112|341:109,1,101.25,2|2,0:2|0:2,0:2:0:0:
345,95,12477,1,0,0:0:0:0:
390,167,12816,1,2,0:2:0:0:
390,167,12985,2,0,P|373:210|355:273,1,101.25,2|2,0:2|0:2,0:2:0:0:
361,350,13833,5,2,0:2:0:0:
249,214,14511,1,2,0:2:0:0:
187,378,15189,1,2,0:0:0:0:
361,350,15867,1,2,0:0:0:0:
284,307,16206,1,2,0:0:0:0:
215,361,16545,6,0,B|174:374|174:374|125:367|117:340,1,101.25,2|0,0:2|0:2,0:2:0:0:
97,314,17223,2,0,B|114:286|121:264|121:264|104:209,1,101.25,2|0,0:2|0:2,0:2:0:0:
81,184,17901,1,2,0:2:0:0:
122,106,18240,1,0,0:2:0:0:
122,106,18409,2,0,P|152:102|198:93,1,67.5,2|0,0:2|0:2,0:2:0:0:
230,80,18918,1,2,0:2:0:0:
297,136,19257,6,0,P|282:178|276:204,1,67.5,2|0,0:2|0:2,0:2:0:0:
211,258,19935,2,0,P|218:288|236:337,1,67.5,2|0,0:2|0:2,0:2:0:0:
286,383,20612,2,0,P|325:366|355:358,1,67.5,2|0,0:2|0:2,0:2:0:0:
392,367,21121,1,8,0:3:0:0:
392,367,21290,1,0,3:2:0:0:
364,253,21629,1,4,0:3:0:0:
472,138,21968,6,0,P|405:149|344:157,1,121.499996292114,4|0,3:2|3:2,0:2:0:0:
205,96,22646,2,0,P|214:52|221:21,1,60.7499981460572,2|0,3:2|0:2,0:2:0:0:
139,21,22985,2,0,P|130:65|123:96,1,60.7499981460572,2|2,3:2|0:2,0:0:0:0:
64,129,23324,6,0,P|26:149|17:226,1,121.499996292114,0|2,3:2|3:2,0:2:0:0:
59,287,23833,2,0,P|99:278|124:274,1,60.7499981460572,2|0,0:2|3:2,0:2:0:0:
176,221,24172,2,0,P|212:232|241:246,1,60.7499981460572,2|0,0:2|3:2,0:2:0:0:
278,306,24511,1,2,0:2:0:0:
340,258,24680,6,0,P|333:218|328:187,1,60.7499981460572,0|2,3:2|0:2,0:2:0:0:
372,131,25019,2,0,B|407:102|407:102|441:105|478:140,1,121.499996292114,2|0,3:2|3:2,0:2:0:0:
501,210,25528,1,0,0:2:0:0:
501,210,25697,2,0,P|492:246|486:276,1,60.7499981460572,0|0,3:2|0:2,0:2:0:0:
445,336,26036,6,0,B|367:318|367:318|358:300|370:275,1,121.499996292114,0|0,3:2|3:2,0:2:0:0:
303,231,26545,1,0,0:2:0:0:
303,231,26714,2,0,P|265:240|236:250,1,60.7499981460572,0|0,3:2|0:2,0:0:0:0:
200,312,27053,2,0,P|161:334|139:351,1,60.7499981460572,2|8,3:2|0:2,0:0:0:0:
104,338,27308,5,8,0:2:0:0:
104,338,27392,2,0,P|96:295|78:207,1,121.499996292114,0|0,3:2|3:2,0:2:0:0:
75,139,27901,1,2,0:2:0:0:
123,76,28070,2,0,P|159:89|183:101,1,60.7499981460572,2|0,3:2|0:2,0:2:0:0:
240,148,28409,2,0,P|274:131|300:123,1,60.7499981460572,2|2,3:2|0:2,0:0:0:0:
341,59,28748,6,0,B|366:73|375:98|375:98|453:104,1,121.499996292114,0|0,3:2|3:2,0:2:0:0:
488,169,29257,2,0,P|475:221|471:240,1,60.7499981460572,2|0,0:2|3:2,0:2:0:0:
420,286,29596,2,0,P|447:331|458:348,1,60.7499981460572,2|0,0:2|3:2,0:2:0:0:
383,378,29935,1,2,0:2:0:0:
383,378,30104,6,0,P|341:344|261:358,1,121.499996292114,0|2,3:2|3:2,0:2:0:0:
213,299,30612,1,0,0:0:0:0:
213,299,30782,2,0,P|225:253|232:233,1,60.7499981460572,0|0,3:2|0:2,0:2:0:0:
203,165,31121,2,0,P|236:131|252:117,1,60.7499981460572,0|0,3:2|0:2,0:2:0:0:
218,48,31460,6,0,P|146:33|93:21,1,121.499996292114,0|0,3:2|3:2,0:0:0:0:
36,71,31968,2,0,P|44:113|45:138,1,60.7499981460572,8|0,0:2|3:2,0:2:0:0:
100,188,32307,1,8,0:2:0:0:
100,188,32477,2,0,P|92:226|80:256,1,60.7499981460572,0|8,3:2|0:3,0:0:0:0:
34,308,32816,6,0,B|74:332|74:332|116:334|153:297,1,121.499996292114,4|0,3:2|3:2,0:2:0:0:
264,205,33494,2,0,P|253:302|250:345,1,121.499996292114,2|2,3:2|3:2,0:2:0:0:
317,369,34002,1,2,0:2:0:0:
374,314,34172,6,0,P|411:306|443:302,1,60.7499981460572,2|0,3:2|0:2,0:2:0:0:
475,235,34511,2,0,P|438:227|406:223,1,60.7499981460572,2|2,3:2|0:2,0:0:0:0:
359,167,34850,2,0,P|347:127|399:62,1,121.499996292114,0|2,3:2|3:2,0:2:0:0:
322,22,35358,1,8,0:2:0:0:
322,22,35528,6,0,P|275:14|255:9,1,60.7499981460572,2|0,3:2|0:0,0:2:0:0:
200,59,35867,2,0,P|163:28|148:14,1,60.7499981460572,2|2,3:2|0:2,0:0:0:0:
158,137,36206,2,0,P|201:101|272:126,1,121.499996292114,0|2,3:2|3:2,0:2:0:0:
298,184,36714,1,2,0:2:0:0:
298,184,36884,6,0,P|283:223|273:255,1,60.7499981460572,0|0,3:2|0:0,0:2:0:0:
256,317,37223,1,0,3:2:0:0:
209,380,37392,2,0,B|181:361|178:333|178:333|105:319,1,121.499996292114,8|4,0:3|0:3,0:0:0:0:
53,271,37901,2,0,P|71:238|83:212,1,60.7499981460572,2|0,3:2|0:2,0:2:0:0:
58,140,38240,6,0,B|99:113|99:113|136:118|163:162,1,121.499996292114,6|0,3:2|3:2,0:2:0:0:
189,225,38748,1,2,0:2:0:0:
189,225,38918,2,0,P|239:212|262:208,1,60.7499981460572,2|0,3:2|0:2,0:2:0:0:
303,154,39257,2,0,P|352:167|374:175,1,60.7499981460572,0|2,3:2|0:2,0:2:0:0:
435,143,39596,6,0,P|456:107|420:39,1,121.499996292114,2|2,3:2|3:2,0:2:0:0:
348,14,40104,2,0,P|312:25|281:32,1,60.7499981460572,2|0,0:2|3:2,0:2:0:0:
211,15,40443,1,2,0:2:0:0:
211,15,40612,2,0,P|212:54|223:77,1,60.7499981460572,2|2,0:2|0:2,0:0:0:0:
291,109,40951,6,0,B|267:148|267:148|235:158|189:144,1,121.499996292114,0|0,3:2|3:2,0:2:0:0:
119,112,41460,1,0,0:2:0:0:
119,112,41629,2,0,P|97:149|88:172,1,60.7499981460572,0|0,3:2|0:2,0:0:0:0:
23,207,41968,2,0,P|26:245|34:277,1,60.7499981460572,8|0,0:2|3:2,0:0:0:0:
56,297,42223,1,8,0:2:0:0:
56,297,42307,6,0,P|96:286|126:282,1,60.7499981460572,12|8,0:2|0:2,0:0:0:0:
184,321,42646,1,8,0:2:0:0:
184,321,42816,1,8,0:2:0:0:
245,272,42985,2,0,P|226:226|220:205,1,60.7499981460572,8|4,0:3|0:3,0:0:0:0:
215,136,43324,1,2,3:2:0:0:
215,136,43663,6,0,B|270:123|270:123|280:99|301:80,1,101.250003862381,6|0,3:2|3:2,0:2:0:0:
294,86,44172,1,0,0:2:0:0:
371,62,44341,2,0,P|397:78|422:143,1,101.250003862381,10|2,0:2|0:2,0:2:0:0:
390,208,44850,1,0,3:2:0:0:
390,208,45019,6,0,P|351:202|331:199,1,50.6250019311906,2|8,3:2|0:2,0:0:0:0:
319,275,45358,2,0,P|344:278|369:282,1,50.6250019311906,0|0,0:2|3:2,0:0:0:0:
396,350,45697,1,10,0:2:0:0:
267,379,46036,2,0,P|259:350|246:328,1,50.6250019311906,2|0,0:2|3:2,0:0:0:0:
189,289,46375,6,0,P|128:301|80:308,1,101.250003862381,2|2,3:2|0:2,0:2:0:0:
89,306,46884,1,0,3:2:0:0:
35,257,47053,2,0,P|46:222|50:200,1,50.6250019311906,10|0,0:2|0:0,0:2:0:0:
99,149,47392,2,0,P|91:113|83:92,1,50.6250019311906,2|0,0:2|3:2,0:0:0:0:
115,29,47731,5,6,3:2:0:0:
115,29,47901,2,0,P|152:7|220:16,1,101.250003862381,8|0,0:2|3:2,0:0:0:0:
231,34,48324,1,0,3:2:0:0:
231,34,48409,2,0,P|220:64|210:93,1,50.6250019311906,2|0,3:2|3:2,0:0:0:0:
265,146,48748,2,0,P|270:177|276:207,1,50.6250019311906,8|4,0:3|0:3,0:0:0:0:
325,252,49087,5,6,0:2:0:0:
446,18,49765,1,2,0:2:0:0:
495,162,50443,2,0,B|458:121|409:111|409:111|352:147,2,151.875005793572,6|2|0,3:2|0:2|0:2,0:2:0:0:
383,232,51799,2,0,B|329:247|293:208|293:208|234:190|188:257,2,202.500007724762,4|2|4,3:2|0:2|3:2,0:2:0:0:
120,250,53833,6,0,P|108:293|93:329,2,67.5000025749207,8|8|8,0:2|0:2|0:3,0:0:0:0:
70,176,54511,5,4,0:2:0:0:
405,308,55867,1,2,0:2:0:0:
285,156,56545,6,0,P|275:215|273:238,1,74.2500022659302,2|2,0:2|0:2,0:2:0:0:
308,319,57223,1,2,3:2:0:0:
462,235,57901,2,0,P|418:225|381:219,1,67.5,2|2,0:2|0:2,0:2:0:0:
365,138,58579,2,0,P|321:151|286:164,1,67.5,2|2,0:2|0:2,0:2:0:0:
217,129,59257,2,0,P|228:89|236:52,1,67.5,2|2,0:2|3:2,0:0:0:0:
176,11,59765,5,0,3:2:0:0:
176,11,59850,1,0,3:2:0:0:
176,11,59935,2,0,P|139:20|113:26,1,50.6250019311906,4|0,0:2|0:2,0:2:0:0:
66,73,60274,2,0,P|82:106|91:132,1,50.6250019311906,8|8,0:2|0:2,0:0:0:0:
141,174,60612,2,0,P|128:208|116:233,1,50.6250019311906,8|8,0:2|0:2,0:0:0:0:
136,299,60951,2,0,P|166:309|192:321,1,50.6250019311906,8|8,0:2|0:2,0:0:0:0:
248,270,61290,6,0,P|245:238|243:211,1,50.6250019311906,8|8,0:2|0:2,0:0:0:0:
318,210,61629,2,0,P|320:241|323:269,1,50.6250019311906,8|8,0:2|0:2,0:0:0:0:
379,315,61968,5,8,0:2:0:0:
449,287,62138,1,8,0:2:0:0:
477,216,62307,1,8,0:2:0:0:
445,148,62477,1,2,3:3:0:0:
335,22,64680,6,0,L|329:91,1,60.7499981460572,2|0,0:2|0:2,0:2:0:0:
329,82,65358,6,0,B|253:77|283:123|181:110,1,135,6|8,3:2|0:2,0:2:0:0:
114,91,65867,1,2,0:2:0:0:
114,91,66036,2,0,P|121:130|124:163,1,67.5,2|0,3:2|3:2,0:2:0:0:
176,227,66375,2,0,P|164:259|150:290,1,67.5,8|2,0:2|0:2,0:0:0:0:
199,363,66714,5,2,3:2:0:0:
254,295,66884,2,0,P|314:265|379:279,1,135,0|2,3:2|0:2,0:0:0:0:
466,293,67392,2,0,L|455:363,1,67.5,2|0,3:2|3:2,0:0:0:0:
378,278,67731,2,0,L|388:211,1,67.5,8|2,0:2|0:2,0:0:0:0:
359,130,68070,6,0,B|282:109|282:109|252:124|251:158,1,135,4|8,3:2|0:2,0:2:0:0:
263,239,68579,1,10,0:2:0:0:
263,239,68663,1,8,0:2:0:0:
263,239,68748,2,0,P|208:245|176:249,1,67.5,2|0,3:2|3:2,0:2:0:0:
117,286,69087,2,0,P|129:332|136:361,1,67.5,8|2,0:2|0:2,0:0:0:0:
43,245,69426,6,0,L|65:108,1,135,4|10,3:2|0:2,0:2:0:0:
203,3,70104,2,0,P|243:17|271:27,1,67.5,2|0,3:2|3:2,0:2:0:0:
354,19,70443,1,10,0:2:0:0:
401,92,70612,1,8,0:2:0:0:
401,92,70697,1,8,0:2:0:0:
401,92,70782,6,0,B|370:138|370:138|335:120|281:130,1,135,6|8,3:2|0:2,0:2:0:0:
240,199,71290,1,2,0:2:0:0:
240,199,71460,2,0,P|249:251|254:281,1,67.5,2|0,3:2|3:2,0:2:0:0:
337,282,71799,2,0,P|328:230|323:200,1,67.5,8|2,0:2|0:2,0:0:0:0:
397,165,72138,6,0,P|454:186|466:271,1,135,2|8,3:2|0:2,0:2:0:0:
429,329,72646,1,10,0:2:0:0:
429,329,72731,1,8,0:2:0:0:
429,329,72816,2,0,P|368:314|342:310,1,67.5,2|0,3:2|3:2,0:0:0:0:
296,256,73155,2,0,P|235:273|211:283,1,67.5,8|0,0:2|0:2,0:0:0:0:
167,335,73494,6,0,B|137:315|134:277|134:277|177:191,1,135,6|8,3:2|0:2,0:2:0:0:
142,132,74002,1,10,0:2:0:0:
142,132,74087,1,8,0:2:0:0:
142,132,74172,2,0,P|87:122|57:120,1,67.5,2|0,3:2|0:2,0:2:0:0:
21,190,74511,2,0,P|54:194|87:201,1,67.5,8|2,0:2|0:2,0:0:0:0:
165,240,74850,6,0,P|201:257|217:304,1,67.5,6|0,3:2|3:2,0:2:0:0:
247,361,75189,1,14,0:2:0:0:
322,315,75358,1,0,3:2:0:0:
322,315,75528,2,0,P|311:270|305:237,1,67.5,2|8,3:2|0:2,0:0:0:0:
341,168,75867,1,10,0:2:0:0:
287,98,76036,5,10,0:2:0:0:
287,98,76121,1,8,0:2:0:0:
287,98,76206,2,0,B|214:95|214:95|180:80|201:27,2,135,4|8|0,3:2|0:2|3:2,0:2:0:0:
352,39,77053,1,0,3:2:0:0:
427,84,77223,2,0,P|412:136|404:169,1,67.5,10|2,0:2|0:2,0:0:0:0:
457,222,77562,5,0,3:2:0:0:
457,222,77731,1,0,3:2:0:0:
393,283,77901,2,0,B|350:276|323:259|323:259|271:271|257:295,1,135,8|0,0:2|3:2,0:2:0:0:
193,329,78409,1,0,3:2:0:0:
193,329,78579,2,0,P|181:275|174:245,1,67.5,10|2,0:2|0:2,0:0:0:0:
131,188,78918,6,0,B|95:208|87:239|87:239|56:214|-5:224,1,135,2|10,3:2|0:2,0:2:0:0:
19,133,79426,1,10,0:2:0:0:
19,133,79596,2,0,P|25:93|28:66,1,67.5,0|2,3:2|3:2,0:0:0:0:
94,8,79935,1,10,0:2:0:0:
94,8,80104,2,0,P|124:49|157:47,1,67.5,0|0,0:2|3:2,0:0:0:0:
218,18,80443,5,2,3:2:0:0:
218,18,80612,2,0,L|191:182,1,135,10|0,0:2|3:2,0:2:0:0:
233,231,81121,1,0,0:2:0:0:
233,231,81290,2,0,P|274:214|305:207,1,67.5,10|0,0:2|0:2,0:2:0:0:
382,247,81629,6,0,B|399:218|383:181|383:181|426:154|411:100,1,135,6|10,3:2|0:2,0:2:0:0:
330,101,82138,2,0,P|267:93|245:91,1,67.5,0|0,0:2|3:2,0:2:0:0:
282,5,82477,2,0,P|345:13|367:15,1,67.5,0|8,3:2|0:2,0:0:0:0:
436,0,82816,1,2,0:2:0:0:
477,71,82985,6,0,B|439:147|439:147|467:176|459:216,1,135,2|10,3:2|0:2,0:2:0:0:
420,270,83494,2,0,P|379:258|334:252,1,67.5,2|0,0:2|3:2,0:2:0:0:
301,324,83833,2,0,P|250:334|217:345,1,67.5,2|8,3:2|0:2,0:2:0:0:
148,260,84172,5,2,3:2:0:0:
148,260,84257,1,0,3:2:0:0:
148,260,84341,2,0,P|160:216|170:175,1,67.5,4|2,3:2|3:2,0:0:0:0:
116,121,84680,1,10,0:2:0:0:
28,132,84850,2,0,B|37:175|64:192|64:192|45:278,1,135,2|2,3:2|3:2,0:0:0:0:
31,339,85358,1,10,0:2:0:0:
106,383,85528,6,0,P|175:364|240:352,1,135,6|2,3:2|3:2,0:2:0:0:
309,301,86036,2,0,P|302:235|301:220,1,67.5,10|2,0:2|3:2,0:0:0:0:
222,194,86375,2,0,P|219:160|214:126,1,67.5,8|8,0:2|0:2,0:0:0:0:
251,54,86714,2,0,L|242:6,3,33.75,10|8|8|8,0:2|0:2|0:2|0:2,0:2:0:0:
286,82,87053,6,0,B|328:79|346:53|346:53|383:50|416:73,1,135,6|8,3:2|0:2,0:2:0:0:
457,142,87562,1,10,0:2:0:0:
457,142,87646,1,8,0:2:0:0:
457,142,87731,2,0,P|442:185|434:220,1,67.5,2|0,3:2|3:2,0:2:0:0:
351,227,88070,2,0,P|359:271|370:306,1,67.5,8|2,0:2|0:2,0:0:0:0:
312,363,88409,5,2,3:2:0:0:
260,291,88579,2,0,B|231:250|172:259|172:259|160:310,1,135,0|2,3:2|0:2,0:0:0:0:
92,344,89087,2,0,P|37:333|5:326,1,67.5,2|0,3:2|3:2,0:0:0:0:
28,242,89426,2,0,P|61:248|94:255,1,67.5,8|2,0:2|0:2,0:0:0:0:
164,201,89765,6,0,B|150:129|150:129|160:93|204:82,1,135,0|8,3:2|0:2,0:2:0:0:
268,129,90274,1,10,0:2:0:0:
268,129,90358,1,8,0:2:0:0:
268,129,90443,2,0,P|322:136|344:140,1,67.5,2|0,3:2|3:2,0:2:0:0:
403,83,90782,2,0,P|395:29|393:6,1,67.5,8|2,0:2|0:2,0:0:0:0:
480,116,91122,6,0,B|459:189|459:189|487:202|501:255,1,135,4|10,3:2|0:2,0:2:0:0:
382,369,91799,2,0,P|325:353|297:346,1,67.5,2|0,3:2|3:2,0:2:0:0:
232,376,92138,1,10,0:2:0:0:
175,309,92307,5,8,0:2:0:0:
175,309,92392,1,8,0:2:0:0:
175,309,92477,2,0,B|203:279|249:290|249:290|260:257|300:242,1,135,6|8,3:2|0:2,0:2:0:0:
309,165,92985,1,2,0:2:0:0:
241,108,93155,2,0,P|183:117|149:119,1,67.5,2|0,3:2|3:2,0:2:0:0:
96,76,93494,2,0,P|108:22|110:0,1,67.5,8|2,0:2|0:2,0:0:0:0:
18,105,93834,6,0,P|74:128|66:217,1,135,2|8,3:2|0:2,0:2:0:0:
28,264,94341,1,2,0:2:0:0:
93,322,94511,2,0,P|155:308|183:305,1,67.5,2|0,3:2|3:2,0:0:0:0:
200,230,94850,2,0,P|260:248|286:260,1,67.5,8|0,0:2|0:2,0:0:0:0:
324,314,95189,6,0,P|306:211|300:153,1,135,2|8,3:2|0:2,0:2:0:0:
361,115,95697,1,10,0:2:0:0:
361,115,95782,1,8,0:2:0:0:
361,115,95867,2,0,P|396:125|431:114,1,67.5,2|0,3:2|0:2,0:2:0:0:
429,29,96206,2,0,P|394:19|359:30,1,67.5,8|2,0:2|0:2,0:2:0:0:
291,75,96545,5,6,3:2:0:0:
291,75,96714,1,0,3:2:0:0:
213,33,96884,2,0,B|128:22|168:63|75:55,1,135,10|0,0:2|3:2,0:2:0:0:
31,126,97392,2,0,L|37:167,2,33.75,8|8|8,0:2|0:2|0:2,0:0:0:0:
90,224,97731,5,8,0:2:0:0:
90,224,97816,1,8,0:2:0:0:
90,224,97901,2,0,B|134:225|148:187|148:187|178:163|217:182,2,135,4|10|0,3:2|0:2|3:2,0:2:0:0:
52,303,98748,1,0,0:0:0:0:
52,303,98918,2,0,P|97:316|134:330,1,67.5,8|0,0:2|0:2,0:0:0:0:
196,287,99257,6,0,P|206:332|304:344,1,135,2|8,3:2|0:2,0:2:0:0:
317,275,99765,1,2,0:2:0:0:
317,275,99935,2,0,P|312:217|305:125,1,135,2|10,3:2|0:2,0:2:0:0:
447,36,100612,6,0,B|465:66|496:74|496:74|485:119|486:165,1,135,2|8,3:2|0:2,0:2:0:0:
430,213,101121,1,0,0:2:0:0:
430,213,101290,2,0,P|376:200|357:198,1,67.5,0|0,3:2|0:2,0:2:0:0:
289,151,101629,1,10,0:2:0:0:
220,219,101799,5,8,0:2:0:0:
220,219,101884,1,8,0:2:0:0:
220,219,101968,2,0,B|204:298|204:298|213:332|266:338,2,148.50000453186,6|6|6,3:2|3:2|3:2,0:2:0:0:
118,54,102985,1,8,0:2:0:0:
118,54,103324,6,0,B|192:49|168:84|238:77,1,121.499996292114,6|0,3:2|0:2,0:2:0:0:
292,22,103833,1,0,3:2:0:0:
292,22,104002,1,8,0:2:0:0:
393,142,104341,2,0,P|382:180|377:207,1,60.7499981460572,2|0,0:2|3:2,0:0:0:0:
432,258,104680,5,0,3:2:0:0:
432,258,104850,1,8,0:2:0:0:
363,296,105019,2,0,P|317:287|294:284,1,60.7499981460572,0|0,0:2|3:2,0:2:0:0:
254,222,105358,1,10,0:2:0:0:
194,274,105528,2,0,P|206:323|148:368,1,121.499996292114,0|0,3:2|0:2,0:2:0:0:
91,324,106036,5,6,3:2:0:0:
91,324,106206,2,0,P|95:288|99:253,1,60.7499981460572,8|0,0:2|0:2,0:0:0:0:
70,189,106545,1,0,3:2:0:0:
137,147,106714,2,0,B|195:172|195:172|222:160|252:163,1,121.499996292114,12|0,0:2|3:2,0:2:0:0:
208,327,107392,5,8,0:2:0:0:
236,256,107562,1,8,0:2:0:0:
309,240,107731,1,8,0:2:0:0:
360,300,107901,1,8,0:2:0:0:
360,300,108070,6,0,P|353:338|347:363,1,60.7499981460572,8|8,0:2|0:2,0:0:0:0:
437,364,108409,2,0,P|441:341|446:322,3,33.75,8|8|8|8,0:2|0:2|0:2|0:2,0:2:0:0:
476,301,108748,6,0,B|486:260|486:260|461:211|404:216,1,135,4|8,3:2|0:2,0:2:0:0:
358,144,109257,2,0,L|395:133,2,33.75,8|8|0,0:2|0:2|3:2,0:0:0:0:
307,215,109596,1,0,3:2:0:0:
307,215,109765,2,0,P|256:205|223:202,1,67.5,8|0,0:2|0:2,0:2:0:0:
194,128,110104,5,0,3:2:0:0:
194,128,110274,1,0,3:2:0:0:
263,74,110443,2,0,P|276:20|283:-1,1,67.5,8|8,0:2|0:2,0:2:0:0:
186,20,110782,2,0,P|124:9|68:59,1,135,0|8,3:2|0:2,0:0:0:0:
34,131,111290,1,0,0:2:0:0:
105,182,111460,6,0,B|92:237|92:237|100:253|100:253|85:320,1,135,4|8,3:2|0:2,0:2:0:0:
162,356,111968,1,8,0:2:0:0:
162,356,112053,1,8,0:2:0:0:
162,356,112138,2,0,L|184:243,2,101.25,2|2|2,3:2|0:2|0:2,0:0:0:0:
247,376,112816,6,0,P|282:349|312:347,1,67.5,4|0,3:2|3:2,0:0:0:0:
366,283,113155,2,0,P|352:226|341:172,1,101.25,8|8,0:2|0:2,0:0:0:0:
374,153,113494,2,0,P|385:110|399:76,1,67.5,0|0,3:2|3:2,0:2:0:0:
448,19,113833,1,4,0:2:0:0:
503,86,114002,5,0,0:0:0:0:
503,86,114087,1,8,0:2:0:0:
503,86,114172,2,0,P|468:106|389:86,2,121.499996292114,4|8|0,3:2|0:2|3:2,0:2:0:0:
383,190,115189,2,0,P|397:245|400:267,1,60.7499981460572,8|0,0:2|0:2,0:0:0:0:
349,312,115528,6,0,B|315:282|277:278|277:278|231:313,1,121.499996292114,0|8,3:2|0:2,0:2:0:0:
171,332,116036,1,0,0:2:0:0:
121,270,116206,2,0,L|131:233,2,30.3749990730286,8|8|8,0:2|0:2|0:2,0:0:0:0:
60,321,116545,2,0,L|66:350,3,30.3749990730286,8|8|8|8,0:2|0:2|0:2|0:2,0:2:0:0:
30,288,116884,6,0,P|38:230|43:212,1,67.5,12|0,0:2|3:2,0:0:0:0:
124,197,117223,2,0,P|132:139|137:121,1,67.5,0|0,3:2|3:2,0:0:0:0:
97,50,117562,5,8,0:2:0:0:
97,50,117731,1,8,0:2:0:0:
173,5,117901,1,8,0:2:0:0:
241,59,118070,6,0,L|230:96,2,33.75,0|0|8,3:2|3:2|0:2,0:0:0:0:
335,0,118409,1,8,0:2:0:0:
429,127,118917,5,8,0:2:0:0:
349,199,119086,1,8,0:2:0:0:
349,199,119596,6,0,B|330:234|330:234|330:282|392:292,1,121.499996292114,4|0,3:2|3:2,0:2:0:0:
233,348,120274,2,0,P|241:289|244:263,1,60.7499981460572,2|0,3:2|0:2,0:2:0:0:
178,239,120612,2,0,P|186:180|189:154,1,60.7499981460572,2|2,3:2|0:2,0:0:0:0:
145,110,120951,2,0,B|110:105|76:99|76:99|47:121|57:151,1,121.499996292114,0|2,3:2|3:2,0:2:0:0:
17,213,121460,1,2,0:2:0:0:
17,213,121629,2,0,P|61:219|91:229,1,60.7499981460572,0|2,3:2|0:2,0:0:0:0:
120,289,121968,2,0,P|107:325|95:360,1,60.7499981460572,0|10,3:2|0:2,0:0:0:0:
120,380,122223,5,8,0:2:0:0:
120,380,122307,2,0,P|176:362|206:358,1,60.7499981460572,2|2,3:2|0:2,0:2:0:0:
224,297,122646,2,0,P|259:333|343:323,1,121.499996292114,2|0,3:2|3:2,0:2:0:0:
367,264,123155,1,0,0:2:0:0:
367,264,123324,2,0,P|357:207|354:189,1,60.7499981460572,2|0,3:2|0:2,0:2:0:0:
282,177,123663,6,0,B|310:140|310:140|292:54,1,121.499996292114,0|0,3:2|3:2,0:2:0:0:
346,5,124172,2,0,P|391:20|421:26,1,60.7499981460572,8|0,0:3|3:2,0:2:0:0:
416,101,124511,1,0,0:2:0:0:
416,101,124680,2,0,P|467:114|487:118,1,60.7499981460572,0|0,3:2|0:2,0:2:0:0:
506,188,125019,6,0,B|436:183|468:233|374:225,1,121.499996292114,4|0,3:2|3:2,0:2:0:0:
324,188,125528,1,2,0:2:0:0:
324,188,125697,2,0,P|335:133|339:108,1,60.7499981460572,0|0,3:2|0:2,0:2:0:0:
259,108,126036,2,0,P|253:137|247:167,1,60.7499981460572,2|2,3:2|0:2,0:0:0:0:
174,198,126375,6,0,P|118:203|85:267,1,121.499996292114,0|0,3:2|3:2,0:2:0:0:
127,322,126884,2,0,P|180:309|205:308,1,60.7499981460572,10|0,0:2|3:2,0:2:0:0:
234,246,127223,2,0,P|286:261|308:272,1,60.7499981460572,10|0,0:2|3:2,0:2:0:0:
356,319,127562,5,2,3:2:0:0:
356,319,127646,1,0,3:2:0:0:
356,319,127731,2,0,P|365:272|368:257,1,60.7499981460572,0|2,3:2|0:2,0:2:0:0:
336,186,128070,2,0,P|336:133|337:108,1,60.7499981460572,0|0,3:2|0:2,0:2:0:0:
285,64,128409,2,0,B|247:41|247:41|202:47|177:104,1,121.499996292114,0|0,3:2|3:2,0:2:0:0:
159,159,128918,5,8,0:2:0:0:
159,159,129002,1,8,0:2:0:0:
159,159,129087,2,0,P|205:164|247:167,1,60.7499981460572,4|0,3:2|0:2,0:2:0:0:
261,232,129426,2,0,P|247:286|244:301,1,60.7499981460572,0|0,3:2|3:2,0:0:0:0:
194,350,129765,1,0,3:2:0:0:
194,350,129935,1,8,0:2:0:0:
127,307,130104,1,8,0:2:0:0:
60,264,130274,5,8,0:2:0:0:
60,264,130358,1,8,0:2:0:0:
60,264,130443,2,0,B|61:204|61:204|71:189|71:189|73:132,1,121.499996292114,4|8,3:2|0:2,0:2:0:0:
174,24,131121,2,0,P|231:32|306:41,1,121.499996292114,2|8,3:2|0:2,0:2:0:0:
342,102,131629,1,2,0:2:0:0:
342,102,131799,6,0,P|322:145|308:172,1,60.7499981460572,0|0,3:2|0:2,0:2:0:0:
242,187,132138,1,10,0:2:0:0:
242,187,132307,2,0,P|246:234|253:266,1,60.7499981460572,2|0,0:2|3:2,0:2:0:0:
304,303,132646,2,0,B|378:307|346:266|436:266,1,121.499996292114,0|2,3:2|0:2,0:2:0:0:
479,218,133155,6,0,B|452:150|452:150|481:88,1,121.499996292114,2|10,3:2|0:2,0:2:0:0:
430,38,133663,2,0,P|376:31|342:26,1,60.7499981460572,2|0,0:2|3:2,0:2:0:0:
298,65,134002,1,2,3:2:0:0:
298,65,134172,2,0,P|306:106|313:140,1,60.7499981460572,10|0,0:2|0:2,0:2:0:0:
246,171,134511,6,0,P|230:212|212:240,1,60.7499981460572,0|0,3:2|3:2,0:0:0:0:
156,271,134850,1,8,0:2:0:0:
102,213,135019,2,0,B|75:191|75:191|21:203|11:247,1,121.499996292114,2|0,0:2|3:2,0:2:0:0:
32,320,135528,1,8,0:2:0:0:
32,320,135867,6,0,B|68:304|97:307|97:307|114:338|158:346,1,121.499996292114,2|8,3:2|0:2,0:2:0:0:
208,304,136375,1,2,0:2:0:0:
208,304,136545,2,0,P|220:243|223:230,1,60.7499981460572,0|0,3:2|3:2,0:2:0:0:
298,255,136884,2,0,P|291:284|286:314,1,60.7499981460572,8|2,0:2|0:2,0:2:0:0:
341,371,137223,6,0,P|415:356|477:344,1,121.499996292114,2|10,3:2|0:2,0:0:0:0:
512,288,137731,2,0,P|479:271|461:240,1,60.7499981460572,2|0,0:2|0:0,0:2:0:0:
453,173,138070,1,2,3:2:0:0:
453,173,138240,2,0,P|497:160|526:151,1,60.7499981460572,10|2,0:2|0:2,0:2:0:0:
397,123,138579,6,0,P|386:93|370:65,1,60.7499981460572,6|0,3:2|0:2,0:2:0:0:
293,54,138918,2,0,P|283:93|219:117,1,91.1249972190858,8|8,0:2|0:2,0:2:0:0:
209,141,139257,2,0,P|188:130|147:119,1,60.7499981460572,0|0,3:2|3:2,0:0:0:0:
78,148,139596,2,0,L|98:248,1,91.1249972190858,8|0,0:2|0:0,0:2:0:0:
88,276,139935,5,4,3:2:0:0:
139,335,140104,1,0,3:2:0:0:
139,335,140274,2,0,P|176:300|236:304,1,91.1249972190858,8|8,0:2|0:2,0:0:0:0:
251,282,140612,2,0,P|287:302|312:303,1,60.7499981460572,2|0,3:2|0:2,0:2:0:0:
370,257,140951,1,2,3:2:0:0:
370,257,141290,6,0,B|394:221|394:221|386:169|354:158,1,101.250003862381,6|0,3:2|0:0,0:0:0:0:
304,134,141799,1,0,3:2:0:0:
304,134,141968,2,0,P|256:140|245:142,1,50.6250019311906,10|0,0:2|0:0,0:2:0:0:
214,75,142307,2,0,P|188:78|163:81,1,50.6250019311906,2|0,0:2|3:2,0:0:0:0:
97,43,142646,5,2,3:2:0:0:
45,103,142816,2,0,P|77:117|103:183,1,101.250003862381,8|0,0:2|3:2,0:2:0:0:
92,205,143240,1,0,0:0:0:0:
92,205,143324,1,10,0:2:0:0:
35,323,143663,1,2,0:2:0:0:
35,323,143833,1,0,3:2:0:0:
91,376,144002,6,0,B|151:370|115:340|199:338,1,101.250003862381,2|0,3:2|0:2,0:2:0:0:
240,288,144511,1,0,3:2:0:0:
240,288,144680,2,0,P|232:246|228:224,1,50.6250019311906,10|0,0:2|0:2,0:2:0:0:
285,185,145019,2,0,P|277:143|273:121,1,50.6250019311906,2|0,0:2|3:2,0:2:0:0:
312,70,145358,5,6,3:2:0:0:
312,70,145528,2,0,P|352:64|397:111,1,101.250003862381,8|0,0:2|3:2,0:0:0:0:
386,134,145951,1,0,3:2:0:0:
386,134,146036,6,0,B|446:113|446:113|461:129|500:135,2,101.25,10|8|8,0:2|0:2|0:0,0:0:0:0:
360,210,146714,5,2,0:0:0:0:
138,351,147392,1,2,0:0:0:0:
43,105,148070,6,0,B|51:143|79:159|79:159|86:207|48:251,1,151.875005793572,2|0,0:2|0:0,0:2:0:0:
96,303,148748,2,0,P|139:286|197:287,1,101.250003862381,2|2,0:2|0:2,0:0:0:0:
295,370,149426,2,0,B|281:310|264:253|264:253|279:200|338:213,1,202.500007724762,2|2,0:2|0:2,0:2:0:0:
433,283,150442,1,2,0:2:0:0:
495,166,150782,2,0,B|474:124|474:124|412:118|381:163,1,151.875005793572,2|8,0:2|0:0,0:0:0:0:
339,226,151460,5,0,0:0:0:0:
277,109,151799,2,0,P|288:68|292:49,1,50.6250019311906,8|0,0:3|0:2,0:2:0:0:
228,15,152138,2,0,B|171:18|199:52|123:49,2,101.250003862381,4|0|0,0:3|3:2|3:2,0:0:0:0:
358,37,153155,2,0,P|402:32|423:29,1,50.6250019311906,2|2,3:2|0:2,0:0:0:0:
469,79,153494,6,0,P|459:138|453:186,1,101.250003862381,0|0,3:2|3:2,0:2:0:0:
400,236,154002,1,0,0:2:0:0:
400,236,154172,2,0,P|351:230|326:227,1,50.6250019311906,0|0,3:2|0:2,0:2:0:0:
290,180,154511,2,0,P|244:199|221:209,1,50.6250019311906,2|2,3:2|0:2,0:2:0:0:
205,270,154850,6,0,B|179:260|170:247|170:247|141:257|105:251,1,101.250003862381,0|0,3:2|3:2,0:2:0:0:
71,191,155358,1,0,0:0:0:0:
71,191,155528,2,0,P|82:149|86:131,1,50.6250019311906,0|0,3:2|0:2,0:2:0:0:
134,86,155867,2,0,P|122:44|116:26,1,50.6250019311906,0|0,3:2|0:2,0:2:0:0:
49,9,156206,6,0,P|30:41|3:118,2,101.250003862381,0|0|0,3:2|3:2|3:2,0:2:0:0:
193,31,157223,2,0,L|203:-4,3,25.3125009655953,8|8|8|8,0:2|0:0|0:2|0:2,0:0:0:0:
160,73,157562,6,0,P|175:117|179:137,1,50.6250019311906,0|0,3:2|3:2,0:0:0:0:
240,163,157901,2,0,P|230:208|224:227,1,50.6250019311906,0|8,3:2|0:2,0:0:0:0:
173,260,158240,2,0,P|129:253|110:249,1,50.6250019311906,0|0,3:2|3:2,0:0:0:0:
79,320,158579,1,10,0:2:0:0:
147,355,158748,1,2,3:2:0:0:
228,375,158918,6,0,P|269:362|294:355,1,50.6250019311906,8|8,0:2|0:2,0:0:0:0:
331,307,159257,2,0,P|311:271|303:254,1,50.6250019311906,8|8,0:2|0:2,0:0:0:0:
333,194,159596,5,8,0:2:0:0:
381,132,159765,1,8,0:2:0:0:
459,126,159935,1,8,0:2:0:0:
512,183,160104,1,8,0:2:0:0:
138,79,162307,6,0,P|123:86|103:91,1,33.75,2|2,0:2|0:2,0:2:0:0:
91,89,162985,6,0,P|140:89|174:169,1,135,6|8,3:2|0:2,0:2:0:0:
120,226,163494,1,10,0:2:0:0:
120,226,163579,1,8,0:2:0:0:
120,226,163663,2,0,P|79:221|44:217,1,67.5,2|0,3:2|3:2,0:2:0:0:
38,304,164002,2,0,P|71:307|105:311,1,67.5,8|2,0:2|0:2,0:0:0:0:
174,373,164341,5,2,3:2:0:0:
234,304,164511,2,0,B|212:264|212:264|231:215|294:214,1,135,0|10,3:2|0:2,0:0:0:0:
317,240,164935,1,8,0:2:0:0:
317,240,165019,2,0,P|344:260|381:268,1,67.5,2|0,3:2|3:2,0:0:0:0:
446,214,165358,1,8,0:2:0:0:
446,214,165528,1,2,0:2:0:0:
412,133,165697,6,0,B|339:142|363:98|276:108,1,135,0|8,3:2|0:2,0:2:0:0:
208,154,166206,1,2,0:2:0:0:
208,154,166375,2,0,P|222:207|227:228,1,67.5,2|0,3:2|3:2,0:2:0:0:
303,259,166714,2,0,P|288:311|282:332,1,67.5,8|2,0:2|0:2,0:0:0:0:
209,370,167053,6,0,B|135:335|135:335|98:356|65:352,1,135,4|10,3:2|0:2,0:2:0:0:
16,296,167562,1,0,0:2:0:0:
16,296,167731,2,0,P|29:245|35:217,1,67.5,2|0,3:2|3:2,0:2:0:0:
112,195,168070,2,0,P|125:144|131:116,1,67.5,10|8,0:2|0:2,0:0:0:0:
104,92,168324,5,8,0:2:0:0:
104,92,168409,2,0,P|136:59|218:88,1,135,6|8,3:2|0:2,0:2:0:0:
252,160,168918,1,2,0:2:0:0:
252,160,169087,2,0,P|237:208|225:233,1,67.5,2|0,3:2|3:2,0:2:0:0:
288,288,169426,2,0,P|348:275|372:270,1,67.5,8|2,0:2|0:2,0:0:0:0:
410,205,169765,6,0,B|389:152|389:152|396:129|396:129|370:72,1,135,2|8,3:2|0:2,0:2:0:0:
296,35,170274,1,10,0:2:0:0:
296,35,170358,1,8,0:2:0:0:
296,35,170443,2,0,P|338:8|360:-4,2,67.5,2|0|8,3:2|3:2|0:2,0:0:0:0:
248,109,170951,1,0,0:2:0:0:
170,68,171121,6,0,B|121:36|82:45|82:45|45:82,1,135,2|8,3:2|0:2,0:2:0:0:
20,156,171629,1,10,0:2:0:0:
20,156,171714,1,8,0:2:0:0:
20,156,171799,2,0,B|36:206|44:236,1,67.5,2|0,3:2|0:2,0:2:0:0:
32,308,172138,1,8,0:2:0:0:
32,308,172307,1,2,0:2:0:0:
99,364,172477,6,0,P|154:349|189:345,1,67.5,6|0,3:2|3:2,0:2:0:0:
158,237,172816,2,0,P|191:243|223:253,1,67.5,14|0,0:2|3:2,0:0:0:0:
281,319,173155,1,2,3:2:0:0:
350,265,173324,2,0,L|338:216,2,33.75,8|8|10,0:2|0:2|0:2,0:0:0:0:
418,319,173663,5,10,0:2:0:0:
418,319,173748,1,8,0:2:0:0:
418,319,173833,2,0,P|432:263|452:167,1,135,4|8,3:2|0:2,0:2:0:0:
397,115,174341,2,0,L|345:129,2,33.75,0|0|0,0:2|0:0|3:2,0:0:0:0:
305,62,174680,1,0,3:2:0:0:
252,132,174850,2,0,P|270:177|278:209,1,67.5,10|2,0:2|0:2,0:0:0:0:
223,266,175189,5,0,3:2:0:0:
223,266,175358,1,0,3:2:0:0:
167,197,175528,2,0,B|134:167|134:167|36:199,1,135,8|0,0:2|3:2,0:2:0:0:
1,120,176036,1,0,3:2:0:0:
1,120,176206,2,0,P|16:87|27:47,1,67.5,10|2,0:2|0:2,0:0:0:0:
93,0,176545,6,0,P|110:45|155:125,1,135,2|10,3:2|0:2,0:2:0:0:
240,122,177053,1,10,0:2:0:0:
240,122,177223,2,0,P|295:108|319:103,1,67.5,0|2,3:2|3:2,0:0:0:0:
356,34,177562,2,0,P|411:20|435:15,1,67.5,10|0,0:2|0:2,0:0:0:0:
492,71,177901,5,0,3:2:0:0:
475,157,178070,1,2,3:2:0:0:
458,246,178240,2,0,P|463:288|467:324,1,67.5,10|0,0:2|0:0,0:2:0:0:
445,352,178494,1,0,0:2:0:0:
445,352,178579,2,0,P|412:370|378:366,1,67.5,0|0,3:2|0:2,0:0:0:0:
318,307,178918,1,10,0:2:0:0:
142,298,179257,6,0,B|182:283|187:251|187:251|214:218|264:228,1,135,6|10,3:2|0:2,0:2:0:0:
301,161,179765,1,0,0:2:0:0:
301,161,179935,2,0,P|296:107|295:79,1,67.5,0|0,3:2|3:2,0:0:0:0:
211,66,180274,2,0,P|213:99|216:133,1,67.5,8|2,0:2|0:2,0:0:0:0:
146,187,180612,6,0,P|93:149|110:79,1,135,2|10,3:2|0:2,0:2:0:0:
171,31,181121,2,0,P|218:37|253:40,1,67.5,2|0,0:2|3:2,0:2:0:0:
296,104,181460,2,0,P|343:110|378:113,1,67.5,2|8,3:2|0:2,0:2:0:0:
446,84,181799,1,2,3:2:0:0:
482,163,181968,5,6,3:2:0:0:
482,163,182138,1,0,3:0:0:0:
415,220,182307,1,10,0:2:0:0:
415,220,182477,2,0,P|394:260|416:318,1,101.25,2|0,3:2|0:0,0:0:0:0:
429,350,182816,2,0,P|372:342|344:339,1,67.5,2|10,3:2|0:2,0:0:0:0:
312,257,183155,6,0,B|277:234|277:234|216:248|222:324,1,135,6|2,3:2|3:2,0:2:0:0:
196,382,183663,2,0,P|143:368|115:364,1,67.5,10|2,0:2|3:2,0:0:0:0:
143,278,184002,2,0,P|109:271|77:261,1,67.5,8|8,0:2|0:2,0:0:0:0:
49,227,184257,1,8,0:2:0:0:
49,227,184341,2,0,L|65:184,3,33.75,10|8|8|8,0:2|0:2|0:2|0:2,0:2:0:0:
99,174,184680,6,0,P|86:120|146:73,1,135,6|8,3:2|0:2,0:2:0:0:
218,29,185189,1,10,0:2:0:0:
218,29,185274,1,8,0:2:0:0:
218,29,185358,2,0,P|258:44|291:55,1,67.5,2|0,3:2|3:2,0:2:0:0:
302,137,185697,2,0,P|287:177|276:210,1,67.5,8|2,0:2|0:2,0:0:0:0:
339,260,186036,5,2,3:2:0:0:
282,331,186206,2,0,P|397:301|427:292,1,135,0|2,3:2|0:2,0:0:0:0:
446,215,186714,2,0,P|426:164|416:132,1,67.5,2|0,3:2|3:2,0:0:0:0:
434,64,187053,2,0,P|472:79|509:77,1,67.5,8|2,0:2|0:2,0:0:0:0:
379,9,187392,6,0,B|350:29|348:67|348:67|266:84,1,135,0|8,3:2|0:2,0:2:0:0:
197,57,187901,1,2,0:2:0:0:
197,57,188070,2,0,L|209:-16,1,67.5,2|0,3:2|3:2,0:2:0:0:
119,0,188409,2,0,L|107:73,1,67.5,8|2,0:2|0:2,0:0:0:0:
58,139,188748,6,0,B|96:165|96:165|104:212|46:254,1,135,4|10,3:2|0:2,0:2:0:0:
89,326,189257,1,0,0:2:0:0:
89,326,189426,2,0,P|133:331|172:340,1,67.5,2|0,3:2|3:2,0:2:0:0:
231,290,189765,2,0,P|211:239|203:214,1,67.5,10|8,0:2|0:2,0:0:0:0:
218,184,190019,5,8,0:2:0:0:
218,184,190104,2,0,B|299:175|256:137|354:141,1,135,6|8,3:2|0:2,0:2:0:0:
421,101,190612,1,2,0:2:0:0:
421,101,190782,2,0,P|417:65|411:27,1,67.5,2|0,3:2|3:2,0:2:0:0:
499,22,191121,2,0,P|503:58|509:96,1,67.5,8|2,0:2|0:2,0:0:0:0:
474,156,191460,5,2,3:2:0:0:
507,246,191629,2,0,P|444:248|398:310,1,135,0|10,3:2|0:2,0:0:0:0:
409,340,192053,1,8,0:2:0:0:
409,340,192138,2,0,P|346:332|319:332,1,67.5,2|0,3:2|3:2,0:0:0:0:
276,273,192477,2,0,P|206:283|195:284,1,67.5,8|0,0:2|0:2,0:0:0:0:
142,224,192816,6,0,B|121:185|121:185|146:140|201:146,1,135,2|8,3:2|0:2,0:2:0:0:
245,72,193324,1,10,0:2:0:0:
245,72,193409,1,8,0:2:0:0:
245,72,193494,2,0,P|232:20|227:-1,1,67.5,2|0,3:2|0:2,0:2:0:0:
140,6,193833,2,0,P|148:38|156:71,1,67.5,8|2,0:2|0:2,0:0:0:0:
100,139,194172,5,6,3:2:0:0:
100,139,194341,1,0,3:2:0:0:
34,198,194511,2,0,P|91:221|95:310,1,135,10|0,0:2|3:2,0:0:0:0:
167,350,195019,1,8,0:2:0:0:
167,350,195104,1,8,0:2:0:0:
167,350,195189,2,0,L|206:344,3,33.75,8|8|8|8,0:2|0:2|0:2|0:2,0:2:0:0:
234,317,195528,6,0,P|293:328|320:331,1,67.5,4|2,3:2|0:2,0:2:0:0:
318,242,195867,2,0,P|377:253|404:256,1,67.5,10|0,0:2|0:2,0:2:0:0:
449,194,196206,2,0,P|451:132|382:97,1,135,0|8,3:2|0:2,0:2:0:0:
321,35,196714,1,0,0:2:0:0:
246,92,196884,6,0,B|261:115|282:128|282:128|262:224,1,135,2|8,3:2|0:2,0:2:0:0:
183,242,197392,1,2,0:2:0:0:
183,242,197562,2,0,P|145:225|115:211,1,67.5,2|0,3:2|0:2,0:2:0:0:
77,138,197901,2,0,P|111:99|126:75,1,67.5,10|0,0:2|0:2,0:2:0:0:
84,5,198240,6,0,P|141:0|203:49,1,135,2|8,3:2|0:2,0:2:0:0:
266,103,198748,1,0,3:2:0:0:
266,103,198833,1,0,3:2:0:0:
266,103,198918,2,0,P|250:145|239:172,1,67.5,0|0,3:2|3:2,0:2:0:0:
277,246,199257,2,0,L|326:242,3,33.75,10|8|8|8,0:2|0:2|0:2|0:2,0:0:0:0:
344,214,199596,6,0,B|389:223|416:189|416:189|459:179|497:222,2,148.50000453186,6|6|6,3:2|3:2|3:2,0:2:0:0:
219,363,200612,1,8,0:2:0:0:
219,363,200951,6,0,B|213:322|177:308|177:308|197:268|191:244,1,121.499996292114,6|0,3:2|3:2,0:2:0:0:
146,197,201460,1,0,0:2:0:0:
146,197,201629,2,0,P|108:218|81:229,1,60.7499981460572,0|0,3:2|0:0,0:2:0:0:
49,158,201968,2,0,P|87:137|114:126,1,60.7499981460572,0|2,3:2|0:2,0:0:0:0:
148,65,202307,6,0,P|186:103|270:81,1,121.499996292114,2|0,3:2|3:2,0:2:0:0:
309,45,202816,1,0,0:2:0:0:
309,45,202986,2,0,P|352:66|372:76,1,60.7499981460572,10|0,0:2|0:2,0:2:0:0:
441,63,203324,2,0,P|461:103|473:155,1,91.1249972190858,2|8,0:2|0:2,0:0:0:0:
507,166,203663,6,0,P|463:191|451:271,1,121.499996292114,4|0,3:2|3:2,3:2:0:0:
406,325,204172,1,8,0:2:0:0:
406,325,204257,1,8,0:2:0:0:
406,325,204341,2,0,P|354:313|323:306,1,60.7499981460572,0|0,3:2|0:2,0:2:0:0:
292,253,204680,2,0,P|240:268|210:278,1,60.7499981460572,2|0,3:2|0:2,0:2:0:0:
164,232,205019,6,0,P|179:187|178:134,1,80.9999975280763,6|0,3:2|0:0,0:2:0:0:
147,111,205358,2,0,P|142:83|144:60,2,40.4999987640381,8|8|8,0:0|0:0|0:0,0:0:0:0:
96,126,205697,6,0,P|57:151|23:178,1,80.9999975280763,10|8,0:0|0:0,0:0:0:0:
16,225,206036,2,0,P|33:249|42:271,2,40.4999987640381,8|8|8,0:3|0:3|0:3,0:0:0:0:
52,293,206375,6,0,B|121:298|100:251|188:258,1,121.499996292114,6|0,3:2|3:2,0:2:0:0:
244,245,206884,1,0,0:2:0:0:
244,245,207053,2,0,P|225:139|219:103,1,121.499996292114,8|0,0:2|0:2,0:2:0:0:
251,54,207562,1,2,3:2:0:0:
317,96,207731,5,2,3:2:0:0:
317,96,207901,2,0,P|368:80|400:74,1,60.7499981460572,8|0,0:2|0:2,0:0:0:0:
447,110,208240,1,0,3:2:0:0:
447,110,208409,2,0,P|431:143|417:177,1,60.7499981460572,10|0,0:2|3:2,0:0:0:0:
348,195,208748,2,0,P|350:231|355:268,1,60.7499981460572,0|8,0:0|0:2,0:0:0:0:
413,307,209087,5,2,3:2:0:0:
271,376,209426,2,0,P|231:360|200:352,1,60.7499981460572,0|0,3:2|3:2,0:0:0:0:
136,372,209765,1,8,0:2:0:0:
136,372,209935,1,8,0:2:0:0:
79,316,210104,1,10,0:2:0:0:
79,316,210274,1,8,0:2:0:0:
133,257,210443,2,0,P|165:216|159:177,1,91.1249972190858,2|0,3:2|3:2,0:0:0:0:
133,150,210782,5,2,3:2:0:0:
102,77,210951,1,10,0:2:0:0:
102,77,211036,1,8,0:2:0:0:
102,77,211121,2,0,L|47:80,3,30.3749990730286,8|8|10|8,0:2|0:2|0:2|0:2,0:0:0:0:
140,43,211460,2,0,L|195:46,3,30.3749990730286,10|8|8|8,0:2|0:2|0:2|0:2,0:0:0:0:
202,74,211799,6,0,B|236:108|236:108|285:117|329:65,1,135,4|8,3:2|0:2,0:2:0:0:
386,29,212307,1,8,0:2:0:0:
386,29,212477,2,0,P|393:82|396:107,1,67.5,0|0,3:2|3:2,0:2:0:0:
475,130,212816,2,0,P|482:183|485:208,1,67.5,8|0,0:2|0:2,0:0:0:0:
451,278,213155,5,0,3:2:0:0:
451,278,213324,1,0,3:2:0:0:
376,231,213494,2,0,P|327:239|283:288,1,101.25,8|8,0:2|0:2,0:0:0:0:
253,248,213833,2,0,P|209:231|192:206,1,67.5,0|0,3:2|3:2,0:0:0:0:
226,133,214172,1,8,0:2:0:0:
226,133,214511,6,0,B|145:157|145:157|81:138,1,135,4|8,3:2|0:2,0:2:0:0:
25,194,215019,1,8,0:2:0:0:
63,272,215189,2,0,P|108:258|144:254,1,67.5,0|0,3:2|3:2,0:0:0:0:
196,310,215528,1,8,0:2:0:0:
196,310,215697,1,0,0:2:0:0:
261,250,215867,6,0,P|271:180|283:101,2,135,4|0|4,3:2|3:2|0:2,0:2:0:0:
315,319,216714,1,8,0:2:0:0:
315,319,216799,1,8,0:2:0:0:
315,319,216884,2,0,L|365:304,3,33.75,8|8|8|8,0:2|0:2|0:2|0:2,0:2:0:0:
379,265,217223,6,0,P|418:247|455:253,1,67.5,4|0,3:2|0:0,0:2:0:0:
497,180,217562,2,0,L|481:102,1,67.5,8|8,0:2|0:2,0:0:0:0:
461,28,217901,1,0,3:2:0:0:
461,28,218070,1,0,0:2:0:0:
374,9,218240,6,0,P|372:44|276:63,1,135,8|0,0:2|3:2,0:0:0:0:
224,14,218748,1,0,3:2:0:0:
224,14,218918,2,0,P|180:32|150:41,1,67.5,8|8,0:2|0:2,0:0:0:0:
117,30,219172,1,8,0:2:0:0:
117,30,219257,2,0,P|145:68|153:113,1,67.5,2|0,3:2|3:2,0:0:0:0:
103,161,219596,2,0,P|36:148|17:145,1,67.5,8|8,0:2|0:2,0:0:0:0:
130,240,219935,5,0,3:2:0:0:
130,240,220105,1,0,3:2:0:0:
193,179,220274,2,0,P|217:212|218:254,1,67.5,8|0,0:2|0:0,0:2:0:0:
193,321,220612,2,0,P|257:309|285:303,1,67.5,0|0,3:2|0:2,0:2:0:0:
328,254,220951,2,0,P|371:266|403:273,1,67.5,8|0,0:2|0:2,0:2:0:0:
466,222,221290,6,0,P|485:178|446:120,1,101.25,4|0,3:2|3:2,0:0:0:0:
420,126,221629,2,0,P|377:148|346:161,1,67.5,8|8,0:2|0:2,0:0:0:0:
279,119,221968,2,0,P|247:84|174:95,1,101.25,0|8,3:2|0:3,0:0:0:0:
161,109,222307,2,0,P|178:150|185:181,1,67.5,8|0,0:3|3:2,0:0:0:0:
162,211,222562,5,0,3:0:0:0:
162,211,222646,2,0,B|112:234|84:214|84:214|71:165,1,114.750002188683,4|0,3:2|0:2,0:2:0:0:
31,121,223155,1,0,3:2:0:0:
68,57,223324,1,8,0:2:0:0:
68,57,223494,2,0,B|134:63|113:20|201:33,1,114.750002188683,0|0,3:2|3:2,0:0:0:0:
227,85,224002,5,8,0:2:0:0:
238,158,224172,2,0,B|208:221|208:221|217:291,1,114.750002188683,0|0,3:2|3:2,0:2:0:0:
267,317,224680,2,0,P|316:306|335:302,1,57.3750010943413,12|0,0:2|3:2,0:0:0:0:
341,223,225019,2,0,P|292:234|273:238,1,57.3750010943413,2|0,0:2|3:2,0:2:0:0:
213,265,225358,6,0,P|179:285|114:242,1,114.750002188683,12|0,0:2|0:2,0:2:0:0:
91,182,225867,1,0,3:2:0:0:
30,225,226036,2,0,P|42:270|47:298,1,57.3750010943413,10|2,0:2|3:2,0:0:0:0:
36,354,226375,1,2,0:2:0:0:
107,331,226545,5,0,3:2:0:0:
107,331,226629,1,0,3:2:0:0:
107,331,226714,2,0,P|151:338|178:351,1,67.5,12|0,0:2|0:2,0:2:0:0:
253,314,227053,2,0,P|241:261|241:239,1,67.5,12|0,0:2|0:2,0:2:0:0:
286,173,227392,2,0,P|332:186|360:189,1,67.5,8|8,0:2|0:2,0:0:0:0:
389,165,227646,1,8,0:2:0:0:
389,165,227731,2,0,L|386:115,3,33.75,8|8|8|8,0:2|0:2|0:2|0:2,0:2:0:0:
402,90,228070,6,0,P|444:74|473:79,1,67.5,6|2,3:2|3:2,0:0:0:0:
507,154,228409,2,0,P|496:203|491:235,1,67.5,0|2,3:2|3:2,0:0:0:0:
415,261,228748,2,0,P|429:308|441:339,1,67.5,2|0,3:2|3:2,0:0:0:0:
363,374,229087,1,2,3:2:0:0:
292,322,229257,1,2,3:2:0:0:
220,270,229426,6,0,P|184:263|139:259,1,67.5,0|2,3:2|3:2,0:0:0:0:
171,173,229765,2,0,P|207:180|252:184,1,67.5,0|2,3:2|3:2,0:0:0:0:
318,182,230104,1,2,3:2:0:0:
312,103,230274,1,0,3:2:0:0:
393,108,230443,2,0,L|385:27,1,67.5,2|2,3:2|3:2,0:0:0:0:
311,0,230777,6,0,B|236:1|270:51|164:31,1,135,6|2,3:2|3:2,0:0:0:0:
102,15,231306,1,2,3:2:0:0:
118,96,231482,2,0,P|127:151|132:190,1,67.5,8|8,0:2|0:2,0:0:0:0:
200,208,231835,1,8,0:2:0:0:
158,277,232012,1,8,0:2:0:0:
211,344,232188,6,0,P|269:362|286:369,1,67.5,8|8,0:2|0:2,0:0:0:0:
344,328,232616,6,0,P|387:316|433:308,1,67.5,8|8,0:2|0:2,0:0:0:0:
448,232,233077,6,0,P|417:201|387:165,1,67.5,8|8,0:3|0:3,0:0:0:0:
309,186,233677,6,0,P|301:218|292:251,1,67.5,4|6,0:3|0:3,0:0:0:0:
297,0,234664,5,4,0:2:0:0:
256,192,234748,12,8,238901,0:2:0:0:
