osu file format v14

[General]
AudioFilename: audio.mp3
AudioLeadIn: 0
PreviewTime: 162218
Countdown: 0
SampleSet: Soft
StackLeniency: 0.7
Mode: 0
LetterboxInBreaks: 0
WidescreenStoryboard: 1

[Editor]
Bookmarks: 269,21963,43658,65353,87048,108743,119591,141285,162980,184675,200946,211794,238901
DistanceSpacing: 1.1
BeatDivisor: 4
GridSize: 32
TimelineZoom: 1

[Metadata]
Title:Yoake no Bell ga Naru
TitleUnicode:夜明けのベルが鳴る
Artist:Yasuda Mizuho
ArtistUnicode:安田みずほ
Creator:Kowari
Version:Easy
Source:彼女のセイイキ
Tags:silky kanau mamayu fuyuyu- feng kanojo no seiiki ending eroge visual novel japanese video game
BeatmapID:2201885
BeatmapSetID:1036799

[Difficulty]
HPDrainRate:2
CircleSize:2.8
OverallDifficulty:2
ApproachRate:3
SliderMultiplier:0.75
SliderTickRate:1

[Events]
//Background and Video events
0,0,"BG1.jpg",0,0
//Break Periods
//Storyboard Layer 0 (Background)
//Storyboard Layer 1 (Fail)
//Storyboard Layer 2 (Pass)
//Storyboard Layer 3 (Foreground)
//Storyboard Layer 4 (Overlay)
//Storyboard Sound Samples

[TimingPoints]
274,338.983050847458,4,2,1,35,1,0
274,-117.647058823529,4,2,1,35,0,0
21289,-117.647058823529,4,2,1,45,0,0
21290,-100,4,2,1,45,0,0
21968,-100,4,2,1,65,0,0
43663,-100,4,2,1,55,0,0
49086,-100,4,2,1,55,0,0
49087,-100,4,2,1,50,0,0
50443,-100,4,2,1,50,0,0
53833,-100,4,2,1,50,0,0
54510,-100,4,2,1,40,0,0
54511,-100,4,2,1,40,0,0
56545,-100,4,2,1,40,0,0
57901,-100,4,2,1,50,0,0
59765,-100,4,2,1,50,0,0
59766,-100,4,2,1,70,0,0
59935,-100,4,2,1,70,0,0
64680,-100,4,2,1,50,0,0
65018,-100,4,2,1,5,0,0
65019,-100,4,2,1,5,0,0
65189,-100,4,2,1,40,0,0
65358,-100,4,2,1,80,0,1
86968,-100,4,2,1,80,0,0
87053,-100,4,2,1,80,0,1
101799,-100,4,2,1,80,0,1
103324,-100,4,2,1,70,0,1
108409,-100,4,2,1,70,0,1
108748,-100,4,2,1,75,0,0
114172,-100,4,2,1,70,0,0
116883,-100,4,2,1,75,0,0
116884,-100,4,2,1,75,0,0
119596,-100,4,2,1,65,0,0
141290,-100,4,2,1,55,0,0
146035,-100,4,2,1,70,0,0
146036,-100,4,2,1,70,0,0
146290,-100,4,2,1,70,0,0
146713,-100,4,2,1,50,0,0
146714,-100,4,2,1,50,0,0
148070,-100,4,2,1,50,0,0
151290,-100,4,2,1,50,0,0
152138,-100,4,2,1,60,0,0
157392,-100,4,2,1,70,0,0
162307,-100,4,2,1,50,0,0
162561,-100,4,2,1,50,0,0
162562,-100,4,2,1,5,0,0
162645,-100,4,2,1,5,0,0
162646,-100,4,2,1,40,0,0
162901,-100,4,2,1,40,0,0
162985,-100,4,2,1,80,0,1
182052,-100,4,2,1,80,0,1
182138,-100,4,2,1,80,0,1
182222,-100,4,2,1,80,0,1
182306,-100,4,2,1,80,0,1
182307,-100,4,2,1,80,0,1
184595,-100,4,2,1,80,0,1
184596,-100,4,2,1,60,0,0
184680,-100,4,2,1,80,0,1
199596,-100,4,2,1,80,0,1
200951,-100,4,2,1,75,0,1
206375,-100,4,2,1,70,0,1
211799,-100,4,2,1,75,0,0
222646,-100,4,2,1,70,0,0
226714,-100,4,2,1,75,0,0
230777,352.941176470588,4,2,1,75,1,0
232188,428.571428571429,4,2,1,70,1,0
232616,461.538461538462,4,2,1,65,1,0
233077,588.235294117647,4,2,1,60,1,0
233677,750,4,2,1,55,1,0
234052,1224.48979591837,4,2,1,50,1,0
234664,338.983050847458,4,2,1,70,1,0

[Colours]
Combo1 : 255,151,151
Combo2 : 255,255,130
Combo3 : 0,118,174
Combo4 : 136,136,255

[HitObjects]
353,342,274,6,0,L|500:329,2,127.50000243187,2|2|2,0:2|0:2|0:2,0:2:0:0:
252,244,2307,1,2,0:2:0:0:
359,154,2985,2,0,L|499:157,1,127.50000243187,2|2,0:2|0:2,0:2:0:0:
498,16,4341,2,0,L|367:10,1,127.50000243187,2|2,0:2|0:2,0:2:0:0:
232,35,5697,6,0,P|281:88|272:153,2,127.50000243187,2|2|2,0:2|0:2|0:2,0:2:0:0:
91,38,7731,1,2,0:2:0:0:
26,162,8409,2,0,P|40:213|113:243,1,127.50000243187,2|2,0:2|0:2,0:2:0:0:
210,152,9765,2,0,P|266:116|331:127,1,127.50000243187,2|2,0:2|0:2,0:2:0:0:
410,233,11121,6,0,L|392:367,1,127.50000243187,2|2,0:2|0:2,0:2:0:0:
252,359,12477,1,2,0:0:0:0:
163,252,13155,1,2,0:0:0:0:
227,127,13833,2,0,B|302:118|261:86|343:78,2,127.50000243187,2|2|2,0:2|0:2|0:0,0:2:0:0:
95,76,15867,1,2,0:0:0:0:
8,187,16545,6,0,L|29:328,1,127.50000243187,2|2,0:2|0:2,0:2:0:0:
162,349,17901,2,0,B|221:321|221:321|289:347,2,127.50000243187,2|2|2,0:2|0:0|0:2,0:2:0:0:
50,263,19935,1,2,0:2:0:0:
93,129,20612,2,0,P|151:112|212:143,1,127.50000243187,2|0,0:2|3:2,0:2:0:0:
247,212,21629,1,4,0:3:0:0:
245,295,21968,6,0,L|418:284,1,150,4|2,3:2|3:2,0:2:0:0:
484,200,23155,2,0,P|484:111|425:74,1,150,2|2,0:2|0:2,0:0:0:0:
367,116,24172,1,2,0:2:0:0:
307,59,24511,6,0,B|257:56|257:56|238:41|238:41|172:35,1,112.5,2|2,0:2|3:2,0:0:0:0:
117,43,25358,2,0,P|71:63|57:94,1,75,0|0,3:2|3:2,0:2:0:0:
74,164,26036,2,0,L|177:148,2,75,0|0|0,3:2|3:2|3:2,0:2:0:0:
23,231,27053,1,2,3:2:0:0:
40,311,27392,6,0,P|129:336|176:282,1,150,0|2,3:2|3:2,0:2:0:0:
145,223,28409,1,2,3:2:0:0:
193,156,28748,2,0,L|318:173,1,112.5,0|2,3:2|0:2,0:2:0:0:
375,127,29596,1,2,0:2:0:0:
361,45,29935,6,0,P|409:21|470:35,1,112.5,2|2,0:2|3:2,0:0:0:0:
487,111,30782,2,0,L|470:203,1,75,0|0,3:2|3:2,0:2:0:0:
478,267,31460,2,0,P|447:305|379:291,1,112.5,0|8,3:2|0:2,0:0:0:0:
350,226,32307,2,0,L|305:233,1,37.5,8|0,0:2|3:2,0:0:0:0:
239,193,32816,6,0,P|200:273|247:346,1,150,4|2,3:2|3:2,0:2:0:0:
147,362,33833,1,2,3:2:0:0:
77,316,34172,2,0,L|95:184,1,112.5,2|2,3:2|0:2,0:2:0:0:
85,80,35189,1,2,3:2:0:0:
161,111,35528,6,0,B|249:117|201:55|315:70,2,150,2|0|0,3:2|3:2|3:2,0:2:0:0:
143,191,37223,1,0,3:2:0:0:
191,262,37562,2,0,L|282:250,1,75
346,272,38240,6,0,P|285:206|303:129,1,150,6|2,3:2|3:2,0:2:0:0:
362,112,39257,1,0,3:2:0:0:
320,41,39596,2,0,L|185:33,1,112.5,2|2,3:2|0:2,0:2:0:0:
93,82,40612,1,2,0:2:0:0:
151,144,40951,6,0,P|171:178|106:286,1,150,0|0,3:2|3:2,0:2:0:0:
70,324,41968,1,8,0:2:0:0:
132,377,42307,2,0,B|183:361|183:361|222:374|222:374|300:355,1,150,12|8,0:2|0:3,0:0:0:0:
336,305,43324,1,2,3:2:0:0:
319,224,43663,6,0,B|264:219|264:219|235:196|235:196|152:191,2,150,6|10|2,3:2|0:2|3:2,0:2:0:0:
380,169,45358,1,0,0:2:0:0:
394,87,45697,2,0,P|346:66|296:75,1,75,10|2,0:2|0:2,0:2:0:0:
255,112,46375,2,0,P|169:145|103:104,1,150,2|10,3:2|0:2,0:2:0:0:
73,54,47392,1,2,0:2:0:0:
19,116,47731,6,0,B|44:189|44:189|6:273,1,150,6|2,3:2|3:2,0:0:0:0:
60,323,48748,1,8,0:3:0:0:
139,345,49087,5,6,0:2:0:0:
283,269,49765,1,2,0:2:0:0:
185,135,50443,6,0,B|146:203|146:203|191:286,1,150,6|0,3:2|0:0,0:2:0:0:
320,177,51799,1,4,3:2:0:0:
299,16,52477,1,2,0:2:0:0:
458,57,53155,2,0,L|432:229,1,150,4|8,3:2|0:2,0:0:0:0:
398,279,54172,6,0,L|491:293,1,75,8|4,0:3|0:2,0:0:0:0:
228,236,55528,2,0,L|134:253,1,75,0|2,0:0|0:2,0:0:0:0:
26,144,56545,2,0,P|25:100|57:61,2,75,2|2|2,0:2|0:2|3:2,0:2:0:0:
190,132,57901,6,0,P|182:59|160:40,2,75,2|2|2,0:2|0:2|0:2,0:2:0:0:
125,183,58918,2,0,P|113:218|128:278,1,75,2|2,0:2|0:2,0:0:0:0:
189,294,59596,1,2,3:2:0:0:
265,263,59935,1,4,3:2:0:0:
256,192,60104,12,2,62477,3:3:0:0:
16,349,65358,6,0,L|195:347,1,150,6|2,3:2|3:2,0:2:0:0:
214,280,66375,1,8,0:2:0:0:
172,208,66714,2,0,P|154:143|219:92,1,150,2|2,3:2|3:2,0:2:0:0:
289,113,67731,1,8,0:2:0:0:
358,157,68070,6,0,L|341:316,1,150,4|2,3:2|3:2,0:2:0:0:
412,349,69087,1,8,0:2:0:0:
474,295,69426,2,0,L|456:195,1,75,4|10,3:2|0:2,0:2:0:0:
448,139,70104,2,0,L|466:38,1,75,2|10,3:2|0:2,0:2:0:0:
394,16,70782,6,0,P|333:14|294:108,1,150,6|2,3:2|3:2,0:2:0:0:
327,156,71799,1,8,0:2:0:0:
262,206,72138,2,0,L|100:184,1,150,2|2,3:2|3:2,0:2:0:0:
48,237,73155,1,8,0:2:0:0:
74,315,73494,6,0,L|252:341,1,150,6|2,3:2|3:2,0:2:0:0:
289,288,74511,1,8,0:2:0:0:
355,337,74850,2,0,P|408:353|441:342,2,75,6|14|2,3:2|0:2|3:2,0:2:0:0:
386,260,75867,1,10,0:2:0:0:
343,189,76206,6,0,L|175:203,1,150,4|0,3:2|3:2,0:2:0:0:
128,150,77223,1,10,0:2:0:0:
127,67,77562,2,0,P|206:38|278:88,1,150,0|0,3:2|3:2,0:2:0:0:
288,143,78579,1,10,0:2:0:0:
251,217,78918,6,0,L|272:358,2,112.5,2|10|10,3:2|0:2|0:2,0:2:0:0:
185,166,80274,2,0,P|137:153|102:167,1,75,0|10,3:2|0:2,0:2:0:0:
57,219,80951,2,0,L|72:313,1,75,0|10,3:2|0:2,0:0:0:0:
126,352,81629,6,0,B|193:353|158:318|253:312,1,112.5,6|0,3:2|0:2,0:2:0:0:
310,306,82477,2,0,L|318:261,1,37.5,0|8,3:2|0:2,0:0:0:0:
304,189,82985,2,0,P|256:174|214:104,2,112.5,2|2|8,3:2|0:2|0:2,0:2:0:0:
367,136,84341,2,0,P|406:101|504:130,1,150,4|0,3:2|3:2,0:0:0:0:
507,242,85528,1,6,3:2:0:0:
395,295,86036,2,0,L|375:202,2,75,10|8|10,0:2|0:2|0:2,0:0:0:0:
327,343,87054,6,0,P|273:353|206:272,1,150,6|2,3:2|3:2,0:2:0:0:
236,214,88070,1,8,0:2:0:0:
192,143,88409,2,0,B|115:161|115:161|21:113,1,150,2|2,3:2|3:2,0:2:0:0:
22,51,89426,1,8,0:2:0:0:
91,6,89765,6,0,B|178:-1|149:57|249:43,1,150,0|2,3:2|3:2,0:2:0:0:
307,12,90782,1,8,0:2:0:0:
360,75,91121,2,0,L|341:177,1,75,4|10,3:2|0:2,0:2:0:0:
298,216,91799,2,0,L|279:318,1,75,2|10,3:2|0:2,0:2:0:0:
335,354,92477,6,0,P|399:370|461:296,1,150,6|2,3:2|3:2,0:2:0:0:
458,235,93494,1,8,0:2:0:0:
453,152,93833,2,0,B|392:146|392:146|361:159|361:159|289:153,1,150,2|2,3:2|3:2,0:2:0:0:
251,92,94850,1,8,0:2:0:0:
173,120,95189,6,0,P|143:168|148:208,2,75,2|8|2,3:2|0:2|3:2,0:2:0:0:
161,38,96206,1,8,0:2:0:0:
80,21,96545,2,0,L|66:103,1,75,6|10,3:2|0:2,0:0:0:0:
35,171,97223,2,0,L|50:265,1,75,0|8,3:2|0:2,0:0:0:0:
105,303,97901,6,0,B|193:298|146:251|269:256,2,150,4|0|2,3:2|3:2|3:2,0:2:0:0:
62,143,99935,2,0,L|161:152,1,75,2|10,3:2|0:2,0:2:0:0:
208,109,100612,2,0,B|259:113|279:87|279:87|311:115|383:98,1,150,2|0,3:2|3:2,0:2:0:0:
420,61,101629,1,10,0:2:0:0:
465,129,101968,6,0,L|450:227,1,75,6|6,3:2|3:2,0:2:0:0:
374,228,102646,2,0,L|389:326,1,75,6|8,3:2|0:2,0:2:0:0:
331,365,103324,6,0,B|241:354|290:307|174:307,1,150,6|8,3:2|0:2,0:2:0:0:
125,350,104341,2,0,P|79:367|36:353,2,75,2|0|0,0:2|3:2|0:2,0:0:0:0:
125,267,105358,2,0,L|112:176,1,75,10|0,0:2|0:0,0:0:0:0:
151,118,106036,6,0,P|118:86|10:104,2,150,6|12|8,3:2|0:2|0:2,0:0:0:0:
203,182,107731,1,8,0:2:0:0:
230,259,108070,2,0,B|311:253,1,75,8|8,0:2|0:2,0:0:0:0:
387,244,108748,1,4,3:2:0:0:
256,192,108918,12,4,111460,3:2:0:0:
361,128,112816,6,0,L|466:144,2,75,4|8|0,3:2|0:2|3:2,0:0:0:0:
290,84,113833,1,4,0:2:0:0:
228,138,114172,6,0,P|211:175|220:227,2,75,4|8|0,3:2|0:2|3:2,0:2:0:0:
293,188,115189,1,8,0:2:0:0:
365,226,115528,2,0,L|344:317,1,75,0|8,3:2|0:2,0:2:0:0:
304,369,116206,6,0,B|241:360|241:360|226:343|226:343|156:335,1,150,8|12,0:2|0:2,0:0:0:0:
96,286,117223,1,0,3:2:0:0:
89,203,117562,2,0,L|101:113,1,75,8|8,0:2|0:2,0:0:0:0:
117,47,118240,6,0,B|189:22|189:22|263:51,1,150,8|8,0:2|0:2,0:0:0:0:
338,142,119596,6,0,L|305:296,1,150,4|2,3:2|3:2,0:2:0:0:
440,360,120782,2,0,P|489:333|474:232,1,150,2|2,0:2|0:2,0:0:0:0:
415,209,121799,1,2,0:2:0:0:
337,180,122138,6,0,B|275:172|297:209|215:209,1,112.5,10|2,0:2|3:2,0:0:0:0:
154,239,122985,1,0,3:0:0:0:
139,157,123324,1,0,3:0:0:0:
128,74,123663,2,0,P|182:68|245:108,2,112.5,0|8|0,3:2|0:3|3:2,0:2:0:0:
48,98,125019,6,0,L|76:252,1,150,4|0,3:2|3:2,0:2:0:0:
97,325,126036,1,2,3:2:0:0:
173,293,126375,2,0,B|206:237|267:235,1,112.5,0|10,3:2|0:2,0:2:0:0:
327,287,127223,1,10,0:2:0:0:
404,257,127562,2,0,L|417:125,1,112.5,2|0,3:2|3:2,0:0:0:0:
372,74,128409,6,0,P|320:55|282:71,1,75,0|0,3:2|3:2,0:2:0:0:
234,105,129087,2,0,B|153:87,2,75,4|0|0,3:2|3:2|3:2,0:2:0:0:
265,181,130104,1,8,0:2:0:0:
211,244,130443,6,0,P|159:274|84:226,1,150,4|2,3:2|3:2,0:2:0:0:
80,150,131460,1,8,0:2:0:0:
152,110,131799,2,0,L|280:119,1,112.5,0|2,3:2|0:2,0:2:0:0:
346,127,132646,1,0,3:2:0:0:
404,236,133155,6,0,B|376:306|376:306|399:362,2,112.5,2|2|10,3:2|0:2|0:2,0:2:0:0:
454,170,134511,2,0,P|423:148|387:147,1,75,0|8,3:2|0:2,0:0:0:0:
322,198,135189,2,0,L|225:164,1,75,0|8,3:2|0:2,0:0:0:0:
205,103,135867,6,0,B|119:102|156:151|55:158,1,150,2|0,3:2|3:2,0:2:0:0:
42,234,136884,1,8,0:2:0:0:
118,266,137223,2,0,L|141:396,2,112.5,2|2|10,3:2|0:2|0:2,0:0:0:0:
189,225,138579,6,0,P|236:208|276:222,1,75,6|8,3:2|0:2,0:2:0:0:
336,242,139257,2,0,L|348:167,1,75,0|8,3:2|0:2,0:0:0:0:
302,99,139935,2,0,B|235:102|235:102|215:114|215:114|141:122,1,150,4|2,3:2|3:2,0:0:0:0:
86,75,140951,1,2,3:2:0:0:
42,146,141290,6,0,P|6:217|57:295,1,150,6|10,3:2|0:2,0:0:0:0:
113,288,142307,1,2,0:2:0:0:
185,248,142646,2,0,L|171:88,1,150,2|10,3:2|0:2,0:0:0:0:
239,51,143663,1,2,0:2:0:0:
292,114,144002,6,0,P|362:111|398:32,1,150,2|10,3:2|0:2,0:2:0:0:
473,11,145019,1,2,0:2:0:0:
498,89,145358,2,0,L|512:238,2,150,6|10|2,3:2|0:2|0:0,0:0:0:0:
333,69,147392,5,2,0:0:0:0:
282,226,148070,2,0,B|348:216|348:216|366:195|366:195|440:184,2,150,2|2|2,0:2|0:2|0:2,0:2:0:0:
126,171,150104,1,2,0:2:0:0:
223,37,150782,2,0,P|286:31|326:95,2,112.5,2|8|8,0:2|0:0|0:3,0:0:0:0:
198,115,152138,6,0,P|138:156|47:127,1,150,4|0,0:3|3:2,0:0:0:0:
12,206,153155,1,2,3:2:0:0:
46,280,153494,2,0,B|135:261|135:261|162:281|206:287,1,150,0|0,3:2|3:2,0:2:0:0:
258,239,154511,1,2,3:2:0:0:
331,275,154850,6,0,L|319:375,1,75,0|0,3:2|3:2,0:2:0:0:
400,374,155528,1,0,3:2:0:0:
479,352,155867,1,0,3:2:0:0:
504,273,156206,2,0,P|504:235|488:202,1,75,0|0,3:2|3:2,0:2:0:0:
415,162,156884,2,0,L|322:152,1,75,0|8,3:2|0:2,0:0:0:0:
277,100,157562,1,14,0:0:0:0:
256,192,157731,12,8,160104,0:2:0:0:
464,326,162985,6,0,P|414:262|334:272,1,150,6|2,3:2|3:2,0:2:0:0:
272,290,164002,1,8,0:2:0:0:
246,368,164341,2,0,L|90:346,1,150,2|2,3:2|3:2,0:2:0:0:
47,281,165358,1,8,0:2:0:0:
42,198,165697,6,0,P|78:146|181:136,1,150,0|2,3:2|3:2,0:2:0:0:
220,184,166714,1,8,0:2:0:0:
241,263,167053,2,0,L|343:250,1,75,4|10,3:2|0:2,0:2:0:0:
355,181,167731,2,0,L|429:190,1,75,2|10,3:2|0:2,0:2:0:0:
490,134,168409,6,0,P|505:81|429:14,1,150,6|2,3:2|3:2,0:2:0:0:
372,53,169426,1,8,0:2:0:0:
304,100,169765,2,0,L|154:62,1,150,2|2,3:2|3:2,0:2:0:0:
83,98,170782,1,8,0:2:0:0:
23,155,171121,6,0,B|55:220|55:220|12:293,1,150,2|2,3:2|3:2,0:2:0:0:
3,368,172138,1,8,0:2:0:0:
80,340,172477,2,0,L|169:332,1,75,6|14,3:2|0:2,0:2:0:0:
233,357,173155,1,2,3:2:0:0:
296,303,173494,1,10,0:2:0:0:
268,225,173833,6,0,P|225:192|126:216,1,150,4|0,3:2|3:2,0:2:0:0:
62,245,174850,1,10,0:2:0:0:
18,175,175189,2,0,L|33:20,1,150,0|0,3:2|3:2,0:2:0:0:
112,0,176206,1,10,0:2:0:0:
156,69,176545,6,0,B|224:78|191:36|289:47,2,112.5,2|10|10,3:2|0:2|0:2,0:2:0:0:
109,137,177901,2,0,L|125:237,1,75,0|10,3:2|0:2,0:2:0:0:
155,286,178579,2,0,P|209:291|245:269,1,75,0|10,3:2|0:2,0:0:0:0:
283,222,179257,6,0,P|345:168|423:178,1,150,6|0,3:2|3:2,0:2:0:0:
447,244,180274,1,8,0:2:0:0:
423,322,180612,2,0,L|298:307,2,112.5,2|2|8,3:2|0:2|0:2,0:2:0:0:
490,273,181968,2,0,B|514:201|514:201|468:115,1,150,6|0,3:2|3:2,0:0:0:0:
389,49,183155,1,6,3:2:0:0:
301,136,183663,2,0,P|258:157|214:144,2,75,10|8|10,0:2|0:2|0:2,0:0:0:0:
292,53,184680,6,0,B|209:57|247:11|143:8,1,150,6|2,3:2|3:2,0:2:0:0:
83,54,185697,1,8,0:2:0:0:
16,103,186036,2,0,L|41:268,1,150,2|2,3:2|3:2,0:2:0:0:
89,316,187053,1,8,0:2:0:0:
149,260,187392,6,0,B|221:230|221:230|296:268,1,150,0|2,3:2|3:2,0:2:0:0:
348,315,188409,1,8,0:2:0:0:
415,266,188748,2,0,L|407:178,1,75,4|10,3:2|0:2,0:2:0:0:
346,135,189426,2,0,L|357:43,1,75,2|10,3:2|0:2,0:2:0:0:
288,11,190104,6,0,P|236:20|215:111,1,150,6|2,3:2|3:2,0:2:0:0:
250,177,191121,1,8,0:2:0:0:
277,254,191460,2,0,L|116:276,1,150,2|2,3:2|3:2,0:2:0:0:
65,221,192477,1,8,0:2:0:0:
75,139,192816,6,0,B|140:123|140:123|168:136|168:136|231:125,1,150,2|2,3:2|3:2,0:2:0:0:
280,70,193833,1,8,0:2:0:0:
349,115,194172,2,0,L|341:201,1,75,6|10,3:2|0:2,0:0:0:0:
331,271,194850,2,0,P|392:288|423:277,1,75,0|8,3:2|0:2,0:0:0:0:
456,223,195528,6,0,L|470:59,1,150,4|0,3:2|3:2,0:2:0:0:
407,17,196545,1,8,0:2:0:0:
324,23,196884,2,0,P|265:59|259:127,2,112.5,2|2|10,3:2|0:2|0:2,0:2:0:0:
371,90,198240,6,0,B|377:188|377:188|353:204|341:235,1,150,2|0,3:2|3:2,0:2:0:0:
323,307,199257,1,10,0:2:0:0:
255,354,199596,2,0,L|159:340,2,75,6|6|6,3:2|3:2|3:2,0:2:0:0:
248,271,200612,1,8,0:2:0:0:
218,193,200951,6,0,B|193:122|193:122|233:42,1,150,6|0,3:2|3:2,0:2:0:0:
296,11,201968,1,0,3:2:0:0:
354,68,202307,2,0,L|445:69,1,75,2|0,3:2|3:2,0:2:0:0:
493,120,202985,2,0,P|503:174|483:209,1,75,10|2,0:2|0:2,0:2:0:0:
431,242,203663,6,0,B|367:235|367:235|345:247|345:247|267:240,1,150,4|0,3:2|3:2,3:2:0:0:
213,199,204680,1,2,3:2:0:0:
142,155,205019,2,0,L|141:68,2,75,6|8|10,3:2|0:2|0:2,0:2:0:0:
84,214,206036,1,8,0:3:0:0:
80,296,206375,6,0,P|133:332|222:302,1,150,6|8,3:2|0:2,0:2:0:0:
248,237,207392,1,0,0:0:0:0:
305,177,207731,2,0,L|305:98,1,75,2|0,3:2|0:0,3:0:0:0:
351,33,208409,2,0,P|403:17|445:26,1,75,10|0,0:2|0:0,0:0:0:0:
471,85,209087,6,0,L|483:234,1,150,2|8,3:2|0:2,0:2:0:0:
415,282,210104,1,10,0:2:0:0:
340,316,210443,2,0,P|296:324|242:279,2,112.5,2|10|10,3:2|0:2|0:2,0:0:0:0:
339,233,211799,1,4,3:2:0:0:
256,192,211968,12,4,214511,3:2:0:0:
122,319,215867,6,0,P|86:346|30:348,2,75,4|0|4,3:2|3:2|0:2,0:2:0:0:
153,242,216884,1,8,0:2:0:0:
96,182,217223,6,0,P|85:139|149:65,1,150,4|0,3:2|3:2,0:2:0:0:
224,96,218240,1,8,0:2:0:0:
297,133,218579,2,0,L|400:115,1,75,0|8,3:2|0:2,0:2:0:0:
451,100,219257,1,2,3:2:0:0:
505,161,219596,1,8,0:2:0:0:
495,242,219935,6,0,P|462:292|478:351,2,112.5,0|0|8,3:2|0:0|0:2,0:2:0:0:
429,192,221290,2,0,L|344:184,1,75,4|8,3:2|0:2,0:0:0:0:
287,136,221968,2,0,L|199:145,1,75,0|8,3:2|0:3,0:0:0:0:
129,149,222646,2,0,P|100:90|129:35,2,112.5,4|0|0,3:2|3:2|0:2,0:2:0:0:
196,196,224002,2,0,L|191:289,1,75,8|0,0:2|0:0,0:0:0:0:
196,353,224680,1,12,0:0:0:0:
118,380,225019,1,2,0:2:0:0:
65,312,225358,6,0,L|72:220,1,75,12|0,0:2|0:2,0:2:0:0:
21,170,226036,2,0,B|59:149|59:149|111:163,1,75,10|2,0:2|0:2,0:0:0:0:
161,197,226714,1,12,0:2:0:0:
234,160,227053,1,12,0:2:0:0:
304,116,227392,2,0,L|402:128,1,75,8|8,0:2|0:2,0:0:0:0:
461,121,228070,6,0,P|485:196|439:273,1,150,6|2,3:2|3:2,0:0:0:0:
379,286,229087,1,2,3:2:0:0:
302,253,229426,2,0,L|204:239,1,75,0|0,3:2|3:2,0:0:0:0:
175,178,230104,2,0,L|191:94,1,75,2|2,3:2|3:2,0:0:0:0:
138,44,230777,6,0,P|86:34|46:54,1,75,6|2,3:2|3:2,0:0:0:0:
15,105,231482,2,0,L|27:198,1,75,8|8,0:2|0:2,0:0:0:0:
37,264,232188,6,0,L|130:247,1,75,8|8,0:2|0:2,0:0:0:0:
191,222,233077,2,0,B|261:237|261:237|310:207,1,124.2,8|6,0:3|0:3,0:0:0:0:
417,110,234664,1,4,0:2:0:0:
256,192,234833,12,8,238901,0:0:0:0:
