osu file format v14

[General]
AudioFilename: audio.mp3
AudioLeadIn: 0
PreviewTime: 64596
Countdown: 0
SampleSet: Soft
StackLeniency: 0.4
Mode: 0
LetterboxInBreaks: 0
WidescreenStoryboard: 1

[Editor]
DistanceSpacing: 1.1
BeatDivisor: 4
GridSize: 4
TimelineZoom: 1.5

[Metadata]
Title:Yoake no Bell ga Naru
TitleUnicode:夜明けのベルが鳴る
Artist:Yasuda Mizuho
ArtistUnicode:安田みずほ
Creator:[Karcher]
Version:Hard
Source:彼女のセイイキ
Tags:feng kanojo no seiiki ending ed eroge visual novel japanese rock pop anime video game short version ver jpop j-pop jrock j-rock galgame Riana
BeatmapID:2854098
BeatmapSetID:1381360

[Difficulty]
HPDrainRate:4
CircleSize:3.5
OverallDifficulty:6
ApproachRate:7.5
SliderMultiplier:1.4
SliderTickRate:1

[Events]
//Background and Video events
0,0,"bg.jpg",0,0
//Break Periods
2,62677,64533
//Storyboard Layer 0 (Background)
//Storyboard Layer 1 (Fail)
//Storyboard Layer 2 (Pass)
//Storyboard Layer 3 (Foreground)
//Storyboard Layer 4 (Overlay)
//Storyboard Sound Samples

[TimingPoints]
274,338.983050847458,4,2,1,40,1,0
274,-125,4,2,1,40,0,0
19257,-125,4,2,1,50,0,0
21968,-111.111111111111,4,2,1,50,0,0
43663,-117.647058823529,4,2,1,60,0,0
48409,-117.647058823529,4,2,1,50,0,0
49087,-111.111111111111,4,2,1,40,0,0
54511,-142.857142857143,4,2,1,50,0,0
57901,-142.857142857143,4,2,1,60,0,0
59935,-100,4,2,1,70,0,0
62646,-100,4,2,1,40,0,0
65358,-90.9090909090909,4,2,1,80,0,1
76206,-100,4,2,1,65,0,0
84341,-100,4,2,1,73,0,0
87053,-90.9090909090909,4,2,1,80,0,1
97901,-111.111111111111,4,2,1,65,0,0
101968,-100,4,2,1,73,0,0
102223,-100,4,2,1,5,0,0
102307,-100,4,2,1,73,0,0
102562,-100,4,2,1,5,0,0
102646,-100,4,2,1,73,0,0
103324,-111.111111111111,4,2,1,65,0,0
106036,-100,4,2,1,73,0,0
106290,-100,4,2,1,5,0,0
106375,-100,4,2,1,73,0,0
108748,-90.9090909090909,4,2,1,80,0,1
111375,-90.9090909090909,4,2,1,5,0,1
111460,-90.9090909090909,4,2,1,80,0,1
119596,-111.111111111111,4,2,1,65,0,0
123663,-100,4,2,1,73,0,0
125019,-100,4,2,1,80,0,1
126375,340.909090909091,4,2,1,80,1,1
126375,-100,4,2,1,80,0,1
127653,-100,4,2,1,5,0,1
127738,357.142857142857,4,2,1,85,1,1
127738,-95.2380952380952,4,2,1,85,0,1
128095,342.857142857143,4,2,1,85,1,9
128095,-99.009900990099,4,2,1,85,0,9
128437,350.877192982456,4,2,1,85,1,9
128437,-97.0873786407767,4,2,1,85,0,9
128787,357.142857142857,4,2,1,85,1,9
128787,-95.2380952380952,4,2,1,85,0,9
128965,375,4,2,1,85,1,9
128965,-90.9090909090909,4,2,1,85,0,9
129152,402.684563758389,4,2,1,75,1,1
129152,-84.0336134453781,4,2,1,75,0,1
129353,425.531914893617,4,2,1,75,1,9
129353,-80,4,2,1,75,0,9
129565,461.538461538462,4,2,1,75,1,9
129565,-73.5294117647059,4,2,1,75,0,9
129795,476.190476190476,4,2,1,75,1,9
129795,-70.9219858156028,4,2,1,75,0,9
130033,571.428571428571,4,2,1,70,1,9
130033,-76.9230769230769,4,2,1,70,0,9
130318,625,4,2,1,65,1,9
130318,-54.3478260869565,4,2,1,65,0,9
130630,722.89156626506,4,2,1,60,1,9
130630,-71.4285714285714,4,2,1,60,0,9
130991,1276.59574468085,4,2,1,55,1,9
130991,-26.5957446808511,4,2,1,55,0,9
131629,1408.45070422535,4,2,1,50,1,0
131629,-25,4,2,1,50,0,0
135854,585.365853658537,4,2,1,50,1,0
135854,-58.1395348837209,4,2,1,50,0,0

[Colours]
Combo1 : 250,154,169
Combo2 : 168,168,213

[HitObjects]
43,31,274,6,0,P|106:31|117:165,1,224,0|2,0:0|0:0,0:0:0:0:
70,322,1290,1,2,0:0:0:0:
70,322,1460,1,2,0:0:0:0:
18,255,1629,2,0,P|73:236|128:258,1,112,2|2,0:0|0:0,0:0:0:0:
271,331,2307,2,0,B|216:345|216:345|151:322,1,112,2|0,0:0|0:0,0:0:0:0:
121,252,2816,1,2,0:0:0:0:
121,252,2985,6,0,L|141:126,1,112,2|2,0:0|0:0,0:0:0:0:
261,25,3663,2,0,P|228:56|150:45,1,112,2|0,0:0|0:0,0:0:0:0:
1,10,4341,2,0,L|11:132,1,112,2|0,0:0|0:0,0:0:0:0:
132,237,5019,1,2,0:0:0:0:
16,359,5358,1,0,0:0:0:0:
57,196,5697,6,0,P|94:160|164:159,1,112,2|0,0:0|0:0,0:0:0:0:
231,184,6206,1,2,0:0:0:0:
231,184,6375,2,0,L|297:192,1,56,2|0,0:0|0:0,0:0:0:0:
370,185,6714,1,2,0:0:0:0:
370,185,6884,2,0,P|421:161|471:248,1,168,2|2,0:0|0:0,0:0:0:0:
465,322,7562,2,0,L|345:338,1,112,2|2,0:0|0:0,0:0:0:0:
190,377,8240,1,2,0:0:0:0:
190,377,8409,6,0,B|171:327|171:327|191:271,1,112,2|2,0:0|0:0,0:0:0:0:
282,130,9087,2,0,P|278:190|221:192,1,112,2|0,0:0|0:0,0:0:0:0:
78,139,9765,2,0,L|203:126,1,112,2|0,0:0|0:0,0:0:0:0:
345,63,10443,2,0,L|220:50,1,112,2|0,0:0|0:0,0:0:0:0:
65,54,11121,6,0,P|8:83|-10:139,1,112,2|0,0:0|0:0,0:0:0:0:
9,292,11799,2,0,B|64:296|64:296|71:239,1,112,2|2,0:0|0:0,0:0:0:0:
89,157,12307,1,2,0:0:0:0:
173,150,12477,2,0,L|286:170,1,112,2|2,0:0|0:0,0:0:0:0:
353,215,12985,1,2,0:0:0:0:
353,215,13155,2,0,P|367:156|342:110,1,112,2|2,0:0|0:0,0:0:0:0:
189,47,13833,6,0,B|245:35|245:35|259:96,1,112,2|2,0:0|0:0,0:0:0:0:
283,169,14341,1,2,0:0:0:0:
283,169,14511,2,0,L|265:284,1,112,2|2,0:0|0:0,0:0:0:0:
214,346,15019,1,2,0:0:0:0:
186,267,15189,2,0,L|67:274,2,112,2|0|2,0:0|0:0|0:0,0:0:0:0:
354,241,16206,1,2,0:0:0:0:
453,376,16545,6,0,B|435:323|435:323|455:269,1,112,2|0,0:0|0:0,0:0:0:0:
493,195,17053,1,2,0:0:0:0:
493,195,17223,2,0,L|483:79,1,112,2|0,0:0|0:0,0:0:0:0:
424,23,17731,1,2,0:0:0:0:
361,79,17901,6,0,L|298:84,1,56,2|0,0:0|0:0,0:0:0:0:
221,71,18240,1,2,0:0:0:0:
221,71,18409,2,0,P|170:50|115:93,1,112,2|2,0:0|0:0,0:0:0:0:
34,91,18918,2,0,L|33:146,1,56,2|0,0:0|0:0,0:0:0:0:
18,235,19257,6,0,P|24:294|61:329,1,112,2|0,0:0|0:0,0:0:0:0:
219,250,19935,2,0,B|168:230|168:230|112:245,1,112,2|0,0:0|0:0,0:0:0:0:
267,334,20612,2,0,P|309:292|311:232,1,112,2|0,0:0|0:0,0:0:0:0:
262,173,21121,1,8,0:3:0:0:
262,173,21290,2,0,L|258:112,2,56,2|0|4,0:0|0:0|0:3,0:0:0:0:
462,147,21968,6,0,B|477:208|477:208|456:273,1,125.999996154785,6|0,1:2|1:2,0:0:0:0:
371,302,22477,1,0,0:0:0:0:
371,302,22646,2,0,L|244:286,1,125.999996154785,2|2,1:2|1:2,0:0:0:0:
157,314,23155,1,2,0:0:0:0:
157,314,23324,6,0,L|150:377,2,62.9999980773926,0|0|2,1:2|0:0|1:2,0:0:0:0:
142,219,23833,2,0,B|161:164|161:164|148:96,1,125.999996154785,2|2,0:0|0:0,0:0:0:0:
1,216,24511,1,2,0:0:0:0:
1,216,24680,6,0,L|8:278,1,62.9999980773926,0|2,1:2|0:0,0:0:0:0:
14,366,25019,2,0,P|71:345|96:278,1,125.999996154785,2|2,1:2|1:2,0:0:0:0:
145,213,25528,1,0,0:0:0:0:
145,213,25697,2,0,L|214:218,1,62.9999980773926,2|0,1:2|0:0,0:0:0:0:
287,255,26036,6,0,P|262:196|297:142,2,125.999996154785,2|2|2,1:2|1:2|1:2,0:0:0:0:
371,281,26884,2,0,L|439:272,1,62.9999980773926,0|2,0:0|1:2,0:0:0:0:
496,211,27223,1,0,1:2:0:0:
496,211,27307,1,8,0:0:0:0:
496,211,27392,6,0,L|489:85,1,125.999996154785,6|0,0:0|1:2,0:0:0:0:
455,2,27901,1,2,0:0:0:0:
399,70,28070,2,0,B|361:100|361:100|265:77,1,125.999996154785,2|2,1:2|1:2,0:0:0:0:
204,44,28579,1,2,0:0:0:0:
204,44,28748,6,0,L|124:51,2,62.9999980773926,0|0|2,1:2|0:0|1:2,0:0:0:0:
206,132,29257,2,0,L|190:258,1,125.999996154785,2|2,0:0|0:0,0:0:0:0:
34,341,29935,1,2,0:0:0:0:
34,341,30104,6,0,L|42:275,1,62.9999980773926,0|2,1:2|0:0,0:0:0:0:
45,190,30443,2,0,B|133:166|98:213|172:190,1,125.999996154785,2|2,1:2|1:2,0:0:0:0:
248,157,30951,1,0,0:0:0:0:
248,157,31121,2,0,L|316:163,1,62.9999980773926,2|0,1:2|0:0,0:0:0:0:
381,215,31460,6,0,P|360:167|396:103,1,125.999996154785,2|2,1:2|1:2,0:0:0:0:
477,83,31968,1,10,0:0:0:0:
477,83,32138,2,0,L|468:14,2,62.9999980773926,2|10|2,1:2|0:0|1:2,0:0:0:0:
481,171,32646,1,0,1:2:0:0:
481,171,32731,1,0,1:2:0:0:
481,171,32816,6,0,B|496:237|496:237|476:300,1,125.999996154785,4|0,1:2|1:2,0:0:0:0:
307,337,33494,2,0,L|234:343,1,62.9999980773926,2|0,1:2|0:0,0:0:0:0:
156,356,33833,1,2,1:2:0:0:
156,356,34002,6,0,P|195:321|185:248,1,125.999996154785,2|0,0:0|0:0,0:0:0:0:
114,202,34511,1,2,1:2:0:0:
114,202,34680,2,0,L|93:63,1,125.999996154785,2|0,0:0|0:0,0:0:0:0:
158,14,35189,1,2,1:2:0:0:
217,79,35358,1,0,1:2:0:0:
217,79,35443,1,8,0:0:0:0:
217,79,35528,6,0,L|280:82,1,62.9999980773926,2|0,0:0|0:0,0:0:0:0:
367,96,35867,1,2,1:2:0:0:
367,96,36036,2,0,P|416:71|465:120,1,125.999996154785,2|0,0:0|0:0,0:0:0:0:
463,201,36545,2,0,L|452:279,1,62.9999980773926,2|2,1:2|0:0,0:0:0:0:
450,351,36884,6,0,B|415:350|392:328|392:328|363:328|324:355,1,125.999996154785,0|0,1:2|1:2,0:0:0:0:
251,378,37392,1,8,0:3:0:0:
251,378,37562,2,0,L|256:300,2,62.9999980773926,4|4|2,0:3|0:3|1:2,0:0:0:0:
251,201,38240,6,0,B|201:208|201:208|189:229|189:229|131:238,1,125.999996154785,6|0,1:2|1:2,0:0:0:0:
58,275,38748,1,2,0:0:0:0:
58,275,38918,2,0,P|92:244|73:160,1,125.999996154785,2|0,1:2|1:2,0:0:0:0:
23,104,39426,1,2,0:0:0:0:
43,17,39596,6,0,L|171:31,1,125.999996154785,2|2,1:2|1:2,0:0:0:0:
248,67,40104,2,0,L|255:141,1,62.9999980773926,2|0,0:0|1:2,0:0:0:0:
244,217,40443,2,0,L|238:279,2,62.9999980773926,2|2|2,0:0|1:2|0:0,0:0:0:0:
327,188,40951,6,0,P|388:205|452:168,1,125.999996154785,0|0,1:2|1:2,0:0:0:0:
278,111,41629,2,0,L|212:120,1,62.9999980773926,0|0,1:2|0:0,0:0:0:0:
127,128,41968,2,0,P|81:113|34:133,1,94.499997116089,4|8,1:2|0:0,0:0:0:0:
17,166,42307,6,0,L|24:235,1,62.9999980773926,4|0,1:2|1:2,0:0:0:0:
99,283,42646,1,8,0:0:0:0:
99,283,42816,1,8,0:0:0:0:
86,370,42985,2,0,L|14:362,2,62.9999980773926,10|8|2,0:0|0:0|1:2,0:0:0:0:
182,234,43663,6,0,P|266:209|338:269,1,178.500003404617,6|0,1:2|1:2,0:0:0:0:
352,344,44341,2,0,P|398:319|415:243,1,119.000002269745,10|2,0:0|0:0,0:0:0:0:
385,88,45019,1,2,1:2:0:0:
385,88,45189,2,0,B|436:111|436:111|502:88,1,119.000002269745,8|0,0:0|1:2,0:0:0:0:
440,23,45697,1,10,0:0:0:0:
329,155,46036,1,2,0:0:0:0:
175,76,46375,6,0,L|51:90,2,119.000002269745,2|2|10,1:2|0:0|0:0,0:0:0:0:
333,6,47392,2,0,L|322:73,1,59.5000011348725,2|0,0:0|1:2,0:0:0:0:
277,137,47731,1,2,1:2:0:0:
277,137,47901,2,0,P|243:182|270:268,1,148.750002837181,8|0,0:0|1:2,0:0:0:0:
294,295,48409,2,0,L|359:306,1,59.5000011348725,10|8,0:0|0:0,0:0:0:0:
420,255,48748,1,10,0:3:0:0:
420,255,48918,1,8,0:3:0:0:
482,316,49087,6,0,P|505:279|481:198,1,125.999996154785,6|2,1:2|0:0,0:0:0:0:
315,156,49765,1,2,0:0:0:0:
478,88,50104,1,2,0:0:0:0:
420,255,50443,2,0,B|361:292|361:292|243:261,1,188.999994232178,14|0,0:0|0:0,0:0:0:0:
159,281,51121,1,2,0:0:0:0:
10,185,51460,1,2,0:0:0:0:
128,25,51799,6,0,B|193:27|224:86|224:86|249:23|326:15,2,251.999992309571,6|2|6,0:0|0:0|1:2,0:0:0:0:
319,175,53663,1,0,0:0:0:0:
319,175,53833,2,0,L|271:180,2,41.9999987182618,2|8|8,1:2|0:0|0:0,0:0:0:0:
373,152,54172,2,0,L|421:157,2,41.9999987182618,10|4|4,0:3|0:3|0:3,0:0:0:0:
327,124,54511,6,0,P|340:41|423:74,1,195.999994018555,6|0,1:2|0:0,0:0:0:0:
508,202,55528,2,0,L|500:260,1,48.9999985046387,2|2,0:0|0:0,0:0:0:0:
483,327,55867,2,0,B|449:318|433:293|433:293|391:293|351:336,2,146.999995513916,2|0|0,0:0|0:0|0:0,0:0:0:0:
498,171,57223,6,0,B|436:165|436:165|415:181|415:181|349:174,1,146.999995513916,2|0,1:2|0:0,0:0:0:0:
284,145,57901,2,0,L|165:151,1,97.9999970092774,2|2,0:0|0:0,0:0:0:0:
30,175,58579,1,2,0:0:0:0:
146,69,58918,1,2,0:0:0:0:
150,225,59257,2,0,L|128:335,1,97.9999970092774,2|2,0:0|1:2,0:0:0:0:
67,368,59765,1,0,1:2:0:0:
67,368,59850,1,0,1:2:0:0:
67,368,59935,6,0,P|53:338|58:297,1,70,14|0,0:0|0:0,0:0:0:0:
95,219,60274,1,0,1:2:0:0:
95,219,60443,1,8,0:0:0:0:
149,291,60612,2,0,L|222:299,1,70,0|8,1:2|0:0,0:0:0:0:
294,349,60951,1,10,0:0:0:0:
349,276,61121,1,10,0:0:0:0:
349,276,61290,6,0,L|339:197,2,70,8|8|8,0:0|0:0|0:0,0:0:0:0:
434,310,61799,1,8,0:0:0:0:
434,310,61968,2,0,L|444:231,2,70,8|8|8,0:0|0:0|0:0,0:0:0:0:
360,365,62477,1,2,1:2:0:0:
481,104,65358,6,0,B|380:83|430:138|323:111,1,154.000004699707,6|8,1:2|0:0,0:0:0:0:
251,52,65867,1,2,0:0:0:0:
178,120,66036,2,0,L|184:200,2,77.0000023498536,2|0|8,1:2|1:2|0:0,0:0:0:0:
106,48,66545,1,2,0:0:0:0:
106,48,66714,6,0,B|61:33|61:33|83:151,1,154.000004699707,2|8,1:2|0:0,0:0:0:0:
15,215,67223,1,2,0:0:0:0:
15,215,67307,1,0,1:2:0:0:
15,215,67392,2,0,L|-2:302,2,77.0000023498536,2|0|8,1:2|1:2|0:0,0:0:0:0:
114,232,67901,1,2,0:0:0:0:
114,232,68070,6,0,B|178:268|178:268|262:237,1,154.000004699707,2|8,1:2|0:0,0:0:0:0:
340,189,68579,1,2,0:0:0:0:
432,227,68748,2,0,L|420:312,2,77.0000023498536,2|0|8,1:2|1:2|0:0,0:0:0:0:
437,126,69257,1,2,0:0:0:0:
437,126,69426,6,0,L|431:46,1,77.0000023498536,6|0,1:2|1:2,0:0:0:0:
340,6,69765,1,14,0:0:0:0:
272,80,69935,1,0,0:0:0:0:
272,80,70019,1,0,1:2:0:0:
272,80,70104,2,0,L|185:91,2,77.0000023498536,6|0|14,1:2|1:2|0:0,0:0:0:0:
338,154,70612,1,0,1:2:0:0:
338,154,70697,1,8,0:0:0:0:
338,154,70782,6,0,B|367:208|367:208|333:304,1,154.000004699707,6|8,1:2|0:0,0:0:0:0:
255,355,71290,1,2,0:0:0:0:
162,315,71460,2,0,L|157:231,2,77.0000023498536,2|0|8,1:2|1:2|0:0,0:0:0:0:
74,363,71968,1,2,0:0:0:0:
74,363,72138,6,0,L|65:201,1,154.000004699707,2|8,1:2|0:0,0:0:0:0:
23,117,72646,1,2,0:0:0:0:
23,117,72731,1,0,1:2:0:0:
23,117,72816,2,0,L|103:110,1,77.0000023498536,2|0,1:2|1:2,0:0:0:0:
196,84,73155,2,0,L|278:75,1,77.0000023498536,8|2,0:0|0:0,0:0:0:0:
358,23,73494,6,0,B|316:67|316:67|355:165,1,154.000004699707,2|8,1:2|0:0,0:0:0:0:
383,249,74002,1,2,0:0:0:0:
349,343,74172,2,0,L|268:353,2,77.0000023498536,2|0|8,1:2|1:2|0:0,0:0:0:0:
448,327,74680,1,2,0:0:0:0:
448,327,74850,6,0,P|474:296|482:254,1,77.0000023498536,6|0,1:2|1:2,0:0:0:0:
481,160,75189,2,0,L|472:77,1,77.0000023498536,14|0,0:0|1:2,0:0:0:0:
391,25,75528,1,6,1:2:0:0:
351,116,75697,1,8,0:0:0:0:
351,116,75782,1,8,0:0:0:0:
351,116,75867,1,10,0:0:0:0:
293,36,76036,1,10,0:0:0:0:
293,36,76121,1,8,0:0:0:0:
293,36,76206,6,0,B|241:11|241:11|156:49,1,140,4|8,1:2|0:0,0:0:0:0:
83,97,76714,1,0,0:0:0:0:
83,97,76884,2,0,P|66:62|71:22,1,70,0|0,1:2|1:2,0:0:0:0:
165,44,77223,2,0,P|182:79|177:119,1,70,10|2,0:0|0:0,0:0:0:0:
126,191,77562,6,0,B|101:257|101:257|125:323,1,140,0|8,1:2|0:0,0:0:0:0:
204,379,78070,1,0,0:0:0:0:
204,379,78240,2,0,L|275:369,1,70,0|0,1:2|1:2,0:0:0:0:
370,354,78579,1,10,0:0:0:0:
424,272,78748,1,2,0:0:0:0:
392,179,78918,6,0,L|306:191,1,70,2|0,1:2|0:0,0:0:0:0:
239,241,79257,1,10,0:0:0:0:
169,171,79426,2,0,P|148:129|197:30,1,140,2|2,0:0|1:2,0:0:0:0:
268,12,79935,1,10,0:0:0:0:
353,59,80104,6,0,B|427:63|427:63|424:131,1,140,2|2,0:0|1:2,0:0:0:0:
359,202,80612,2,0,L|353:271,1,70,10|0,0:0|0:0,0:0:0:0:
413,355,80951,1,0,1:2:0:0:
413,355,81121,1,0,1:2:0:0:
499,309,81290,2,0,P|510:258|469:221,1,105,10|0,0:0|1:2,0:0:0:0:
428,211,81629,6,0,L|351:201,1,70,6|0,1:2|0:0,0:0:0:0:
259,222,81968,1,10,0:0:0:0:
259,222,82138,2,0,P|250:186|265:147,1,70,2|0,0:0|1:2,0:0:0:0:
335,93,82477,2,0,L|323:16,1,70,2|8,1:2|0:0,0:0:0:0:
225,22,82816,6,0,B|187:59|187:59|97:31,1,140,2|0,0:0|1:2,0:0:0:0:
10,21,83324,1,10,0:0:0:0:
10,21,83494,2,0,L|19:102,1,70,2|0,0:0|1:2,0:0:0:0:
91,155,83833,2,0,L|83:224,1,70,2|8,1:2|0:0,0:0:0:0:
59,319,84172,1,2,0:0:0:0:
142,370,84341,6,0,L|220:363,1,70,6|2,1:2|1:2,0:0:0:0:
288,301,84680,1,10,0:0:0:0:
288,301,84850,2,0,P|335:264|389:321,1,140,2|2,1:2|1:2,0:0:0:0:
472,358,85358,1,10,0:0:0:0:
475,259,85528,6,0,L|466:113,1,140,6|2,1:2|1:2,0:0:0:0:
410,38,86036,2,0,P|382:63|372:100,1,70,10|2,0:0|1:2,0:0:0:0:
361,190,86375,1,8,0:0:0:0:
281,132,86545,1,8,0:3:0:0:
281,132,86629,1,8,0:3:0:0:
281,132,86714,2,0,L|237:134,3,35,6|4|4|4,0:3|0:3|0:3|0:3,0:0:0:0:
195,133,87053,6,0,B|182:65|182:65|96:76,1,154.000004699707,6|8,1:2|0:0,0:0:0:0:
17,135,87562,1,2,0:0:0:0:
17,235,87731,2,0,L|28:325,2,77.0000023498536,2|0|8,1:2|1:2|0:0,0:0:0:0:
105,186,88240,1,2,0:0:0:0:
105,186,88409,6,0,B|197:161|156:215|263:182,1,154.000004699707,2|8,1:2|0:0,0:0:0:0:
344,137,88918,1,2,0:0:0:0:
344,137,89002,1,0,1:2:0:0:
344,137,89087,2,0,L|353:221,1,77.0000023498536,2|0,1:2|1:2,0:0:0:0:
447,244,89426,2,0,L|455:167,1,77.0000023498536,8|2,0:0|0:0,0:0:0:0:
458,67,89765,6,0,B|391:33|391:33|309:59,1,154.000004699707,2|8,1:2|0:0,0:0:0:0:
225,102,90274,1,2,0:0:0:0:
127,81,90443,2,0,L|116:2,2,77.0000023498536,2|0|8,1:2|1:2|0:0,0:0:0:0:
74,166,90951,1,2,0:0:0:0:
74,166,91121,6,0,L|67:250,1,77.0000023498536,6|0,1:2|1:2,0:0:0:0:
10,325,91460,2,0,P|56:342|83:338,1,77.0000023498536,14|0,0:0|0:0,0:0:0:0:
157,271,91799,2,0,L|236:285,1,77.0000023498536,6|0,1:2|1:2,0:0:0:0:
294,363,92138,1,14,0:0:0:0:
389,335,92307,1,8,0:0:0:0:
389,335,92392,1,8,0:0:0:0:
389,335,92477,6,0,L|374:180,1,154.000004699707,6|8,1:2|0:0,0:0:0:0:
324,94,92985,1,2,0:0:0:0:
227,68,93155,2,0,L|149:61,2,77.0000023498536,2|0|8,1:2|1:2|0:0,0:0:0:0:
257,163,93663,1,2,0:0:0:0:
257,163,93833,6,0,B|296:210|296:210|259:308,1,154.000004699707,2|8,1:2|0:0,0:0:0:0:
175,346,94341,1,2,0:0:0:0:
175,346,94426,1,0,1:2:0:0:
175,346,94511,2,0,L|89:357,2,77.0000023498536,2|0|8,1:2|1:2|0:0,0:0:0:0:
263,296,95019,1,2,0:0:0:0:
339,360,95189,6,0,B|411:379|411:379|483:343,1,154.000004699707,2|8,1:2|0:0,0:0:0:0:
505,245,95697,1,2,0:0:0:0:
505,245,95782,1,0,1:2:0:0:
505,245,95867,2,0,L|500:156,1,77.0000023498536,2|0,1:2|1:2,0:0:0:0:
492,68,96206,2,0,P|443:81|422:109,1,77.0000023498536,8|2,0:0|0:0,0:0:0:0:
410,198,96545,5,6,1:2:0:0:
410,198,96714,1,0,1:2:0:0:
337,128,96884,2,0,L|255:121,1,77.0000023498536,14|2,0:0|0:0,0:0:0:0:
186,188,97223,2,0,L|182:147,3,38.5000011749268,12|8|10|8,0:0|0:0|0:0|0:0,0:0:0:0:
163,103,97562,2,0,L|159:62,3,38.5000011749268,10|8|10|8,0:0|0:0|0:3|0:3,0:0:0:0:
140,25,97901,6,0,L|11:33,1,125.999996154785,6|2,1:2|1:2,0:0:0:0:
109,182,98579,2,0,L|238:190,1,125.999996154785,2|8,1:2|0:0,0:0:0:0:
366,72,99257,2,0,P|327:60|302:140,1,125.999996154785,2|8,1:2|0:0,0:0:0:0:
315,208,99765,1,2,0:0:0:0:
315,208,99935,2,0,L|300:340,1,125.999996154785,2|10,1:2|0:0,0:0:0:0:
221,175,100612,6,0,P|258:126|319:117,2,125.999996154785,2|8|0,1:2|0:0|1:2,0:0:0:0:
145,127,101460,1,0,1:2:0:0:
60,149,101629,2,0,L|59:199,3,31.4999990386963,10|8|8|8,0:0|0:0|0:0|0:0,0:0:0:0:
74,227,101968,6,0,L|72:340,1,105,6|0,1:2|0:0,0:0:0:0:
118,346,102307,2,0,B|173:334|173:334|235:347,1,105,6|0,1:2|0:0,0:0:0:0:
269,336,102646,1,6,1:2:0:0:
407,196,102985,2,0,L|416:266,1,70,14|0,0:0|0:0,0:0:0:0:
463,339,103324,6,0,P|418:354|347:313,1,125.999996154785,6|0,1:2|0:0,0:0:0:0:
321,241,103833,1,0,1:2:0:0:
321,241,104002,2,0,L|314:175,2,62.9999980773926,8|0|0,0:0|0:0|0:0,0:0:0:0:
262,308,104511,1,0,1:2:0:0:
204,248,104680,1,0,1:2:0:0:
204,248,104850,2,0,L|216:179,1,62.9999980773926,8|0,0:0|1:2,0:0:0:0:
363,90,105358,6,0,L|295:96,1,62.9999980773926,10|0,0:0|1:2,0:0:0:0:
226,56,105697,1,2,0:0:0:0:
226,56,105867,1,0,1:2:0:0:
158,128,106036,6,0,B|109:115|109:115|53:133,1,105,6|0,1:2|0:0,0:0:0:0:
50,175,106375,2,0,L|60:258,1,70,0|8,1:2|0:0,0:0:0:0:
134,297,106714,1,8,0:0:0:0:
134,297,106884,1,8,0:0:0:0:
108,382,107053,1,10,0:0:0:0:
108,382,107223,1,10,0:0:0:0:
20,383,107392,6,0,L|29:309,1,70,10|0,0:0|1:2,0:0:0:0:
64,233,107731,1,10,0:0:0:0:
134,297,107901,1,10,0:0:0:0:
134,297,107985,1,8,0:0:0:0:
134,297,108070,2,0,L|179:291,3,35,8|8|10|8,0:0|0:0|0:0|0:0,0:0:0:0:
210,311,108409,2,0,L|244:315,3,35,10|8|10|8,0:0|0:0|0:0|0:0,0:0:0:0:
285,345,108748,6,0,B|335:315|335:315|432:345,1,154.000004699707,6|10,1:2|0:0,0:0:0:0:
512,287,109257,1,2,0:0:0:0:
512,287,109426,2,0,P|516:244|502:209,1,77.0000023498536,2|2,1:2|1:2,0:0:0:0:
404,219,109765,2,0,L|403:133,1,77.0000023498536,10|0,0:0|0:0,0:0:0:0:
364,49,110104,6,0,P|405:41|441:51,2,77.0000023498536,2|2|10,1:2|1:2|0:0,0:0:0:0:
307,132,110612,1,2,0:0:0:0:
307,132,110782,2,0,L|216:121,1,77.0000023498536,2|2,1:2|1:2,0:0:0:0:
137,89,111121,2,0,P|99:71|46:132,1,115.50000352478,10|0,0:0|0:0,0:0:0:0:
21,155,111460,6,0,B|47:226|47:226|22:309,1,154.000004699707,2|10,1:2|0:0,0:0:0:0:
103,371,111968,1,2,0:0:0:0:
103,371,112138,2,0,P|151:380|191:369,1,77.0000023498536,2|2,1:2|1:2,0:0:0:0:
214,280,112477,1,10,0:0:0:0:
286,365,112646,1,2,0:0:0:0:
286,365,112731,1,2,0:0:0:0:
286,365,112816,6,0,P|318:312|306:213,2,154.000004699707,6|2|14,1:2|1:2|0:0,0:0:0:0:
193,379,113663,1,8,0:0:0:0:
193,379,113748,1,8,0:0:0:0:
193,379,113833,2,0,L|151:381,3,38.5000011749268,10|8|8|8,0:0|0:0|0:0|0:0,0:0:0:0:
104,384,114172,6,0,B|100:324|100:324|122:292|122:292|118:236,1,154.000004699707,6|10,1:2|0:0,0:0:0:0:
84,147,114680,1,2,0:0:0:0:
84,147,114850,2,0,P|123:140|165:151,1,77.0000023498536,2|2,1:2|1:2,0:0:0:0:
210,234,115189,2,0,L|294:220,1,77.0000023498536,10|0,0:0|0:0,0:0:0:0:
297,121,115528,6,0,L|288:41,2,77.0000023498536,2|2|10,1:2|1:2|0:0,0:0:0:0:
378,188,116036,1,2,0:0:0:0:
378,188,116206,2,0,L|387:108,1,77.0000023498536,2|2,1:2|1:2,0:0:0:0:
438,25,116545,2,0,P|486:34|469:100,1,115.50000352478,10|2,0:0|0:0,0:0:0:0:
480,141,116884,6,0,L|472:232,1,77.0000023498536,2|0,1:2|1:2,0:0:0:0:
403,290,117223,2,0,L|411:380,1,77.0000023498536,10|0,0:0|0:0,0:0:0:0:
314,384,117562,1,2,1:2:0:0:
314,384,117731,1,0,1:2:0:0:
240,315,117901,2,0,L|157:325,1,77.0000023498536,8|2,0:0|0:0,0:0:0:0:
70,361,118240,6,0,P|122:320|99:230,2,154.000004699707,6|10|6,1:2|0:0|1:2,0:0:0:0:
31,279,119087,1,0,1:2:0:0:
31,279,119172,1,0,1:2:0:0:
31,279,119257,2,0,L|25:234,3,38.5000011749268,10|8|8|8,0:0|0:3|0:3|0:3,0:0:0:0:
19,200,119596,6,0,B|-2:142|-2:142|15:75,1,125.999996154785,6|0,1:2|0:0,0:0:0:0:
100,53,120104,1,0,1:2:0:0:
100,53,120274,2,0,L|227:66,1,125.999996154785,10|0,0:0|0:0,0:0:0:0:
394,17,120951,6,0,P|344:21|338:103,1,125.999996154785,10|0,0:0|0:0,0:0:0:0:
369,163,121460,2,0,L|379:225,1,62.9999980773926,2|8,1:2|0:0,0:0:0:0:
473,193,121799,2,0,L|461:122,2,62.9999980773926,0|2|0,1:2|0:0|1:2,0:0:0:0:
448,277,122307,6,0,P|385:262|339:310,1,125.999996154785,14|0,0:0|0:0,0:0:0:0:
283,230,122816,1,2,1:2:0:0:
213,283,122985,2,0,L|218:366,2,62.9999980773926,10|2|2,0:0|1:2|0:0,0:0:0:0:
202,194,123494,1,0,1:2:0:0:
187,97,123663,6,0,B|135:83|135:83|76:108,1,105,14|0,0:0|0:0,0:0:0:0:
43,123,124002,2,0,L|50:206,1,70,14|0,0:0|1:2,0:0:0:0:
103,274,124341,1,14,0:0:0:0:
82,375,124511,1,0,1:2:0:0:
82,375,124596,1,0,1:2:0:0:
82,375,124680,2,0,L|131:371,3,35,14|8|8|8,0:0|0:0|0:0|0:0,0:0:0:0:
165,365,125019,5,6,1:2:0:0:
165,365,125189,2,0,L|243:370,1,70,2|2,0:0|1:2,0:0:0:0:
334,357,125528,1,2,0:0:0:0:
334,357,125697,2,0,L|411:350,1,70,2|2,1:2|0:0,0:0:0:0:
477,296,126036,1,2,1:2:0:0:
460,206,126206,1,2,0:0:0:0:
371,187,126375,6,0,L|296:198,1,70,2|2,1:2|0:0,0:0:0:0:
223,242,126715,2,0,P|208:201|211:168,1,70,2|2,1:2|0:0,0:0:0:0:
269,106,127056,1,2,1:2:0:0:
269,106,127227,1,2,0:0:0:0:
191,59,127397,2,0,L|86:73,1,105,2|0,1:2|0:0,0:0:0:0:
42,84,127738,6,0,P|9:136|47:217,1,146.999995513916,6|2,1:2|1:2,0:0:0:0:
122,256,128266,1,10,0:0:0:0:
122,256,128437,2,0,L|117:334,1,72.0999993949127,10|10,1:2|0:0,0:0:0:0:
204,374,128787,1,10,1:2:0:0:
204,374,128965,1,10,0:0:0:0:
294,330,129152,6,0,L|385:336,1,83.2999983476258,10|10,1:2|0:0,0:0:0:0:
317,233,129565,6,0,L|222:241,1,95.2000005810547,10|10,1:2|0:0,0:0:0:0:
290,141,130033,6,0,L|387:147,1,90.9999958343508,10|10,1:2|0:3,0:0:0:0:
302,42,130630,6,0,L|205:52,1,97.9999970092774,6|2,0:3|1:2,0:0:0:0:
512,246,131629,5,6,1:2:0:0:
256,192,131805,12,2,135854,0:0:0:0:
