osu file format v14

[General]
AudioFilename: audio.mp3
AudioLeadIn: 0
PreviewTime: 54698
Countdown: 0
SampleSet: Soft
StackLeniency: 0.7
Mode: 2
LetterboxInBreaks: 0
WidescreenStoryboard: 1

[Editor]
DistanceSpacing: 1
BeatDivisor: 4
GridSize: 4
TimelineZoom: 1

[Metadata]
Title:Link no Kioku "Eiketsu Mipha"
TitleUnicode:リンクの記憶「英傑 ミファー」
Artist:Yasuaki Iwata
ArtistUnicode:岩田恭明
Creator:Stompy_
Version:Cup
Source:ゼルダの伝説 ブレス オブ ザ ワイルド
Tags:legend of zelda breath of the wild ost champion mipha theme video game instrumental Touch Zora 若井淑 densetsu link's memories hajime wakai nintendo bgm original soundtrack quix tachibana_ animestyle
BeatmapID:3511555
BeatmapSetID:1718349

[Difficulty]
HPDrainRate:2
CircleSize:2.5
OverallDifficulty:4
ApproachRate:4
SliderMultiplier:1
SliderTickRate:1

[Events]
//Background and Video events
0,0,"__link_and_mipha_the_legend_of_zelda_and_1_more_drawn_by_nuavic__25aa59056b4cc058bf7464f49242e778_auto_x2.jpg",0,0
//Break Periods
//Storyboard Layer 0 (Background)
Sprite,Background,Centre,"sb\blur.png",0,0 M,0,690,,320,240 F,0,690,,0.7789091,0.9825454 S,0,690,,0.4530908 C,0,690,,128,128,192 F,0,690,29435,0.9825454,0.8254545 F,0,29435,31014,0.8254545,0
Sprite,Background,Centre,"sb\v.png",320,240 F,0,-131,690,1 S,0,690,,0.453091 F,0,690,54698,1 F,0,54698,81205,1
Sprite,Background,Centre,"sb\white.png",0,0 M,0,77020,,320,240 S,0,77020,,0.3483636 C,0,77020,,0,0,0 F,0,77020,78955,0,1 F,0,78955,81204,1
Sprite,Background,Centre,"sb\white.png",320,240 S,0,64172,,0.354182 F,0,64172,65751,0.7789091,0
Sprite,Background,Centre,"sb\white.png",320,240 S,0,29435,,0.3658182 C,0,29435,,0,0,0 F,0,29435,30225,0,1 F,0,30225,53119,1 F,0,53119,54698,1,0.8196364 F,0,54698,55488,0.8196364,0
Sprite,Background,Centre,"sb\white.png",320,240 F,0,-1790,690,1 S,0,690,,0.3658182 C,0,690,,0,0,0 F,0,690,1511,1,0
Sprite,Background,Centre,"sb\white.png",320,240 S,0,70488,,0.354182 F,0,70488,72067,0.7789091,0
Sprite,Background,Centre,"sb\white.png",320,240 S,0,75268,,0.354182 F,0,75268,76847,0.7789091,0
Sprite,Background,Centre,"sb\pp.png",320,240 F,0,30225,31804,0,1 S,0,30225,32593,0.3327274,0.3890909 F,0,31804,51540,1,0.8898036 S,0,32593,51540,0.3890909,0.4007272 F,0,51540,53119,0.8898036,0
//Storyboard Layer 1 (Fail)
//Storyboard Layer 2 (Pass)
//Storyboard Layer 3 (Foreground)
//Storyboard Layer 4 (Overlay)
//Storyboard Sound Samples

[TimingPoints]
690,821.917808219178,4,2,1,30,1,0
690,-33.7837837837838,4,2,1,30,0,0
2714,821.917808219178,4,2,1,30,1,0
2714,-33.7837837837838,4,2,1,30,0,0
3154,821.917808219178,4,2,1,30,1,0
3977,869.565217391304,4,2,1,30,1,0
3977,-31.8471337579618,4,2,1,30,0,0
4846,821.917808219178,4,2,1,30,1,0
4846,-33.7837837837838,4,2,1,30,0,0
7310,821.917808219178,4,2,1,30,1,0
7310,-33.7837837837838,4,2,1,30,0,0
8131,779.220779220779,4,2,1,30,1,0
8131,-35.5871886120996,4,2,1,30,0,0
9689,800,4,2,1,30,1,0
9689,-34.7222222222222,4,2,1,30,0,0
10489,779.220779220779,4,2,1,30,1,0
10489,-35.5871886120996,4,2,1,30,0,0
11674,779.220779220779,4,2,1,30,1,0
11674,-35.5871886120996,4,2,1,30,0,0
13647,779.220779220779,4,2,1,30,1,0
13647,-35.5871886120996,4,2,1,30,0,0
15213,800,4,2,1,30,1,0
15213,-34.7222222222222,4,2,1,30,0,0
16805,789.473684210526,4,2,1,30,1,0
16805,-35.0877192982456,4,2,1,30,0,0
19962,-35.0877192982456,4,2,1,30,0,0
54698,-35.0877192982456,4,2,1,45,0,0
74435,833.333333333333,4,2,1,45,1,0
74435,-33.3333333333333,4,2,1,45,0,0
75268,857.142857142857,4,2,1,45,1,0
75268,-32.3624595469256,4,2,1,45,0,0
76125,895.522388059701,4,2,1,45,1,0
76125,-30.9597523219814,4,2,1,45,0,0
77020,967.741935483871,4,2,1,45,1,0
77020,-28.6532951289398,4,2,1,30,0,0

[Colours]
Combo1 : 255,205,53
Combo2 : 45,255,45
Combo3 : 121,182,255
Combo4 : 245,92,116

[HitObjects]
119,73,690,5,2,0:0:0:0:
414,73,1511,1,2,0:0:0:0:
209,306,2714,5,2,0:0:0:0:
61,304,3124,1,2,0:0:0:0:
61,304,3564,1,2,0:0:0:0:
209,156,3977,5,2,0:0:0:0:
459,157,4846,1,2,0:0:0:0:
62,47,7310,6,0,L|64:356,1,296.000007226563,2|2,0:0|0:0,0:0:0:0:
204,347,8520,1,2,0:0:0:0:
324,295,8910,6,0,L|22:350,1,280.999999142456,2|2,0:0|0:0,0:0:0:0:
191,264,10089,1,2,0:0:0:0:
335,69,10489,6,0,P|435:133|455:284,1,280.999999142456,2|2,0:0|0:0,0:0:0:0:
356,288,11674,1,2,0:0:0:0:
136,209,12842,5,2,0:0:0:0:
215,93,13232,1,2,0:0:0:0:
340,175,13647,1,2,0:0:0:0:
201,39,14036,5,2,0:0:0:0:
60,42,14426,1,2,0:0:0:0:
60,191,14815,1,2,0:0:0:0:
203,42,15213,6,0,P|321:165|297:274,1,288.00000703125,2|2,0:0|0:0,0:0:0:0:
24,47,16805,6,0,L|372:47,2,285.000002717972,2|2|2,0:0|0:0|0:0,0:0:0:0:
54,333,19962,6,0,L|351:333,1,285.000002717972,2|2,0:0|0:0,0:0:0:0:
482,332,21147,1,2,0:0:0:0:
338,48,21541,2,0,L|339:338,1,285.000002717972,2|2,0:0|0:0,0:0:0:0:
482,336,22725,1,2,0:0:0:0:
338,332,23120,6,0,P|246:274|338:166,1,285.000002717972,2|2,0:0|0:0,0:0:0:0:
478,164,24304,1,2,0:0:0:0:
192,265,25094,2,0,L|495:266,1,285.000002717972,2|2,0:0|0:0,0:0:0:0:
334,267,26277,5,2,0:0:0:0:
441,173,26672,1,2,0:0:0:0:
334,78,27067,1,2,0:0:0:0:
228,157,27461,1,2,0:0:0:0:
342,286,27857,6,0,P|448:212|425:51,1,285.000002717972,2|2,0:0|0:0,0:0:0:0:
182,334,29436,5,2,0:0:0:0:
363,204,30028,1,2,0:0:0:0:
363,204,30226,1,2,0:0:0:0:
43,69,32594,6,0,L|336:69,1,285.000002717972,2|2,0:0|0:0,0:0:0:0:
470,67,33778,1,2,0:0:0:0:
328,69,34172,1,2,0:0:0:0:
470,352,35356,5,2,0:0:0:0:
470,67,35751,2,0,L|470:355,1,285.000002717972,2|2,0:0|0:0,0:0:0:0:
469,78,38910,6,0,L|180:78,1,285.000002717972,2|2,0:0|0:0,0:0:0:0:
41,79,40094,1,2,0:0:0:0:
183,79,40489,1,2,0:0:0:0:
68,211,41277,1,2,0:0:0:0:
352,319,42067,6,0,L|172:67,1,285.000002717972,2|2,0:0|0:0,0:0:0:0:
473,45,44435,1,2,0:0:0:0:
187,331,45226,6,0,L|504:331,1,285.000002717972,2|2,0:0|0:0,0:0:0:0:
329,331,46410,1,2,0:0:0:0:
472,331,46804,5,2,0:0:0:0:
44,332,47988,1,2,0:0:0:0:
137,224,48383,1,2,0:0:0:0:
460,52,49567,5,2,0:0:0:0:
317,56,49961,1,2,0:0:0:0:
69,326,51147,5,2,0:0:0:0:
69,326,51278,1,0,0:0:0:0:
69,326,51410,1,0,0:0:0:0:
69,326,51541,5,2,0:0:0:0:
54,52,54698,6,0,L|54:352,1,285.000002717972,2|2,0:0|0:0,0:0:0:0:
196,331,55883,1,2,0:0:0:0:
338,332,56277,6,0,L|48:334,1,285.000002717972,2|2,0:0|0:0,0:0:0:0:
195,333,57461,1,2,0:0:0:0:
331,69,57857,6,0,P|431:133|453:293,1,285.000002717972,2|2,0:0|0:0,0:0:0:0:
355,289,59040,1,2,0:0:0:0:
118,251,60226,5,2,0:0:0:0:
217,149,60619,1,2,0:0:0:0:
335,228,61014,1,2,0:0:0:0:
200,150,61409,5,2,0:0:0:0:
57,149,61804,1,2,0:0:0:0:
57,149,62198,1,2,0:0:0:0:
203,42,62594,6,0,P|310:149|296:278,1,285.000002717972,2|2,0:0|0:0,0:0:0:0:
20,51,64172,6,0,L|305:51,2,285.000002717972,2|2|2,0:0|0:0|0:0,0:0:0:0:
56,334,67331,6,0,L|376:334,1,285.000002717972,2|2,0:0|0:0,0:0:0:0:
483,334,68515,1,2,0:0:0:0:
341,334,68910,6,0,P|249:276|341:168,1,285.000002717972,2|2,0:0|0:0,0:0:0:0:
480,168,70093,1,2,0:0:0:0:
338,167,70488,6,0,L|36:167,1,285.000002717972,2|2,0:0|0:0,0:0:0:0:
195,165,71673,1,2,0:0:0:0:
453,144,72856,1,2,0:0:0:0:
167,338,73647,6,0,L|470:338,1,285.000002717972,2|2,0:0|0:0,0:0:0:0:
302,339,74851,1,2,0:0:0:0:
151,336,75268,2,0,L|151:25,1,308.999985265733,2|2,0:0|0:0,0:0:0:0:
473,40,77020,5,2,0:0:0:0:
256,192,77503,12,0,79923,0:0:0:0:
