osu file format v14

[General]
AudioFilename: audio.mp3
AudioLeadIn: 0
PreviewTime: 9083
Countdown: 1
SampleSet: None
StackLeniency: 0.7
Mode: 1
LetterboxInBreaks: 0
WidescreenStoryboard: 0

[Editor]
DistanceSpacing: 1.2
BeatDivisor: 4
GridSize: 8
TimelineZoom: 1

[Metadata]
Title:Fairy Tail Main Theme
TitleUnicode:Fairy Tail Main Theme
Artist:Yashaharu Takanashi
ArtistUnicode:Yashaharu Takanashi
Creator:JiruPiru
Version:Oni
Source:Fairy Tail
Tags:fairy tail taiko jirupiru oni
BeatmapID:1827050
BeatmapSetID:874139

[Difficulty]
HPDrainRate:5
CircleSize:2
OverallDifficulty:5
ApproachRate:5
SliderMultiplier:1.7
SliderTickRate:1

[Events]
//Background and Video events
0,0,"lucy.jpg",0,0
//Break Periods
//Storyboard Layer 0 (Background)
//Storyboard Layer 1 (Fail)
//Storyboard Layer 2 (Pass)
//Storyboard Layer 3 (Foreground)
//Storyboard Sound Samples

[TimingPoints]
629,545.454545454546,4,1,0,80,1,0
629,-133.333333333333,4,1,0,80,0,0
9356,-76.9230769230769,4,1,0,80,0,1
26810,-100,4,1,0,80,0,0
52992,-90.9090909090909,4,1,0,80,0,0
55174,-76.9230769230769,4,1,0,80,0,0
57356,-100,4,1,0,80,0,0
74810,-133.333333333333,4,1,0,80,0,0
83538,-100,4,1,0,80,0,0
118447,-76.9230769230769,4,1,0,80,0,1
135901,-133.333333333333,4,1,0,80,0,0

[HitObjects]
256,192,629,5,4,0:0:0:0:
256,192,2810,1,4,0:0:0:0:
256,192,4447,1,8,0:0:0:0:
256,192,4992,1,4,0:0:0:0:
256,192,7174,1,4,0:0:0:0:
256,192,7447,1,0,0:0:0:0:
256,192,7583,1,0,0:0:0:0:
256,192,7719,1,8,0:0:0:0:
256,192,7992,1,8,0:0:0:0:
256,192,8129,1,0,0:0:0:0:
256,192,8265,1,0,0:0:0:0:
256,192,8401,1,0,0:0:0:0:
256,192,8538,1,8,0:0:0:0:
256,192,8674,1,0,0:0:0:0:
256,192,8810,1,8,0:0:0:0:
256,192,9083,1,12,0:0:0:0:
256,192,9356,1,12,0:0:0:0:
256,192,9629,1,8,0:0:0:0:
256,192,9765,1,0,0:0:0:0:
256,192,9901,1,8,0:0:0:0:
256,192,10174,1,8,0:0:0:0:
256,192,10447,1,0,0:0:0:0:
256,192,10583,1,0,0:0:0:0:
256,192,10719,1,8,0:0:0:0:
256,192,10856,1,0,0:0:0:0:
256,192,10992,1,8,0:0:0:0:
256,192,11265,1,8,0:0:0:0:
256,192,11538,1,4,0:0:0:0:
256,192,11810,1,8,0:0:0:0:
256,192,11947,1,0,0:0:0:0:
256,192,12083,1,8,0:0:0:0:
256,192,12356,1,8,0:0:0:0:
256,192,12492,1,0,0:0:0:0:
256,192,12629,1,0,0:0:0:0:
256,192,12901,1,8,0:0:0:0:
256,192,13038,1,0,0:0:0:0:
256,192,13174,1,8,0:0:0:0:
256,192,13447,1,8,0:0:0:0:
256,192,13719,1,4,0:0:0:0:
256,192,13992,1,8,0:0:0:0:
256,192,14129,1,0,0:0:0:0:
256,192,14265,1,8,0:0:0:0:
256,192,14538,1,8,0:0:0:0:
256,192,14674,1,0,0:0:0:0:
256,192,14810,1,0,0:0:0:0:
256,192,15083,1,8,0:0:0:0:
256,192,15219,1,0,0:0:0:0:
256,192,15356,1,8,0:0:0:0:
256,192,15629,1,4,0:0:0:0:
256,192,15901,1,8,0:0:0:0:
256,192,16174,1,8,0:0:0:0:
256,192,16310,1,0,0:0:0:0:
256,192,16447,1,8,0:0:0:0:
256,192,16719,1,8,0:0:0:0:
256,192,16856,1,0,0:0:0:0:
256,192,16992,1,0,0:0:0:0:
256,192,17129,1,0,0:0:0:0:
256,192,17265,1,8,0:0:0:0:
256,192,17401,1,0,0:0:0:0:
256,192,17538,1,8,0:0:0:0:
256,192,17810,1,12,0:0:0:0:
256,192,18083,1,12,0:0:0:0:
256,192,18356,1,8,0:0:0:0:
256,192,18493,1,0,0:0:0:0:
256,192,18629,1,8,0:0:0:0:
256,192,18902,1,8,0:0:0:0:
256,192,19038,1,0,0:0:0:0:
256,192,19174,1,0,0:0:0:0:
256,192,19447,1,8,0:0:0:0:
256,192,19583,1,0,0:0:0:0:
256,192,19720,1,8,0:0:0:0:
256,192,19993,1,0,0:0:0:0:
256,192,20265,1,4,0:0:0:0:
256,192,20538,1,8,0:0:0:0:
256,192,20674,1,0,0:0:0:0:
256,192,20811,1,8,0:0:0:0:
256,192,21083,1,8,0:0:0:0:
256,192,21220,1,0,0:0:0:0:
256,192,21356,1,0,0:0:0:0:
256,192,21629,1,8,0:0:0:0:
256,192,21765,1,0,0:0:0:0:
256,192,21902,1,8,0:0:0:0:
256,192,22174,1,8,0:0:0:0:
256,192,22447,1,4,0:0:0:0:
256,192,22720,1,8,0:0:0:0:
256,192,22856,1,0,0:0:0:0:
256,192,22993,1,8,0:0:0:0:
256,192,23265,1,8,0:0:0:0:
256,192,23402,1,0,0:0:0:0:
256,192,23538,1,0,0:0:0:0:
256,192,23811,1,8,0:0:0:0:
256,192,23947,1,0,0:0:0:0:
256,192,24083,1,8,0:0:0:0:
256,192,24356,1,4,0:0:0:0:
256,192,24629,1,8,0:0:0:0:
256,192,24902,1,8,0:0:0:0:
256,192,25038,1,0,0:0:0:0:
256,192,25174,1,8,0:0:0:0:
256,192,25447,1,8,0:0:0:0:
256,192,25583,1,0,0:0:0:0:
256,192,25720,1,0,0:0:0:0:
256,192,25856,1,0,0:0:0:0:
256,192,25993,1,8,0:0:0:0:
256,192,26129,1,0,0:0:0:0:
256,192,26265,1,8,0:0:0:0:
256,192,26538,1,12,0:0:0:0:
256,192,26811,1,12,0:0:0:0:
256,192,27083,1,0,0:0:0:0:
256,192,27219,1,8,0:0:0:0:
256,192,27356,1,0,0:0:0:0:
256,192,27629,1,0,0:0:0:0:
256,192,27765,1,8,0:0:0:0:
256,192,27901,1,0,0:0:0:0:
256,192,28038,1,0,0:0:0:0:
256,192,28174,1,8,0:0:0:0:
256,192,28447,1,8,0:0:0:0:
256,192,28583,1,8,0:0:0:0:
256,192,28719,1,0,0:0:0:0:
256,192,28992,1,4,0:0:0:0:
256,192,29265,1,0,0:0:0:0:
256,192,29401,1,8,0:0:0:0:
256,192,29538,1,0,0:0:0:0:
256,192,29810,1,0,0:0:0:0:
256,192,29947,1,8,0:0:0:0:
256,192,30083,1,0,0:0:0:0:
256,192,30219,1,0,0:0:0:0:
256,192,30356,1,8,0:0:0:0:
256,192,30629,1,8,0:0:0:0:
256,192,30765,1,8,0:0:0:0:
256,192,30901,1,0,0:0:0:0:
256,192,31174,1,4,0:0:0:0:
256,192,31447,1,0,0:0:0:0:
256,192,31583,1,8,0:0:0:0:
256,192,31720,1,0,0:0:0:0:
256,192,31993,1,0,0:0:0:0:
256,192,32129,1,8,0:0:0:0:
256,192,32265,1,0,0:0:0:0:
256,192,32402,1,0,0:0:0:0:
256,192,32538,1,8,0:0:0:0:
256,192,32811,1,8,0:0:0:0:
256,192,32947,1,8,0:0:0:0:
256,192,33083,1,0,0:0:0:0:
256,192,33356,1,4,0:0:0:0:
256,192,33629,1,0,0:0:0:0:
256,192,33765,1,8,0:0:0:0:
256,192,33902,1,0,0:0:0:0:
256,192,34174,1,0,0:0:0:0:
256,192,34311,1,8,0:0:0:0:
256,192,34447,1,0,0:0:0:0:
256,192,34583,1,0,0:0:0:0:
256,192,34720,1,8,0:0:0:0:
256,192,34993,1,8,0:0:0:0:
256,192,35129,1,8,0:0:0:0:
256,192,35265,1,0,0:0:0:0:
256,192,35538,1,4,0:0:0:0:
256,192,35810,1,0,0:0:0:0:
256,192,36083,1,8,0:0:0:0:
256,192,36356,1,0,0:0:0:0:
256,192,36629,1,0,0:0:0:0:
256,192,36901,1,0,0:0:0:0:
256,192,37174,1,8,0:0:0:0:
256,192,37447,1,0,0:0:0:0:
256,192,37719,1,0,0:0:0:0:
256,192,37992,1,0,0:0:0:0:
256,192,38265,1,8,0:0:0:0:
256,192,38538,1,0,0:0:0:0:
256,192,38810,1,0,0:0:0:0:
256,192,39083,1,0,0:0:0:0:
256,192,39356,1,8,0:0:0:0:
256,192,39629,1,0,0:0:0:0:
256,192,39901,1,0,0:0:0:0:
256,192,40174,1,0,0:0:0:0:
256,192,40447,1,8,0:0:0:0:
256,192,40719,1,0,0:0:0:0:
256,192,40991,1,0,0:0:0:0:
256,192,41264,1,0,0:0:0:0:
256,192,41537,1,8,0:0:0:0:
256,192,41810,1,0,0:0:0:0:
256,192,42082,1,0,0:0:0:0:
256,192,42219,1,0,0:0:0:0:
256,192,42355,1,0,0:0:0:0:
256,192,42628,1,8,0:0:0:0:
256,192,42765,1,0,0:0:0:0:
256,192,42901,1,0,0:0:0:0:
256,192,43174,1,0,0:0:0:0:
256,192,43310,1,0,0:0:0:0:
256,192,43447,1,8,0:0:0:0:
256,192,43719,1,8,0:0:0:0:
256,192,43856,1,0,0:0:0:0:
256,192,43992,1,8,0:0:0:0:
256,192,44265,1,4,0:0:0:0:
256,192,44538,1,0,0:0:0:0:
256,192,44811,1,8,0:0:0:0:
256,192,45083,1,0,0:0:0:0:
256,192,45355,1,0,0:0:0:0:
256,192,45628,1,0,0:0:0:0:
256,192,45901,1,8,0:0:0:0:
256,192,46174,1,0,0:0:0:0:
256,192,46446,1,0,0:0:0:0:
256,192,46719,1,0,0:0:0:0:
256,192,46992,1,8,0:0:0:0:
256,192,47265,1,0,0:0:0:0:
256,192,47537,1,0,0:0:0:0:
256,192,47810,1,0,0:0:0:0:
256,192,48083,1,8,0:0:0:0:
256,192,48356,1,0,0:0:0:0:
256,192,48628,1,0,0:0:0:0:
256,192,48901,1,0,0:0:0:0:
256,192,49174,1,8,0:0:0:0:
256,192,49447,1,0,0:0:0:0:
256,192,49719,1,0,0:0:0:0:
256,192,49992,1,0,0:0:0:0:
256,192,50265,1,8,0:0:0:0:
256,192,50538,1,0,0:0:0:0:
256,192,50810,1,0,0:0:0:0:
256,192,50947,1,0,0:0:0:0:
256,192,51083,1,0,0:0:0:0:
256,192,51356,1,8,0:0:0:0:
256,192,51492,1,0,0:0:0:0:
256,192,51629,1,0,0:0:0:0:
256,192,51901,1,0,0:0:0:0:
256,192,52038,1,0,0:0:0:0:
256,192,52173,1,8,0:0:0:0:
256,192,52446,1,8,0:0:0:0:
256,192,52583,1,0,0:0:0:0:
256,192,52719,1,8,0:0:0:0:
256,192,52992,1,4,0:0:0:0:
256,192,53265,1,0,0:0:0:0:
256,192,53401,1,8,0:0:0:0:
256,192,53538,1,0,0:0:0:0:
256,192,53810,1,8,0:0:0:0:
256,192,54083,1,0,0:0:0:0:
256,192,54356,1,8,0:0:0:0:
256,192,54492,1,8,0:0:0:0:
256,192,54629,1,8,0:0:0:0:
256,192,54765,1,0,0:0:0:0:
256,192,54901,1,0,0:0:0:0:
256,192,55174,1,0,0:0:0:0:
256,192,55447,1,0,0:0:0:0:
256,192,55583,1,8,0:0:0:0:
256,192,55720,1,0,0:0:0:0:
256,192,55992,1,8,0:0:0:0:
256,192,56265,1,0,0:0:0:0:
256,192,56538,1,8,0:0:0:0:
256,192,56674,1,8,0:0:0:0:
256,192,56811,1,8,0:0:0:0:
256,192,56947,1,0,0:0:0:0:
256,192,57083,1,0,0:0:0:0:
256,192,57219,1,8,0:0:0:0:
256,192,57356,1,4,0:0:0:0:
256,192,57629,1,0,0:0:0:0:
256,192,57902,1,8,0:0:0:0:
256,192,58174,1,0,0:0:0:0:
256,192,58446,1,0,0:0:0:0:
256,192,58719,1,0,0:0:0:0:
256,192,58992,1,8,0:0:0:0:
256,192,59265,1,0,0:0:0:0:
256,192,59537,1,0,0:0:0:0:
256,192,59810,1,0,0:0:0:0:
256,192,60083,1,8,0:0:0:0:
256,192,60356,1,0,0:0:0:0:
256,192,60628,1,0,0:0:0:0:
256,192,60901,1,0,0:0:0:0:
256,192,61174,1,8,0:0:0:0:
256,192,61447,1,0,0:0:0:0:
256,192,61719,1,0,0:0:0:0:
256,192,61992,1,0,0:0:0:0:
256,192,62265,1,8,0:0:0:0:
256,192,62538,1,0,0:0:0:0:
256,192,62810,1,0,0:0:0:0:
256,192,63083,1,0,0:0:0:0:
256,192,63356,1,8,0:0:0:0:
256,192,63629,1,0,0:0:0:0:
256,192,63901,1,0,0:0:0:0:
256,192,64038,1,0,0:0:0:0:
256,192,64174,1,0,0:0:0:0:
256,192,64447,1,8,0:0:0:0:
256,192,64583,1,0,0:0:0:0:
256,192,64719,1,0,0:0:0:0:
256,192,64992,1,0,0:0:0:0:
256,192,65129,1,0,0:0:0:0:
256,192,65264,1,8,0:0:0:0:
256,192,65537,1,8,0:0:0:0:
256,192,65674,1,0,0:0:0:0:
256,192,65810,1,8,0:0:0:0:
256,192,66083,1,4,0:0:0:0:
256,192,66355,1,0,0:0:0:0:
256,192,66628,1,8,0:0:0:0:
256,192,66901,1,0,0:0:0:0:
256,192,67173,1,0,0:0:0:0:
256,192,67446,1,0,0:0:0:0:
256,192,67719,1,8,0:0:0:0:
256,192,67992,1,0,0:0:0:0:
256,192,68264,1,0,0:0:0:0:
256,192,68537,1,0,0:0:0:0:
256,192,68810,1,8,0:0:0:0:
256,192,69083,1,0,0:0:0:0:
256,192,69355,1,0,0:0:0:0:
256,192,69628,1,0,0:0:0:0:
256,192,69901,1,8,0:0:0:0:
256,192,70174,1,0,0:0:0:0:
256,192,70446,1,0,0:0:0:0:
256,192,70719,1,0,0:0:0:0:
256,192,70992,1,8,0:0:0:0:
256,192,71265,1,0,0:0:0:0:
256,192,71537,1,0,0:0:0:0:
256,192,71810,1,0,0:0:0:0:
256,192,72083,1,8,0:0:0:0:
256,192,72356,1,0,0:0:0:0:
256,192,72628,1,0,0:0:0:0:
256,192,72765,1,0,0:0:0:0:
256,192,72901,1,0,0:0:0:0:
256,192,73174,1,8,0:0:0:0:
256,192,73310,1,0,0:0:0:0:
256,192,73447,1,0,0:0:0:0:
256,192,73719,1,0,0:0:0:0:
256,192,73856,1,0,0:0:0:0:
256,192,73992,1,8,0:0:0:0:
256,192,74265,1,8,0:0:0:0:
256,192,74401,1,0,0:0:0:0:
256,192,74538,1,8,0:0:0:0:
256,192,74810,1,4,0:0:0:0:
256,192,74947,12,0,76447,0:0:0:0:
256,192,76992,5,4,0:0:0:0:
256,192,77129,12,0,78629,0:0:0:0:
256,192,79174,5,4,0:0:0:0:
256,192,79310,12,0,80810,0:0:0:0:
256,192,81356,5,8,0:0:0:0:
256,192,81629,1,8,0:0:0:0:
256,192,81765,1,8,0:0:0:0:
256,192,81901,1,0,0:0:0:0:
256,192,82174,1,8,0:0:0:0:
256,192,82310,1,8,0:0:0:0:
256,192,82447,1,0,0:0:0:0:
256,192,82583,1,8,0:0:0:0:
256,192,82719,1,8,0:0:0:0:
256,192,82856,1,0,0:0:0:0:
256,192,82992,1,8,0:0:0:0:
256,192,83265,1,8,0:0:0:0:
256,192,83538,1,12,0:0:0:0:
256,192,83810,1,0,0:0:0:0:
256,192,84083,1,8,0:0:0:0:
256,192,84356,1,0,0:0:0:0:
256,192,84628,1,0,0:0:0:0:
256,192,84901,1,0,0:0:0:0:
256,192,85174,1,8,0:0:0:0:
256,192,85447,1,0,0:0:0:0:
256,192,85719,1,0,0:0:0:0:
256,192,85992,1,0,0:0:0:0:
256,192,86265,1,8,0:0:0:0:
256,192,86538,1,0,0:0:0:0:
256,192,86810,1,0,0:0:0:0:
256,192,87083,1,0,0:0:0:0:
256,192,87356,1,8,0:0:0:0:
256,192,87629,1,0,0:0:0:0:
256,192,87901,1,0,0:0:0:0:
256,192,88174,1,0,0:0:0:0:
256,192,88447,1,8,0:0:0:0:
256,192,88719,1,0,0:0:0:0:
256,192,88991,1,0,0:0:0:0:
256,192,89264,1,0,0:0:0:0:
256,192,89537,1,8,0:0:0:0:
256,192,89810,1,0,0:0:0:0:
256,192,90082,1,0,0:0:0:0:
256,192,90355,1,0,0:0:0:0:
256,192,90628,1,8,0:0:0:0:
256,192,90901,1,0,0:0:0:0:
256,192,91173,1,0,0:0:0:0:
256,192,91446,1,0,0:0:0:0:
256,192,91719,1,12,0:0:0:0:
256,192,91992,1,0,0:0:0:0:
256,192,92265,1,12,0:0:0:0:
256,192,92538,1,0,0:0:0:0:
256,192,92810,1,8,0:0:0:0:
256,192,93083,1,0,0:0:0:0:
256,192,93355,1,0,0:0:0:0:
256,192,93628,1,0,0:0:0:0:
256,192,93901,1,8,0:0:0:0:
256,192,94174,1,0,0:0:0:0:
256,192,94446,1,0,0:0:0:0:
256,192,94719,1,0,0:0:0:0:
256,192,94992,1,8,0:0:0:0:
256,192,95265,1,0,0:0:0:0:
256,192,95537,1,0,0:0:0:0:
256,192,95810,1,0,0:0:0:0:
256,192,96083,1,8,0:0:0:0:
256,192,96356,1,0,0:0:0:0:
256,192,96628,1,0,0:0:0:0:
256,192,96901,1,0,0:0:0:0:
256,192,97174,1,8,0:0:0:0:
256,192,97447,1,0,0:0:0:0:
256,192,97719,1,0,0:0:0:0:
256,192,97992,1,0,0:0:0:0:
256,192,98265,1,8,0:0:0:0:
256,192,98538,1,0,0:0:0:0:
256,192,98810,1,0,0:0:0:0:
256,192,99083,1,0,0:0:0:0:
256,192,99219,1,0,0:0:0:0:
256,192,99356,1,8,0:0:0:0:
256,192,99629,1,0,0:0:0:0:
256,192,99901,1,8,0:0:0:0:
256,192,100038,1,8,0:0:0:0:
256,192,100174,1,8,0:0:0:0:
256,192,100310,1,8,0:0:0:0:
256,192,100447,1,8,0:0:0:0:
256,192,100583,1,8,0:0:0:0:
256,192,100719,1,8,0:0:0:0:
256,192,100856,1,8,0:0:0:0:
256,192,100992,1,12,0:0:0:0:
256,192,101265,1,0,0:0:0:0:
256,192,101537,1,8,0:0:0:0:
256,192,101810,1,0,0:0:0:0:
256,192,102082,1,0,0:0:0:0:
256,192,102355,1,0,0:0:0:0:
256,192,102628,1,8,0:0:0:0:
256,192,102901,1,0,0:0:0:0:
256,192,103173,1,0,0:0:0:0:
256,192,103446,1,0,0:0:0:0:
256,192,103719,1,8,0:0:0:0:
256,192,103992,1,0,0:0:0:0:
256,192,104264,1,0,0:0:0:0:
256,192,104537,1,0,0:0:0:0:
256,192,104810,1,8,0:0:0:0:
256,192,105083,1,0,0:0:0:0:
256,192,105355,1,0,0:0:0:0:
256,192,105628,1,0,0:0:0:0:
256,192,105901,1,8,0:0:0:0:
256,192,106174,1,0,0:0:0:0:
256,192,106446,1,0,0:0:0:0:
256,192,106719,1,0,0:0:0:0:
256,192,106992,1,8,0:0:0:0:
256,192,107265,1,0,0:0:0:0:
256,192,107537,1,0,0:0:0:0:
256,192,107810,1,0,0:0:0:0:
256,192,108083,1,8,0:0:0:0:
256,192,108356,1,0,0:0:0:0:
256,192,108628,1,0,0:0:0:0:
256,192,108901,1,0,0:0:0:0:
256,192,109174,1,8,0:0:0:0:
256,192,109310,1,8,0:0:0:0:
256,192,109447,1,8,0:0:0:0:
256,192,109583,1,8,0:0:0:0:
256,192,109719,1,12,0:0:0:0:
256,192,109992,1,0,0:0:0:0:
256,192,110265,1,8,0:0:0:0:
256,192,110538,1,0,0:0:0:0:
256,192,110810,1,0,0:0:0:0:
256,192,111083,1,0,0:0:0:0:
256,192,111356,1,8,0:0:0:0:
256,192,111629,1,0,0:0:0:0:
256,192,111901,1,0,0:0:0:0:
256,192,112174,1,0,0:0:0:0:
256,192,112447,1,8,0:0:0:0:
256,192,112719,1,0,0:0:0:0:
256,192,112991,1,0,0:0:0:0:
256,192,113264,1,0,0:0:0:0:
256,192,113537,1,8,0:0:0:0:
256,192,113810,1,0,0:0:0:0:
256,192,114082,1,0,0:0:0:0:
256,192,114355,1,0,0:0:0:0:
256,192,114628,1,8,0:0:0:0:
256,192,114901,1,0,0:0:0:0:
256,192,115173,1,0,0:0:0:0:
256,192,115446,1,0,0:0:0:0:
256,192,115719,1,8,0:0:0:0:
256,192,115992,1,0,0:0:0:0:
256,192,116264,1,4,0:0:0:0:
256,192,116537,1,0,0:0:0:0:
256,192,116674,1,0,0:0:0:0:
256,192,116810,1,8,0:0:0:0:
256,192,117083,1,8,0:0:0:0:
256,192,117219,1,8,0:0:0:0:
256,192,117356,1,8,0:0:0:0:
256,192,117492,1,8,0:0:0:0:
256,192,117629,1,8,0:0:0:0:
256,192,117765,1,8,0:0:0:0:
256,192,117901,1,8,0:0:0:0:
256,192,118038,1,8,0:0:0:0:
256,192,118174,1,8,0:0:0:0:
256,192,118310,1,8,0:0:0:0:
256,192,118447,1,12,0:0:0:0:
256,192,118719,1,8,0:0:0:0:
256,192,118856,1,0,0:0:0:0:
256,192,118992,1,8,0:0:0:0:
256,192,119265,1,8,0:0:0:0:
256,192,119538,1,0,0:0:0:0:
256,192,119810,1,8,0:0:0:0:
256,192,119947,1,0,0:0:0:0:
256,192,120083,1,8,0:0:0:0:
256,192,120356,1,8,0:0:0:0:
256,192,120629,1,4,0:0:0:0:
256,192,120901,1,8,0:0:0:0:
256,192,121038,1,0,0:0:0:0:
256,192,121174,1,8,0:0:0:0:
256,192,121447,1,8,0:0:0:0:
256,192,121720,1,0,0:0:0:0:
256,192,121992,1,8,0:0:0:0:
256,192,122129,1,0,0:0:0:0:
256,192,122265,1,8,0:0:0:0:
256,192,122538,1,8,0:0:0:0:
256,192,122811,1,4,0:0:0:0:
256,192,123083,1,8,0:0:0:0:
256,192,123220,1,0,0:0:0:0:
256,192,123356,1,8,0:0:0:0:
256,192,123629,1,8,0:0:0:0:
256,192,123902,1,0,0:0:0:0:
256,192,124174,1,8,0:0:0:0:
256,192,124311,1,0,0:0:0:0:
256,192,124447,1,8,0:0:0:0:
256,192,124720,1,8,0:0:0:0:
256,192,124993,1,4,0:0:0:0:
256,192,125265,1,8,0:0:0:0:
256,192,125401,1,8,0:0:0:0:
256,192,125538,1,4,0:0:0:0:
256,192,125810,1,8,0:0:0:0:
256,192,125947,1,8,0:0:0:0:
256,192,126083,1,0,0:0:0:0:
256,192,126219,1,8,0:0:0:0:
256,192,126356,1,8,0:0:0:0:
256,192,126492,1,0,0:0:0:0:
256,192,126629,1,4,0:0:0:0:
256,192,126901,1,4,0:0:0:0:
256,192,127174,1,4,0:0:0:0:
256,192,127447,1,8,0:0:0:0:
256,192,127584,1,0,0:0:0:0:
256,192,127720,1,8,0:0:0:0:
256,192,127993,1,8,0:0:0:0:
256,192,128266,1,0,0:0:0:0:
256,192,128538,1,8,0:0:0:0:
256,192,128675,1,0,0:0:0:0:
256,192,128811,1,8,0:0:0:0:
256,192,129084,1,8,0:0:0:0:
256,192,129357,1,4,0:0:0:0:
256,192,129629,1,8,0:0:0:0:
256,192,129766,1,0,0:0:0:0:
256,192,129902,1,8,0:0:0:0:
256,192,130175,1,8,0:0:0:0:
256,192,130448,1,0,0:0:0:0:
256,192,130720,1,8,0:0:0:0:
256,192,130857,1,0,0:0:0:0:
256,192,130993,1,8,0:0:0:0:
256,192,131266,1,8,0:0:0:0:
256,192,131539,1,4,0:0:0:0:
256,192,131810,1,8,0:0:0:0:
256,192,131947,1,0,0:0:0:0:
256,192,132083,1,8,0:0:0:0:
256,192,132356,1,8,0:0:0:0:
256,192,132629,1,0,0:0:0:0:
256,192,132901,1,8,0:0:0:0:
256,192,133038,1,0,0:0:0:0:
256,192,133174,1,8,0:0:0:0:
256,192,133447,1,8,0:0:0:0:
256,192,133720,1,4,0:0:0:0:
256,192,133992,1,8,0:0:0:0:
256,192,134129,1,8,0:0:0:0:
256,192,134265,1,4,0:0:0:0:
256,192,134538,1,8,0:0:0:0:
256,192,134674,1,8,0:0:0:0:
256,192,134810,1,0,0:0:0:0:
256,192,134947,1,8,0:0:0:0:
256,192,135083,1,8,0:0:0:0:
256,192,135219,1,0,0:0:0:0:
256,192,135356,1,4,0:0:0:0:
256,192,135629,1,4,0:0:0:0:
256,192,135901,1,4,0:0:0:0:
256,192,136038,12,0,137538,0:0:0:0:
256,192,138083,5,4,0:0:0:0:
256,192,138219,12,0,139719,0:0:0:0:
256,192,140265,5,4,0:0:0:0:
256,192,140401,12,0,144629,0:0:0:0:
