osu file format v14

[General]
AudioFilename: audio.mp3
AudioLeadIn: 0
PreviewTime: 9083
Countdown: 1
SampleSet: None
StackLeniency: 0.7
Mode: 1
LetterboxInBreaks: 0
WidescreenStoryboard: 1

[Editor]
DistanceSpacing: 1.2
BeatDivisor: 4
GridSize: 8
TimelineZoom: 1

[Metadata]
Title:Fairy Tail Main Theme
TitleUnicode:Fairy Tail Main Theme
Artist:Yashaharu Takanashi
ArtistUnicode:Yashaharu Takanashi
Creator:JiruPiru
Version:Muzukashii
Source:Fairy Tail
Tags:fairy tail taiko jirupiru oni
BeatmapID:1827049
BeatmapSetID:874139

[Difficulty]
HPDrainRate:4
CircleSize:5
OverallDifficulty:4
ApproachRate:5
SliderMultiplier:1.5
SliderTickRate:1

[Events]
//Background and Video events
0,0,"lucy.jpg",0,0
//Break Periods
//Storyboard Layer 0 (Background)
//Storyboard Layer 1 (Fail)
//Storyboard Layer 2 (Pass)
//Storyboard Layer 3 (Foreground)
//Storyboard Sound Samples

[TimingPoints]
629,545.454545454546,4,1,0,80,1,0
629,-133.333333333333,4,1,0,80,0,0
9356,-76.9230769230769,4,1,0,80,0,1
26810,-100,4,1,0,80,0,0
52992,-90.9090909090909,4,1,0,80,0,0
55174,-76.9230769230769,4,1,0,80,0,0
57356,-100,4,1,0,80,0,0
74810,-133.333333333333,4,1,0,80,0,0
83538,-100,4,1,0,80,0,0
118447,-76.9230769230769,4,1,0,80,0,1
135901,-133.333333333333,4,1,0,80,0,0

[HitObjects]
256,192,629,5,4,0:0:0:0:
256,192,2810,1,4,0:0:0:0:
256,192,4447,1,8,0:0:0:0:
256,192,4992,1,4,0:0:0:0:
256,192,7174,1,4,0:0:0:0:
256,192,7719,1,4,0:0:0:0:
256,192,8265,1,4,0:0:0:0:
256,192,8810,1,4,0:0:0:0:
256,192,9356,1,4,0:0:0:0:
256,192,9629,1,8,0:0:0:0:
256,192,9901,1,0,0:0:0:0:
256,192,10174,1,0,0:0:0:0:
256,192,10447,1,0,0:0:0:0:
256,192,10992,1,8,0:0:0:0:
256,192,11265,1,8,0:0:0:0:
256,192,11538,1,0,0:0:0:0:
256,192,11810,1,8,0:0:0:0:
256,192,12083,1,0,0:0:0:0:
256,192,12356,1,0,0:0:0:0:
256,192,12629,1,0,0:0:0:0:
256,192,13174,1,8,0:0:0:0:
256,192,13447,1,8,0:0:0:0:
256,192,13719,1,4,0:0:0:0:
256,192,13992,1,8,0:0:0:0:
256,192,14264,1,0,0:0:0:0:
256,192,14537,1,0,0:0:0:0:
256,192,14810,1,0,0:0:0:0:
256,192,15355,1,8,0:0:0:0:
256,192,15628,1,8,0:0:0:0:
256,192,15901,1,0,0:0:0:0:
256,192,16173,1,8,0:0:0:0:
256,192,16446,1,0,0:0:0:0:
256,192,16719,1,0,0:0:0:0:
256,192,16992,1,0,0:0:0:0:
256,192,17265,1,0,0:0:0:0:
256,192,17401,1,0,0:0:0:0:
256,192,17538,1,8,0:0:0:0:
256,192,17810,1,8,0:0:0:0:
256,192,18083,1,4,0:0:0:0:
256,192,18356,1,8,0:0:0:0:
256,192,18628,1,0,0:0:0:0:
256,192,18901,1,0,0:0:0:0:
256,192,19174,1,0,0:0:0:0:
256,192,19719,1,8,0:0:0:0:
256,192,19992,1,8,0:0:0:0:
256,192,20265,1,0,0:0:0:0:
256,192,20537,1,8,0:0:0:0:
256,192,20810,1,0,0:0:0:0:
256,192,21083,1,0,0:0:0:0:
256,192,21356,1,0,0:0:0:0:
256,192,21901,1,8,0:0:0:0:
256,192,22174,1,8,0:0:0:0:
256,192,22447,1,0,0:0:0:0:
256,192,22720,1,8,0:0:0:0:
256,192,22992,1,0,0:0:0:0:
256,192,23265,1,0,0:0:0:0:
256,192,23538,1,0,0:0:0:0:
256,192,24083,1,8,0:0:0:0:
256,192,24356,1,8,0:0:0:0:
256,192,24629,1,0,0:0:0:0:
256,192,24901,1,8,0:0:0:0:
256,192,25174,1,0,0:0:0:0:
256,192,25447,1,0,0:0:0:0:
256,192,25720,1,0,0:0:0:0:
256,192,25992,1,0,0:0:0:0:
256,192,26129,1,0,0:0:0:0:
256,192,26265,1,8,0:0:0:0:
256,192,26538,1,8,0:0:0:0:
256,192,26810,1,4,0:0:0:0:
256,192,27356,1,8,0:0:0:0:
256,192,27901,1,0,0:0:0:0:
256,192,28174,1,8,0:0:0:0:
256,192,28447,1,8,0:0:0:0:
256,192,28583,1,8,0:0:0:0:
256,192,28719,1,0,0:0:0:0:
256,192,28992,1,0,0:0:0:0:
256,192,29538,1,8,0:0:0:0:
256,192,30083,1,0,0:0:0:0:
256,192,30356,1,8,0:0:0:0:
256,192,30629,1,8,0:0:0:0:
256,192,30765,1,8,0:0:0:0:
256,192,30901,1,0,0:0:0:0:
256,192,31174,1,0,0:0:0:0:
256,192,31720,1,8,0:0:0:0:
256,192,32265,1,0,0:0:0:0:
256,192,32538,1,8,0:0:0:0:
256,192,32811,1,8,0:0:0:0:
256,192,32947,1,8,0:0:0:0:
256,192,33083,1,0,0:0:0:0:
256,192,33356,1,4,0:0:0:0:
256,192,33902,1,12,0:0:0:0:
256,192,34447,1,4,0:0:0:0:
256,192,34720,1,12,0:0:0:0:
256,192,34993,1,8,0:0:0:0:
256,192,35129,1,8,0:0:0:0:
256,192,35265,1,0,0:0:0:0:
256,192,35538,1,4,0:0:0:0:
256,192,36083,1,8,0:0:0:0:
256,192,36629,1,0,0:0:0:0:
256,192,36901,1,0,0:0:0:0:
256,192,37174,1,8,0:0:0:0:
256,192,37719,1,0,0:0:0:0:
256,192,38265,1,8,0:0:0:0:
256,192,38810,1,0,0:0:0:0:
256,192,39083,1,0,0:0:0:0:
256,192,39356,1,8,0:0:0:0:
256,192,39629,1,0,0:0:0:0:
256,192,39901,1,0,0:0:0:0:
256,192,40446,1,8,0:0:0:0:
256,192,40992,1,0,0:0:0:0:
256,192,41264,1,0,0:0:0:0:
256,192,41537,1,8,0:0:0:0:
256,192,42082,1,0,0:0:0:0:
256,192,42628,1,8,0:0:0:0:
256,192,43173,1,0,0:0:0:0:
256,192,43446,1,0,0:0:0:0:
256,192,43719,1,8,0:0:0:0:
256,192,43992,1,0,0:0:0:0:
256,192,44129,1,0,0:0:0:0:
256,192,44265,1,0,0:0:0:0:
256,192,44810,1,8,0:0:0:0:
256,192,45356,1,0,0:0:0:0:
256,192,45628,1,0,0:0:0:0:
256,192,45901,1,8,0:0:0:0:
256,192,46446,1,0,0:0:0:0:
256,192,46992,1,8,0:0:0:0:
256,192,47537,1,0,0:0:0:0:
256,192,47810,1,0,0:0:0:0:
256,192,48083,1,8,0:0:0:0:
256,192,48356,1,0,0:0:0:0:
256,192,48629,1,0,0:0:0:0:
256,192,49174,1,8,0:0:0:0:
256,192,49720,1,0,0:0:0:0:
256,192,49992,1,0,0:0:0:0:
256,192,50265,1,8,0:0:0:0:
256,192,50810,1,0,0:0:0:0:
256,192,51356,1,8,0:0:0:0:
256,192,51901,1,0,0:0:0:0:
256,192,52174,1,0,0:0:0:0:
256,192,52447,1,8,0:0:0:0:
256,192,52720,1,0,0:0:0:0:
256,192,52992,1,4,0:0:0:0:
256,192,53538,1,0,0:0:0:0:
256,192,54083,1,0,0:0:0:0:
256,192,54356,1,8,0:0:0:0:
256,192,54629,1,8,0:0:0:0:
256,192,54765,1,8,0:0:0:0:
256,192,54901,1,0,0:0:0:0:
256,192,55174,1,4,0:0:0:0:
256,192,55719,1,12,0:0:0:0:
256,192,56265,1,4,0:0:0:0:
256,192,56538,1,12,0:0:0:0:
256,192,56810,1,8,0:0:0:0:
256,192,56947,1,8,0:0:0:0:
256,192,57083,1,0,0:0:0:0:
256,192,57356,1,4,0:0:0:0:
256,192,57901,1,8,0:0:0:0:
256,192,58447,1,0,0:0:0:0:
256,192,58719,1,0,0:0:0:0:
256,192,58992,1,8,0:0:0:0:
256,192,59537,1,0,0:0:0:0:
256,192,60083,1,8,0:0:0:0:
256,192,60628,1,0,0:0:0:0:
256,192,60901,1,0,0:0:0:0:
256,192,61174,1,8,0:0:0:0:
256,192,61447,1,0,0:0:0:0:
256,192,61719,1,0,0:0:0:0:
256,192,62264,1,8,0:0:0:0:
256,192,62810,1,0,0:0:0:0:
256,192,63082,1,0,0:0:0:0:
256,192,63355,1,8,0:0:0:0:
256,192,63900,1,0,0:0:0:0:
256,192,64446,1,8,0:0:0:0:
256,192,64991,1,0,0:0:0:0:
256,192,65264,1,0,0:0:0:0:
256,192,65537,1,8,0:0:0:0:
256,192,65810,1,0,0:0:0:0:
256,192,66083,1,0,0:0:0:0:
256,192,66628,1,8,0:0:0:0:
256,192,67174,1,0,0:0:0:0:
256,192,67446,1,0,0:0:0:0:
256,192,67719,1,8,0:0:0:0:
256,192,68264,1,0,0:0:0:0:
256,192,68810,1,8,0:0:0:0:
256,192,69355,1,0,0:0:0:0:
256,192,69628,1,0,0:0:0:0:
256,192,69901,1,8,0:0:0:0:
256,192,70174,1,0,0:0:0:0:
256,192,70447,1,0,0:0:0:0:
256,192,70992,1,8,0:0:0:0:
256,192,71538,1,0,0:0:0:0:
256,192,71810,1,0,0:0:0:0:
256,192,72083,1,8,0:0:0:0:
256,192,72628,1,0,0:0:0:0:
256,192,73174,1,8,0:0:0:0:
256,192,73719,1,0,0:0:0:0:
256,192,73992,1,0,0:0:0:0:
256,192,74265,1,8,0:0:0:0:
256,192,74538,1,0,0:0:0:0:
256,192,74810,1,4,0:0:0:0:
256,192,75083,12,0,76447,0:0:0:0:
256,192,76992,5,4,0:0:0:0:
256,192,77265,12,0,78629,0:0:0:0:
256,192,79174,5,4,0:0:0:0:
256,192,79447,12,0,82992,0:0:0:0:
256,192,83538,5,4,0:0:0:0:
256,192,84083,1,8,0:0:0:0:
256,192,84629,1,0,0:0:0:0:
256,192,84901,1,0,0:0:0:0:
256,192,85174,1,8,0:0:0:0:
256,192,85719,1,0,0:0:0:0:
256,192,86265,1,8,0:0:0:0:
256,192,86810,1,0,0:0:0:0:
256,192,87083,1,0,0:0:0:0:
256,192,87356,1,8,0:0:0:0:
256,192,87629,1,0,0:0:0:0:
256,192,87901,5,4,0:0:0:0:
256,192,88446,1,8,0:0:0:0:
256,192,88992,1,0,0:0:0:0:
256,192,89264,1,0,0:0:0:0:
256,192,89537,1,8,0:0:0:0:
256,192,90082,1,0,0:0:0:0:
256,192,90628,1,8,0:0:0:0:
256,192,91173,1,0,0:0:0:0:
256,192,91446,1,0,0:0:0:0:
256,192,91719,1,8,0:0:0:0:
256,192,91992,1,0,0:0:0:0:
256,192,92265,1,0,0:0:0:0:
256,192,92810,1,8,0:0:0:0:
256,192,93356,1,0,0:0:0:0:
256,192,93628,1,0,0:0:0:0:
256,192,93901,1,8,0:0:0:0:
256,192,94446,1,0,0:0:0:0:
256,192,94992,1,8,0:0:0:0:
256,192,95537,1,0,0:0:0:0:
256,192,95810,1,0,0:0:0:0:
256,192,96083,1,8,0:0:0:0:
256,192,96356,1,0,0:0:0:0:
256,192,96629,1,0,0:0:0:0:
256,192,97174,1,8,0:0:0:0:
256,192,97720,1,0,0:0:0:0:
256,192,97992,1,0,0:0:0:0:
256,192,98265,1,8,0:0:0:0:
256,192,98810,1,0,0:0:0:0:
256,192,99356,1,8,0:0:0:0:
256,192,99901,1,0,0:0:0:0:
256,192,100174,1,0,0:0:0:0:
256,192,100447,1,8,0:0:0:0:
256,192,100720,1,0,0:0:0:0:
256,192,100856,1,0,0:0:0:0:
256,192,100992,1,4,0:0:0:0:
256,192,101537,1,8,0:0:0:0:
256,192,102083,1,0,0:0:0:0:
256,192,102355,1,0,0:0:0:0:
256,192,102628,1,8,0:0:0:0:
256,192,103173,1,0,0:0:0:0:
256,192,103719,1,8,0:0:0:0:
256,192,104264,1,0,0:0:0:0:
256,192,104537,1,0,0:0:0:0:
256,192,104810,1,8,0:0:0:0:
256,192,105083,1,0,0:0:0:0:
256,192,105356,1,0,0:0:0:0:
256,192,105901,1,8,0:0:0:0:
256,192,106447,1,0,0:0:0:0:
256,192,106719,1,0,0:0:0:0:
256,192,106992,1,8,0:0:0:0:
256,192,107537,1,0,0:0:0:0:
256,192,108083,1,8,0:0:0:0:
256,192,108628,1,0,0:0:0:0:
256,192,108901,1,0,0:0:0:0:
256,192,109174,1,8,0:0:0:0:
256,192,109447,1,0,0:0:0:0:
256,192,109719,1,0,0:0:0:0:
256,192,110264,1,8,0:0:0:0:
256,192,110810,1,0,0:0:0:0:
256,192,111082,1,0,0:0:0:0:
256,192,111355,1,8,0:0:0:0:
256,192,111900,1,0,0:0:0:0:
256,192,112446,1,8,0:0:0:0:
256,192,112991,1,0,0:0:0:0:
256,192,113264,1,0,0:0:0:0:
256,192,113537,1,8,0:0:0:0:
256,192,113810,1,0,0:0:0:0:
256,192,114083,1,0,0:0:0:0:
256,192,114628,1,8,0:0:0:0:
256,192,115174,1,0,0:0:0:0:
256,192,115446,1,0,0:0:0:0:
256,192,115719,1,8,0:0:0:0:
256,192,116264,1,0,0:0:0:0:
256,192,116810,1,8,0:0:0:0:
256,192,117355,1,0,0:0:0:0:
256,192,117628,1,0,0:0:0:0:
256,192,117901,1,12,0:0:0:0:
256,192,118174,1,0,0:0:0:0:
256,192,118447,1,4,0:0:0:0:
256,192,118720,1,8,0:0:0:0:
256,192,118992,1,0,0:0:0:0:
256,192,119265,1,0,0:0:0:0:
256,192,119538,1,0,0:0:0:0:
256,192,120083,1,8,0:0:0:0:
256,192,120356,1,8,0:0:0:0:
256,192,120629,1,0,0:0:0:0:
256,192,120901,1,8,0:0:0:0:
256,192,121174,1,0,0:0:0:0:
256,192,121447,1,0,0:0:0:0:
256,192,121720,1,0,0:0:0:0:
256,192,122265,1,8,0:0:0:0:
256,192,122538,1,8,0:0:0:0:
256,192,122810,1,4,0:0:0:0:
256,192,123083,1,8,0:0:0:0:
256,192,123355,1,0,0:0:0:0:
256,192,123628,1,0,0:0:0:0:
256,192,123901,1,0,0:0:0:0:
256,192,124446,1,8,0:0:0:0:
256,192,124719,1,8,0:0:0:0:
256,192,124992,1,0,0:0:0:0:
256,192,125264,1,8,0:0:0:0:
256,192,125537,1,0,0:0:0:0:
256,192,125810,1,0,0:0:0:0:
256,192,126083,1,0,0:0:0:0:
256,192,126356,1,0,0:0:0:0:
256,192,126492,1,0,0:0:0:0:
256,192,126629,1,8,0:0:0:0:
256,192,126901,1,8,0:0:0:0:
256,192,127174,1,4,0:0:0:0:
256,192,127447,1,8,0:0:0:0:
256,192,127719,1,0,0:0:0:0:
256,192,127992,1,0,0:0:0:0:
256,192,128265,1,0,0:0:0:0:
256,192,128810,1,8,0:0:0:0:
256,192,129083,1,8,0:0:0:0:
256,192,129356,1,0,0:0:0:0:
256,192,129628,1,8,0:0:0:0:
256,192,129901,1,0,0:0:0:0:
256,192,130174,1,0,0:0:0:0:
256,192,130447,1,0,0:0:0:0:
256,192,130992,1,8,0:0:0:0:
256,192,131265,1,8,0:0:0:0:
256,192,131538,1,0,0:0:0:0:
256,192,131811,1,8,0:0:0:0:
256,192,132083,1,0,0:0:0:0:
256,192,132356,1,0,0:0:0:0:
256,192,132629,1,0,0:0:0:0:
256,192,133174,1,8,0:0:0:0:
256,192,133447,1,8,0:0:0:0:
256,192,133720,1,0,0:0:0:0:
256,192,133992,1,8,0:0:0:0:
256,192,134265,1,0,0:0:0:0:
256,192,134538,1,0,0:0:0:0:
256,192,134811,1,0,0:0:0:0:
256,192,135083,1,0,0:0:0:0:
256,192,135220,1,0,0:0:0:0:
256,192,135356,1,8,0:0:0:0:
256,192,135629,1,8,0:0:0:0:
256,192,135901,1,4,0:0:0:0:
256,192,136174,12,0,137538,0:0:0:0:
256,192,138083,5,4,0:0:0:0:
256,192,138356,12,0,139719,0:0:0:0:
256,192,140265,5,4,0:0:0:0:
256,192,140538,12,4,144629,0:0:0:0:
