osu file format v14

[General]
AudioFilename: audio.mp3
AudioLeadIn: 0
PreviewTime: 1393
Countdown: 0
SampleSet: Soft
StackLeniency: 0.7
Mode: 0
LetterboxInBreaks: 0
WidescreenStoryboard: 0

[Editor]
DistanceSpacing: 1
BeatDivisor: 4
GridSize: 4
TimelineZoom: 0.9999998

[Metadata]
Title:Sora ni Kogarete
TitleUnicode:空に焦がれて
Artist:Yano Tatsuya
ArtistUnicode:矢野達也
Creator:Firis Mistlud
Version:Challenging
Source:フィリスのアトリエ~不思議な旅の錬金術士~
Tags:OST Original soundtrack Atelier Firis: The Alchemist and the Mysterious Journey Fushigi na Tabi no Renkinjutsushi KuranteMelodii
BeatmapID:1272424
BeatmapSetID:602406

[Difficulty]
HPDrainRate:4
CircleSize:4
OverallDifficulty:5
ApproachRate:5
SliderMultiplier:1.5
SliderTickRate:1

[Events]
//Background and Video events
0,0,"wor_01a_img08_waifu2x_art_noise1_scale_tta_1.png",0,0
//Break Periods
//Storyboard Layer 0 (Background)
//Storyboard Layer 1 (Fail)
//Storyboard Layer 2 (Pass)
//Storyboard Layer 3 (Foreground)
//Storyboard Sound Samples

[TimingPoints]
1686,545.454545454546,4,2,0,40,1,0
19140,-100,4,2,0,44,0,0
20231,-100,4,2,0,48,0,0
21322,-100,4,2,0,52,0,0
22413,-100,4,2,0,56,0,0
23504,-100,4,2,0,60,0,0
45322,-100,4,2,0,50,0,0
51867,-100,4,2,0,30,0,0
54049,-100,4,2,0,40,0,0
60322,-100,4,2,0,32,0,0
61686,-100,4,2,0,26,0,0
62776,-100,4,2,0,18,0,0
64140,-100,4,2,0,10,0,0
65504,-100,4,2,0,5,0,0

[Colours]
Combo1 : 0,0,128
Combo2 : 64,0,128

[HitObjects]
68,92,1686,6,0,P|50:145|83:234,1,150,2|0,0:0|0:0,0:0:0:0:
200,320,2776,2,0,L|210:134,1,150,0|2,0:0|0:3,0:0:0:0:
309,58,3867,2,0,L|300:207,1,150,2|0,0:0|0:0,0:0:0:0:
431,279,4958,2,0,P|449:227|449:199,1,75
432,134,5504,2,0,P|397:91|373:76,1,75,2|0,0:3|0:0,0:0:0:0:
309,58,6049,6,0,L|152:48,1,150,2|0,0:0|0:0,0:0:0:0:
79,175,7140,2,0,L|228:184,1,150,0|2,0:0|0:3,0:0:0:0:
298,222,7958,1,0,0:0:0:0:
298,222,8231,2,0,P|323:284|285:372,1,150,2|0,0:0|0:0,0:0:0:0:
147,365,9322,1,0,0:0:0:0:
209,227,9867,1,2,0:3:0:0:
347,289,10413,6,0,P|411:288|473:221,1,150,2|0,0:0|0:0,0:0:0:0:
469,153,11231,1,0,0:0:0:0:
469,153,11504,2,0,P|420:99|347:95,1,150,0|2,0:0|0:3,0:0:0:0:
293,147,12322,1,0,0:0:0:0:
293,147,12595,2,0,L|133:137,1,150,2|0,0:0|0:0,0:0:0:0:
54,258,13686,2,0,P|43:302|51:338,1,75,0|0,0:0|0:0,0:0:0:0:
122,337,14231,2,0,P|133:293|125:257,1,75,2|0,0:3|0:0,0:0:0:0:
97,195,14776,6,0,P|71:149|116:68,1,150,2|0,0:0|0:0,0:0:0:0:
188,44,15595,1,0,0:0:0:0:
188,44,15867,2,0,P|234:70|315:25,1,150,2|2,0:0|0:3,0:0:0:0:
382,63,16686,1,0,0:0:0:0:
382,63,16958,2,0,P|424:122|398:189,1,150,2|0,0:0|0:0,0:0:0:0:
295,285,18049,2,0,P|354:243|421:269,1,150,0|2,0:0|0:3,0:0:0:0:
323,383,19140,6,0,L|203:368,2,100,2|0|0,0:0|0:0|0:0,0:0:0:0:
295,285,20231,2,0,L|175:270,2,100,2|0|0,0:0|0:0|0:0,0:0:0:0:
331,191,21322,2,0,L|451:176,2,100,2|0|0,0:0|0:0|0:0,0:0:0:0:
359,93,22413,2,0,L|479:78,2,100,2|0|0,0:0|0:0|0:0,0:0:0:0:
273,41,23504,6,0,L|153:26,2,100,2|0|0,0:0|0:0|0:0,0:0:0:0:
273,141,24595,2,0,L|114:121,1,150,2|2,0:0|0:3,0:0:0:0:
56,88,25413,1,0,0:0:0:0:
56,88,25686,1,2,0:0:0:0:
20,181,26049,1,0,0:0:0:0:
50,220,26231,2,0,L|161:237,1,100
179,274,26776,2,0,L|327:255,1,150,2|2,0:0|0:3,0:0:0:0:
471,213,27867,6,0,L|456:93,2,100,2|0|0,0:0|0:0|0:0,0:0:0:0:
373,185,28958,2,0,L|358:65,2,100,2|0|0,0:0|0:0|0:0,0:0:0:0:
279,221,30049,2,0,L|264:341,2,100,2|0|0,0:0|0:0|0:0,0:0:0:0:
181,249,31140,2,0,L|166:369,2,100,2|0|0,0:0|0:0|0:0,0:0:0:0:
129,163,32231,6,0,L|114:43,2,100,2|0|0,0:0|0:0|0:0,0:0:0:0:
37,202,33322,2,0,L|21:51,1,150,2|2,0:0|0:3,0:0:0:0:
163,4,34413,1,2,0:0:0:0:
275,10,34776,1,0,0:0:0:0:
324,18,34958,2,0,P|364:37|393:87,1,100
388,133,35504,1,2,0:0:0:0:
503,37,36049,1,2,0:3:0:0:
454,182,36595,6,0,P|391:172|306:208,1,150,2|0,0:0|0:0,0:0:0:0:
243,233,37413,1,0,0:0:0:0:
243,233,37686,2,0,P|174:262|101:253,1,150,0|2,0:0|0:3,0:0:0:0:
42,206,38504,1,0,0:0:0:0:
42,206,38776,2,0,P|71:274|62:347,1,150,2|0,0:0|0:0,0:0:0:0:
213,373,39867,2,0,P|204:323|211:297,1,75,0|0,0:0|0:0,0:0:0:0:
243,233,40413,2,0,P|252:183|245:157,1,75,2|0,0:3|0:0,0:0:0:0:
193,107,40958,6,0,P|256:117|341:81,1,150,2|0,0:0|0:0,0:0:0:0:
401,51,41776,1,0,0:0:0:0:
401,51,42049,2,0,P|391:114|427:199,1,150,0|2,0:0|0:3,0:0:0:0:
464,254,42867,1,0,0:0:0:0:
464,254,43140,2,0,P|401:244|316:280,1,150,2|0,0:0|0:0,0:0:0:0:
276,333,43958,1,0,0:0:0:0:
276,333,44231,1,0,0:0:0:0:
129,302,44776,1,2,0:3:0:0:
230,190,45322,6,0,L|238:34,1,150,2|0,0:0|0:0,0:0:0:0:
165,18,46140,1,0,0:0:0:0:
165,18,46413,2,0,L|157:167,1,150,2|2,0:0|0:3,0:0:0:0:
83,152,47231,1,0,0:0:0:0:
83,152,47504,2,0,L|90:2,1,150,2|0,0:0|0:0,0:0:0:0:
237,40,48595,1,0,0:0:0:0:
230,190,49140,2,0,L|232:264,1,75,2|0,0:3|0:0,0:0:0:0:
306,282,49686,6,0,P|266:333|174:311,1,150,2|0,0:0|0:0,0:0:0:0:
152,258,50504,1,0,0:0:0:0:
152,258,50776,2,0,L|143:103,1,150,0|2,0:0|0:3,0:0:0:0:
269,49,51867,1,2,0:0:0:0:
256,192,52140,12,2,53504,0:3:0:0:
447,321,54049,6,0,P|465:268|432:179,1,150,2|0,0:0|0:0,0:0:0:0:
315,93,55140,2,0,L|305:279,1,150,0|2,0:0|0:3,0:0:0:0:
206,355,56230,2,0,L|215:206,1,150,2|0,0:0|0:0,0:0:0:0:
112,95,57322,2,0,P|164:113|192:113,1,75
245,71,57867,2,0,P|297:53|325:53,1,75,2|0,0:3|0:0,0:0:0:0:
387,76,58412,6,0,L|377:233,1,150,2|0,0:0|0:0,0:0:0:0:
244,295,59503,2,0,L|253:146,1,150,0|2,0:0|0:3,0:0:0:0:
245,71,60321,1,0,0:0:0:0:
245,71,60594,2,0,P|183:45|95:84,1,150,2|0,0:0|0:0,0:0:0:0:
31,201,61686,1,0,0:0:0:0:
150,291,62231,1,2,0:3:0:0:
176,143,62776,5,2,0:0:0:0:
256,192,63049,12,0,65504,0:0:0:0:
