osu file format v14

[General]
AudioFilename: audio.mp3
AudioLeadIn: 0
PreviewTime: 1393
Countdown: 0
SampleSet: Soft
StackLeniency: 0.7
Mode: 0
LetterboxInBreaks: 0
WidescreenStoryboard: 0

[Editor]
DistanceSpacing: 1.2
BeatDivisor: 2
GridSize: 4
TimelineZoom: 1

[Metadata]
Title:Sora ni Kogarete
TitleUnicode:空に焦がれて
Artist:Yano Tatsuya
ArtistUnicode:矢野達也
Creator:Firis Mistlud
Version:Relaxing
Source:フィリスのアトリエ~不思議な旅の錬金術士~
Tags:OST Original soundtrack Atelier Firis: The Alchemist and the Mysterious Journey Fushigi na Tabi no Renkinjutsushi KuranteMelodii
BeatmapID:1273261
BeatmapSetID:602406

[Difficulty]
HPDrainRate:3
CircleSize:3
OverallDifficulty:4
ApproachRate:3
SliderMultiplier:1
SliderTickRate:1

[Events]
//Background and Video events
0,0,"wor_01a_img08_waifu2x_art_noise1_scale_tta_1.png",0,0
//Break Periods
//Storyboard Layer 0 (Background)
//Storyboard Layer 1 (Fail)
//Storyboard Layer 2 (Pass)
//Storyboard Layer 3 (Foreground)
//Storyboard Sound Samples

[TimingPoints]
1686,545.454545454546,4,2,0,40,1,0
19140,-100,4,2,0,44,0,0
20231,-100,4,2,0,48,0,0
21322,-100,4,2,0,52,0,0
22413,-100,4,2,0,56,0,0
23504,-100,4,2,0,60,0,0
45322,-100,4,2,0,50,0,0
51867,-100,4,2,0,30,0,0
54049,-100,4,2,0,40,0,0
60322,-100,4,2,0,32,0,0
61686,-100,4,2,0,26,0,0
62776,-100,4,2,0,18,0,0
64140,-100,4,2,0,10,0,0
65504,-100,4,2,0,5,0,0

[Colours]
Combo1 : 0,0,128
Combo2 : 64,0,128

[HitObjects]
211,67,1686,6,0,L|414:81,1,200,2|0,0:0|0:0,0:0:0:0:
483,176,3322,1,2,0:3:0:0:
409,270,3867,2,0,L|206:256,1,200,2|0,0:0|0:0,0:0:0:0:
137,159,5503,1,2,0:3:0:0:
58,68,6049,6,0,P|100:164|82:263,1,200,2|0,0:0|0:0,0:0:0:0:
34,364,7686,2,0,L|102:357,1,50,2|0,0:3|0:0,0:0:0:0:
134,327,8231,2,0,B|202:323|202:323|256:346|256:346|330:342,1,200,2|0,0:0|0:0,0:0:0:0:
433,281,9867,1,2,0:3:0:0:
382,173,10413,6,0,L|251:165,1,100,2|0,0:0|0:0,0:0:0:0:
228,140,11231,1,0,0:0:0:0:
228,140,11504,2,0,L|221:255,1,100,0|2,0:0|0:3,0:0:0:0:
188,289,12322,1,0,0:0:0:0:
188,289,12595,2,0,L|303:296,1,100,2|0,0:0|0:0,0:0:0:0:
399,341,13686,1,0,0:0:0:0:
483,256,14231,2,0,L|479:192,1,50,2|0,0:3|0:0,0:0:0:0:
503,150,14776,6,0,P|456:168|365:159,1,100,2|0,0:0|0:0,0:0:0:0:
366,124,15595,1,0,0:0:0:0:
366,124,15867,2,0,P|319:106|228:115,1,100,0|2,0:0|0:3,0:0:0:0:
215,129,16686,1,0,0:0:0:0:
215,129,16958,2,0,L|200:292,1,150,2|0,0:0|0:0,0:0:0:0:
197,338,18049,1,0,0:0:0:0:
99,267,18595,1,2,0:3:0:0:
96,147,19140,6,0,L|108:24,1,100,2|0,0:0|0:0,0:0:0:0:
224,29,20231,2,0,L|214:128,1,100,2|2,0:0|0:3,0:0:0:0:
276,231,21322,2,0,P|335:246|391:237,1,100,2|0,0:0|0:0,0:0:0:0:
430,348,22413,2,0,P|371:333|315:342,1,100,2|2,0:0|0:3,0:0:0:0:
214,356,23504,6,0,P|155:371|99:362,1,100,2|0,0:0|0:0,0:0:0:0:
60,258,24595,2,0,P|119:243|175:252,1,100,2|2,0:0|0:3,0:0:0:0:
276,231,25686,2,0,P|291:180|284:117,1,100,2|0,0:0|0:0,0:0:0:0:
206,46,26776,1,2,0:0:0:0:
324,27,27322,1,2,0:3:0:0:
406,114,27867,6,0,L|395:225,1,100,2|0,0:0|0:0,0:0:0:0:
432,328,28958,2,0,L|321:317,1,100,2|2,0:0|0:3,0:0:0:0:
218,354,30049,2,0,L|229:243,1,100,2|0,0:0|0:0,0:0:0:0:
192,140,31140,2,0,L|303:151,1,100,2|2,0:0|0:3,0:0:0:0:
302,30,32231,6,0,L|202:20,1,100,2|0,0:0|0:0,0:0:0:0:
102,86,33322,2,0,P|87:139|103:198,1,100,2|2,0:0|0:3,0:0:0:0:
146,290,34413,1,2,0:0:0:0:
373,367,35504,2,0,P|356:315|364:263,1,100,2|2,0:0|0:3,0:0:0:0:
467,215,36595,6,0,P|473:105|426:49,1,150,2|0,0:0|0:0,0:0:0:0:
399,51,37686,1,0,0:0:0:0:
301,120,38231,2,0,L|228:130,1,50,2|0,0:3|0:0,0:0:0:0:
192,115,38776,2,0,P|143:106|95:120,1,100
91,240,39867,2,0,P|139:248|187:234,1,100,0|2,0:0|0:3,0:0:0:0:
307,236,40958,6,0,P|374:203|470:252,1,150,2|0,0:0|0:0,0:0:0:0:
453,282,42049,1,0,0:0:0:0:
348,343,42595,2,0,L|272:357,1,50,2|0,0:3|0:0,0:0:0:0:
240,366,43140,2,0,L|107:340,1,100,2|0,0:0|0:0,0:0:0:0:
53,265,44231,2,0,P|33:209|55:135,1,100,0|2,0:0|0:3,0:0:0:0:
140,107,45322,5,2,0:0:0:0:
249,249,46140,1,0,0:0:0:0:
295,287,46413,2,0,P|344:290|390:271,1,100,2|2,0:0|0:3,0:0:0:0:
391,212,47231,1,0,0:0:0:0:
391,212,47504,2,0,L|382:112,1,100,2|0,0:0|0:0,0:0:0:0:
447,11,48595,2,0,L|323:21,1,100,0|8,0:0|0:0,0:0:0:0:
298,53,49413,1,0,0:0:0:0:
298,53,49686,6,0,L|165:47,1,100,2|0,0:0|0:0,0:0:0:0:
134,149,50776,2,0,L|233:153,1,100,0|2,0:0|0:3,0:0:0:0:
353,158,51867,1,2,0:0:0:0:
353,158,53504,1,2,0:3:0:0:
296,52,54049,6,0,P|186:27|93:66,1,200,2|0,0:0|0:0,0:0:0:0:
24,143,55685,1,2,0:3:0:0:
101,234,56231,6,0,P|211:259|304:220,1,200,2|0,0:0|0:0,0:0:0:0:
372,145,57867,1,2,0:3:0:0:
451,54,58413,6,0,B|408:138|408:138|427:249,1,200,2|0,0:0|0:0,0:0:0:0:
475,350,60049,2,0,L|407:343,1,50,2|0,0:3|0:0,0:0:0:0:
375,313,60595,2,0,B|307:309|307:309|253:332|253:332|179:328,1,200,2|0,0:0|0:0,0:0:0:0:
76,267,62230,1,2,0:3:0:0:
43,151,62776,5,2,0:0:0:0:
256,192,63049,12,0,65504,0:0:0:0:
