osu file format v14

[General]
AudioFilename: audio.mp3
AudioLeadIn: 0
PreviewTime: 51703
Countdown: 0
SampleSet: Soft
StackLeniency: 0.3
Mode: 0
LetterboxInBreaks: 0
WidescreenStoryboard: 1

[Editor]
DistanceSpacing: 1.5
BeatDivisor: 4
GridSize: 32
TimelineZoom: 2.999999

[Metadata]
Title:Shape My Story (TV Size)
TitleUnicode:Shape My Story (TV Size)
Artist:Yano Anna
ArtistUnicode:やのあんな
Creator:Bariton
Version:Trynna's Hard
Source:ステラ女学院高等科C³部(しーきゅーぶ)
Tags:Stella Jogakuin Koutouka C3-bu Trynna Ataraxia
BeatmapID:1534514
BeatmapSetID:724366

[Difficulty]
HPDrainRate:5
CircleSize:3.8
OverallDifficulty:6
ApproachRate:7
SliderMultiplier:1.4
SliderTickRate:1

[Events]
//Background and Video events
0,0,"BG (1).jpg",0,0
//Break Periods
//Storyboard Layer 0 (Background)
//Storyboard Layer 1 (Fail)
//Storyboard Layer 2 (Pass)
//Storyboard Layer 3 (Foreground)
//Storyboard Sound Samples

[TimingPoints]
592,370.37037037037,4,2,1,40,1,0
2814,-133.333333333333,4,2,1,15,0,0
3184,-133.333333333333,4,2,1,5,0,0
3554,-100,4,2,1,70,0,0
11703,-100,4,2,1,50,0,0
12443,-125,4,2,1,70,0,0
12814,-125,4,2,1,20,0,0
12999,-125,4,2,1,70,0,0
13184,-125,4,2,1,20,0,0
13554,-125,4,2,1,70,0,0
15406,-125,4,2,1,50,0,0
39110,-147.058823529412,4,2,1,60,0,0
47999,-133.333333333333,4,2,1,60,0,0
49480,-133.333333333333,4,2,1,40,0,0
50962,-133.333333333333,4,2,1,60,0,0
51703,-125,4,2,1,60,0,0
52073,-125,4,2,1,50,0,0
52443,-90.9090909090909,4,2,1,70,0,1
64203,-90.9090909090909,4,2,1,70,0,0
64295,-90.9090909090909,4,2,1,70,0,1
74666,-90.9090909090909,4,2,1,50,0,0
74943,-90.9090909090909,4,2,1,30,0,0
75221,-90.9090909090909,4,2,1,50,0,0
76147,-100,4,2,1,70,0,1
76240,-100,4,2,1,60,0,0
89388,-100,4,2,1,5,0,0

[Colours]
Combo1 : 180,135,173
Combo2 : 255,128,128
Combo3 : 153,174,230
Combo4 : 187,208,149

[HitObjects]
292,56,592,6,0,P|327:51|362:51,1,70,2|2,0:0|0:0,0:0:0:0:
448,76,962,1,2,0:0:0:0:
448,76,1147,1,2,0:0:0:0:
396,148,1332,2,0,L|400:217,1,70,2|2,0:0|0:0,0:0:0:0:
404,308,1703,1,2,0:0:0:0:
404,308,1888,1,2,0:0:0:0:
325,268,2073,6,0,P|290:263|255:267,1,70,2|2,0:0|0:0,0:0:0:0:
168,300,2443,2,0,P|134:304|99:299,1,70,2|2,0:0|0:0,0:0:0:0:
24,240,2814,6,0,B|32:180|32:180|24:144|24:144|32:84,1,157.500006008148,0|0,0:0|0:0,0:0:0:0:
132,32,3554,6,0,P|201:23|271:39,1,140,4|0,0:1|0:0,0:0:0:0:
324,112,4110,2,0,P|393:97|462:105,1,140,2|2,1:2|3:2,0:0:0:0:
492,192,4666,2,0,L|484:268,1,70,2|0,3:2|0:0,0:0:0:0:
472,360,5036,5,0,0:0:0:0:
388,320,5221,2,0,P|319:317|254:341,1,140,2|2,0:0|0:0,0:0:0:0:
180,288,5777,2,0,P|184:252|181:218,1,70,2|0,1:2|0:0,0:0:0:0:
96,248,6147,2,0,P|92:212|96:178,1,70,0|0,3:2|0:0,0:0:0:0:
168,92,6517,6,0,B|216:112|216:112|303:96,1,140,2|0,3:2|0:0,0:0:0:0:
369,32,7073,2,0,P|394:96|369:159,1,140,0|2,1:0|3:2,0:0:0:0:
416,240,7629,2,0,P|451:235|485:244,1,70,2|0,3:2|0:0,0:0:0:0:
448,336,7999,5,0,0:0:0:0:
360,316,8184,2,0,L|212:324,1,140,2|2,0:0|0:0,0:0:0:0:
136,356,8740,2,0,L|68:344,1,70,0|0,1:0|0:0,0:0:0:0:
116,268,9110,1,2,0:2:0:0:
116,268,9295,1,0,0:0:0:0:
40,176,9480,6,0,B|20:120|40:72|40:72|48:88|60:99,1,140,0|0,3:2|3:2,0:0:0:0:
144,72,10036,2,0,P|213:86|282:76,1,140,0|0,1:0|0:0,0:0:0:0:
364,36,10591,2,0,P|372:72|368:105,1,70,0|0,3:3|0:0,0:0:0:0:
336,208,10962,5,0,3:2:0:0:
424,196,11147,2,0,P|479:238|504:302,1,140,0|0,0:0|0:0,0:0:0:0:
504,320,11610,1,0,0:0:0:0:
500,336,11703,1,4,0:3:0:0:
416,372,11888,1,0,1:0:0:0:
328,344,12073,2,0,L|259:347,1,70,6|2,0:3|0:0,0:0:0:0:
184,272,12443,6,0,B|156:184|208:196|186:108,2,168,4|4|4,3:2|3:2|3:1,0:0:0:0:
328,264,13925,1,0,3:3:0:0:
396,316,14110,2,0,P|449:309|507:308,1,112,0|0,3:0|3:0,0:0:0:0:
480,228,14666,2,0,L|484:144,1,84,0|0,3:0|0:0,0:0:0:0:
484,124,15036,1,0,1:0:0:0:
356,64,15406,6,0,B|300:52|308:84|246:72,1,112,4|0,0:1|3:3,0:0:0:0:
188,132,15962,2,0,P|212:172|216:244,1,112,2|2,0:0|0:0,0:0:0:0:
160,300,16517,1,2,3:2:0:0:
96,260,16703,1,2,0:0:0:0:
96,260,16795,1,2,0:0:0:0:
96,260,16888,1,2,3:2:0:0:
232,344,17258,1,0,3:2:0:0:
308,312,17443,2,0,P|363:304|418:314,1,112,2|2,0:2|0:0,0:0:0:0:
476,252,17999,2,0,L|472:168,1,84,0|2,3:2|0:0,0:0:0:0:
471,140,18369,6,0,B|428:151|428:151|359:144,1,112,2|0,3:2|3:0,0:0:0:0:
296,88,18925,2,0,L|180:84,1,112,2|0,0:0|0:0,0:0:0:0:
124,144,19480,1,2,3:2:0:0:
64,100,19666,1,0,0:0:0:0:
64,100,19758,1,0,0:0:0:0:
64,100,19851,1,2,3:2:0:0:
36,264,20221,1,2,3:2:0:0:
108,308,20406,2,0,L|220:300,1,112,2|0,0:0|0:0,0:0:0:0:
300,324,20962,2,0,L|297:240,1,84,2|0,3:2|0:0,0:0:0:0:
316,220,21332,6,0,P|371:228|425:216,1,112,2|0,3:2|3:2,0:0:0:0:
420,132,21888,2,0,P|364:123|310:135,1,112,2|0,0:0|0:0,0:0:0:0:
240,180,22443,1,2,3:2:0:0:
172,148,22629,1,0,0:0:0:0:
172,148,22721,1,0,0:0:0:0:
172,148,22814,1,2,3:2:0:0:
36,248,23184,1,2,3:2:0:0:
100,300,23369,2,0,P|118:248|101:195,1,112,2|0,0:0|0:0,0:0:0:0:
40,136,23925,2,0,P|40:94|46:52,1,84,2|0,3:2|0:0,0:0:0:0:
68,32,24295,6,0,L|180:36,1,112,2|0,3:2|3:2,0:0:0:0:
248,88,24851,2,0,L|360:84,1,112,2|0,0:0|0:0,0:0:0:0:
438,48,25406,1,2,3:2:0:0:
492,128,25591,1,0,0:0:0:0:
492,128,25684,1,0,0:0:0:0:
491,128,25777,2,0,P|491:155|487:183,2,56,2|0|0,3:2|0:0|3:2,0:0:0:0:
412,152,26332,2,0,P|411:207|417:263,1,112,2|0,0:0|0:0,0:0:0:0:
460,352,26888,2,0,P|418:344|377:346,1,84,2|0,3:2|0:0,0:0:0:0:
355,328,27258,6,0,L|300:334,1,56,2|2,3:2|0:0,0:0:0:0:
216,344,27629,1,2,3:2:0:0:
248,268,27814,2,0,B|256:220|256:220|240:156,1,112,2|0,0:2|0:0,0:0:0:0:
160,180,28369,2,0,L|96:176,1,56,2|0,3:2|0:0,0:0:0:0:
184,95,28740,2,0,P|234:74|287:89,1,112,2|0,3:2|3:2,0:0:0:0:
364,124,29295,2,0,L|480:120,1,112,2|0,0:0|0:0,0:0:0:0:
512,196,29851,2,0,P|504:232|504:260,1,56,2|0,3:2|0:0,0:0:0:0:
424,332,30221,6,0,B|384:328|384:328|352:336|352:336|313:332,1,112,2|0,3:2|3:2,0:0:0:0:
232,360,30777,2,0,P|193:320|138:315,1,112,2|0,0:0|0:0,0:0:0:0:
60,340,31332,1,2,3:2:0:0:
76,256,31517,1,0,0:0:0:0:
76,256,31610,1,0,0:0:0:0:
76,256,31703,2,0,L|72:180,1,56,2|0,3:2|0:0,0:0:0:0:
72,116,32073,1,0,3:2:0:0:
148,156,32258,2,0,P|201:168|254:152,1,112,2|0,0:0|0:0,0:0:0:0:
332,184,32814,2,0,P|333:153|336:128,1,56,2|0,3:2|0:0,0:0:0:0:
392,39,33184,6,0,P|444:23|497:41,1,112,2|0,3:2|3:2,0:0:0:0:
476,124,33740,2,0,L|482:235,1,112,2|0,0:0|0:0,0:0:0:0:
488,320,34295,1,2,3:2:0:0:
416,360,34480,1,0,0:0:0:0:
416,360,34573,1,0,0:0:0:0:
416,360,34666,6,0,P|358:360|296:356,1,112,2|0,3:2|3:2,0:0:0:0:
252,291,35221,2,0,P|260:236|250:181,1,112,2|0,0:0|0:0,0:0:0:0:
180,136,35777,2,0,L|120:132,1,56,0|2,3:0|0:0,0:0:0:0:
35,76,36147,6,0,P|15:127|26:181,1,112,2|0,3:2|3:0,0:0:0:0:
84,244,36703,2,0,L|76:360,1,112,2|0,0:0|0:0,0:0:0:0:
160,340,37258,1,2,3:2:0:0:
248,324,37443,1,0,0:0:0:0:
248,324,37536,1,0,0:0:0:0:
248,324,37629,6,0,L|303:326,1,56,2|2,3:2|0:0,0:0:0:0:
384,356,37999,2,0,L|439:353,1,56,2|2,3:2|0:0,0:0:0:0:
492,288,38369,1,0,3:2:0:0:
408,272,38554,1,0,0:0:0:0:
424,188,38740,1,0,3:2:0:0:
508,204,38925,1,0,0:0:0:0:
452,112,39110,6,0,P|405:105|365:128,1,95.2000005810547,4|0,0:1|0:0,0:0:0:0:
284,144,39666,2,0,P|292:190|284:237,1,95.2000005810547,0|2,1:0|3:2,0:0:0:0:
252,312,40221,1,0,3:0:0:0:
176,280,40406,1,0,0:0:0:0:
104,315,40591,2,0,P|60:334|13:331,2,95.2000005810547,0|0|0,0:0|3:0|1:0,0:0:0:0:
104,152,41703,1,0,3:0:0:0:
63,79,41888,1,2,0:0:0:0:
146,74,42073,6,0,P|192:76|240:96,1,95.2000005810547,0|0,3:0|0:0,0:0:0:0:
312,60,42629,2,0,P|355:42|403:39,1,95.2000005810547,0|2,1:0|3:2,0:0:0:0:
464,92,43184,1,2,3:2:0:0:
420,160,43369,1,0,0:0:0:0:
456,232,43554,2,0,B|472:268|472:268|464:324,2,95.2000005810547,2|2|2,0:3|0:3|1:2,0:0:0:0:
324,324,44666,2,0,L|260:312,1,47.6000002905273,2|0,2:3|0:0,0:0:0:0:
192,340,45036,6,0,L|188:240,1,95.2000005810547,4|2,0:1|0:2,0:0:0:0:
139,180,45591,2,0,P|184:163|229:174,1,95.2000005810547,0|0,1:0|3:3,0:0:0:0:
80,116,46332,2,0,P|51:160|51:203,2,95.2000005810547,4|0|0,3:1|3:0|3:0,0:0:0:0:
228,48,47443,1,0,3:0:0:0:
300,88,47629,2,0,L|384:80,1,71.400000435791,0|0,1:0|0:0,0:0:0:0:
396,76,47999,5,4,1:2:0:0:
388,156,48184,1,0,3:0:0:0:
452,204,48369,1,0,3:0:0:0:
424,276,48554,2,0,P|399:266|373:263,1,52.5000020027161,4|0,1:2|3:0,0:0:0:0:
312,316,48925,2,0,P|287:325|261:328,1,52.5000020027161,0|4,3:0|1:2,0:0:0:0:
196,288,49295,1,4,0:1:0:0:
256,192,49388,12,0,50962,3:0:0:0:
120,80,51703,6,0,L|176:80,1,56,0|0,0:0|0:0,0:0:0:0:
256,112,52073,2,0,P|294:95|335:95,1,84,0|0,1:0|0:0,0:0:0:0:
352,116,52443,6,0,B|372:172|372:172|356:265,1,154.000004699707,4|0,3:1|3:0,0:0:0:0:
396,348,52999,1,2,0:0:0:0:
304,332,53184,2,0,B|224:360|236:308|153:331,1,154.000004699707,0|0,3:0|3:0,0:0:0:0:
153,330,53740,1,2,0:0:0:0:
56,312,53925,6,0,L|64:236,1,77.0000023498536,0|0,3:0|0:0,0:0:0:0:
40,148,54295,2,0,P|76:157|116:156,1,77.0000023498536,0|2,3:2|0:0,0:0:0:0:
188,100,54666,2,0,L|304:108,1,115.50000352478,0|2,3:0|0:0,0:0:0:0:
324,124,55036,2,0,L|404:116,1,77.0000023498536,0|0,3:0|0:0,0:0:0:0:
508,88,55406,6,0,P|476:157|484:232,1,154.000004699707,0|0,3:0|3:2,0:0:0:0:
420,300,55962,2,0,B|348:280|348:280|272:300,1,154.000004699707,2|0,0:0|0:0,0:0:0:0:
188,264,56517,1,0,3:0:0:0:
188,264,56703,1,2,0:0:0:0:
88,312,56888,6,0,L|8:320,1,77.0000023498536,0|0,3:0|0:0,0:0:0:0:
112,236,57258,2,0,L|192:244,1,77.0000023498536,0|2,3:0|0:0,0:0:0:0:
48,176,57629,2,0,P|42:137|47:99,2,77.0000023498536,2|2|2,3:2|0:0|3:2,0:0:0:0:
216,96,58369,6,0,P|290:79|365:94,1,154.000004699707,0|0,3:0|3:0,0:0:0:0:
452,56,58925,1,2,0:0:0:0:
448,148,59110,2,0,L|456:224,1,77.0000023498536,0|0,3:0|0:0,0:0:0:0:
508,300,59480,2,0,P|457:275|403:293,1,115.50000352478,0|2,3:0|0:0,0:0:0:0:
386,308,59851,5,0,3:0:0:0:
304,352,60036,1,2,0:0:0:0:
224,304,60221,1,0,3:0:0:0:
304,260,60406,1,0,0:0:0:0:
252,184,60591,2,0,L|252:107,1,77.0000023498536,0|0,3:0|0:0,0:0:0:0:
288,20,60962,2,0,P|250:11|213:19,1,77.0000023498536,0|2,3:0|0:0,0:0:0:0:
140,96,61332,6,0,L|12:92,1,115.50000352478,0|2,3:0|0:0,0:0:0:0:
0,92,61703,1,0,3:0:0:0:
20,184,61888,1,2,0:0:0:0:
4,276,62073,2,0,L|8:352,2,77.0000023498536,0|2|0,3:0|0:0|3:0,0:0:0:0:
92,244,62629,1,0,0:0:0:0:
168,320,62814,6,0,L|321:312,1,154.000004699707,2|2,3:2|3:2,0:0:0:0:
404,352,63369,1,2,1:2:0:0:
443,268,63554,2,0,P|452:230|443:193,1,77.0000023498536,0|0,1:0|1:0,0:0:0:0:
360,152,63925,2,0,P|351:189|360:226,1,77.0000023498536,0|0,1:1|1:1,0:0:0:0:
428,96,64295,6,0,P|360:63|292:94,1,154.000004699707,4|0,3:1|3:0,0:0:0:0:
212,52,64851,2,0,B|136:76|136:28|62:52,1,154.000004699707,2|2,0:0|0:0,0:0:0:0:
4,116,65406,1,0,3:0:0:0:
4,116,65591,1,2,0:0:0:0:
72,196,65777,6,0,L|76:276,1,77.0000023498536,0|0,3:0|0:0,0:0:0:0:
164,252,66147,2,0,L|160:332,1,77.0000023498536,0|2,3:0|0:0,0:0:0:0:
248,296,66517,2,0,L|376:292,1,115.50000352478,0|2,3:0|0:0,0:0:0:0:
384,308,66888,2,0,P|379:269|383:231,1,77.0000023498536,0|2,3:0|0:0,0:0:0:0:
452,144,67258,6,0,P|382:115|313:145,1,154.000004699707,4|0,3:2|3:0,0:0:0:0:
228,116,67814,1,0,0:0:0:0:
156,172,67999,6,0,B|176:112|176:112|161:22,1,154.000004699707,4|0,3:2|3:0,0:0:0:0:
72,52,68554,1,0,0:0:0:0:
36,136,68740,6,0,L|47:289,1,154.000004699707,4|0,3:2|3:0,0:0:0:0:
56,380,69295,1,2,0:0:0:0:
128,324,69480,2,0,P|164:323|208:336,2,77.0000023498536,0|0|0,3:0|0:0|3:2,0:0:0:0:
308,272,70221,6,0,P|377:300|447:272,1,154.000004699707,4|0,1:1|3:0,0:0:0:0:
444,180,70777,2,0,P|374:151|304:179,1,154.000004699707,0|0,1:2|3:2,0:0:0:0:
224,228,71332,2,0,L|148:224,1,77.0000023498536,4|0,1:2|3:0,0:0:0:0:
48,280,71703,6,0,B|68:224|68:224|44:128,1,154.000004699707,4|0,1:0|3:0,0:0:0:0:
103,63,72258,2,0,P|179:74|255:62,1,154.000004699707,0|0,1:0|3:0,0:0:0:0:
340,27,72814,2,0,P|378:28|415:39,1,77.0000023498536,4|0,1:2|3:0,0:0:0:0:
360,136,73184,5,4,3:1:0:0:
256,192,73277,12,0,74666,0:0:0:0:
408,71,76147,6,0,P|366:127|367:195,1,140,4|0,0:1|0:0,0:0:0:0:
408,276,76703,2,0,P|352:234|284:235,1,140,2|2,1:2|3:2,0:0:0:0:
212,292,77258,2,0,L|140:288,1,70,2|0,3:2|0:0,0:0:0:0:
40,280,77629,5,0,0:0:0:0:
100,212,77814,2,0,L|108:68,1,140,2|2,0:0|0:0,0:0:0:0:
196,100,78369,2,0,L|272:96,1,70,2|0,1:2|0:0,0:0:0:0:
296,12,78740,2,0,L|220:16,1,70,0|0,3:2|0:0,0:0:0:0:
360,88,79110,6,0,P|356:147|356:232,1,140,2|0,3:2|0:0,0:0:0:0:
408,303,79666,2,0,P|343:328|276:308,1,140,0|2,1:0|3:2,0:0:0:0:
192,340,80221,2,0,L|192:268,1,70,2|0,3:2|0:0,0:0:0:0:
192,168,80591,5,0,0:0:0:0:
116,220,80777,2,0,P|72:236|16:152,1,140,2|2,0:0|0:0,0:0:0:0:
76,112,81332,2,0,L|72:36,1,70,0|0,1:0|0:0,0:0:0:0:
156,80,81703,2,0,L|152:4,1,70,2|0,0:2|0:0,0:0:0:0:
256,108,82073,6,0,B|332:92|324:144|390:129,1,140,0|0,3:2|3:2,0:0:0:0:
472,88,82629,2,0,L|472:228,1,140,0|0,1:0|0:0,0:0:0:0:
500,316,83184,2,0,P|464:319|430:309,1,70,0|0,3:3|0:0,0:0:0:0:
336,352,83554,5,0,3:2:0:0:
260,300,83740,2,0,L|120:312,1,140,0|0,0:0|0:0,0:0:0:0:
52,256,84295,2,0,L|48:184,1,70,4|0,0:3|1:0,0:0:0:0:
128,150,84666,2,0,L|132:220,1,70,6|2,0:3|0:0,0:0:0:0:
64,88,85036,6,0,B|116:64|116:64|200:80,1,140,4|0,3:2|0:0,0:0:0:0:
284,36,85591,6,0,P|277:104|280:175,1,140,4|0,3:2|0:0,0:0:0:0:
344,260,86147,5,4,3:2:0:0:
256,192,86240,12,0,89480,0:0:0:0:
