osu file format v14

[General]
AudioFilename: audio.mp3
AudioLeadIn: 0
PreviewTime: 51703
Countdown: 0
SampleSet: Soft
StackLeniency: 0.3
Mode: 0
LetterboxInBreaks: 0
WidescreenStoryboard: 1

[Editor]
DistanceSpacing: 0.9
BeatDivisor: 4
GridSize: 32
TimelineZoom: 2.999999

[Metadata]
Title:Shape My Story (TV Size)
TitleUnicode:Shape My Story (TV Size)
Artist:Yano Anna
ArtistUnicode:やのあんな
Creator:Bariton
Version:Insane
Source:ステラ女学院高等科C³部(しーきゅーぶ)
Tags:Stella Jogakuin Koutouka C3-bu Trynna Ataraxia
BeatmapID:1529945
BeatmapSetID:724366

[Difficulty]
HPDrainRate:6
CircleSize:4
OverallDifficulty:7
ApproachRate:8.5
SliderMultiplier:1.58
SliderTickRate:1

[Events]
//Background and Video events
0,0,"BG (1).jpg",0,0
//Break Periods
//Storyboard Layer 0 (Background)
//Storyboard Layer 1 (Fail)
//Storyboard Layer 2 (Pass)
//Storyboard Layer 3 (Foreground)
//Storyboard Sound Samples

[TimingPoints]
592,370.37037037037,4,2,1,40,1,0
2814,-200,4,2,1,15,0,0
3184,-200,4,2,1,5,0,0
3554,-200,4,2,1,70,0,0
4666,-125,4,2,1,70,0,0
9480,-100,4,2,1,70,0,0
11703,-100,4,2,1,50,0,0
12443,-100,4,2,1,70,0,0
12814,-100,4,2,1,20,0,0
12999,-100,4,2,1,70,0,0
13184,-100,4,2,1,20,0,0
13554,-125,4,2,1,70,0,0
15036,-62.5,4,2,1,70,0,0
15406,-100,4,2,1,50,0,0
39110,-125,4,2,1,60,0,0
49295,-100,4,2,1,60,0,0
49480,-100,4,2,1,40,0,0
50962,-100,4,2,1,60,0,0
51703,-200,4,2,1,60,0,0
52073,-62.5,4,2,1,50,0,0
52443,-80,4,2,1,70,0,1
64203,-80,4,2,1,70,0,0
64295,-80,4,2,1,70,0,1
74666,-80,4,2,1,50,0,0
74943,-80,4,2,1,30,0,0
75221,-80,4,2,1,50,0,0
76147,-125,4,2,1,70,0,1
76240,-125,4,2,1,60,0,0
82073,-100,4,2,1,60,0,0
89388,-100,4,2,1,5,0,0

[Colours]
Combo1 : 180,135,173
Combo2 : 255,128,128
Combo3 : 153,174,230
Combo4 : 187,208,149

[HitObjects]
225,235,592,5,2,0:0:0:0:
212,161,777,1,2,0:0:0:0:
286,148,962,1,2,0:0:0:0:
299,222,1147,1,2,0:0:0:0:
225,235,1332,5,2,0:0:0:0:
206,131,1517,1,2,0:0:0:0:
310,113,1702,1,2,0:0:0:0:
328,216,1887,1,2,0:0:0:0:
225,235,2073,5,2,0:0:0:0:
198,89,2258,1,2,0:0:0:0:
343,64,2443,1,2,0:0:0:0:
369,208,2628,1,2,0:0:0:0:
225,235,2814,6,0,B|162:274|154:217|92:252,1,138.25,0|0,0:0|0:0,0:0:0:0:
296,304,3554,5,4,0:1:0:0:
296,304,4110,1,2,1:2:0:0:
296,304,4480,1,2,3:2:0:0:
387,223,4666,2,0,P|378:184|383:156,1,63.2,2|0,3:2|0:0,0:0:0:0:
382,161,5221,5,2,0:0:0:0:
382,161,5591,1,2,0:0:0:0:
255,227,5777,2,0,L|189:230,1,63.2,2|0,1:2|0:0,0:0:0:0:
102,189,6147,2,0,L|165:192,1,63.2,0|0,3:2|0:0,0:0:0:0:
25,290,6517,5,2,3:2:0:0:
25,290,7073,1,0,1:0:0:0:
25,290,7443,1,2,3:2:0:0:
102,189,7629,2,0,P|108:153|99:120,1,63.2,2|0,3:2|0:0,0:0:0:0:
102,128,8184,5,2,0:0:0:0:
102,128,8554,1,2,0:0:0:0:
222,76,8740,2,0,L|296:84,1,63.2,0|0,1:0|0:0,0:0:0:0:
388,97,9110,2,0,L|325:104,1,63.2,2|0,0:2|0:0,0:0:0:0:
441,31,9480,6,0,P|474:89|437:166,1,158,0|0,3:2|3:2,0:0:0:0:
388,97,10036,1,0,1:0:0:0:
329,197,10221,2,0,L|343:274,1,79,0|0,3:3|0:0,0:0:0:0:
425,353,10591,2,0,L|439:276,1,79,0|0,3:3|0:0,0:0:0:0:
259,331,10962,6,0,B|186:361|186:303|106:331,1,158,0|0,3:2|3:3,0:0:0:0:
27,249,11517,1,0,0:0:0:0:
90,135,11703,2,0,L|78:86,3,39.5,4|2|0|2,0:3|0:0|1:0|0:0,0:0:0:0:
185,164,12073,2,0,L|193:114,3,39.5,6|2|2|2,0:3|0:0|0:0|0:0,0:0:0:0:
109,230,12443,5,4,3:2:0:0:
272,172,12999,1,4,3:2:0:0:
206,307,13554,2,0,P|145:324|92:293,1,126.4,4|0,3:1|3:3,0:0:0:0:
156,240,14110,1,0,3:0:0:0:
108,112,14295,2,0,P|98:142|100:174,1,63.2,0|0,3:0|3:0,0:0:0:0:
207,171,14666,2,0,P|207:139|196:110,1,63.2,0|0,3:0|0:0,0:0:0:0:
108,112,15036,6,0,P|151:119|111:40,1,189.6,0|0,1:0|0:0,0:0:0:0:
207,171,15406,6,0,L|296:175,1,79,4|0,0:1|0:0,0:0:0:0:
355,122,15777,1,0,3:3:0:0:
455,159,15962,2,0,P|465:121|452:80,1,79,2|0,0:0|3:2,0:0:0:0:
381,215,16332,1,2,0:0:0:0:
355,122,16517,1,2,3:2:0:0:
466,251,16703,1,2,0:0:0:0:
466,251,16795,1,2,0:0:0:0:
466,251,16888,6,0,P|418:302|330:291,1,158,2|0,3:2|3:2,0:0:0:0:
224,259,17443,2,0,B|255:227,1,39.5,2|2,0:2|0:0,0:0:0:0:
236,273,17629,2,0,L|136:298,1,79,2|2,3:2|0:0,0:0:0:0:
47,243,17999,2,0,L|124:263,1,79,0|0,3:2|0:0,0:0:0:0:
185,177,18369,6,0,P|210:119|158:46,1,158,2|0,3:2|3:0,0:0:0:0:
286,102,18925,1,2,0:0:0:0:
292,98,19017,1,2,0:0:0:0:
299,94,19110,2,0,L|388:87,1,79,2|0,3:2|0:0,0:0:0:0:
490,127,19480,2,0,L|412:121,1,79,2|0,3:2|0:0,0:0:0:0:
259,206,19851,6,0,B|369:193|369:193|339:197|315:222,1,158,2|2,3:2|3:2,0:0:0:0:
437,324,20406,1,2,0:0:0:0:
437,324,20499,1,2,0:0:0:0:
437,324,20591,2,0,P|447:286|438:247,1,79,2|0,3:2|0:0,0:0:0:0:
331,286,20962,2,0,P|324:324|335:362,1,79,2|0,3:2|0:0,0:0:0:0:
206,327,21332,6,0,B|214:337|214:337|164:314|123:341|123:341|99:328|103:287,1,158,2|0,3:2|3:2,0:0:0:0:
164,225,21888,1,2,0:0:0:0:
164,225,21980,1,2,0:0:0:0:
164,225,22073,2,0,B|171:208|171:208|178:174|148:138,1,79,2|0,3:2|0:0,0:0:0:0:
62,150,22443,2,0,B|42:174|49:208|49:208|56:225,1,79,2|0,3:2|0:0,0:0:0:0:
175,69,22814,6,0,B|253:99|252:41|329:70,1,158,2|2,3:2|3:2,0:0:0:0:
407,106,23369,2,0,L|397:150,1,39.5,2|2,0:0|0:0,0:0:0:0:
372,185,23554,2,0,P|366:223|382:264,1,79,2|0,3:2|0:0,0:0:0:0:
507,265,23925,2,0,P|484:233|444:216,1,79,2|2,3:2|0:0,0:0:0:0:
422,335,24295,6,0,B|344:363|343:301|270:335,1,158,2|0,3:2|3:2,0:0:0:0:
147,284,24851,1,2,0:0:0:0:
147,284,24943,1,2,0:0:0:0:
147,284,25036,2,0,P|189:281|219:259,1,79,2|0,3:2|0:0,0:0:0:0:
278,162,25406,2,0,P|283:120|268:86,1,79,2|0,3:2|0:0,0:0:0:0:
139,131,25777,6,0,P|214:141|268:86,1,158,2|0,3:2|3:2,0:0:0:0:
415,154,26332,1,2,0:0:0:0:
415,154,26425,1,2,0:0:0:0:
415,154,26517,2,0,P|372:140|347:111,1,79,2|0,3:2|0:0,0:0:0:0:
410,33,26888,2,0,P|453:47|478:76,1,79,2|0,3:2|0:0,0:0:0:0:
452,230,27258,5,2,3:2:0:0:
394,282,27443,1,2,0:0:0:0:
313,250,27629,1,2,3:2:0:0:
223,302,27814,1,2,0:2:0:0:
216,299,27906,1,2,0:0:0:0:
209,296,27999,2,0,L|126:309,1,79,2|0,3:2|0:0,0:0:0:0:
20,263,28369,2,0,L|99:276,1,79,2|0,3:2|0:0,0:0:0:0:
219,200,28740,6,0,B|239:167|239:167|119:188,1,158,2|0,3:2|3:2,0:0:0:0:
37,135,29295,2,0,L|75:128,1,39.5,2|2,0:0|0:0,0:0:0:0:
110,94,29480,2,0,L|191:80,1,79,2|0,3:2|0:0,0:0:0:0:
308,203,29851,2,0,P|317:162|304:124,1,79,2|0,3:2|0:0,0:0:0:0:
233,251,30221,6,0,P|282:289|369:267,1,158,2|0,3:2|3:2,0:0:0:0:
452,316,30777,1,2,0:0:0:0:
452,316,30869,1,2,0:0:0:0:
452,316,30962,2,0,B|484:251|436:197|436:197|461:212,1,158,2|2,3:2|3:2,0:0:0:0:
460,211,31517,1,0,0:0:0:0:
408,95,31703,6,0,B|332:124|334:64|255:96,1,158,2|0,3:2|3:2,0:0:0:0:
181,155,32258,2,0,L|124:148,1,39.5,2|2,0:0|0:0,0:0:0:0:
97,124,32443,2,0,P|61:131|16:117,1,79,2|0,3:2|0:0,0:0:0:0:
135,16,32814,2,0,P|141:55|131:93,1,79,2|0,3:2|0:0,0:0:0:0:
86,216,33184,6,0,P|101:282|190:288,1,158,2|0,3:2|3:2,0:0:0:0:
280,340,33740,1,2,0:0:0:0:
280,340,33832,1,2,0:0:0:0:
280,340,33925,2,0,B|357:365|356:305|433:340,1,158,2|2,3:2|3:2,0:0:0:0:
484,260,34480,1,0,0:0:0:0:
302,181,34666,6,0,L|315:264,1,79,2|0,3:2|0:0,0:0:0:0:
379,91,35036,1,0,3:2:0:0:
282,64,35221,2,0,L|290:106,1,39.5,2|2,0:0|0:0,0:0:0:0:
302,181,35406,1,2,3:2:0:0:
314,259,35591,1,0,0:0:0:0:
210,153,35777,2,0,L|92:170,1,118.5,0|0,3:0|0:0,0:0:0:0:
75,173,36147,6,0,P|59:135|65:97,1,79,2|0,3:2|0:0,0:0:0:0:
139,249,36517,1,0,3:0:0:0:
139,249,36703,2,0,L|134:297,1,39.5,2|2,0:0|0:0,0:0:0:0:
168,324,36888,1,2,3:2:0:0:
264,254,37073,1,0,0:0:0:0:
285,346,37258,1,2,3:2:0:0:
302,223,37443,1,0,0:0:0:0:
383,355,37629,5,2,3:2:0:0:
302,223,37814,1,2,0:0:0:0:
285,346,37999,1,2,3:2:0:0:
340,193,38184,1,2,0:0:0:0:
268,88,38369,2,0,L|274:47,3,39.5,0|2|0|2,3:2|0:0|0:0|0:0,0:0:0:0:
186,115,38740,2,0,L|175:74,3,39.5,0|2|0|2,3:2|0:0|0:0|0:0,0:0:0:0:
246,169,39110,6,0,P|210:192|131:174,1,126.4,4|0,0:1|0:0,0:0:0:0:
103,136,39666,1,0,1:0:0:0:
61,281,40036,2,0,L|134:273,1,63.2,2|0,3:2|3:0,0:0:0:0:
263,333,40591,6,0,B|348:348|348:348|397:326,1,126.4,0|0,0:0|3:0,0:0:0:0:
429,346,41332,2,0,L|407:204,1,126.4,0|0,1:0|3:0,0:0:0:0:
379,182,41888,1,2,0:0:0:0:
445,88,42073,6,0,B|453:99|453:99|323:74,1,126.4,0|0,3:0|0:0,0:0:0:0:
306,40,42629,1,0,1:0:0:0:
172,112,42999,2,0,L|102:100,1,63.2,2|2,3:2|3:2,0:0:0:0:
44,238,43554,6,0,L|64:113,1,126.4,2|2,0:3|0:3,0:0:0:0:
142,202,44110,1,2,3:2:0:0:
148,209,44203,1,2,3:2:0:0:
154,216,44295,2,0,B|192:261|192:261|144:340,1,126.4,2|2,1:2|2:3,0:0:0:0:
354,319,45036,6,0,B|320:261|320:261|357:216,1,126.4,4|2,0:1|0:2,0:0:0:0:
381,65,45591,2,0,B|407:105|407:105|393:183,1,126.4,0|0,1:0|3:3,0:0:0:0:
231,181,46332,6,0,B|272:156|272:156|312:170|312:170|349:170,1,126.4,4|0,3:1|3:0,0:0:0:0:
393,182,46888,1,2,0:2:0:0:
231,181,47073,2,0,B|190:156|190:156|150:170|150:170|113:170,1,126.4,0|0,3:0|3:0,0:0:0:0:
69,143,47629,2,0,B|79:113|79:113|68:76,1,63.2,0|0,1:0|0:0,0:0:0:0:
11,256,47999,5,4,1:2:0:0:
91,306,48184,1,0,3:0:0:0:
174,262,48369,1,0,3:0:0:0:
298,323,48554,5,4,1:2:0:0:
384,283,48740,1,0,3:0:0:0:
309,225,48925,1,0,3:0:0:0:
452,333,49110,1,4,1:2:0:0:
389,177,49295,6,0,P|371:108|429:49,1,158,4|8,0:1|0:2,0:0:0:0:
476,136,49851,1,8,0:0:0:0:
284,24,50129,1,8,0:2:0:0:
284,24,50221,2,0,L|202:37,1,79,8|8,0:2|0:0,0:0:0:0:
99,48,50591,2,0,L|178:61,1,79,8|8,0:2|0:2,0:0:0:0:
361,193,50962,5,0,3:0:0:0:
361,311,51147,1,0,3:0:0:0:
242,311,51332,1,0,3:0:0:0:
242,193,51517,1,0,3:0:0:0:
140,208,51703,6,0,L|202:212,1,59.25,0|0,0:0|3:0,0:0:0:0:
242,156,52073,6,0,P|197:222|248:314,1,189.6,0|0,1:0|0:0,0:0:0:0:
327,290,52443,6,0,L|428:304,1,98.75,4|2,3:1|0:0,0:0:0:0:
481,217,52814,1,0,3:0:0:0:
420,154,52999,2,0,P|405:108|420:59,1,98.75,2|0,0:0|3:0,0:0:0:0:
316,156,53369,2,0,L|194:173,1,98.75,2|0,0:0|3:0,0:0:0:0:
218,169,53740,1,2,0:0:0:0:
85,102,53925,6,0,B|124:168|124:168|120:237|48:247,1,197.5,0|0,3:0|3:2,0:0:0:0:
48,246,54480,1,2,0:0:0:0:
165,327,54666,2,0,B|237:356|234:294|309:327,1,148.125,0|2,3:0|0:0,0:0:0:0:
382,297,55036,2,0,P|400:251|385:200,1,98.75,0|0,3:0|0:0,0:0:0:0:
214,93,55406,6,0,L|231:198,1,98.75,0|0,3:0|0:0,0:0:0:0:
286,40,55777,1,0,3:2:0:0:
229,190,55962,2,0,L|246:295,1,98.75,2|0,0:0|3:0,0:0:0:0:
301,137,56332,2,0,L|284:32,1,98.75,0|0,0:0|3:0,0:0:0:0:
285,39,56703,1,2,0:0:0:0:
148,152,56888,6,0,P|89:169|100:65,1,197.5,0|0,3:0|3:0,0:0:0:0:
295,266,57629,1,2,3:2:0:0:
366,216,57814,1,2,0:0:0:0:
454,279,57999,2,0,P|492:219|463:149,1,148.125,2|0,3:2|0:0,0:0:0:0:
399,107,58369,6,0,L|289:118,1,98.75,0|0,3:0|0:0,0:0:0:0:
109,41,58740,2,0,L|219:52,1,98.75,0|2,3:0|0:0,0:0:0:0:
301,117,59110,2,0,B|330:160|330:160|342:209|297:258,1,148.125,0|2,3:0|0:0,0:0:0:0:
250,308,59480,2,0,P|317:279|387:307,1,148.125,0|2,3:0|0:0,0:0:0:0:
444,358,59851,5,0,3:0:0:0:
477,254,60036,1,2,0:0:0:0:
405,138,60221,2,0,P|397:88|415:45,1,98.75,0|0,3:0|0:0,0:0:0:0:
317,197,60591,2,0,P|267:205|224:187,1,98.75,0|0,3:0|0:0,0:0:0:0:
136,56,60962,2,0,P|186:48|229:66,1,98.75,0|2,3:0|0:0,0:0:0:0:
223,186,61332,6,0,B|257:261|195:261|222:329,1,148.125,0|2,3:0|0:0,0:0:0:0:
292,296,61703,1,0,3:0:0:0:
390,342,61888,1,2,0:0:0:0:
464,249,62073,2,0,P|480:201|466:155,1,98.75,0|2,3:0|0:0,0:0:0:0:
323,74,62443,2,0,L|426:78,1,98.75,0|0,3:0|0:0,0:0:0:0:
273,229,62814,5,2,3:2:0:0:
323,74,62999,1,2,0:0:0:0:
365,267,63184,1,2,3:2:0:0:
240,135,63369,1,2,1:2:0:0:
240,135,63462,1,0,1:2:0:0:
240,135,63554,6,0,L|153:148,3,49.375,0|0|0|0,1:0|1:0|1:0|1:0,0:0:0:0:
123,182,63925,2,0,L|37:159,3,49.375,0|0|0|0,1:1|1:1|1:1|1:1,0:0:0:0:
30,106,64295,6,0,P|55:164|2:237,1,148.125,4|2,3:1|0:0,0:0:0:0:
62,294,64666,1,0,3:0:0:0:
163,252,64851,1,2,0:0:0:0:
259,330,65036,2,0,P|308:330|348:303,1,98.75,0|2,3:0|0:0,0:0:0:0:
163,252,65406,1,0,3:0:0:0:
163,252,65591,1,2,0:0:0:0:
294,174,65777,6,0,P|318:97|237:28,1,197.5,0|0,3:0|3:0,0:0:0:0:
159,74,66332,1,2,0:0:0:0:
44,38,66517,2,0,L|57:135,1,98.75,0|0,3:0|0:0,0:0:0:0:
163,252,66888,2,0,L|176:155,1,98.75,0|2,3:0|0:0,0:0:0:0:
99,307,67258,6,0,P|153:337|232:301,1,148.125,4|0,3:2|0:0,0:0:0:0:
301,337,67629,2,0,B|372:368|372:308|445:338,1,148.125,0|0,3:0|0:0,0:0:0:0:
394,274,67999,6,0,B|406:223|406:223|397:171|397:171|407:128,1,148.125,4|0,3:2|0:0,0:0:0:0:
477,90,68369,2,0,B|324:103,1,148.125,0|0,3:0|0:0,0:0:0:0:
260,69,68740,5,4,3:2:0:0:
43,193,69110,1,0,3:0:0:0:
134,130,69295,1,2,0:0:0:0:
134,130,69388,1,2,0:0:0:0:
134,130,69480,2,0,P|143:81|124:37,1,98.75,0|0,3:0|0:0,0:0:0:0:
43,193,69851,6,0,B|0:245|38:297|38:297|67:260,1,148.125,0|0,3:2|0:0,0:0:0:0:
123,315,70221,5,4,1:1:0:0:
244,273,70406,1,0,3:0:0:0:
355,335,70591,1,0,3:0:0:0:
254,254,70777,5,0,1:2:0:0:
366,315,70962,1,0,3:0:0:0:
479,255,71147,1,0,3:2:0:0:
414,144,71332,5,4,1:2:0:0:
377,295,71517,1,0,3:0:0:0:
414,144,71703,5,4,1:0:0:0:
297,90,71888,1,0,3:0:0:0:
190,161,72073,1,0,3:0:0:0:
282,72,72258,5,0,1:0:0:0:
175,143,72443,1,0,3:0:0:0:
62,105,72629,1,0,3:0:0:0:
107,293,72814,5,4,1:2:0:0:
160,125,72999,1,0,3:0:0:0:
229,322,73184,6,0,L|280:318,3,49.375,4|2|0|0,3:1|0:0|0:0|0:0,0:0:0:0:
332,258,73554,2,0,L|383:254,3,49.375,0|2|0|0,3:0|0:0|0:0|0:0,0:0:0:0:
458,275,73925,2,0,P|460:242|455:226,3,49.375,0|2|0|2,3:0|0:0|3:0|0:0,0:0:0:0:
393,178,74295,2,0,P|391:145|396:129,3,49.375,0|2|0|2,1:0|0:0|3:0|0:0,0:0:0:0:
470,45,74666,5,0,0:0:0:0:
48,319,76147,5,4,0:1:0:0:
48,319,76703,1,2,1:2:0:0:
48,319,77073,1,2,3:2:0:0:
125,223,77259,2,0,P|134:184|129:156,1,63.2,2|0,3:2|0:0,0:0:0:0:
130,161,77814,5,2,0:0:0:0:
130,161,78184,1,2,0:0:0:0:
257,227,78370,2,0,L|323:230,1,63.2,2|0,1:2|0:0,0:0:0:0:
410,189,78740,2,0,L|347:192,1,63.2,0|0,3:2|0:0,0:0:0:0:
487,290,79110,5,2,3:2:0:0:
487,290,79666,1,0,1:0:0:0:
487,290,80036,1,2,3:2:0:0:
410,189,80222,2,0,P|404:153|413:120,1,63.2,2|0,3:2|0:0,0:0:0:0:
410,128,80777,5,2,0:0:0:0:
410,128,81147,1,2,0:0:0:0:
290,76,81333,2,0,L|216:84,1,63.2,0|0,1:0|0:0,0:0:0:0:
124,97,81703,2,0,L|187:104,1,63.2,2|0,0:2|0:0,0:0:0:0:
71,31,82073,6,0,P|38:89|75:166,1,158,0|0,3:2|3:2,0:0:0:0:
124,97,82629,1,0,1:0:0:0:
177,193,82814,2,0,P|181:231|163:271,1,79,0|0,3:3|0:0,0:0:0:0:
89,357,83184,2,0,P|70:323|71:279,1,79,0|0,3:3|0:0,0:0:0:0:
243,332,83555,6,0,B|316:362|316:304|396:332,1,158,0|0,3:2|3:3,0:0:0:0:
485,249,84110,1,0,0:0:0:0:
422,135,84296,2,0,L|434:86,3,39.5,4|2|0|2,0:3|0:0|1:0|0:0,0:0:0:0:
323,156,84666,2,0,L|315:106,3,39.5,6|2|2|2,0:3|0:0|0:0|0:0,0:0:0:0:
391,226,85036,5,4,3:2:0:0:
234,176,85592,1,4,3:2:0:0:
188,356,86147,1,4,3:2:0:0:
256,192,86240,12,0,89480,0:0:0:0:
