osu file format v14

[General]
AudioFilename: audio.mp3
AudioLeadIn: 0
PreviewTime: 51703
Countdown: 0
SampleSet: Soft
StackLeniency: 0.3
Mode: 0
LetterboxInBreaks: 0
WidescreenStoryboard: 0

[Editor]
DistanceSpacing: 0.9
BeatDivisor: 4
GridSize: 4
TimelineZoom: 2.7

[Metadata]
Title:Shape My Story (TV Size)
TitleUnicode:Shape My Story (TV Size)
Artist:Yano Anna
ArtistUnicode:やのあんな
Creator:Bariton
Version:Expert
Source:ステラ女学院高等科C³部(しーきゅーぶ)
Tags:Stella Jogakuin Koutouka C3-bu Trynna Ataraxia
BeatmapID:1529607
BeatmapSetID:724366

[Difficulty]
HPDrainRate:7
CircleSize:4
OverallDifficulty:8
ApproachRate:9.2
SliderMultiplier:1.6
SliderTickRate:1

[Events]
//Background and Video events
0,0,"BG (1).jpg",0,0
//Break Periods
//Storyboard Layer 0 (Background)
//Storyboard Layer 1 (Fail)
//Storyboard Layer 2 (Pass)
//Storyboard Layer 3 (Foreground)
//Storyboard Sound Samples

[TimingPoints]
592,370.37037037037,4,2,1,40,1,0
962,-100,4,2,1,45,0,0
1332,-100,4,2,1,50,0,0
1703,-100,4,2,1,55,0,0
2073,-100,4,2,1,60,0,0
2443,-100,4,2,1,65,0,0
2814,-200,4,2,1,15,0,0
3184,-125,4,2,1,5,0,0
3554,-125,4,2,1,70,0,0
9480,-100,4,2,1,70,0,0
11703,-100,4,2,1,50,0,0
12443,-125,4,2,1,70,0,0
12814,-125,4,2,1,20,0,0
12999,-125,4,2,1,70,0,0
13184,-125,4,2,1,20,0,0
13554,-125,4,2,1,70,0,0
15036,-55.5555555555556,4,2,1,70,0,0
15314,-55.5555555555556,4,2,1,70,0,0
15406,-100,4,2,1,50,0,0
39110,-125,4,2,1,60,0,0
47999,-100,4,2,1,60,0,0
49480,-100,4,2,1,40,0,0
50962,-100,4,2,1,60,0,0
51703,-200,4,2,1,60,0,0
52073,-50,4,2,1,50,0,0
52443,-66.6666666666667,4,2,1,70,0,1
57814,-50,4,2,1,70,0,1
57999,-133.333333333333,4,2,1,70,0,1
58369,-66.6666666666667,4,2,1,70,0,1
60962,-50,4,2,1,70,0,1
61332,-66.6666666666667,4,2,1,70,0,1
64203,-66.6666666666667,4,2,1,70,0,0
64295,-66.6666666666667,4,2,1,70,0,1
67258,-52.6315789473684,4,2,1,70,0,1
68369,-50,4,2,1,70,0,1
68740,-66.6666666666667,4,2,1,70,0,1
69851,-50,4,2,1,70,0,1
70221,-50,4,2,1,70,0,1
73184,-100,4,2,1,70,0,1
73925,-66.6666666666667,4,2,1,70,0,1
74666,-125,4,2,1,50,0,0
74943,-125,4,2,1,30,0,0
75221,-125,4,2,1,50,0,0
76147,-125,4,2,1,70,0,1
76240,-125,4,2,1,60,0,0
82073,-100,4,2,1,60,0,0
89388,-100,4,2,1,5,0,0

[Colours]
Combo1 : 180,135,173
Combo2 : 255,128,128
Combo3 : 153,174,230
Combo4 : 187,208,149

[HitObjects]
228,282,592,5,2,0:0:0:0:
241,174,777,1,2,0:0:0:0:
133,161,962,1,2,0:0:0:0:
120,268,1147,1,2,0:0:0:0:
253,307,1332,5,2,0:0:0:0:
271,151,1517,1,2,0:0:0:0:
116,132,1702,1,2,0:0:0:0:
97,286,1887,1,2,0:0:0:0:
286,345,2073,5,2,0:0:0:0:
311,120,2258,1,2,0:0:0:0:
88,92,2443,1,2,0:0:0:0:
61,314,2628,1,2,0:0:0:0:
311,120,2814,6,0,P|329:55|279:2,1,140
281,159,3554,5,4,0:1:0:0:
281,159,4110,1,2,1:2:0:0:
281,159,4480,1,2,3:2:0:0:
67,42,4666,2,0,L|131:39,1,64,2|0,3:2|0:0,0:0:0:0:
167,70,5221,5,2,0:0:0:0:
167,70,5591,1,2,0:0:0:0:
45,254,5777,2,0,P|40:223|48:193,1,64,2|0,1:2|0:0,0:0:0:0:
87,163,6147,1,0,3:2:0:0:
87,163,6332,1,0,0:0:0:0:
158,358,6517,5,2,3:2:0:0:
158,358,7073,1,0,1:0:0:0:
158,358,7443,1,2,3:2:0:0:
333,255,7629,2,0,L|269:261,1,64,2|0,3:2|0:0,0:0:0:0:
231,247,8184,5,2,0:0:0:0:
231,247,8554,1,2,0:0:0:0:
392,140,8740,2,0,P|399:110|395:78,1,64,0|0,1:0|0:0,0:0:0:0:
363,46,9110,2,0,P|356:77|361:108,1,64,2|0,0:2|0:0,0:0:0:0:
484,336,9480,6,0,B|417:369|368:316|368:316|341:339,1,160,0|0,3:2|3:2,0:0:0:0:
309,370,10036,1,0,1:0:0:0:
214,238,10221,2,0,P|203:276|212:314,1,80,0|0,3:3|0:0,0:0:0:0:
328,196,10591,2,0,P|339:159|330:118,1,80,0|0,3:3|0:0,0:0:0:0:
177,42,10962,5,0,3:2:0:0:
331,120,11147,1,0,0:0:0:0:
80,94,11332,5,0,3:3:0:0:
331,120,11517,1,0,0:0:0:0:
164,260,11703,5,4,0:3:0:0:
132,280,11795,1,2,0:0:0:0:
92,283,11888,1,0,1:0:0:0:
56,267,11980,1,2,0:0:0:0:
20,227,12073,5,6,0:3:0:0:
15,175,12165,1,2,0:0:0:0:
37,127,12258,1,2,0:0:0:0:
80,94,12351,1,2,0:0:0:0:
134,92,12443,5,4,3:2:0:0:
176,120,12999,1,4,3:2:0:0:
241,82,13554,6,0,L|112:95,1,128,4|0,3:1|3:3,0:0:0:0:
50,149,14110,1,0,3:0:0:0:
148,255,14295,2,0,P|158:221|152:189,1,64,0|0,3:0|3:0,0:0:0:0:
37,344,14666,2,0,P|27:310|33:278,1,64,0|0,3:0|0:0,0:0:0:0:
153,193,15036,6,0,P|210:241|137:331,1,215.999993408203,0|0,1:0|0:0,0:0:0:0:
72,149,15406,5,4,0:1:0:0:
72,149,15777,1,0,3:3:0:0:
168,64,15962,2,0,P|210:65|244:84,1,80,2|0,0:0|3:2,0:0:0:0:
271,119,16332,1,2,0:0:0:0:
405,197,16517,1,2,3:2:0:0:
338,58,16703,1,2,0:0:0:0:
338,58,16795,1,2,0:0:0:0:
338,58,16888,6,0,P|402:30|478:84,1,160,2|0,3:2|3:2,0:0:0:0:
488,121,17443,2,0,L|476:163,1,40,2|2,0:2|0:0,0:0:0:0:
361,274,17629,1,2,3:2:0:0:
479,249,17814,1,2,0:0:0:0:
324,243,17999,2,0,L|242:239,1,80,0|0,3:2|0:0,0:0:0:0:
160,240,18277,1,2,0:0:0:0:
160,240,18369,6,0,P|136:176|191:111,1,160,2|0,3:2|3:0,0:0:0:0:
204,80,18925,2,0,L|251:73,1,40,2|0,0:0|0:0,0:0:0:0:
339,85,19110,1,2,3:2:0:0:
263,173,19295,1,0,0:0:0:0:
386,95,19480,1,2,3:2:0:0:
359,229,19666,1,0,0:0:0:0:
433,81,19851,6,0,B|464:197|464:197|465:175|484:148,1,160,2|2,3:2|3:2,0:0:0:0:
460,304,20406,1,2,0:0:0:0:
460,304,20499,1,2,0:0:0:0:
439,281,20591,2,0,P|394:281|363:301,1,80,2|0,3:2|0:0,0:0:0:0:
204,254,20962,2,0,P|249:254|280:234,1,80,2|0,3:2|0:0,0:0:0:0:
208,94,21332,6,0,P|149:143|161:219,1,160,2|0,3:2|3:2,0:0:0:0:
296,140,21888,1,2,0:0:0:0:
296,140,21980,1,2,0:0:0:0:
281,117,22073,2,0,P|242:93|205:95,1,80,2|0,3:2|0:0,0:0:0:0:
299,191,22443,2,0,P|299:146|279:115,1,80,2|0,3:2|0:0,0:0:0:0:
270,271,22814,6,0,B|328:292|368:242|368:242|382:271|349:310,1,160,2|2,3:2|3:2,0:0:0:0:
404,314,23369,2,0,P|412:293|416:261,1,40,2|2,0:0|0:0,0:0:0:0:
386,166,23554,1,2,3:2:0:0:
506,261,23740,1,0,0:0:0:0:
458,96,23925,1,2,3:2:0:0:
293,142,24110,1,2,0:0:0:0:
341,307,24295,6,0,P|272:333|203:286,1,160,2|0,3:2|3:2,0:0:0:0:
237,249,24851,2,0,L|228:298,1,40,2|2,0:0|0:0,0:0:0:0:
177,188,25036,1,2,3:2:0:0:
221,90,25221,1,0,0:0:0:0:
133,167,25406,1,2,3:2:0:0:
109,25,25591,1,0,0:0:0:0:
263,169,25777,6,0,P|331:183|392:123,1,160,2|0,3:2|3:2,0:0:0:0:
458,181,26332,1,2,0:0:0:0:
458,181,26425,1,2,0:0:0:0:
458,181,26517,2,0,L|449:267,1,80,2|0,3:2|0:0,0:0:0:0:
409,286,26888,2,0,L|418:372,1,80,2|0,3:2|0:0,0:0:0:0:
458,181,27258,5,2,3:2:0:0:
313,207,27443,1,2,0:0:0:0:
377,159,27629,1,2,3:2:0:0:
280,244,27814,2,0,L|237:253,1,40,2|2,0:2|0:0,0:0:0:0:
124,214,27999,2,0,L|204:222,1,80,2|0,3:2|0:0,0:0:0:0:
101,169,28369,2,0,L|201:130,1,80,2|0,3:2|0:0,0:0:0:0:
20,93,28740,6,0,B|33:119|33:119|2:170|36:225|36:225|13:271,1,160,2|0,3:2|3:2,0:0:0:0:
47,286,29295,1,2,0:0:0:0:
52,296,29388,1,2,0:0:0:0:
66,295,29480,2,0,P|105:289|152:308,1,80,2|0,3:2|0:0,0:0:0:0:
175,229,29851,2,0,P|206:252|226:299,1,80,2|0,3:2|0:0,0:0:0:0:
192,122,30221,6,0,P|269:104|330:149,1,160,2|0,3:2|3:2,0:0:0:0:
359,155,30777,1,2,0:0:0:0:
374,168,30869,1,2,0:0:0:0:
388,171,30962,2,0,L|401:82,1,80,2|0,3:2|0:0,0:0:0:0:
268,218,31332,2,0,L|281:307,1,80,2|0,3:2|0:0,0:0:0:0:
460,326,31703,6,0,B|398:306|362:351|362:351|336:358|315:334,1,160,2|0,3:2|3:2,0:0:0:0:
279,297,32258,2,0,P|309:302|332:315,1,40,2|2,0:0|0:0,0:0:0:0:
202,335,32443,1,2,3:2:0:0:
250,215,32629,1,0,0:0:0:0:
197,112,32814,1,2,3:2:0:0:
298,224,32999,1,0,0:0:0:0:
161,81,33184,6,0,P|86:82|35:148,1,160,2|0,3:2|3:2,0:0:0:0:
56,188,33740,1,2,0:0:0:0:
60,200,33832,1,2,0:0:0:0:
55,211,33925,2,0,P|94:211|130:189,1,80,2|0,3:2|0:0,0:0:0:0:
231,295,34295,2,0,P|192:295|156:273,1,80,2|0,3:2|0:0,0:0:0:0:
337,244,34666,6,0,B|384:224|384:224|512:256,1,160,2|0,3:2|3:2,0:0:0:0:
464,206,35221,2,0,L|474:263,1,40,2|2,0:0|0:0,0:0:0:0:
415,144,35406,2,0,B|428:81|428:81|415:56,1,80,2|0,3:2|0:0,0:0:0:0:
303,153,35777,1,0,3:0:0:0:
343,50,35962,1,2,0:0:0:0:
335,184,36147,6,0,B|255:166|255:166|177:186,1,160,2|0,3:2|3:0,0:0:0:0:
139,183,36703,1,2,0:0:0:0:
124,172,36795,1,2,0:0:0:0:
98,193,36888,2,0,P|94:232|113:274,1,80,2|0,3:2|0:0,0:0:0:0:
152,290,37258,2,0,P|167:325|162:371,1,80,2|0,3:2|0:0,0:0:0:0:
98,193,37629,5,2,3:2:0:0:
165,366,37814,1,2,0:0:0:0:
197,92,37999,1,2,3:2:0:0:
76,293,38184,1,2,0:0:0:0:
197,92,38369,5,0,3:2:0:0:
202,89,38462,1,2,0:0:0:0:
263,143,38554,5,0,0:0:0:0:
269,134,38647,1,2,0:0:0:0:
354,146,38740,5,0,3:2:0:0:
350,128,38832,1,2,0:0:0:0:
364,96,38925,1,0,0:0:0:0:
332,64,39018,1,2,0:0:0:0:
354,146,39110,5,4,0:1:0:0:
414,200,39666,1,0,1:0:0:0:
378,271,40036,2,0,L|393:346,1,64,2|0,3:2|3:0,0:0:0:0:
157,310,40591,5,0,0:0:0:0:
104,250,40962,1,0,3:0:0:0:
158,190,41332,1,0,1:0:0:0:
124,116,41703,2,0,B|133:74|133:74|127:41,1,64,0|2,3:0|0:0,0:0:0:0:
185,265,42073,5,0,3:0:0:0:
256,229,42629,1,0,1:0:0:0:
327,193,42999,1,2,3:2:0:0:
256,229,43184,1,2,3:2:0:0:
327,193,43554,5,2,0:3:0:0:
398,157,43925,1,2,0:3:0:0:
469,121,44110,1,2,3:2:0:0:
473,109,44203,1,2,3:2:0:0:
477,97,44295,1,2,1:2:0:0:
421,42,44666,1,2,2:3:0:0:
476,349,45036,5,4,0:1:0:0:
476,349,45406,1,2,0:2:0:0:
415,297,45591,1,0,1:0:0:0:
362,357,45962,1,0,3:3:0:0:
415,297,46332,5,4,3:1:0:0:
355,244,46517,1,2,0:2:0:0:
355,244,46703,1,0,3:0:0:0:
408,183,46888,1,2,0:2:0:0:
408,183,47073,1,0,3:0:0:0:
347,130,47258,2,0,L|364:42,1,64,2|0,0:0|3:0,0:0:0:0:
319,142,47629,2,0,L|336:54,1,64,0|0,1:0|0:0,0:0:0:0:
408,183,47999,5,4,1:2:0:0:
319,142,48184,1,0,3:0:0:0:
278,231,48369,1,0,3:0:0:0:
377,294,48554,5,4,1:2:0:0:
254,237,48739,1,0,3:0:0:0:
311,115,48924,1,0,3:0:0:0:
472,159,49110,5,4,1:2:0:0:
304,84,49295,1,4,0:1:0:0:
196,305,49480,5,8,0:2:0:0:
196,305,49573,1,8,0:2:0:0:
196,305,49666,1,8,0:2:0:0:
105,187,49851,2,0,P|99:148|119:107,1,80,8|0,0:0|0:0,0:2:0:0:
224,88,50129,1,8,0:2:0:0:
212,96,50221,6,0,L|101:103,1,80,8|8,0:2|0:0,0:0:0:0:
268,162,50591,1,8,0:2:0:0:
259,170,50777,1,8,0:2:0:0:
312,35,50962,5,0,3:0:0:0:
199,337,51147,1,0,3:0:0:0:
205,32,51332,5,0,3:0:0:0:
335,334,51517,1,0,3:0:0:0:
155,245,51703,6,0,P|148:215|152:186,1,60,0|0,0:0|3:0,0:0:0:0:
156,88,52073,38,0,B|199:117|212:195|155:245|155:245|141:213|156:174,1,240,0|0,1:0|0:0,0:0:0:0:
259,97,52443,38,0,B|301:111|301:111|338:81|401:108,1,120.000004577637,4|2,3:1|0:0,0:0:0:0:
348,268,52721,1,2,0:0:0:0:
344,265,52814,2,0,B|324:212|351:172|351:172|372:207,1,120.000004577637,0|2,3:0|0:0,0:0:0:0:
455,315,53184,37,0,3:0:0:0:
476,91,53369,1,2,0:0:0:0:
440,156,53462,1,2,0:0:0:0:
445,159,53554,2,0,B|478:165|492:189|492:189|472:218|430:196,1,120.000004577637,0|2,3:0|0:0,0:0:0:0:
296,85,53925,6,0,B|227:115|185:60|185:60|164:89|128:88,1,180.000006866455,0|2,3:0|0:0,0:0:0:0:
70,62,54295,2,0,B|68:37|55:20|55:20|87:-7|153:23,1,120.000004577637,0|2,3:2|0:0,0:0:0:0:
139,88,54573,1,2,0:0:0:0:
92,148,54666,6,0,B|125:223|56:276|56:276|101:297|118:237,1,180.000006866455,0|2,3:0|0:0,0:0:0:0:
274,309,55036,2,0,B|231:256|172:267|172:267|213:275|243:307,1,180.000006866455,0|2,3:0|0:0,0:0:0:0:
336,248,55406,6,0,B|379:257|406:231|406:231|472:229|494:281,1,180.000006866455,0|2,3:0|0:0,0:0:0:0:
423,317,55777,1,0,3:2:0:0:
378,108,55962,1,2,0:0:0:0:
372,112,56054,1,2,0:0:0:0:
446,137,56147,6,0,P|448:76|317:65,1,180.000006866455,0|2,3:0|0:0,0:0:0:0:
311,152,56517,2,0,B|267:180|221:155|221:155|253:136,1,120.000004577637,0|2,3:0|0:0,0:0:0:0:
378,108,56795,1,2,0:0:0:0:
311,152,56888,6,0,B|294:190|296:220|296:220|334:278|286:325,1,180.000006866455,0|2,3:0|0:0,0:0:0:0:
168,269,57258,2,0,B|148:249|148:249|199:233|239:272,1,120.000004577637,0|2,3:0|0:0,0:0:0:0:
290,320,57536,1,2,0:0:0:0:
362,276,57629,6,0,L|432:287,1,60.0000022888184,2|0,3:2|0:0,0:0:0:0:
311,152,57814,6,0,L|392:115,1,80,2|0,0:0|0:0,0:0:0:0:
187,102,57999,6,0,L|231:22,1,90.0000034332277,2|0,3:2|0:0,0:0:0:0:
107,120,58369,6,0,B|119:177|181:184|181:184|149:210|108:187,1,180.000006866455,0|2,3:0|0:0,0:0:0:0:
47,304,58740,2,0,B|35:291|35:291|42:256|42:256|47:234|47:234|35:214|35:192,1,120.000004577637,0|2,3:0|0:0,0:0:0:0:
124,276,59017,1,2,0:0:0:0:
130,283,59110,6,0,B|187:330|251:282|251:282|222:292|191:274,1,180.000006866455,0|2,3:0|0:0,0:0:0:0:
288,350,59480,2,0,B|320:332|328:301|328:301|374:352|445:318,1,180.000006866455,0|2,3:0|0:0,0:0:0:0:
398,248,59851,5,0,3:0:0:0:
472,72,60036,1,2,0:0:0:0:
465,65,60129,1,2,0:0:0:0:
395,40,60221,2,0,B|368:55|339:50|339:50|310:70|312:135|357:156,1,180.000006866455,0|2,3:0|0:0,0:0:0:0:
339,50,60591,6,0,B|285:26|238:49|238:49|200:68|161:41,1,180.000006866455,0|2,3:0|0:0,0:0:0:0:
0,71,60962,6,0,B|42:105|96:82|96:82|110:110|140:119,1,160,0|2,3:0|0:0,0:0:0:0:
217,135,61240,1,2,0:0:0:0:
159,194,61332,6,0,B|128:251|163:293|163:293|218:296|235:248,1,180.000006866455,0|2,3:0|0:0,0:0:0:0:
217,135,61703,1,0,3:0:0:0:
290,320,61888,1,2,0:0:0:0:
417,53,62073,6,0,B|391:107|391:107|416:124|417:164,1,120.000004577637,0|2,3:0|0:0,0:0:0:0:
377,223,62351,1,2,0:0:0:0:
430,283,62443,2,0,B|456:259|457:226|457:226|482:244|461:286,1,120.000004577637,0|0,3:0|0:0,0:0:0:0:
137,240,62814,6,0,P|168:246|211:232,1,60.0000022888184,2|0,3:2|0:0,0:0:0:0:
272,205,62999,2,0,P|297:186|316:145,1,60.0000022888184,2|0,0:0|0:0,0:0:0:0:
91,202,63184,6,0,P|111:226|153:242,1,60.0000022888184,2|0,3:2|0:0,0:0:0:0:
312,162,63369,2,0,P|326:133|324:88,1,60.0000022888184,2|0,1:2|1:2,0:0:0:0:
223,62,63554,5,0,1:0:0:0:
170,88,63646,1,0,1:0:0:0:
143,140,63739,1,0,1:0:0:0:
152,198,63831,1,0,1:0:0:0:
195,239,63924,5,0,1:1:0:0:
272,240,64017,1,0,1:1:0:0:
322,181,64110,1,0,1:1:0:0:
308,105,64202,1,0,1:1:0:0:
373,39,64295,6,0,P|304:91|222:61,1,180.000006866455,4|2,3:1|0:0,0:0:0:0:
430,92,64666,2,0,B|418:122|393:135|393:135|415:170|401:193,1,120.000004577637,0|2,3:0|0:0,0:0:0:0:
396,204,64943,1,2,0:0:0:0:
352,272,65036,2,0,B|378:314|419:316|419:316|428:298|420:278,1,120.000004577637,0|2,3:0|0:0,0:0:0:0:
150,173,65406,6,0,P|115:230|134:289,1,120.000004577637,0|2,3:0|0:0,0:0:0:0:
195,239,65684,1,2,0:0:0:0:
150,173,65777,6,0,B|93:157|50:182|50:182|92:157|99:108,1,180.000006866455,0|2,3:0|0:0,0:0:0:0:
60,32,66147,2,0,B|32:32|11:44|11:44|-2:79|23:121,1,120.000004577637,0|2,3:0|0:0,0:0:0:0:
24,112,66425,1,2,0:0:0:0:
104,116,66517,6,0,B|146:86|195:110|195:110|240:126|279:97,1,180.000006866455,0|2,3:0|0:0,0:0:0:0:
407,147,66888,2,0,B|377:145|354:125|354:125|336:156|348:191,1,120.000004577637,0|2,3:0|0:0,0:0:0:0:
413,224,67166,1,2,0:0:0:0:
407,147,67258,6,0,B|377:145|354:125|354:125|412:72|480:119|480:119|466:80,1,227.999993911743,4|0,3:2|0:0,0:0:0:0:
322,50,67629,6,0,B|270:78|274:137|274:137|214:100|157:138,1,227.999993911743,0|0,3:0|0:0,0:0:0:0:
33,74,67999,6,0,B|71:56|103:82|103:82|58:140|92:199|130:211,1,227.999993911743,4|0,3:2|0:0,0:0:0:0:
264,276,68369,6,0,B|272:219|217:200|217:200|214:258|161:282|161:282|178:326,1,240,0|0,3:0|0:0,0:0:0:0:
325,337,68740,5,4,3:2:0:0:
325,337,69110,1,0,3:0:0:0:
434,115,69295,1,2,0:0:0:0:
434,115,69388,1,2,0:0:0:0:
434,115,69480,2,0,B|435:140|451:162|451:162|462:202|427:233,1,120.000004577637,0|0,3:0|0:0,0:0:0:0:
214,78,69851,6,0,B|250:-10|345:3|372:52|335:115|297:104,1,240,0|0,3:2|0:0,0:0:0:0:
136,47,70221,5,4,1:1:0:0:
219,191,70406,1,0,3:0:0:0:
128,313,70591,1,0,3:0:0:0:
114,64,70777,5,0,1:2:0:0:
241,206,70962,1,0,3:0:0:0:
106,329,71147,1,0,3:2:0:0:
280,92,71332,5,4,1:2:0:0:
285,312,71517,1,0,3:0:0:0:
424,47,71703,5,4,1:0:0:0:
341,191,71888,1,0,3:0:0:0:
432,313,72073,1,0,3:0:0:0:
446,62,72258,5,0,1:0:0:0:
321,210,72443,1,0,3:0:0:0:
454,328,72629,1,0,3:0:0:0:
280,92,72814,5,4,1:2:0:0:
285,312,72999,1,0,3:0:0:0:
168,60,73184,5,4,3:1:0:0:
128,55,73277,1,2,0:0:0:0:
93,71,73369,1,0,0:0:0:0:
71,105,73461,1,0,0:0:0:0:
70,144,73554,1,0,3:0:0:0:
91,178,73646,1,2,0:0:0:0:
126,196,73739,1,0,0:0:0:0:
165,192,73832,1,0,0:0:0:0:
204,176,73925,5,0,3:0:0:0:
260,159,74017,1,2,0:0:0:0:
317,176,74110,1,0,3:0:0:0:
355,221,74202,1,2,0:0:0:0:
363,280,74295,1,0,1:0:0:0:
338,333,74387,1,2,0:0:0:0:
287,364,74480,1,0,3:0:0:0:
228,363,74573,1,2,0:0:0:0:
156,312,74665,5,0,0:0:0:0:
231,159,76147,5,4,0:1:0:0:
231,159,76703,1,2,1:2:0:0:
231,159,77073,1,2,3:2:0:0:
445,42,77259,2,0,L|381:39,1,64,2|0,3:2|0:0,0:0:0:0:
345,70,77814,5,2,0:0:0:0:
345,70,78184,1,2,0:0:0:0:
466,255,78370,2,0,P|471:215|457:183,1,64,2|0,1:2|0:0,0:0:0:0:
425,163,78740,1,0,3:2:0:0:
425,163,78925,1,0,0:0:0:0:
354,358,79110,5,2,3:2:0:0:
354,358,79666,1,0,1:0:0:0:
354,358,80036,1,2,3:2:0:0:
179,255,80222,2,0,L|251:262,1,64,2|0,3:2|0:0,0:0:0:0:
281,247,80777,5,2,0:0:0:0:
281,247,81147,1,2,0:0:0:0:
120,141,81333,2,0,P|112:109|122:67,1,64,0|0,1:0|0:0,0:0:0:0:
148,46,81703,2,0,P|155:76|151:108,1,64,2|0,0:2|0:0,0:0:0:0:
28,336,82073,6,0,B|95:369|144:316|144:316|171:339,1,160,0|0,3:2|3:2,0:0:0:0:
203,370,82629,1,0,1:0:0:0:
298,238,82814,6,0,P|309:276|300:314,1,80,0|0,3:3|0:0,0:0:0:0:
184,196,83184,2,0,P|173:159|182:118,1,80,0|0,3:3|0:0,0:0:0:0:
335,42,83555,5,0,3:2:0:0:
181,120,83740,1,0,0:0:0:0:
432,94,83925,5,0,3:3:0:0:
181,120,84110,1,0,0:0:0:0:
348,260,84296,5,4,0:3:0:0:
380,280,84388,1,2,0:0:0:0:
420,283,84481,1,0,1:0:0:0:
456,267,84573,1,2,0:0:0:0:
492,227,84666,5,6,0:3:0:0:
497,175,84758,1,2,0:0:0:0:
475,127,84851,1,2,0:0:0:0:
432,94,84944,1,2,0:0:0:0:
378,92,85036,5,4,3:2:0:0:
320,128,85592,1,4,3:2:0:0:
212,68,86147,1,4,3:2:0:0:
256,192,86240,12,0,89480,0:0:0:0:
