osu file format v14

[General]
AudioFilename: Warblade.mp3
AudioLeadIn: 0
PreviewTime: 233227
Countdown: 0
SampleSet: None
StackLeniency: 0.7
Mode: 0
LetterboxInBreaks: 0
WidescreenStoryboard: 1

[Editor]
Bookmarks: 13799,27513,41227,54942,82370,109799,137227,150942,164656,192085,233227,246942,260656,287227
DistanceSpacing: 1.3
BeatDivisor: 4
GridSize: 4
TimelineZoom: 1

[Metadata]
Title:In-Game Theme
TitleUnicode:In-Game Theme
Artist:Yannis Brown
ArtistUnicode:Yannis Brown
Creator:ReFaller
Version:Galaxy
Source:Warblade
Tags:emv software
BeatmapID:3135576
BeatmapSetID:379452

[Difficulty]
HPDrainRate:6.5
CircleSize:4
OverallDifficulty:8
ApproachRate:8.5
SliderMultiplier:1.4
SliderTickRate:1

[Events]
//Background and Video events
0,0,"nebula_stars_space_stars_1366x768.jpg",0,0
//Break Periods
2,137428,150267
2,233428,246268
//Storyboard Layer 0 (Background)
//Storyboard Layer 1 (Fail)
//Storyboard Layer 2 (Pass)
//Storyboard Layer 3 (Foreground)
//Storyboard Layer 4 (Overlay)
//Storyboard Sound Samples

[TimingPoints]
85,428.571428571429,4,2,0,30,1,0
27513,-100,4,3,0,30,0,0
41227,-100,4,2,0,40,0,0
53442,-100,4,2,0,15,0,0
53870,-100,4,2,0,20,0,0
54299,-100,4,2,0,25,0,0
54513,-100,4,2,0,30,0,0
54727,-100,4,2,0,35,0,0
54942,-100,4,2,0,40,0,0
82370,-100,4,1,0,40,0,0
96085,-100,4,1,0,45,0,0
109799,-100,4,1,0,50,0,0
123513,-100,4,1,0,45,0,0
135513,-100,4,2,0,45,0,0
150942,-100,4,2,0,40,0,0
164656,-100,4,2,0,45,0,0
191227,-100,4,2,0,50,0,0
191656,-100,4,2,0,55,0,0
192085,-100,4,2,0,60,0,1
233227,-100,4,2,0,60,0,0
246942,-100,4,2,0,50,0,0
260656,-100,4,2,0,40,0,0

[Colours]
Combo1 : 107,207,207
Combo2 : 48,128,207
Combo3 : 68,104,187

[HitObjects]
52,200,13799,5,0,0:0:0:0:
52,200,14014,2,0,L|200:212,1,140
256,252,14657,1,0,0:0:0:0:
256,252,14871,2,0,L|400:264,1,140
456,216,15514,5,0,0:0:0:0:
456,216,15728,2,0,P|448:152|480:76,1,140
420,28,16371,1,0,0:0:0:0:
420,28,16585,2,0,P|368:66|286:77,1,140
220,80,17228,5,0,0:0:0:0:
220,80,17442,2,0,P|151:70|95:29,1,140
40,80,18085,1,0,0:0:0:0:
40,80,18300,2,0,P|66:144|58:213,1,140
40,288,18942,5,0,0:0:0:0:
40,288,19157,2,0,B|92:288|92:288|136:304|136:304|192:308,1,140
256,300,19800,1,0,0:0:0:0:
256,300,20014,2,0,P|312:272|328:196,1,140
328,124,20657,5,0,0:0:0:0:
328,124,20871,2,0,P|272:152|256:228,1,140
256,300,21514,1,0,0:0:0:0:
256,300,21728,2,0,L|112:308,1,140
68,248,22371,5,0,0:0:0:0:
68,248,22585,2,0,P|81:181|141:149,1,140
196,204,23228,1,0,0:0:0:0:
196,204,23442,2,0,P|256:232|322:198,1,140
372,148,24085,5,0,0:0:0:0:
372,148,24300,2,0,P|431:180|445:246,1,140
392,304,24942,1,0,0:0:0:0:
392,304,25157,2,0,L|248:320,1,140
200,264,25800,5,0,0:0:0:0:
200,264,26014,2,0,L|56:248,1,140
72,172,26657,1,0,0:0:0:0:
72,172,26871,2,0,L|216:156,1,140
288,148,27514,5,0,0:0:0:0:
356,184,27942,1,0,0:0:0:0:
396,248,28371,1,0,0:0:0:0:
376,324,28800,1,0,0:0:0:0:
300,336,29228,5,0,0:0:0:0:
236,296,29657,1,0,0:0:0:0:
168,332,30085,1,0,0:0:0:0:
96,308,30514,1,0,0:0:0:0:
48,248,30942,5,0,0:0:0:0:
50,171,31371,1,0,0:0:0:0:
88,105,31800,1,0,0:0:0:0:
153,64,32228,1,0,0:0:0:0:
228,44,32657,5,0,0:0:0:0:
292,88,33085,1,0,0:0:0:0:
364,60,33514,1,0,0:0:0:0:
428,100,33942,1,0,0:0:0:0:
440,176,34371,5,0,0:0:0:0:
392,236,34800,1,0,0:0:0:0:
328,276,35228,1,0,0:0:0:0:
256,244,35657,1,0,0:0:0:0:
188,204,36085,5,0,0:0:0:0:
116,228,36514,1,0,0:0:0:0:
96,304,36942,1,0,0:0:0:0:
160,344,37371,1,0,0:0:0:0:
236,352,37800,5,0,0:0:0:0:
308,324,38228,1,0,0:0:0:0:
316,248,38657,1,0,0:0:0:0:
300,172,39085,1,0,0:0:0:0:
308,96,39514,5,0,0:0:0:0:
380,72,39942,1,0,0:0:0:0:
436,128,40371,1,0,0:0:0:0:
456,52,40800,1,0,0:0:0:0:
380,72,41228,6,0,L|304:80,1,70,0|0,3:0|0:0,0:0:0:0:
240,48,41657,2,0,L|164:40,1,70,0|0,3:0|0:0,0:0:0:0:
96,64,42085,1,0,3:0:0:0:
36,112,42300,2,0,P|22:178|40:248,1,140
84,312,42942,6,0,P|121:327|156:328,1,70,0|0,3:0|0:0,0:0:0:0:
220,292,43371,2,0,P|257:277|292:276,1,70,0|0,3:0|0:0,0:0:0:0:
364,284,43800,1,0,3:0:0:0:
436,316,44014,2,0,P|432:248|372:204,1,140
304,184,44657,6,0,P|269:186|237:200,1,70,0|0,3:0|0:0,0:0:0:0:
168,232,45085,2,0,P|133:229|101:215,1,70,0|0,3:0|0:0,0:0:0:0:
52,156,45514,1,0,3:0:0:0:
36,80,45728,2,0,P|78:26|146:23,1,140
208,68,46371,6,0,P|247:68|288:80,1,70,0|0,3:0|0:0,0:0:0:0:
340,124,46800,2,0,P|373:138|408:136,1,70,0|0,3:0|0:0,0:0:0:0:
464,88,47228,1,0,3:0:0:0:
406,136,47442,2,0,P|400:208|428:276,1,140
472,332,48085,6,0,P|440:346|404:344,1,70,0|0,3:0|0:0,0:0:0:0:
352,292,48514,2,0,P|320:277|284:280,1,70,0|0,3:0|0:0,0:0:0:0:
216,312,48942,2,0,P|151:330|80:320,1,140,0|0,3:0|3:0,0:0:0:0:
44,168,49800,6,0,P|75:153|112:156,1,70,0|0,3:0|0:0,0:0:0:0:
176,196,50228,2,0,P|207:210|244:208,1,70,0|0,3:0|0:0,0:0:0:0:
308,168,50657,2,0,P|373:149|444:160,1,140,0|0,3:0|3:0,0:0:0:0:
332,268,51514,6,0,P|304:287|264:292,1,70,0|0,3:0|0:0,0:0:0:0:
212,240,51942,2,0,P|239:220|280:216,1,70,0|0,3:0|0:0,0:0:0:0:
272,368,52371,2,0,P|238:361|206:336,1,70,0|0,3:0|0:0,0:0:0:0:
272,140,52800,2,0,P|305:146|337:171,1,70,0|0,3:0|0:0,0:0:0:0:
152,288,53228,5,4,0:0:0:0:
132,256,53657,5,0,3:0:0:0:
116,220,54085,5,0,0:0:0:0:
112,195,54192,1,0,0:0:0:0:
114,171,54300,1,0,0:0:0:0:
119,147,54407,1,0,0:0:0:0:
129,124,54514,1,0,3:0:0:0:
142,104,54621,1,0,3:0:0:0:
159,86,54728,1,0,3:0:0:0:
179,72,54835,1,0,3:0:0:0:
201,61,54942,6,0,L|272:48,1,70,2|2,3:2|0:2,0:0:0:0:
344,36,55371,1,8,0:0:0:0:
472,124,55800,2,0,L|401:137,1,70,2|2,3:2|0:2,0:0:0:0:
329,149,56228,1,8,0:0:0:0:
244,276,56657,6,0,L|315:263,1,70,2|2,3:2|0:2,0:0:0:0:
387,251,57085,1,8,0:0:0:0:
512,340,57514,2,0,L|441:353,1,70,2|2,3:2|0:2,0:0:0:0:
369,365,57942,1,8,0:0:0:0:
224,316,58371,6,0,P|192:328|152:332,1,70,2|2,3:2|0:2,0:0:0:0:
80,328,58800,1,8,0:0:0:0:
160,196,59228,2,0,P|192:184|232:180,1,70,2|2,3:2|0:2,0:0:0:0:
304,184,59657,1,8,0:0:0:0:
224,52,60085,6,0,P|192:40|152:36,1,70,2|2,3:2|0:2,0:0:0:0:
80,40,60514,1,8,0:0:0:0:
160,172,60942,2,0,P|192:184|232:188,1,70,2|2,3:2|0:2,0:0:0:0:
304,184,61371,1,8,0:0:0:0:
416,156,61692,1,2,0:2:0:0:
416,156,61800,6,0,L|428:84,1,70,2|2,3:2|0:2,0:0:0:0:
468,20,62228,1,8,0:0:0:0:
328,80,62657,2,0,L|258:68,1,70,2|2,3:2|0:2,0:0:0:0:
192,28,63085,1,8,0:0:0:0:
72,124,63514,6,0,L|60:196,1,70,2|2,3:2|0:2,0:0:0:0:
20,260,63942,1,8,0:0:0:0:
160,200,64371,2,0,L|229:211,1,70,2|2,3:2|0:2,0:0:0:0:
296,252,64800,1,8,0:0:0:0:
448,224,65228,6,0,P|456:256|452:296,1,70,2|2,3:2|0:2,0:0:0:0:
404,352,65657,1,8,0:0:0:0:
360,204,66085,2,0,P|352:172|356:132,1,70,2|2,3:2|0:2,0:0:0:0:
404,76,66514,1,8,0:0:0:0:
256,120,66942,6,0,P|224:128|184:124,1,70,2|2,3:2|0:2,0:0:0:0:
128,76,67371,1,8,0:0:0:0:
32,196,67800,2,0,P|24:228|28:268,1,70,2|2,3:2|0:2,0:0:0:0:
76,324,68228,1,8,0:0:0:0:
188,352,68550,1,2,0:2:0:0:
188,352,68657,6,0,L|268:344,2,70,2|2|8,3:2|0:2|0:0,0:0:0:0:
84,236,69514,2,0,L|4:228,2,70,2|2|8,3:2|0:2|0:0,0:0:0:0:
232,200,70371,6,0,L|312:192,2,70,2|2|8,3:2|0:2|0:0,0:0:0:0:
128,84,71228,2,0,L|48:76,2,70,2|2|8,3:2|0:2|0:0,0:0:0:0:
284,84,72085,6,0,L|292:4,2,70,2|2|8,3:2|0:2|0:0,0:0:0:0:
336,228,72942,2,0,L|344:308,2,70,2|2|8,3:2|0:2|0:0,0:0:0:0:
424,100,73800,6,0,L|432:20,2,70,2|2|8,3:2|0:2|0:0,0:0:0:0:
476,244,74657,2,0,L|484:324,2,70,2|2|8,3:2|0:2|0:0,0:0:0:0:
368,200,75407,1,2,0:2:0:0:
368,200,75514,6,0,P|333:193|296:200,2,70,2|2|8,3:2|0:2|0:0,0:0:0:0:
432,340,76371,2,0,P|466:346|504:340,2,70,2|2|8,3:2|0:2|0:0,0:0:0:0:
292,272,77228,6,0,P|257:278|220:272,2,70,2|2|8,3:2|0:2|0:0,0:0:0:0:
336,124,78085,2,0,P|370:117|408:124,2,70,2|2|8,3:2|0:2|0:0,0:0:0:0:
184,112,78942,6,0,P|178:77|185:43,2,70,2|2|8,3:2|0:2|0:0,0:0:0:0:
96,240,79800,2,0,P|101:274|94:308,2,70,2|2|8,3:2|0:2|0:0,0:0:0:0:
20,108,80657,6,0,P|14:73|21:39,2,70,2|2|8,3:2|0:2|0:0,0:0:0:0:
76,164,81300,2,0,L|120:168,1,35,2|2,0:0|0:0,0:0:0:0:
148,168,81514,2,0,L|224:172,1,70,2|2,3:2|0:0,0:0:0:0:
280,220,81942,2,8,L|364:224,1,70,10|8,0:0|0:0,0:0:0:0:
388,220,82264,1,8,0:0:0:0:
424,204,82371,6,0,P|460:156|464:72,1,140,6|8,0:0|0:0,0:0:0:0:
392,24,83014,1,0,0:0:0:0:
392,24,83121,1,0,0:0:0:0:
392,24,83228,2,0,P|360:36|316:36,1,70
236,56,83657,2,0,P|201:57|168:69,1,70,8|0,0:0|0:0,0:0:0:0:
96,124,84085,5,2,0:0:0:0:
72,212,84300,1,2,0:0:0:0:
100,300,84514,1,8,0:0:0:0:
176,348,84728,1,0,0:0:0:0:
176,348,84835,1,0,0:0:0:0:
176,348,84942,2,0,P|216:356|252:352,1,70
380,286,85371,2,0,P|346:284|312:292,1,70,10|0,0:0|0:0,0:0:0:0:
452,344,85800,6,0,P|472:284|432:212,1,140,2|8,0:0|0:0,0:0:0:0:
364,172,86442,1,0,0:0:0:0:
364,172,86550,1,0,0:0:0:0:
364,172,86657,2,0,P|328:176|296:192,1,70
264,108,87085,2,0,P|234:129|215:159,1,70,8|0,0:0|0:0,0:0:0:0:
228,248,87514,5,2,0:0:0:0:
160,308,87728,2,0,P|125:316|92:316,1,70,2|8,0:0|0:0,0:0:0:0:
228,248,88157,1,0,0:0:0:0:
228,248,88264,1,0,0:0:0:0:
228,248,88371,2,0,P|262:239|296:240,1,70
124,316,88800,2,0,P|88:318|55:312,1,70,8|0,0:0|0:0,0:0:0:0:
148,160,89228,6,0,B|197:157|197:157|240:136|240:136|288:136,1,140,2|8,0:0|0:0,0:0:0:0:
376,140,89871,1,0,0:0:0:0:
376,140,89978,1,0,0:0:0:0:
376,140,90085,2,0,P|411:154|440:180,1,70
476,256,90514,2,0,P|481:294|473:331,1,70,8|0,0:0|0:0,0:0:0:0:
392,356,90942,5,2,0:0:0:0:
300,352,91157,1,2,0:0:0:0:
220,312,91371,1,8,0:0:0:0:
164,240,91585,1,0,0:0:0:0:
164,240,91692,1,0,0:0:0:0:
164,240,91800,2,0,P|156:205|158:170,1,70
116,316,92228,2,0,P|93:290|73:250,1,70,10|0,0:0|0:0,0:0:0:0:
232,120,92657,6,0,P|168:80|108:96,1,140,2|8,0:0|0:0,0:0:0:0:
158,170,93300,1,0,0:0:0:0:
158,170,93407,1,0,0:0:0:0:
158,170,93514,2,0,P|184:196|216:208,1,70
304,204,93942,2,0,P|336:191|360:166,1,70,8|0,0:0|0:0,0:0:0:0:
400,84,94371,5,2,0:0:0:0:
316,20,94585,1,2,0:0:0:0:
256,128,94800,1,8,0:0:0:0:
456,156,95014,1,0,0:0:0:0:
456,156,95121,1,0,0:0:0:0:
456,156,95228,2,0,P|453:190|438:221,1,70
214,207,95657,2,0,P|216:172|231:141,1,70,8|0,0:0|0:0,0:0:0:0:
284,264,96085,6,0,P|224:296|152:272,1,140,6|8,0:0|0:0,0:0:0:0:
92,212,96728,1,0,0:0:0:0:
92,212,96835,1,0,0:0:0:0:
92,212,96942,2,0,L|104:132,1,70
198,42,97371,2,0,L|188:112,1,70,8|0,0:0|0:0,0:0:0:0:
228,196,97800,5,2,0:0:0:0:
316,168,98014,1,2,0:0:0:0:
404,144,98228,1,8,0:0:0:0:
492,116,98442,1,0,0:0:0:0:
492,116,98550,1,0,0:0:0:0:
492,116,98657,2,0,L|480:40,1,70
380,240,99085,2,0,L|390:309,1,70,10|0,0:0|0:0,0:0:0:0:
212,183,99514,6,0,P|264:143|336:163,1,140,2|8,0:0|0:0,0:0:0:0:
380,240,100157,1,0,0:0:0:0:
380,240,100264,1,0,0:0:0:0:
380,240,100371,2,0,L|390:309,1,70
212,183,100800,2,0,L|201:113,1,70,8|0,0:0|0:0,0:0:0:0:
132,56,101228,5,2,0:0:0:0:
100,140,101442,1,2,0:0:0:0:
68,224,101657,1,8,0:0:0:0:
36,308,101871,1,0,0:0:0:0:
36,308,101978,1,0,0:0:0:0:
36,308,102085,2,0,P|72:324|104:328,1,70
248,204,102514,2,0,P|216:189|181:184,1,70,8|0,0:0|0:0,0:0:0:0:
340,340,102942,6,0,L|480:332,1,140,2|8,0:0|0:0,0:0:0:0:
440,248,103585,1,0,0:0:0:0:
440,248,103692,1,0,0:0:0:0:
440,248,103800,2,0,P|440:212|448:176,1,70
384,38,104228,2,0,P|392:73|392:108,1,70,8|0,0:0|0:0,0:0:0:0:
304,128,104657,5,2,0:0:0:0:
216,152,104871,1,2,0:0:0:0:
128,172,105085,1,8,0:0:0:0:
40,196,105300,1,0,0:0:0:0:
40,196,105407,1,0,0:0:0:0:
40,196,105514,2,0,P|29:162|28:127,1,70
192,240,105942,2,0,P|203:277|204:308,1,70,10|0,0:0|0:0,0:0:0:0:
188,68,106371,6,0,L|328:56,1,140,2|8,0:0|0:0,0:0:0:0:
416,84,107014,1,0,0:0:0:0:
416,84,107121,1,0,0:0:0:0:
416,84,107228,2,0,L|421:153,1,70
372,228,107657,1,8,0:0:0:0:
354,229,107764,1,0,0:0:0:0:
337,230,107871,1,0,0:0:0:0:
319,232,107978,1,0,0:0:0:0:
302,233,108085,6,0,P|268:240|232:252,1,70,2|2,0:0|0:0,0:0:0:0:
152,288,108514,1,8,0:0:0:0:
72,240,108728,1,0,0:0:0:0:
72,240,108835,1,0,0:0:0:0:
72,240,108942,2,0,P|59:201|60:164,1,70
76,84,109371,1,8,0:0:0:0:
156,40,109585,1,0,0:0:0:0:
156,40,109692,1,0,0:0:0:0:
156,40,109800,6,0,L|232:32,1,70,6|0,0:0|0:0,0:0:0:0:
316,36,110228,1,8,0:0:0:0:
400,68,110442,1,0,0:0:0:0:
411,81,110550,1,0,0:0:0:0:
420,96,110657,1,0,0:0:0:0:
425,113,110764,1,0,0:0:0:0:
427,130,110871,1,0,0:0:0:0:
428,220,111085,2,0,P|420:253|400:282,1,70,8|0,0:0|0:0,0:0:0:0:
312,312,111514,5,2,0:0:0:0:
154,221,111728,1,2,0:0:0:0:
311,129,111942,1,8,0:0:0:0:
220,288,112157,1,0,0:0:0:0:
205,298,112264,1,0,0:0:0:0:
190,306,112371,1,0,0:0:0:0:
174,312,112478,1,0,0:0:0:0:
156,315,112585,1,0,0:0:0:0:
88,147,112800,2,0,P|117:129|151:120,1,70,10|0,0:0|0:0,0:0:0:0:
32,352,113228,5,2,0:0:0:0:
31,317,113335,1,0,0:0:0:0:
30,282,113442,1,0,0:0:0:0:
29,247,113550,1,0,0:0:0:0:
28,212,113657,1,8,0:0:0:0:
24,120,113871,1,0,0:0:0:0:
24,120,113978,1,0,0:0:0:0:
24,120,114085,2,0,P|44:84|72:60,1,70
148,28,114514,2,0,P|183:25|221:36,1,70,8|0,0:0|0:0,0:0:0:0:
288,92,114942,5,2,0:0:0:0:
324,224,115157,1,2,0:0:0:0:
360,356,115371,1,8,0:0:0:0:
472,276,115585,1,0,0:0:0:0:
476,259,115692,1,0,0:0:0:0:
480,240,115800,2,0,P|477:201|464:165,1,70
252,180,116228,2,0,P|244:218|248:256,1,70,8|0,0:0|0:0,0:0:0:0:
488,84,116657,6,0,P|425:55|356:64,1,140,2|8,0:0|0:0,0:0:0:0:
276,108,117300,1,0,0:0:0:0:
276,108,117407,1,0,0:0:0:0:
276,108,117514,2,0,P|240:112|204:104,1,70
79,33,117942,2,0,P|113:29|148:36,1,70,8|0,0:0|0:0,0:0:0:0:
240,220,118371,5,2,0:0:0:0:
148,232,118585,1,2,0:0:0:0:
328,208,118800,1,8,0:0:0:0:
128,236,119014,1,0,0:0:0:0:
115,248,119121,1,0,0:0:0:0:
105,262,119228,1,0,0:0:0:0:
97,277,119335,1,0,0:0:0:0:
92,294,119442,1,0,0:0:0:0:
268,352,119657,2,0,P|292:324|304:288,1,70,10|0,0:0|0:0,0:0:0:0:
328,208,120085,5,2,0:0:0:0:
330,183,120192,1,0,0:0:0:0:
328,159,120300,1,0,0:0:0:0:
323,135,120407,1,0,0:0:0:0:
314,112,120514,1,8,0:0:0:0:
240,56,120728,1,0,0:0:0:0:
224,49,120835,1,0,0:0:0:0:
206,46,120942,1,0,0:0:0:0:
116,56,121157,1,0,0:0:0:0:
36,104,121371,1,8,0:0:0:0:
36,104,121478,2,0,L|28:173,1,70
27,201,121800,5,2,0:0:0:0:
32,228,121907,1,0,0:0:0:0:
43,254,122014,1,2,0:0:0:0:
59,277,122121,1,0,0:0:0:0:
79,296,122228,1,8,0:0:0:0:
171,313,122442,1,0,0:0:0:0:
186,306,122550,1,0,0:0:0:0:
204,303,122657,1,0,0:0:0:0:
292,332,122871,1,0,0:0:0:0:
380,348,123085,2,0,P|433:327|456:284,1,105,8|0,0:0|0:0,0:0:0:0:
464,244,123514,5,6,0:0:0:0:
466,217,123621,1,0,0:0:0:0:
469,191,123728,1,0,0:0:0:0:
475,166,123835,1,0,0:0:0:0:
482,140,123942,1,8,0:0:0:0:
440,60,124157,2,0,L|448:16,2,35
372,120,124585,1,0,0:0:0:0:
254,83,124800,1,8,0:0:0:0:
254,83,124907,2,0,P|220:76|186:84,1,70
152,116,125228,5,2,0:0:0:0:
126,123,125335,1,0,0:0:0:0:
100,126,125442,1,2,0:0:0:0:
74,123,125550,1,0,0:0:0:0:
49,114,125657,1,8,0:0:0:0:
24,204,125871,2,0,L|16:252,2,35
49,114,126300,1,0,0:0:0:0:
137,39,126514,1,10,0:0:0:0:
137,39,126621,2,0,P|170:29|203:39,1,70
236,72,126942,5,2,0:0:0:0:
248,94,127050,1,0,0:0:0:0:
264,115,127157,1,0,0:0:0:0:
282,134,127264,1,0,0:0:0:0:
303,150,127371,1,8,0:0:0:0:
384,192,127585,2,0,L|436:192,2,35
303,233,128014,1,0,0:0:0:0:
198,295,128228,1,8,0:0:0:0:
198,295,128335,2,0,P|164:301|129:295,1,70
92,276,128657,5,2,0:0:0:0:
71,259,128764,1,0,0:0:0:0:
54,239,128871,1,2,0:0:0:0:
41,216,128978,1,0,0:0:0:0:
34,191,129085,1,8,0:0:0:0:
32,100,129300,2,0,L|32:52,2,35
34,191,129728,1,0,0:0:0:0:
154,162,129942,1,8,0:0:0:0:
154,162,130050,2,0,P|188:156|223:161,1,70
264,184,130371,5,2,0:0:0:0:
289,189,130478,1,0,0:0:0:0:
315,192,130585,1,0,0:0:0:0:
341,191,130692,1,0,0:0:0:0:
367,186,130800,1,8,0:0:0:0:
440,132,131014,1,0,0:0:0:0:
440,132,131121,1,0,0:0:0:0:
440,132,131228,1,0,0:0:0:0:
452,224,131442,1,0,0:0:0:0:
373,311,131657,1,8,0:0:0:0:
373,311,131764,2,0,L|305:327,1,70
260,336,132085,5,2,0:0:0:0:
233,337,132192,1,0,0:0:0:0:
207,333,132300,1,2,0:0:0:0:
182,325,132407,1,0,0:0:0:0:
159,313,132514,1,8,0:0:0:0:
84,264,132728,1,0,0:0:0:0:
84,264,132835,1,0,0:0:0:0:
84,264,132942,1,0,0:0:0:0:
56,176,133157,1,0,0:0:0:0:
104,78,133371,1,10,0:0:0:0:
104,78,133478,2,0,P|136:63|171:59,1,70
212,76,133800,5,2,0:0:0:0:
237,81,133907,1,0,0:0:0:0:
263,83,134014,1,0,0:0:0:0:
289,80,134121,1,0,0:0:0:0:
315,73,134228,1,8,0:0:0:0:
396,36,134442,1,0,0:0:0:0:
396,36,134550,1,0,0:0:0:0:
396,36,134657,1,0,0:0:0:0:
452,104,134871,1,0,0:0:0:0:
491,216,135085,1,8,0:0:0:0:
491,216,135192,2,0,P|488:250|469:279,1,70
428,300,135514,6,0,L|288:328,1,140,0|8,0:0|0:0,0:0:0:0:
156,324,136264,1,0,0:0:0:0:
64,224,136585,1,0,0:0:0:0:
64,224,136800,2,0,L|74:154,1,70,8|0,0:0|0:0,0:0:0:0:
104,68,137228,5,4,0:0:0:0:
432,52,150942,6,0,L|464:192,1,140,4|8,0:0|0:0,0:0:0:0:
428,320,151692,1,0,0:0:0:0:
300,368,152014,1,0,0:0:0:0:
300,368,152228,1,8,0:0:0:0:
124,324,152657,6,0,P|68:288|36:216,1,140,0|8,0:0|0:0,0:0:0:0:
40,132,153300,1,2,0:0:0:0:
45,111,153407,1,2,0:0:0:0:
54,92,153514,1,0,0:0:0:0:
67,76,153621,1,2,0:0:0:0:
83,62,153728,1,2,0:0:0:0:
101,52,153835,1,2,0:0:0:0:
121,45,153942,1,10,0:0:0:0:
176,116,154157,2,0,L|164:164,1,35
212,36,154371,6,0,P|281:51|356:40,1,140,0|8,0:0|0:0,0:0:0:0:
480,8,155121,1,0,0:0:0:0:
444,140,155442,1,0,0:0:0:0:
444,140,155657,1,8,0:0:0:0:
476,320,156085,6,0,L|336:324,1,140,0|8,0:0|0:0,0:0:0:0:
64,360,157157,1,0,0:0:0:0:
64,360,157371,1,8,0:0:0:0:
112,80,157800,6,0,P|176:100|248:96,1,140,4|8,0:0|0:0,0:0:0:0:
380,56,158550,1,0,0:0:0:0:
424,184,158871,1,0,0:0:0:0:
424,184,159085,1,8,0:0:0:0:
324,336,159514,6,0,P|256:316|176:332,1,140,0|8,0:0|0:0,0:0:0:0:
96,324,160157,1,2,0:0:0:0:
104,305,160264,1,2,0:0:0:0:
111,285,160371,1,0,0:0:0:0:
115,264,160478,1,2,0:0:0:0:
116,243,160585,1,2,0:0:0:0:
114,222,160692,1,2,0:0:0:0:
110,202,160800,1,10,0:0:0:0:
56,128,161014,2,0,P|41:140|32:156,1,35
148,116,161228,6,0,L|288:100,1,140,0|8,0:0|0:0,0:0:0:0:
420,132,161978,1,0,0:0:0:0:
384,0,162300,1,0,0:0:0:0:
384,0,162514,1,8,0:0:0:0:
212,64,162942,6,0,L|224:212,1,140,0|8,0:0|0:0,0:0:0:0:
452,352,164014,1,0,0:0:0:0:
452,352,164228,1,8,0:0:0:0:
192,344,164657,6,0,L|52:336,1,140,4|8,0:0|0:0,0:0:0:0:
8,256,165300,1,2,0:0:0:0:
5,229,165407,1,2,0:0:0:0:
6,203,165514,1,0,0:0:0:0:
12,178,165621,1,2,0:0:0:0:
22,154,165728,1,2,0:0:0:0:
84,88,165942,2,0,P|112:68|148:56,1,70,8|0,0:0|0:0,0:0:0:0:
236,56,166371,6,0,P|288:88|368:96,1,140,2|8,0:0|0:0,0:0:0:0:
452,64,167014,1,2,0:0:0:0:
454,84,167121,1,2,0:0:0:0:
457,105,167228,1,0,0:0:0:0:
460,126,167335,1,2,0:0:0:0:
463,147,167442,1,2,0:0:0:0:
466,167,167550,1,2,0:0:0:0:
469,188,167657,1,10,0:0:0:0:
408,256,167871,1,2,0:0:0:0:
413,290,167978,1,0,0:0:0:0:
419,325,168085,6,0,P|367:358|280:368,1,140,2|8,0:0|0:0,0:0:0:0:
200,356,168728,1,2,0:0:0:0:
174,351,168835,1,2,0:0:0:0:
149,341,168942,1,0,0:0:0:0:
127,327,169050,1,2,0:0:0:0:
109,309,169157,1,2,0:0:0:0:
56,236,169371,1,8,0:0:0:0:
64,244,169478,1,0,0:0:0:0:
64,244,169585,1,0,0:0:0:0:
64,152,169800,6,0,P|96:88|160:60,1,140,2|8,0:0|0:0,0:0:0:0:
424,97,170657,1,0,0:0:0:0:
312,240,170871,1,0,0:0:0:0:
244,72,171085,1,8,0:0:0:0:
320,344,171514,6,0,L|460:336,1,140,4|8,0:0|0:0,0:0:0:0:
492,252,172157,1,2,0:0:0:0:
499,226,172264,1,2,0:0:0:0:
502,200,172371,1,0,0:0:0:0:
502,174,172478,1,2,0:0:0:0:
498,148,172585,1,2,0:0:0:0:
428,88,172800,2,0,P|400:68|364:56,1,70,8|0,0:0|0:0,0:0:0:0:
276,56,173228,6,0,P|223:88|144:96,1,140,2|8,0:0|0:0,0:0:0:0:
60,64,173871,1,2,0:0:0:0:
57,84,173978,1,2,0:0:0:0:
54,105,174085,1,0,0:0:0:0:
51,126,174192,1,2,0:0:0:0:
48,147,174300,1,2,0:0:0:0:
45,167,174407,1,2,0:0:0:0:
42,188,174514,1,10,0:0:0:0:
104,256,174728,1,2,0:0:0:0:
98,290,174835,1,0,0:0:0:0:
92,325,174942,6,0,P|144:358|232:368,1,140,2|8,0:0|0:0,0:0:0:0:
312,360,175585,1,2,0:0:0:0:
337,355,175692,1,2,0:0:0:0:
362,346,175800,1,0,0:0:0:0:
385,333,175907,1,2,0:0:0:0:
406,317,176014,1,2,0:0:0:0:
448,244,176228,1,8,0:0:0:0:
448,244,176335,1,0,0:0:0:0:
448,244,176442,1,0,0:0:0:0:
448,152,176657,6,0,P|416:88|352:60,1,140,2|8,0:0|0:0,0:0:0:0:
88,97,177514,1,0,0:0:0:0:
200,240,177728,1,0,0:0:0:0:
268,72,177942,1,8,0:0:0:0:
48,264,178371,6,0,L|40:124,1,140,4|8,0:0|0:0,0:0:0:0:
104,60,179014,1,2,0:0:0:0:
127,66,179121,1,2,0:0:0:0:
152,68,179228,1,0,0:0:0:0:
176,65,179335,1,2,0:0:0:0:
200,59,179442,1,2,0:0:0:0:
288,36,179657,2,0,P|324:32|360:40,1,70,8|0,0:0|0:0,0:0:0:0:
436,88,180085,6,0,L|452:232,1,140,2|8,0:0|0:0,0:0:0:0:
384,288,180728,1,2,0:0:0:0:
363,287,180835,1,2,0:0:0:0:
342,290,180942,1,0,0:0:0:0:
321,295,181050,1,2,0:0:0:0:
302,303,181157,1,2,0:0:0:0:
283,313,181264,1,2,0:0:0:0:
267,325,181371,1,10,0:0:0:0:
176,336,181585,1,2,0:0:0:0:
176,336,181692,1,0,0:0:0:0:
176,336,181800,6,0,L|36:324,1,140,2|8,0:0|0:0,0:0:0:0:
60,236,182442,1,2,0:0:0:0:
61,211,182550,1,2,0:0:0:0:
59,187,182657,1,0,0:0:0:0:
51,163,182764,1,2,0:0:0:0:
40,142,182871,1,2,0:0:0:0:
60,52,183085,2,0,P|84:76|116:96,1,70,8|0,0:0|0:0,0:0:0:0:
200,124,183514,6,0,L|344:104,1,140,2|8,0:0|0:0,0:0:0:0:
456,244,184371,1,0,0:0:0:0:
326,370,184585,1,0,0:0:0:0:
279,195,184800,1,8,0:0:0:0:
48,120,185228,6,0,L|40:260,1,140,4|8,0:0|0:0,0:0:0:0:
104,324,185871,1,2,0:0:0:0:
127,317,185978,1,2,0:0:0:0:
152,315,186085,1,0,0:0:0:0:
176,318,186192,1,2,0:0:0:0:
200,324,186300,1,2,0:0:0:0:
288,348,186514,2,0,P|324:352|360:344,1,70,8|0,0:0|0:0,0:0:0:0:
436,296,186942,6,0,P|438:229|396:172,1,140,2|8,0:0|0:0,0:0:0:0:
308,196,187585,1,2,0:0:0:0:
288,203,187692,1,2,0:0:0:0:
267,208,187800,1,0,0:0:0:0:
247,210,187907,1,2,0:0:0:0:
226,209,188014,1,2,0:0:0:0:
205,206,188121,1,2,0:0:0:0:
185,200,188228,1,10,0:0:0:0:
132,124,188442,1,2,0:0:0:0:
132,124,188550,1,0,0:0:0:0:
132,124,188657,6,0,P|152:52|208:20,1,140,2|8,0:0|0:0,0:0:0:0:
292,52,189300,1,2,0:0:0:0:
313,65,189407,1,2,0:0:0:0:
334,75,189514,1,0,0:0:0:0:
359,80,189621,1,2,0:0:0:0:
383,81,189728,1,2,0:0:0:0:
464,124,189942,2,0,L|476:200,1,70,8|0,0:0|0:0,0:0:0:0:
428,272,190371,6,0,L|284:292,1,140,2|8,0:0|0:0,0:0:0:0:
112,328,191228,5,2,0:0:0:0:
94,297,191336,1,0,0:0:0:0:
82,265,191443,1,2,0:0:0:0:
75,230,191550,1,0,0:0:0:0:
75,195,191657,1,10,0:0:0:0:
81,161,191764,1,0,0:0:0:0:
93,128,191871,1,2,0:0:0:0:
110,97,191978,1,0,0:0:0:0:
132,71,192086,6,0,P|164:52|204:44,1,70,4|0,0:0|0:0,0:0:0:0:
300,44,192514,1,8,0:0:0:0:
396,88,192728,1,2,0:0:0:0:
381,119,192836,1,2,0:0:0:0:
375,154,192943,1,0,0:0:0:0:
377,188,193050,1,2,0:0:0:0:
389,222,193157,1,2,0:0:0:0:
377,325,193371,2,0,P|411:325|444:312,1,70,8|0,0:0|0:0,0:0:0:0:
260,156,193800,6,0,B|212:144|212:144|164:156|164:156|112:144,1,140,2|8,0:0|0:0,0:0:0:0:
24,112,194443,1,0,0:0:0:0:
108,48,194657,1,2,0:0:0:0:
142,44,194764,1,2,0:0:0:0:
177,40,194871,1,2,0:0:0:0:
280,64,195086,1,8,0:0:0:0:
328,268,195300,1,0,0:0:0:0:
328,268,195407,1,0,0:0:0:0:
328,268,195514,6,0,L|180:280,1,140,2|8,0:0|0:0,0:0:0:0:
88,244,196157,1,2,0:0:0:0:
64,218,196264,1,2,0:0:0:0:
50,186,196371,1,0,0:0:0:0:
49,151,196478,1,2,0:0:0:0:
59,118,196586,1,2,0:0:0:0:
232,0,196800,1,8,0:0:0:0:
356,168,197014,1,0,0:0:0:0:
186,251,197228,6,0,P|164:184|176:116,1,140,2|8,0:0|0:0,0:0:0:0:
491,102,198086,1,0,0:0:0:0:
340,248,198300,1,0,0:0:0:0:
290,45,198514,1,8,0:0:0:0:
48,264,198943,6,0,P|122:256|188:276,1,140,4|8,0:0|0:0,0:0:0:0:
276,324,199586,1,2,0:0:0:0:
308,336,199693,1,2,0:0:0:0:
343,342,199800,1,0,0:0:0:0:
378,341,199907,1,2,0:0:0:0:
412,334,200014,1,2,0:0:0:0:
428,232,200228,2,0,P|392:230|350:252,1,70,8|0,0:0|0:0,0:0:0:0:
504,56,200657,6,0,P|440:32|369:42,1,140,2|8,0:0|0:0,0:0:0:0:
268,68,201300,1,2,0:0:0:0:
233,75,201407,1,2,0:0:0:0:
198,76,201514,1,0,0:0:0:0:
164,70,201621,1,2,0:0:0:0:
131,57,201728,1,2,0:0:0:0:
28,40,201943,1,10,0:0:0:0:
28,228,202157,1,0,0:0:0:0:
236,256,202371,5,2,0:0:0:0:
444,284,202586,1,2,0:0:0:0:
444,284,202800,1,8,0:0:0:0:
176,180,203014,1,2,0:0:0:0:
153,206,203121,1,2,0:0:0:0:
141,238,203228,1,0,0:0:0:0:
141,273,203336,1,2,0:0:0:0:
155,305,203443,1,2,0:0:0:0:
348,196,203657,2,0,P|356:155|352:120,1,70,10|0,0:0|0:0,0:0:0:0:
308,368,204086,6,0,L|380:372,1,70
484,376,204514,1,8,0:0:0:0:
200,216,204943,6,0,L|272:220,1,70
460,228,205371,1,8,0:0:0:0:
188,40,205800,6,0,L|164:112,1,70,4|0,0:0|0:0,0:0:0:0:
132,208,206228,1,8,0:0:0:0:
148,312,206443,1,2,0:0:0:0:
162,343,206550,1,2,0:0:0:0:
187,367,206657,1,0,0:0:0:0:
219,380,206764,1,2,0:0:0:0:
254,380,206871,1,2,0:0:0:0:
460,340,207086,1,8,0:0:0:0:
484,132,207300,1,0,0:0:0:0:
272,40,207514,6,0,L|200:44,1,70,2|0,0:0|0:0,0:0:0:0:
52,92,207943,5,10,0:0:0:0:
52,127,208050,1,2,0:0:0:0:
52,162,208157,1,2,0:0:0:0:
52,197,208264,1,0,0:0:0:0:
100,268,208371,5,2,0:0:0:0:
124,292,208478,1,2,0:0:0:0:
149,317,208586,1,2,0:0:0:0:
174,342,208693,1,0,0:0:0:0:
260,348,208800,5,10,0:0:0:0:
295,348,208907,1,2,0:0:0:0:
330,348,209014,1,2,0:0:0:0:
365,348,209121,1,2,0:0:0:0:
436,300,209228,6,0,P|448:265|448:228,1,70,2|0,0:0|0:0,0:0:0:0:
380,96,209657,2,0,P|368:129|368:164,1,70,10|0,0:0|0:0,0:0:0:0:
492,35,210086,1,2,0:0:0:0:
492,35,210193,1,2,0:0:0:0:
492,35,210300,1,2,0:0:0:0:
272,112,210514,1,8,0:0:0:0:
468,152,210728,1,2,0:0:0:0:
356,264,210943,5,2,0:0:0:0:
252,280,211157,1,0,0:0:0:0:
148,292,211371,1,8,0:0:0:0:
416,85,211800,5,0,0:0:0:0:
260,103,212014,1,0,0:0:0:0:
103,127,212228,1,8,0:0:0:0:
416,299,212657,6,0,L|344:308,1,70,4|0,0:0|0:0,0:0:0:0:
240,316,213086,1,8,0:0:0:0:
172,236,213300,1,2,0:0:0:0:
149,262,213407,1,2,0:0:0:0:
136,294,213514,1,0,0:0:0:0:
134,329,213621,1,2,0:0:0:0:
145,362,213728,1,2,0:0:0:0:
276,220,213943,2,0,P|272:184|255:153,1,70,8|0,0:0|0:0,0:0:0:0:
455,116,214371,6,0,P|479:182|484:252,1,140,2|8,0:0|0:0,0:0:0:0:
356,296,215014,1,2,0:0:0:0:
321,296,215121,1,2,0:0:0:0:
286,303,215228,1,0,0:0:0:0:
254,316,215336,1,2,0:0:0:0:
225,336,215443,1,2,0:0:0:0:
68,308,215657,1,8,0:0:0:0:
48,144,215871,1,2,0:0:0:0:
48,144,215978,1,2,0:0:0:0:
48,144,216086,6,0,P|86:129|124:136,1,70,2|2,0:0|0:0,0:0:0:0:
212,176,216514,1,8,0:0:0:0:
292,244,216728,1,2,0:0:0:0:
313,271,216836,1,2,0:0:0:0:
344,287,216943,1,0,0:0:0:0:
379,288,217050,1,2,0:0:0:0:
411,276,217157,1,2,0:0:0:0:
476,196,217371,1,8,0:0:0:0:
396,60,217586,1,0,0:0:0:0:
244,28,217800,5,2,0:0:0:0:
144,60,218014,1,2,0:0:0:0:
72,136,218228,1,8,0:0:0:0:
432,184,218657,5,0,0:0:0:0:
323,298,218871,1,0,0:0:0:0:
173,346,219086,1,8,0:0:0:0:
48,176,219514,5,6,0:0:0:0:
81,166,219621,1,2,0:0:0:0:
115,156,219728,1,2,0:0:0:0:
148,146,219836,1,2,0:0:0:0:
182,136,219943,1,8,0:0:0:0:
38,284,220157,5,2,0:0:0:0:
72,274,220264,1,2,0:0:0:0:
105,264,220371,1,2,0:0:0:0:
139,254,220478,1,2,0:0:0:0:
172,244,220586,1,2,0:0:0:0:
206,234,220693,1,0,0:0:0:0:
239,224,220800,1,8,0:0:0:0:
98,372,221014,5,2,0:0:0:0:
132,362,221121,1,0,0:0:0:0:
165,352,221228,1,2,0:0:0:0:
199,342,221336,1,2,0:0:0:0:
232,332,221443,1,2,0:0:0:0:
266,322,221550,1,2,0:0:0:0:
300,312,221657,1,8,0:0:0:0:
404,192,221978,5,2,0:0:0:0:
404,192,222086,1,2,0:0:0:0:
380,88,222300,1,2,0:0:0:0:
288,36,222514,1,10,0:0:0:0:
184,36,222728,2,0,P|168:44|152:56,1,35
128,100,222943,5,2,0:0:0:0:
122,134,223050,1,2,0:0:0:0:
116,168,223157,1,2,0:0:0:0:
110,203,223264,1,2,0:0:0:0:
104,237,223371,1,8,0:0:0:0:
227,88,223586,5,2,0:0:0:0:
221,123,223693,1,2,0:0:0:0:
215,157,223800,1,2,0:0:0:0:
209,192,223907,1,2,0:0:0:0:
203,226,224014,1,2,0:0:0:0:
197,261,224121,1,0,0:0:0:0:
192,295,224228,1,8,0:0:0:0:
272,368,224443,1,0,0:0:0:0:
368,320,224657,5,2,0:0:0:0:
373,285,224764,1,2,0:0:0:0:
379,251,224871,1,2,0:0:0:0:
385,216,224978,1,2,0:0:0:0:
391,182,225086,1,10,0:0:0:0:
144,64,225514,5,0,0:0:0:0:
121,192,225728,1,0,0:0:0:0:
99,321,225943,1,8,0:0:0:0:
412,320,226371,5,6,0:0:0:0:
378,309,226478,1,2,0:0:0:0:
345,298,226586,1,2,0:0:0:0:
311,288,226693,1,0,0:0:0:0:
278,277,226800,1,8,0:0:0:0:
480,234,227014,5,2,0:0:0:0:
446,224,227121,1,2,0:0:0:0:
413,214,227228,1,2,0:0:0:0:
379,203,227336,1,2,0:0:0:0:
346,193,227443,1,2,0:0:0:0:
313,183,227550,1,0,0:0:0:0:
279,172,227657,1,8,0:0:0:0:
479,128,227871,5,2,0:0:0:0:
446,118,227978,1,2,0:0:0:0:
412,107,228086,1,2,0:0:0:0:
379,97,228193,1,2,0:0:0:0:
346,87,228300,1,2,0:0:0:0:
312,76,228407,1,2,0:0:0:0:
279,66,228514,1,10,0:0:0:0:
117,245,228836,5,2,0:0:0:0:
117,245,228943,1,2,0:0:0:0:
175,335,229157,1,2,0:0:0:0:
279,352,229371,1,10,0:0:0:0:
377,317,229586,2,0,P|389:304|400:287,1,35
408,237,229800,5,2,0:0:0:0:
401,203,229907,1,2,0:0:0:0:
395,169,230014,1,2,0:0:0:0:
389,134,230121,1,2,0:0:0:0:
383,100,230228,1,8,0:0:0:0:
318,282,230443,5,2,0:0:0:0:
312,248,230550,1,2,0:0:0:0:
306,213,230657,1,2,0:0:0:0:
299,179,230764,1,2,0:0:0:0:
293,144,230871,1,2,0:0:0:0:
287,110,230978,1,0,0:0:0:0:
281,75,231086,1,8,0:0:0:0:
181,35,231300,1,0,0:0:0:0:
107,113,231514,5,2,0:0:0:0:
113,147,231621,1,2,0:0:0:0:
119,182,231728,1,2,0:0:0:0:
126,216,231836,1,2,0:0:0:0:
132,250,231943,1,10,0:0:0:0:
405,277,232371,5,0,0:0:0:0:
383,149,232586,1,0,0:0:0:0:
359,20,232800,1,8,0:0:0:0:
80,56,233228,5,4,0:0:0:0:
124,292,246943,6,0,L|268:312,1,140,4|8,0:0|0:0,0:0:0:0:
352,304,247586,1,2,0:0:0:0:
352,304,247693,1,2,0:0:0:0:
352,304,247800,2,0,P|372:276|376:228,1,70,2|0,0:0|0:0,0:0:0:0:
336,160,248228,2,0,P|341:125|361:97,1,70,8|0,0:0|0:0,0:0:0:0:
284,240,248657,5,2,0:0:0:0:
200,272,248871,1,2,0:0:0:0:
112,256,249086,1,8,0:0:0:0:
32,212,249300,1,2,0:0:0:0:
32,212,249407,1,2,0:0:0:0:
32,212,249514,2,0,P|34:177|62:138,1,70,2|0,0:0|0:0,0:0:0:0:
128,96,249943,1,8,0:0:0:0:
144,104,250371,6,0,P|212:116|284:100,1,140,2|8,0:0|0:0,0:0:0:0:
372,108,251014,1,2,0:0:0:0:
372,108,251121,1,2,0:0:0:0:
372,108,251228,2,0,L|392:180,1,70,2|0,0:0|0:0,0:0:0:0:
460,236,251657,2,0,L|480:308,1,70,8|0,0:0|0:0,0:0:0:0:
400,348,252086,5,2,0:0:0:0:
309,354,252300,1,2,0:0:0:0:
223,327,252514,1,8,0:0:0:0:
164,260,252728,1,2,0:0:0:0:
164,260,252836,1,2,0:0:0:0:
164,260,252943,2,0,L|144:188,1,70,2|0,0:0|0:0,0:0:0:0:
120,104,253371,1,8,0:0:0:0:
136,108,253800,6,0,P|208:92|256:48,1,140,2|8,0:0|0:0,0:0:0:0:
344,32,254443,1,2,0:0:0:0:
344,32,254550,1,2,0:0:0:0:
344,32,254657,2,0,P|381:38|412:60,1,70,2|0,0:0|0:0,0:0:0:0:
348,124,255086,2,0,P|377:148|392:182,1,70,8|0,0:0|0:0,0:0:0:0:
428,260,255514,5,2,0:0:0:0:
390,340,255728,1,2,0:0:0:0:
306,369,255943,1,8,0:0:0:0:
220,344,256157,1,2,0:0:0:0:
220,344,256264,1,2,0:0:0:0:
220,344,256371,2,0,P|185:328|161:299,1,70,2|0,0:0|0:0,0:0:0:0:
132,220,256800,1,8,0:0:0:0:
132,204,257228,6,0,L|128:64,1,140,2|8,0:0|0:0,0:0:0:0:
208,20,257871,1,2,0:0:0:0:
208,20,257978,1,2,0:0:0:0:
208,20,258086,2,0,P|247:13|278:21,1,70,2|0,0:0|0:0,0:0:0:0:
352,72,258514,2,0,P|377:103|385:134,1,70,8|0,0:0|0:0,0:0:0:0:
388,224,258943,5,2,0:0:0:0:
345,304,259157,1,2,0:0:0:0:
277,363,259371,1,8,0:0:0:0:
188,380,259586,1,2,0:0:0:0:
188,380,259693,1,2,0:0:0:0:
188,380,259800,2,0,L|112:380,1,70,2|0,0:0|0:0,0:0:0:0:
32,352,260228,1,8,0:0:0:0:
128,196,260657,6,0,L|199:183,1,70,2|2,3:2|0:2,0:0:0:0:
271,171,261086,1,8,0:0:0:0:
356,40,261514,2,0,L|285:53,1,70,2|2,3:2|0:2,0:0:0:0:
213,65,261943,1,8,0:0:0:0:
128,196,262371,6,0,L|199:183,1,70,2|2,3:2|0:2,0:0:0:0:
271,171,262800,1,8,0:0:0:0:
396,260,263228,2,0,L|325:273,1,70,2|2,3:2|0:2,0:0:0:0:
253,285,263657,1,8,0:0:0:0:
120,204,264086,6,0,P|108:172|104:132,1,70,2|2,3:2|0:2,0:0:0:0:
108,60,264514,1,8,0:0:0:0:
240,140,264943,2,0,P|252:172|256:212,1,70,2|2,3:2|0:2,0:0:0:0:
253,285,265371,1,8,0:0:0:0:
385,205,265800,6,0,P|397:173|401:133,1,70,2|2,3:2|0:2,0:0:0:0:
397,61,266228,1,8,0:0:0:0:
265,141,266657,2,0,P|253:173|249:213,1,70,2|2,3:2|0:2,0:0:0:0:
253,285,267086,1,8,0:0:0:0:
192,332,267300,1,0,0:0:0:0:
192,332,267407,1,2,0:2:0:0:
192,332,267514,6,0,L|122:320,1,70,2|2,3:2|0:2,0:0:0:0:
56,280,267943,1,8,0:0:0:0:
160,164,268371,2,0,L|230:176,1,70,2|2,3:2|0:2,0:0:0:0:
296,216,268800,1,8,0:0:0:0:
432,284,269228,6,0,L|444:212,1,70,2|2,3:2|0:2,0:0:0:0:
484,148,269657,1,8,0:0:0:0:
344,84,270086,2,0,L|275:73,1,70,2|2,3:2|0:2,0:0:0:0:
208,32,270514,1,8,0:0:0:0:
60,76,270943,6,0,P|52:108|56:148,1,70,2|2,3:2|0:2,0:0:0:0:
104,204,271371,1,8,0:0:0:0:
244,140,271800,2,0,P|276:132|316:136,1,70,2|2,3:2|0:2,0:0:0:0:
372,184,272228,1,8,0:0:0:0:
424,328,272657,6,0,P|392:336|352:332,1,70,2|2,3:2|0:2,0:0:0:0:
296,284,273086,1,8,0:0:0:0:
168,200,273514,2,0,P|136:192|96:196,1,70,2|2,3:2|0:2,0:0:0:0:
40,244,273943,1,8,0:0:0:0:
76,324,274157,1,0,0:0:0:0:
76,324,274264,1,2,0:2:0:0:
76,324,274371,6,0,L|-4:332,2,70,2|2|8,3:2|0:2|0:0,0:0:0:0:
236,300,275228,2,0,L|316:292,1,70,2|2,3:2|0:2,0:0:0:0:
380,304,275657,1,8,0:0:0:0:
416,156,276086,6,0,L|424:76,2,70,2|2|8,3:2|0:2|0:0,0:0:0:0:
276,220,276943,2,0,L|196:228,1,70,2|2,3:2|0:2,0:0:0:0:
132,212,277371,1,8,0:0:0:0:
36,92,277800,6,0,L|28:12,2,70,2|2|8,3:2|0:2|0:0,0:0:0:0:
168,168,278657,2,0,L|248:160,1,70,2|2,3:2|0:2,0:0:0:0:
316,156,279086,1,8,0:0:0:0:
416,276,279514,6,0,L|424:356,2,70,2|2|8,3:2|0:2|0:0,0:0:0:0:
380,128,280371,2,0,L|300:120,1,70,2|2,3:2|0:2,0:0:0:0:
232,112,280800,1,8,0:0:0:0:
172,160,281014,1,0,0:0:0:0:
172,160,281121,1,2,0:2:0:0:
172,160,281228,6,0,P|137:167|100:160,2,70,2|2|8,3:2|0:2|0:0,0:0:0:0:
316,108,282086,2,0,P|350:102|388:108,2,70,2|2|8,3:2|0:2|0:0,0:0:0:0:
208,220,282943,6,0,P|202:255|208:292,1,70,2|2,3:2|0:2,0:0:0:0:
240,360,283371,1,8,0:0:0:0:
368,276,283800,2,0,P|375:242|368:204,2,70,2|2|8,3:2|0:2|0:0,0:0:0:0:
240,360,284657,6,0,P|205:366|171:359,1,70,2|2,3:2|0:2,0:0:0:0:
100,328,285086,1,8,0:0:0:0:
28,192,285514,2,0,P|23:158|30:124,2,70,2|2|8,3:2|0:2|0:0,0:0:0:0:
148,288,286371,6,0,P|183:294|217:287,2,70,2|2|8,3:2|0:2|0:0,0:0:0:0:
108,220,287014,2,2,L|107:171,1,35
108,148,287228,1,0,3:0:0:0:
