osu file format v14

[General]
AudioFilename: Hyyeyeehyehye.mp3
AudioLeadIn: 0
PreviewTime: 148300
Countdown: 0
SampleSet: Normal
StackLeniency: 0.2
Mode: 0
LetterboxInBreaks: 1
WidescreenStoryboard: 0

[Editor]
Bookmarks: 31900,56350,77500,103900
DistanceSpacing: 1
BeatDivisor: 4
GridSize: 4
TimelineZoom: 1

[Metadata]
Title:Marionette no Kairaku
TitleUnicode:マリオネットの快楽
Artist:Yanne
ArtistUnicode:やんね
Creator:Erza
Version:Extra
Source:
Tags:Hatsune Miku
BeatmapID:781929
BeatmapSetID:355102

[Difficulty]
HPDrainRate:7
CircleSize:4
OverallDifficulty:8
ApproachRate:9.5
SliderMultiplier:2
SliderTickRate:1

[Events]
//Background and Video events
0,0,"BG1.jpg",0,0
//Break Periods
2,136500,138175
//Storyboard Layer 0 (Background)
//Storyboard Layer 1 (Fail)
//Storyboard Layer 2 (Pass)
//Storyboard Layer 3 (Foreground)
//Storyboard Layer 4 (Overlay)
//Storyboard Sound Samples

[TimingPoints]
700,300,4,1,1,40,1,0
1300,-133.333333333333,4,1,1,40,0,0
1750,-200,4,1,1,40,0,0
3100,-133.333333333333,4,1,1,40,0,0
3550,-200,4,1,1,40,0,0
4150,-200,4,1,1,40,0,0
4300,-133.333333333333,4,1,1,40,0,0
4600,-100,4,1,1,40,0,0
4900,-66.6666666666667,4,1,1,40,0,0
5200,-100,4,1,1,40,0,0
5950,-133.333333333333,4,1,1,40,0,0
6400,-133.333333333333,4,1,1,40,0,0
6850,-100,4,1,1,40,0,0
7300,-80,4,1,1,40,0,0
7900,-100,4,1,1,40,0,0
8800,-133.333333333333,4,1,1,40,0,0
9250,-80,4,1,1,40,0,0
10300,-100,4,1,1,40,0,0
10750,-117.647058823529,4,1,1,40,0,0
11200,-80,4,1,1,40,0,0
11650,-117.647058823529,4,1,1,40,0,0
12850,-100,4,1,1,40,0,0
15100,-117.647058823529,4,1,1,40,0,0
15550,-100,4,1,1,40,0,0
16000,-200,4,1,1,40,0,0
16450,-100,4,1,1,40,0,0
16900,-100,4,1,1,40,0,0
17950,-117.647058823529,4,1,1,40,0,0
18400,-200,4,1,1,40,0,0
18850,-100,4,1,1,40,0,0
19300,-100,4,1,1,40,0,0
20350,-117.647058823529,4,1,1,40,0,0
20800,-133.333333333333,4,1,1,40,0,0
21250,-100,4,1,1,40,0,0
27700,-80,4,1,1,40,0,0
28150,-100,4,1,1,40,0,0
29500,-80,4,1,1,40,0,0
30100,-117.647058823529,4,1,1,40,0,0
30550,-80,4,1,1,40,0,0
31150,-80,4,1,1,40,0,0
31600,-100,4,1,1,40,0,0
32200,-80,4,1,1,40,0,0
32500,-80,4,1,1,40,0,0
33400,-100,4,1,1,40,0,0
33700,-133.333333333333,4,1,1,40,0,0
34150,-100,4,1,1,40,0,0
41350,-117.647058823529,4,1,1,40,0,0
43900,-100,4,1,1,40,0,1
47350,-86.9565217391304,4,1,1,40,0,1
47950,-50,4,1,1,40,0,1
48250,-100,4,1,1,40,0,1
48700,-200,4,1,1,40,0,1
49000,-100,4,1,1,40,0,1
50200,-86.9565217391304,4,1,1,40,0,1
51100,-100,4,1,1,40,0,1
52150,-117.647058823529,4,1,1,40,0,1
52900,-100,4,1,1,40,0,1
53350,-100,4,1,1,40,0,0
55300,-80,4,1,1,40,0,0
55900,-133.333333333333,4,1,1,40,0,0
56350,-100,4,1,1,40,0,0
56800,-133.333333333333,4,1,1,40,0,0
57250,-100,4,1,1,40,0,0
58750,-133.333333333333,4,1,1,40,0,0
59200,-133.333333333333,4,1,1,40,0,0
59650,-117.647058823529,4,1,1,40,0,0
60100,-100,4,1,1,40,0,0
64300,-117.647058823529,4,1,1,40,0,0
64750,-100,4,1,1,40,0,0
67600,-86.9565217391304,4,1,1,40,0,0
68500,-100,4,1,1,40,0,0
69700,-86.9565217391304,4,1,1,40,0,0
70000,-100,4,1,1,40,0,0
72100,-133.333333333333,4,1,1,40,0,0
72550,-100,4,1,1,40,0,0
75100,-80,4,1,1,40,0,0
75250,-100,4,1,1,40,0,0
75550,-80,4,1,1,40,0,0
75700,-100,4,1,1,40,0,0
76000,-80,4,1,1,40,0,0
76150,-100,4,1,1,40,0,0
76450,-80,4,1,1,40,0,0
76600,-100,4,1,1,40,0,0
82300,-100,4,1,1,40,0,1
83500,-86.9565217391304,4,1,1,40,0,1
83800,-80,4,1,1,40,0,1
84100,-66.6666666666667,4,1,1,40,0,1
84400,-80,4,1,1,40,0,1
84700,-86.9565217391304,4,1,1,40,0,1
85150,-100,4,1,1,40,0,1
86200,-86.9565217391304,4,1,1,40,0,1
86800,-83.3333333333333,4,1,1,40,0,1
87100,-100,4,1,1,40,0,1
88000,-86.9565217391304,4,1,1,40,0,1
88300,-100,4,1,1,40,0,1
88600,-86.9565217391304,4,1,1,40,0,1
89500,-100,4,1,1,40,0,1
93400,-86.9565217391304,4,1,1,40,0,1
94300,-100,4,1,1,40,0,1
98200,-86.9565217391304,4,1,1,40,0,1
99550,-100,4,1,1,40,0,1
101500,-100,4,1,1,40,0,0
113500,-86.9565217391304,4,1,1,40,0,0
114100,-80,4,1,1,40,0,0
115150,-86.9565217391304,4,1,1,40,0,0
115900,-100,4,1,1,40,0,0
116500,-86.9565217391304,4,1,1,40,0,0
117100,-100,4,1,1,40,0,0
122950,-117.647058823529,4,1,1,40,0,0
123550,-117.647058823529,4,1,1,40,0,0
123850,-86.9565217391304,4,1,1,40,0,0
124000,-100,4,1,1,40,0,0
124300,-133.333333333333,4,1,1,40,0,0
125200,-100,4,1,1,40,0,0
128800,-86.9565217391304,4,1,1,40,0,0
129100,-100,4,1,1,40,0,0
129400,-133.333333333333,4,1,1,40,0,0
129700,-100,4,1,1,40,0,0
130000,-133.333333333333,4,1,1,40,0,0
130600,-100,4,1,1,40,0,0
133750,-133.333333333333,4,1,1,40,0,0
133900,-200,4,1,1,40,0,0
134350,-133.333333333333,4,1,1,40,0,0
134500,-200,4,1,1,40,0,0
134950,-133.333333333333,4,1,1,40,0,0
138700,-133.333333333333,4,2,1,10,0,0
143500,-133.333333333333,4,1,1,30,0,0
147100,-100,4,1,1,40,0,0
147700,-133.333333333333,4,1,1,5,0,0
148300,-80,4,1,1,40,0,1
149500,-66.6666666666667,4,1,1,40,0,1
150700,-80,4,1,1,40,0,1
152200,-66.6666666666667,4,1,1,40,0,1
160300,-80,4,1,1,40,0,1
161350,-66.6666666666667,4,1,1,40,0,1
166150,-80,4,1,1,40,0,1
166900,-66.6666666666667,4,1,1,40,0,1
167500,-100,4,1,1,40,0,0
170800,-117.647058823529,4,1,1,40,0,0
171250,-133.333333333333,4,1,1,40,0,0
171700,-100,4,1,1,40,0,0
172750,-133.333333333333,4,1,1,40,0,0
173200,-100,4,1,1,40,0,0
173650,-200,4,1,1,40,0,0
174100,-100,4,1,1,40,0,0
177100,-133.333333333333,4,1,1,40,0,0
178150,-100,4,1,1,40,0,0

[HitObjects]
320,72,1300,6,0,P|256:36|192:76,1,150.000005722046
324,148,1750,2,0,P|368:136|396:88,1,100
256,112,2200,2,0,P|248:176|272:216,2,100
120,264,3100,6,0,P|162:326|244:320,1,150.000005722046
150,189,3550,2,0,P|90:186|54:214,1,100
312,296,4000,5,0,0:0:0:0:
312,296,4150,2,0,L|312:224,1,50
256,104,4450,2,0,L|240:200,1,75.0000028610231
398,360,4750,2,0,L|414:236,1,100
124,44,5050,2,0,B|136:124|136:124|148:204,1,150.000005722046
344,172,5350,5,0,0:0:0:0:
272,208,5500,2,0,P|278:128|393:106,1,200
423,169,5950,2,0,P|395:237|299:233,1,150.000005722046
344,172,6400,2,0,P|272:188|256:284,1,150.000005722046
184,302,6850,2,0,P|282:323|325:241,1,200
431,266,7300,2,0,P|378:229|319:254,1,125
259,292,7600,5,0,0:0:0:0:
210,317,7675,1,0,0:0:0:0:
156,327,7750,1,0,0:0:0:0:
101,321,7825,1,0,0:0:0:0:
56,296,7900,2,0,P|19:231|107:151,1,200
100,232,8350,6,0,P|172:176|132:80,1,200
95,20,8800,2,0,P|63:92|103:156,1,150.000005722046
240,352,9250,6,0,B|244:335|244:335|235:318|235:318|251:302|251:302|235:286|235:286|251:270|251:270|235:254|235:254|251:238|251:238|235:222|235:222|252:206|252:206|237:190|237:190|248:171|248:171|242:156|242:156|258:137,1,250
248,40,9700,5,0,0:0:0:0:
352,280,9850,1,0,0:0:0:0:
112,144,10000,1,0,0:0:0:0:
99,191,10075,1,0,0:0:0:0:
110,239,10150,1,0,0:0:0:0:
143,275,10225,1,0,0:0:0:0:
184,296,10300,2,0,P|256:304|296:192,1,200
272,104,10750,6,0,B|264:144|200:154|200:154|224:200|224:200|224:236,1,170.000003242493
224,360,11200,2,0,B|244:300|244:300|300:296|300:296|276:220|328:220|364:248|340:276,1,250
480,240,11650,2,8,B|457:273|420:272|420:272|429:311|429:311|372:344,1,170.000003242493,0|0,3:0|3:0,0:0:0:0:
208,236,12100,5,0,0:0:0:0:
246,257,12175,1,0,0:0:0:0:
289,249,12250,1,0,0:0:0:0:
317,216,12325,1,0,0:0:0:0:
317,172,12400,5,0,0:0:0:0:
289,138,12475,1,0,0:0:0:0:
246,131,12550,1,0,0:0:0:0:
208,153,12625,1,0,0:0:0:0:
184,192,12700,2,0,P|135:230|31:166,1,170.000003242493
112,128,13150,5,0,0:0:0:0:
112,320,13300,1,0,0:0:0:0:
112,80,13450,5,0,0:0:0:0:
112,368,13600,1,0,0:0:0:0:
256,224,13750,6,0,P|344:184|440:264,1,200
336,32,14200,5,0,0:0:0:0:
336,328,14350,1,0,0:0:0:0:
288,104,14500,5,0,0:0:0:0:
249,74,14575,1,0,0:0:0:0:
205,91,14650,1,0,0:0:0:0:
198,138,14725,1,0,0:0:0:0:
234,169,14800,5,0,0:0:0:0:
279,156,14875,1,0,0:0:0:0:
288,104,14950,1,0,0:0:0:0:
249,74,15025,1,0,0:0:0:0:
205,91,15100,2,0,L|205:279,1,170.000003242493
128,256,15550,6,0,P|168:332|280:280,1,200
368,176,16000,2,0,P|332:203|327:271,1,100
265,310,16450,6,0,P|354:334|402:255,1,200
408,168,16900,6,0,B|421:139|421:139|444:124,1,50
296,64,17050,2,0,B|272:41|272:41|264:0,1,50
272,184,17200,5,4,0:0:0:0:
276,198,17275,1,0,0:0:0:0:
281,212,17350,1,0,0:0:0:0:
286,226,17425,1,0,0:0:0:0:
292,240,17500,2,0,B|328:280|328:280|408:296|408:296|440:352,1,200
424,40,17950,6,0,B|416:64|432:96|432:96|416:136|416:136|440:168|424:210,1,170.000003242493
456,276,18400,2,0,P|404:280|364:248,1,100
248,160,18850,2,0,B|237:189|237:189|230:204|209:211|209:211|214:228|218:251|218:251|199:260|182:269|182:269|190:288|183:305|173:327|173:327|166:342,1,200
320,192,19300,6,0,B|328:168|328:168|360:152,1,50
432,72,19451,2,0,B|416:92|384:80,1,50
296,72,19600,1,0,0:0:0:0:
296,72,19675,1,0,0:0:0:0:
296,72,19750,1,0,0:0:0:0:
296,72,19825,1,0,0:0:0:0:
296,72,19900,2,0,P|232:104|264:232,1,200
272,296,20350,6,0,P|320:240|292:152,1,170.000003242493
200,272,20800,2,0,P|212:349|296:368,1,150.000005722046
272,296,21250,2,0,P|232:200|136:228,1,200
48,240,21700,5,0,0:0:0:0:
83,275,21775,1,0,0:0:0:0:
119,311,21850,1,0,0:0:0:0:
408,160,22000,5,0,0:0:0:0:
408,110,22075,1,0,0:0:0:0:
408,60,22150,1,0,0:0:0:0:
332,140,22300,6,0,P|364:228|460:220,1,200
244,298,22750,5,0,0:0:0:0:
200,136,22900,1,0,0:0:0:0:
244,298,23050,5,0,0:0:0:0:
280,80,23200,1,0,0:0:0:0:
244,298,23350,5,0,0:0:0:0:
336,168,23500,1,0,0:0:0:0:
244,298,23650,5,0,0:0:0:0:
432,192,23800,1,0,0:0:0:0:
244,298,23950,5,0,0:0:0:0:
406,298,24100,5,0,0:0:0:0:
384,298,24175,1,0,0:0:0:0:
364,298,24250,1,0,0:0:0:0:
343,298,24325,1,0,0:0:0:0:
323,298,24400,5,0,0:0:0:0:
303,298,24475,1,0,0:0:0:0:
282,298,24550,1,0,0:0:0:0:
264,298,24625,1,0,0:0:0:0:
244,298,24700,2,0,P|180:282|244:312,1,200
360,144,25150,5,0,0:0:0:0:
360,60,25300,2,0,P|308:76|284:120,1,100
224,208,25600,6,0,P|237:261|288:288,1,100
304,208,25900,1,0,0:0:0:0:
352,276,26050,2,0,P|314:356|208:336,2,200
400,32,26800,5,0,0:0:0:0:
398,131,26950,1,0,0:0:0:0:
400,32,27100,2,0,P|469:82|399:132,1,200
260,172,27550,5,0,0:0:0:0:
264,96,27700,2,0,P|184:156|293:240,1,250
306,312,28150,2,0,P|338:230|247:173,1,200
160,248,28600,5,0,0:0:0:0:
58,133,28750,1,0,0:0:0:0:
170,33,28900,1,0,0:0:0:0:
271,145,29050,1,0,0:0:0:0:
160,248,29200,6,0,P|128:272|144:232,1,100
144,48,29500,2,0,B|168:88|168:88|208:104|208:104|240:152,1,125
260,204,29800,2,0,P|304:136|280:80,1,125
288,312,30100,6,0,P|224:336|264:280,1,170.000003242493
352,240,30550,2,0,P|427:210|369:289,1,250
256,112,31000,5,0,0:0:0:0:
176,40,31150,2,0,B|176:144|176:144|208:184|208:184|208:296,1,250
208,292,31600,1,0,0:0:0:0:
288,208,31750,5,0,0:0:0:0:
288,200,31900,2,0,B|288:152|288:152|256:112,1,100
208,184,32200,2,0,B|208:232|208:232|232:256|232:256|232:304,1,125
176,108,32500,6,0,B|136:131|136:131|128:176|128:176|78:195,1,125
112,56,32800,1,0,0:0:0:0:
208,184,32950,2,0,B|240:236|240:236|272:232|272:232|304:248,1,125
264,328,33250,5,0,0:0:0:0:
268,127,33400,2,0,P|220:103|144:136,1,100
128,176,33700,6,0,P|121:212|94:237,1,75.0000028610231
16,232,34000,6,0,P|22:195|48:168,1,75.0000028610231
88,104,34300,5,0,0:0:0:0:
208,280,34450,1,0,0:0:0:0:
424,280,34750,5,0,0:0:0:0:
304,104,34900,1,0,0:0:0:0:
424,104,35200,5,0,0:0:0:0:
304,280,35350,1,0,0:0:0:0:
88,280,35650,5,0,0:0:0:0:
208,104,35800,1,0,0:0:0:0:
424,104,36700,5,0,0:0:0:0:
304,280,36850,1,0,0:0:0:0:
88,104,37150,5,0,0:0:0:0:
208,280,37300,1,0,0:0:0:0:
208,104,37600,5,0,0:0:0:0:
88,280,37750,1,0,0:0:0:0:
424,280,38050,5,0,0:0:0:0:
304,104,38200,1,0,0:0:0:0:
192,160,39100,5,0,0:0:0:0:
256,256,39250,1,0,0:0:0:0:
320,160,39400,1,0,0:0:0:0:
166,147,39550,5,0,0:0:0:0:
256,281,39700,1,0,0:0:0:0:
345,147,39850,1,0,0:0:0:0:
130,129,40000,5,0,0:0:0:0:
256,317,40150,1,0,0:0:0:0:
381,129,40300,1,0,0:0:0:0:
80,104,40450,5,0,0:0:0:0:
256,367,40600,1,0,0:0:0:0:
431,104,40750,1,0,0:0:0:0:
365,38,40900,5,0,0:0:0:0:
340,81,40975,1,0,0:0:0:0:
342,130,41050,1,0,0:0:0:0:
371,170,41125,1,0,0:0:0:0:
417,188,41200,2,0,P|451:192|505:126,2,100
431,104,41650,1,0,0:0:0:0:
112,88,41950,5,0,0:0:0:0:
112,88,42100,1,0,0:0:0:0:
416,304,42400,5,0,0:0:0:0:
416,304,42550,1,0,0:0:0:0:
256,192,42700,12,0,43600,0:0:0:0:
368,192,43750,5,0,0:0:0:0:
368,192,43825,1,0,0:0:0:0:
368,192,43900,2,0,L|248:192,1,100
24,88,44200,5,0,0:0:0:0:
152,328,44350,1,0,0:0:0:0:
104,252,44500,2,0,P|152:236|204:256,1,100
452,136,44800,5,0,0:0:0:0:
320,328,44950,1,0,0:0:0:0:
288,80,45100,2,0,P|340:80|396:128,1,100
216,288,45400,2,0,P|164:278|119:220,1,100
80,80,45700,5,0,0:0:0:0:
272,192,45850,1,0,0:0:0:0:
232,24,46000,1,0,0:0:0:0:
272,192,46150,1,0,0:0:0:0:
312,124,46300,2,0,P|218:129|196:220,1,200
153,290,46750,2,0,P|241:286|272:192,1,200
448,336,47200,5,0,0:0:0:0:
344,247,47350,2,0,P|380:276|363:230,1,115.000002193451
480,104,47650,1,0,0:0:0:0:
392,160,47800,2,0,P|446:194|464:256,1,115.000002193451
320,284,48100,5,0,0:0:0:0:
320,284,48175,1,0,0:0:0:0:
320,284,48250,1,0,0:0:0:0:
320,284,48325,1,0,0:0:0:0:
320,284,48400,2,0,P|264:280|224:236,1,100
256,104,48700,6,0,L|320:104,1,50
256,104,49000,2,0,P|216:72|160:80,1,100
192,152,49300,2,0,P|98:107|121:18,1,200
170,76,49750,1,0,0:0:0:0:
256,104,49900,6,0,P|273:162|247:209,1,100
189,224,50200,2,0,P|229:272|309:256,1,115.000002193451
184,351,50500,5,0,0:0:0:0:
258,196,50650,1,0,0:0:0:0:
41,283,50800,5,0,0:0:0:0:
161,51,50950,1,0,0:0:0:0:
64,131,51100,2,0,P|94:220|188:224,1,200
145,155,51550,6,0,P|233:155|265:251,1,200
321,83,52000,1,0,0:0:0:0:
188,224,52150,2,0,P|105:227|65:139,1,170.000003242493
256,40,52600,5,0,0:0:0:0:
256,352,52750,1,0,0:0:0:0:
384,192,52900,2,0,L|448:192,1,50
128,192,53050,2,0,L|64:192,1,50
256,192,53200,5,0,0:0:0:0:
256,192,53275,1,0,0:0:0:0:
256,192,53350,1,0,0:0:0:0:
256,192,53425,1,0,0:0:0:0:
256,192,53500,12,0,54700,0:0:0:0:
256,120,54850,6,0,P|320:152|280:272,1,200
232,308,55300,2,0,P|218:248|253:199,1,125
408,136,55600,5,0,0:0:0:0:
408,136,55675,1,0,0:0:0:0:
408,136,55750,1,0,0:0:0:0:
408,136,55825,1,0,0:0:0:0:
408,136,55900,2,0,B|408:192|408:192|376:232|376:232|376:296,1,150.000005722046
316,320,56350,6,0,P|417:340|448:252,1,200
448,48,56800,2,0,P|392:56|368:160,1,150.000005722046
360,280,57251,2,0,B|360:210|360:210|440:196|428:116,1,200
357,134,57700,6,0,B|304:112,1,50
172,72,57850,2,0,L|172:122,1,50
184,248,58000,1,0,0:0:0:0:
184,248,58075,1,0,0:0:0:0:
184,248,58150,1,0,0:0:0:0:
184,248,58225,1,0,0:0:0:0:
184,248,58300,2,0,P|232:288|320:208,1,200
384,168,58750,6,0,P|312:136|248:184,1,150.000005722046
320,362,59200,2,0,L|320:190,1,150.000005722046
399,93,59650,6,0,P|378:190|303:209,1,170.000003242493
168,80,60100,6,0,L|168:130,1,50
321,252,60250,2,0,L|321:202,1,50
184,96,60400,2,0,L|184:146,1,50
345,268,60550,2,0,L|345:218,1,50
209,352,60700,6,0,P|257:366|304:351,1,100,0|0,0:3|0:3,0:3:0:0:
416,256,60999,6,0,P|432:209|419:161,1,100,0|0,0:3|0:3,0:3:0:0:
96,152,61300,6,0,P|80:199|93:246,1,100,0|0,0:3|0:3,0:3:0:0:
304,40,61600,6,0,P|257:26|211:41,1,100,0|0,0:3|0:3,0:3:0:0:
416,256,61900,6,0,P|432:209|419:162,1,100,0|0,0:3|0:3,0:3:0:0:
210,353,62200,6,0,P|257:367|304:352,1,100,0|0,0:3|0:3,0:3:0:0:
280,184,62500,5,0,0:0:0:0:
280,184,62575,1,0,0:0:0:0:
280,184,62650,1,0,0:0:0:0:
280,184,62725,1,0,0:0:0:0:
280,184,62800,1,0,0:0:0:0:
280,184,62875,1,0,0:0:0:0:
280,184,62950,1,0,0:0:0:0:
280,184,63025,1,0,0:0:0:0:
280,184,63100,2,0,L|280:296,1,100
160,176,63400,6,0,L|160:72,1,100
312,204,63700,2,0,L|312:312,1,100
128,160,64000,6,0,L|128:56,1,100
352,224,64300,2,0,L|352:336,2,85.0000016212464
433,225,64750,2,0,P|393:153|281:185,1,200
230,97,65200,6,0,P|271:127|288:207,1,100
351,223,65500,2,0,P|262:250|210:173,2,200
268,340,66250,5,0,0:0:0:0:
290,172,66400,1,0,0:0:0:0:
396,296,66550,2,0,P|426:257|432:208,1,100
340,108,66850,6,0,P|246:104|212:196,1,200
236,288,67300,2,0,P|268:320|332:320,1,100
409,140,67600,2,0,P|352:179|304:174,1,115.000002193451
202,43,67900,6,0,P|318:89|305:182,1,230.000004386902
309,176,68350,5,0,0:0:0:0:
354,330,68500,2,0,P|283:267|308:176,1,200
176,176,68950,2,0,P|174:82|85:56,1,200
104,208,69400,6,0,P|133:246|184:256,1,100,0|0,0:3|0:3,0:3:0:0:
304,96,69700,2,0,P|256:50|200:56,1,115.000002193451
232,127,70000,2,0,P|280:173|332:170,1,100
376,136,70300,2,0,P|371:228|280:250,2,200
344,64,71050,2,0,P|305:94|304:156,1,100
448,336,71350,5,0,0:0:0:0:
448,128,71500,2,0,L|448:24,1,100
208,344,71800,5,0,0:0:0:0:
208,192,71950,2,0,L|208:88,1,100
344,40,72250,5,0,0:0:0:0:
344,240,72400,2,0,L|344:344,1,75.0000028610231
256,192,72700,5,0,0:0:0:0:
256,192,72850,1,0,0:0:0:0:
256,64,73150,5,0,0:0:0:0:
256,320,73300,1,0,0:0:0:0:
384,192,73600,5,0,0:0:0:0:
128,192,73750,1,0,0:0:0:0:
256,192,74050,5,0,0:0:0:0:
256,192,74200,1,0,0:0:0:0:
176,112,75100,6,0,L|176:48,1,62.5
256,24,75250,2,0,L|256:80,1,50
408,344,75550,6,0,L|408:272,1,62.5
328,248,75700,2,0,L|328:304,1,50
104,328,76000,6,0,L|40:328,1,62.5
96,248,76150,2,0,L|156:248,1,50
400,48,76450,6,0,L|472:48,1,62.5
408,128,76600,2,0,L|348:128,1,50
152,67,77500,5,0,0:0:0:0:
360,316,77650,1,0,0:0:0:0:
93,190,77800,5,0,0:0:0:0:
417,192,77950,1,0,0:0:0:0:
150,315,78100,5,0,0:0:0:0:
360,67,78250,1,0,0:0:0:0:
256,192,78400,5,0,0:0:0:0:
256,192,78550,2,0,L|256:320,1,100
316,56,78850,5,0,0:0:0:0:
392,48,79000,2,0,P|376:108|320:132,1,100
176,192,79300,5,0,0:0:0:0:
130,213,79375,1,0,0:0:0:0:
110,257,79450,1,0,0:0:0:0:
124,304,79525,1,0,0:0:0:0:
164,331,79600,2,0,P|192:344|240:336,1,50
264,288,79750,2,0,P|236:275|188:283,1,50
251,196,79900,6,0,B|259:160|259:160|292:135,1,50
355,152,80050,2,0,B|346:186|346:186|313:212,1,50
117,93,80350,6,0,B|96:105|97:136,1,50
181,135,80499,2,0,B|200:120|200:80,1,50
409,315,80800,6,0,B|429:302|428:271,1,50
345,273,80949,2,0,B|325:287|325:316,1,50
256,192,81100,12,0,82000,0:0:0:0:
256,192,82150,5,0,0:0:0:0:
256,192,82225,1,0,0:0:0:0:
256,192,82300,2,0,B|280:200|280:200|304:192|304:192|320:200|320:200|344:192|344:192|368:192,1,100
320,320,82600,1,0,0:0:0:0:
320,64,82750,1,0,0:0:0:0:
168,224,82900,2,0,P|120:256|112:312,1,100
112,64,83200,5,0,0:0:0:0:
200,312,83350,1,0,0:0:0:0:
276,132,83500,2,0,P|292:175|252:151,1,115.000002193451
320,304,83800,2,0,P|304:256|344:285,1,125
40,184,84100,6,0,P|129:191|131:249,1,150.000005722046
240,336,84400,2,0,P|166:348|141:301,1,125
216,160,84700,2,0,B|252:152|256:184|256:184|292:148|292:148|332:228|420:176,1,230.000004386902
440,248,85150,6,0,P|464:156|381:114,1,200
280,116,85600,5,0,0:0:0:0:
280,361,85750,2,0,P|333:285|272:216,1,200
256,288,86200,2,0,B|200:288|200:288|152:336,1,115.000002193451
104,208,86500,5,0,0:0:0:0:
56,207,86575,1,0,0:0:0:0:
44,251,86650,1,0,0:0:0:0:
83,275,86725,1,0,0:0:0:0:
120,256,86800,2,0,B|160:216|160:216|160:144,1,119.999996337891
264,160,87100,6,0,P|274:85|400:48,1,200
280,240,87550,1,0,0:0:0:0:
336,128,87700,6,0,P|386:133|372:162,1,100
400,304,88000,6,0,P|339:302|363:269,1,115.000002193451
240,112,88300,6,0,P|260:67|308:36,1,100
432,144,88600,6,0,P|411:188|363:219,1,100
264,272,88900,5,0,0:0:0:0:
336,128,89050,1,0,0:0:0:0:
408,272,89200,1,0,0:0:0:0:
336,96,89350,1,0,0:0:0:0:
264,272,89500,2,0,B|231:235|166:266|166:266|198:214|146:178,1,200
94,230,89950,6,0,P|76:168|190:118,1,200
272,192,90400,1,0,0:0:0:0:
344,152,90550,2,0,B|353:179|361:201|357:239|318:277|272:272|272:272|287:301,1,200
177,111,91000,5,0,0:0:0:0:
376,352,91150,1,0,0:0:0:0:
376,80,91300,2,0,L|376:8,1,50
432,272,91450,2,0,B|448:298|448:298|480:296,1,50
360,184,91600,5,0,0:0:0:0:
321,152,91675,1,0,0:0:0:0:
273,141,91750,1,0,0:0:0:0:
224,151,91825,1,0,0:0:0:0:
192,184,91900,2,0,P|122:216|153:145,1,200
376,30,92350,5,0,0:0:0:0:
464,224,92500,2,0,P|405:296|321:256,1,200
264,176,92949,1,0,0:0:0:0:
119,287,93100,2,0,P|140:332|185:351,1,100
200,264,93381,2,0,P|179:219|134:200,1,100
416,120,93700,5,0,0:0:0:0:
416,312,93850,1,0,0:0:0:0:
240,72,94000,5,0,0:0:0:0:
240,216,94150,1,0,0:0:0:0:
240,216,94300,2,0,B|241:284|241:284|305:263|340:320|324:360,1,200
320,208,94750,2,0,P|261:137|168:176,1,200
88,336,95200,5,0,0:0:0:0:
88,136,95350,2,0,P|104:232|232:232,1,200
480,56,95800,5,0,0:0:0:0:
288,296,95950,1,0,0:0:0:0:
344,120,96100,1,0,0:0:0:0:
392,125,96175,1,0,0:0:0:0:
430,157,96250,1,0,0:0:0:0:
443,205,96325,1,0,0:0:0:0:
440,253,96400,2,0,P|410:302|334:307,1,100
128,176,96700,6,0,P|73:100|133:30,1,200
64,248,97150,1,0,0:0:0:0:
152,104,97300,2,0,P|203:153|115:249,1,200
128,176,97750,5,0,0:0:0:0:
248,64,97900,2,0,P|295:55|330:88,1,100
480,240,98200,2,0,P|433:248|392:200,1,115.000002193451
352,104,98500,5,0,0:0:0:0:
352,336,98650,1,0,0:0:0:0:
272,168,98800,5,0,0:0:0:0:
272,352,98950,1,0,0:0:0:0:
276,80,99100,2,0,P|192:136|264:256,1,230.000004386902
272,168,99550,2,0,P|356:104|316:8,1,200
272,168,100000,5,0,0:0:0:0:
208,116,100150,2,0,P|187:188|296:248,1,200
432,256,100600,1,0,0:0:0:0:
336,336,100750,1,0,0:0:0:0:
328,238,100900,5,0,0:0:0:0:
348,218,100975,1,0,0:0:0:0:
328,208,101050,1,0,0:0:0:0:
350,185,101125,1,0,0:0:0:0:
328,168,101200,1,0,0:0:0:0:
352,144,101275,1,0,0:0:0:0:
331,134,101350,1,0,0:0:0:0:
352,114,101425,1,0,0:0:0:0:
336,96,101500,1,0,0:0:0:0:
256,192,101650,12,0,103750,0:0:0:0:
72,104,103900,6,0,L|72:232,1,100
72,352,104200,1,0,0:0:0:0:
160,296,104350,6,8,L|160:176,1,100
160,40,104650,1,0,0:0:0:0:
248,96,104800,6,0,L|248:224,1,100
248,352,105100,1,0,0:0:0:0:
218,229,105250,6,0,P|205:190|249:201,1,100
280,272,105550,2,0,B|300:292|300:292|336:296,1,50
344,216,105700,2,0,B|392:184|376:120,1,100
296,152,106000,5,0,0:0:0:0:
296,152,106075,1,0,0:0:0:0:
296,152,106150,1,0,0:0:0:0:
296,152,106225,1,0,0:0:0:0:
296,152,106300,2,0,P|226:132|170:240,1,200
112,280,106750,6,0,P|179:305|240:200,1,200
380,151,107200,6,0,P|312:125|247:228,1,200
280,328,107650,6,0,P|347:354|413:251,1,200
380,151,108100,1,0,0:0:0:0:
346,130,108175,1,0,0:0:0:0:
306,128,108250,1,0,0:0:0:0:
271,146,108325,1,0,0:0:0:0:
248,178,108400,5,0,0:0:0:0:
243,217,108475,1,0,0:0:0:0:
258,254,108550,1,0,0:0:0:0:
289,279,108625,1,0,0:0:0:0:
324,303,108700,2,0,P|292:351|180:287,1,200
97,110,109150,6,0,P|167:50|238:107,1,200
458,270,109600,6,0,P|388:329|316:272,1,200
216,136,110050,6,0,P|286:76|358:134,1,200
416,192,110500,2,0,P|348:216|300:184,2,100
400,296,110950,1,0,0:0:0:0:
336,352,111100,5,0,0:0:0:0:
326,324,111175,1,0,0:0:0:0:
298,333,111250,5,0,0:0:0:0:
288,305,111325,1,0,0:0:0:0:
260,314,111400,5,0,0:0:0:0:
250,287,111475,1,0,0:0:0:0:
223,295,111550,5,0,0:0:0:0:
212,269,111625,1,0,0:0:0:0:
192,280,111700,5,0,0:0:0:0:
181,253,111775,1,0,0:0:0:0:
156,265,111850,5,0,0:0:0:0:
145,239,111925,1,0,0:0:0:0:
120,251,112000,5,0,0:0:0:0:
109,225,112075,1,0,0:0:0:0:
80,232,112150,5,0,0:0:0:0:
69,206,112225,1,0,0:0:0:0:
40,216,112300,2,0,L|16:152,3,50
120,112,112600,2,0,B|142:100|142:100|148:76,3,50
72,56,112900,6,0,B|50:68|50:68|44:92,1,50
80,184,113050,2,0,P|120:200|160:184,1,50
214,167,113200,2,0,P|236:155|261:154,1,50
304,224,113350,5,0,0:0:0:0:
312,232,113425,1,0,0:0:0:0:
320,240,113500,2,0,P|312:352|268:233,1,345.000006580353
192,184,114100,6,0,P|160:104|88:88,1,125
32,152,114400,2,0,P|64:232|136:248,1,125
185,22,114700,6,0,P|245:65|272:136,1,125
352,288,115000,1,0,0:0:0:0:
435,102,115150,2,0,P|369:169|265:101,1,230.000004386902
160,110,115600,6,0,P|251:118|286:83,1,115.000002193451
264,280,115900,6,0,P|376:290|287:222,1,300
85,197,116500,6,0,P|130:230|183:113,1,230.000004386902
33,258,116950,5,0,0:0:0:0:
36,269,117100,2,0,B|72:312|128:328|184:320|216:312|248:288|280:224|280:224|320:272|320:272|328:288|328:288|344:288|344:288|344:304|344:304|360:304|360:304|360:320|360:320|376:320|376:320|376:336|376:336|392:336|392:336|392:368|392:352|392:352|408:352|408:352|408:368|408:368|424:368|424:368|440:368|440:368|456:352|456:352|440:336|440:336|456:320|456:320|440:304|440:304|456:288|456:288|440:272|440:272|456:256|456:256|440:240|440:240|456:224|456:224|448:216|448:216|448:209,1,800
360,64,118450,5,0,0:0:0:0:
360,109,118525,1,0,0:0:0:0:
360,154,118600,1,0,0:0:0:0:
152,280,118750,5,0,0:0:0:0:
152,234,118825,1,0,0:0:0:0:
152,189,118900,1,0,0:0:0:0:
164,56,119050,5,0,0:0:0:0:
235,233,119200,1,0,0:0:0:0:
304,112,119350,1,0,0:0:0:0:
333,230,119500,6,0,P|281:335|242:224,1,287.500005483627
200,96,120100,2,0,P|176:35|151:147,1,300
208,184,120700,5,0,0:0:0:0:
254,198,120775,1,0,0:0:0:0:
299,178,120850,1,0,0:0:0:0:
319,133,120925,1,0,0:0:0:0:
336,88,121000,2,0,P|360:56|400:56,1,50
408,128,121150,5,0,0:0:0:0:
428,167,121225,1,0,0:0:0:0:
431,212,121300,1,0,0:0:0:0:
416,254,121375,1,0,0:0:0:0:
392,296,121450,2,0,P|376:317|380:356,1,50
328,248,121600,5,0,0:0:0:0:
282,231,121675,1,0,0:0:0:0:
235,232,121750,1,0,0:0:0:0:
200,263,121825,1,0,0:0:0:0:
176,304,121900,2,0,P|160:336|128:352,1,50
264,312,122050,5,0,0:0:0:0:
313,311,122125,1,0,0:0:0:0:
351,280,122200,1,0,0:0:0:0:
362,232,122275,1,0,0:0:0:0:
360,184,122350,2,0,P|352:152|385:117,1,50
280,160,122500,5,0,0:0:0:0:
236,182,122575,1,0,0:0:0:0:
187,175,122650,1,0,0:0:0:0:
152,141,122725,1,0,0:0:0:0:
136,96,122800,2,0,P|128:64|144:32,1,50
248,56,122950,6,0,P|320:120|224:96,1,255.000004863739
368,264,123550,5,0,0:0:0:0:
384,296,123625,1,0,0:0:0:0:
400,328,123700,2,0,P|324:332|308:304,1,85.0000016212464
288,256,123925,5,0,0:0:0:0:
288,256,124000,2,0,P|240:224|176:256,1,100
168,304,124300,2,0,B|196:330|152:364|90:364|119:272|119:272|60:284|60:284|64:228|20:204,1,300.000011444092
244,348,125200,5,0,0:0:0:0:
252,172,125350,1,0,0:0:0:0:
252,172,125425,1,0,0:0:0:0:
252,172,125500,1,0,0:0:0:0:
245,92,125650,6,0,P|293:103|320:144,1,100
174,173,125950,2,0,P|185:125|223:96,1,100
264,240,126250,2,0,P|215:239|180:204,1,100,0|0,0:3|0:3,0:3:0:0:
320,152,126550,2,0,P|319:201|288:238,1,100,0|0,0:3|0:3,0:3:0:0:
245,92,126850,6,0,P|293:103|320:144,1,100
174,173,127150,2,0,P|185:125|223:96,1,100
264,240,127450,2,0,P|215:239|180:204,1,100,0|0,0:3|0:3,0:3:0:0:
319,143,127750,2,0,P|318:192|287:229,1,100,0|0,0:3|0:3,0:3:0:0:
248,168,128050,5,0,0:0:0:0:
376,256,128200,1,0,0:0:0:0:
248,352,128350,1,0,0:0:0:0:
248,268,128500,6,0,L|248:168,1,100
176,216,128800,2,0,L|40:216,1,115.000002193451
184,304,129100,6,0,P|208:328|272:328,1,100
336,282,129400,2,0,P|297:253|256:256,1,75.0000028610231
379,347,129700,6,0,P|413:296|389:224,1,100
459,202,130000,2,0,P|428:182|392:184,1,75.0000028610231
248,168,130300,5,0,0:0:0:0:
248,168,130450,1,0,0:0:0:0:
245,92,130600,6,0,P|293:103|320:144,1,100
174,173,130900,2,0,P|185:125|223:96,1,100
264,240,131200,2,0,P|215:239|180:204,1,100,0|0,0:3|0:3,0:3:0:0:
315,145,131500,2,0,P|314:194|283:231,1,100,0|0,0:3|0:3,0:3:0:0:
240,47,131800,6,0,P|309:63|348:122,1,100
137,164,132100,2,0,P|153:95|208:53,1,100
267,261,132400,2,0,P|196:259|146:209,1,100,0|0,0:3|0:3,0:3:0:0:
341,124,132700,2,8,P|339:194|295:248,1,100,8|8,0:3|0:3,0:3:0:0:
224,16,133000,6,0,P|293:31|332:91,1,100
96,144,133300,2,0,P|111:74|166:32,1,100
256,192,133600,5,0,0:0:0:0:
376,256,133750,6,0,L|413:256,1,37.5000014305115
488,240,133900,2,0,P|480:296|432:328,1,100
368,336,134350,6,0,L|330:336,1,37.5000014305115
256,352,134500,2,0,P|264:296|312:264,1,100
376,192,134950,2,0,L|328:192,1,37.5000014305115
256,192,135100,1,0,0:0:0:0:
256,192,135250,12,0,136300,0:0:0:0:
224,168,138700,6,0,P|152:200|88:164,1,150.000005722046
160,100,139150,1,0,0:0:0:0:
272,280,139300,2,0,L|456:280,1,150.000005722046
352,200,139750,5,0,0:0:0:0:
280,352,139900,2,0,L|176:352,1,75.0000028610231
45,168,140200,2,0,L|120:168,1,75.0000028610231
120,256,140500,5,0,0:0:0:0:
24,80,140650,1,0,0:0:0:0:
120,256,140800,1,0,0:0:0:0:
216,88,140950,1,0,0:0:0:0:
120,168,141100,6,0,L|120:0,1,150.000005722046
208,208,141550,2,0,B|208:272|208:272|240:312|240:312|240:368,1,150.000005722046
312,184,142000,5,0,0:0:0:0:
328,264,142150,2,0,P|384:224|376:136,1,150.000005722046
312,184,142600,1,0,0:0:0:0:
384,148,142750,1,0,0:0:0:0:
312,184,142900,2,0,P|320:96|392:64,1,150.000005722046
64,64,143500,6,0,L|64:152,1,75.0000028610231
152,336,143800,2,0,L|152:240,1,75.0000028610231
80,80,144100,2,0,L|80:168,1,75.0000028610231
168,352,144400,2,0,L|168:256,1,75.0000028610231
96,96,144700,2,0,L|96:184,1,75.0000028610231
184,368,145000,2,0,L|184:272,1,75.0000028610231
112,112,145300,2,0,L|112:200,1,75.0000028610231
200,384,145600,2,0,L|200:288,1,75.0000028610231
408,24,145900,6,0,L|408:112,1,75.0000028610231
320,296,146200,2,0,L|320:200,1,75.0000028610231
392,40,146500,2,0,L|392:128,1,75.0000028610231
304,312,146800,2,0,L|304:216,1,75.0000028610231
128,48,147100,6,0,L|128:120,1,50
184,288,147250,2,0,L|184:192,1,50
96,88,147400,2,0,L|96:160,1,50
168,320,147550,2,0,L|168:232,1,50
264,168,147700,2,0,B|304:120|304:120|344:112|344:112|384:56,1,150.000005722046
344,200,148300,6,0,P|224:200|236:312,1,250
112,80,148750,1,0,0:0:0:0:
284,252,148900,2,0,P|388:268|400:144,1,250
472,352,149350,1,0,0:0:0:0:
176,112,149500,2,0,P|112:192|128:256,1,150.000005722046
160,368,149800,2,0,P|224:288|208:240,1,150.000005722046
96,40,150100,5,0,0:0:0:0:
280,360,150250,1,0,0:0:0:0:
104,48,150400,1,0,0:0:0:0:
360,256,150550,1,0,0:0:0:0:
224,96,150700,2,0,P|100:162|164:277,1,250
96,344,151150,2,0,P|209:290|141:159,1,250
352,64,151600,5,0,0:0:0:0:
352,200,151750,2,0,P|434:251|407:157,1,250
216,72,152200,5,0,0:0:0:0:
480,360,152350,1,0,0:0:0:0:
336,344,152500,1,0,0:0:0:0:
336,344,152575,1,0,0:0:0:0:
336,344,152650,1,0,0:0:0:0:
336,344,152725,1,0,0:0:0:0:
336,344,152800,2,0,B|256:328,2,75.0000028610231
320,208,153100,6,0,P|256:155|268:73,1,150.000005722046
328,168,153400,6,0,P|288:96|328:24,1,150.000005722046
336,136,153700,6,0,P|334:53|403:8,1,150.000005722046
360,88,154000,6,0,P|424:40|496:80,1,150.000005722046
428,124,154300,2,0,L|428:292,1,150.000005722046
356,260,154600,2,0,B|340:268|324:284|324:284|292:268|292:268|260:324|192:304,1,150.000005722046
136,21,154900,5,0,0:0:0:0:
16,140,155050,1,0,0:0:0:0:
170,192,155200,1,0,0:0:0:0:
33,328,155350,1,0,0:0:0:0:
117,135,155500,6,0,P|240:166|166:269,1,300.000011444092
170,192,155950,1,0,0:0:0:0:
320,128,156100,1,0,0:0:0:0:
464,200,156250,1,0,0:0:0:0:
320,128,156400,1,0,0:0:0:0:
356,196,156550,2,0,P|256:172|339:53,1,300.000011444092
356,196,157000,2,0,L|356:356,1,150.000005722046
144,256,157300,5,0,0:0:0:0:
144,256,157375,1,0,0:0:0:0:
144,256,157450,1,0,0:0:0:0:
144,256,157525,1,0,0:0:0:0:
144,256,157600,2,0,L|168:160,1,75.0000028610231
104,136,157750,2,0,B|125:105|125:105|162:101,1,75.0000028610231
212,32,157900,6,0,P|272:96|260:180,1,150.000005722046
200,308,158200,1,0,0:0:0:0:
384,168,158350,1,0,0:0:0:0:
128,288,158500,2,0,P|147:364|248:364,1,150.000005722046
348,296,158800,5,0,0:0:0:0:
152,56,158950,1,0,0:0:0:0:
424,296,159100,2,0,P|376:368|308:360,1,150.000005722046
50,267,159400,2,0,P|96:192|168:196,1,150.000005722046
320,184,159700,5,0,0:0:0:0:
272,336,159850,1,0,0:0:0:0:
120,56,160000,1,0,0:0:0:0:
280,352,160150,1,0,0:0:0:0:
400,128,160300,2,0,P|333:51|218:163,1,250
128,136,160750,2,0,P|211:215|312:132,1,250
464,136,161200,5,0,0:0:0:0:
344,248,161350,2,0,B|285:276|283:330|283:330|266:297|240:263|240:263|230:331|147:317,1,300.000011444092
208,136,161800,5,0,0:0:0:0:
48,256,161950,1,0,0:0:0:0:
120,136,162100,1,0,0:0:0:0:
120,136,162175,1,0,0:0:0:0:
120,136,162250,1,0,0:0:0:0:
120,136,162325,1,0,0:0:0:0:
120,136,162400,2,0,P|160:204|264:192,1,150.000005722046
336,80,162700,6,0,P|264:64|208:120,1,150.000005722046
292,156,163000,2,0,P|384:164|424:112,1,150.000005722046
147,162,163300,2,0,P|136:228|189:206,1,150.000005722046
336,264,163600,2,0,P|384:296|352:296,1,150.000005722046
272,336,163900,6,0,P|214:332|261:298,1,150.000005722046
418,266,164201,2,0,P|465:300|408:304,1,150.000005722046
424,24,164500,6,0,L|424:180,1,150.000005722046
302,172,164800,2,0,L|142:172,1,150.000005722046
164,84,165100,2,0,P|68:156|200:244,1,300.000011444092
151,171,165550,2,0,P|255:253|158:343,1,300.000011444092
236,104,166000,1,0,0:0:0:0:
171,253,166150,2,0,P|80:216|144:88,1,250
256,32,166600,5,0,0:0:0:0:
256,360,166750,1,0,0:0:0:0:
184,144,166900,2,0,P|244:108|316:156,1,150.000005722046
256,192,167200,1,0,0:0:0:0:
256,192,167275,1,0,0:0:0:0:
256,192,167350,1,0,0:0:0:0:
256,192,167425,1,0,0:0:0:0:
256,192,167500,12,0,169900,0:0:0:0:
240,64,170200,5,0,0:0:0:0:
240,272,170350,2,0,P|312:256|312:136,1,200
256,192,170800,2,0,B|192:200|192:200|160:248|160:248|112:264,1,170.000003242493
120,336,171250,2,0,P|64:320|56:216,1,150.000005722046
256,64,171700,5,0,0:0:0:0:
256,320,171850,1,0,0:0:0:0:
140,144,172000,2,0,L|72:120,1,50
344,208,172150,2,0,L|408:176,1,50
208,224,172300,6,0,B|168:248|160:296|160:296|136:256|120:288|120:288|72:304|32:264,1,200
236,296,172750,2,0,P|275:262|248:160,1,150.000005722046
279,96,173200,2,0,P|201:120|208:225,1,200
208,296,173650,2,0,P|256:280|280:232,1,100
184,152,174100,6,0,L|161:107,1,50
272,152,174250,2,0,L|294:107,1,50
168,144,174400,2,0,L|145:99,1,50
288,144,174550,2,0,L|310:99,1,50
376,152,174700,2,0,B|360:232|298:233|298:233|311:234|311:234|248:304,1,200
210,353,175150,6,0,P|257:367|304:352,1,100,0|0,0:3|0:3,0:3:0:0:
96,137,175450,6,0,P|80:184|93:231,1,100,0|0,0:3|0:3,0:3:0:0:
301,30,175750,6,0,P|254:16|208:31,1,100,0|0,0:3|0:3,0:3:0:0:
415,246,176050,6,0,P|431:199|418:152,2,100,0|0|0,0:3|0:3|0:3,0:3:0:0:
256,192,176500,5,0,0:0:0:0:
256,192,176575,1,0,0:0:0:0:
256,192,176650,1,0,0:0:0:0:
256,192,176725,1,0,0:0:0:0:
256,192,176800,5,0,0:0:0:0:
256,192,176875,1,0,0:0:0:0:
256,192,176950,1,0,0:0:0:0:
256,192,177025,1,0,0:0:0:0:
256,192,177100,2,0,L|256:352,1,150.000005722046
256,360,177550,5,0,0:0:0:0:
160,272,177700,1,0,0:0:0:0:
344,312,177850,1,0,0:0:0:0:
160,168,178000,1,0,0:0:0:0:
344,212,178150,6,0,P|416:228|464:188,1,100
488,156,178450,2,0,P|416:140|368:180,1,100
256,192,178750,5,0,0:0:0:0:
256,192,178900,12,0,181600,0:0:0:0:
