osu file format v14

[General]
AudioFilename: Hatsuneee.mp3
AudioLeadIn: 0
PreviewTime: -1
Countdown: 0
SampleSet: Soft
StackLeniency: 0.7
Mode: 0
LetterboxInBreaks: 0
WidescreenStoryboard: 0

[Editor]
DistanceSpacing: 3.5
BeatDivisor: 8
GridSize: 4
TimelineZoom: 1.5

[Metadata]
Title:Marionette no Kairaku
TitleUnicode:マリオネットの快楽
Artist:Yanne
ArtistUnicode:やんね
Creator:A Mystery
Version:kanker
Source:
Tags:Hatsune Miku vocaloid metal epic song
BeatmapID:850766
BeatmapSetID:390337

[Difficulty]
HPDrainRate:7
CircleSize:4
OverallDifficulty:9
ApproachRate:9.3
SliderMultiplier:1.9
SliderTickRate:1

[Events]
//Background and Video events
//Break Periods
2,138892,142938
//Storyboard Layer 0 (Background)
//Storyboard Layer 1 (Fail)
//Storyboard Layer 2 (Pass)
//Storyboard Layer 3 (Foreground)
//Storyboard Sound Samples

[TimingPoints]
1292,300,3,2,1,40,1,0
1292,-133.333333333333,3,2,4,40,0,0
3992,-133.333333333333,3,2,1,40,0,0
5492,300,4,2,1,70,1,0
14717,-100,4,2,1,50,0,0
14792,-100,4,2,1,70,0,0
15017,-100,4,2,1,50,0,0
15092,-100,4,2,1,70,0,0
24317,-100,4,2,1,50,0,0
24392,-100,4,2,1,70,0,0
24617,-100,4,2,1,50,0,0
24692,-100,4,2,1,70,0,0
30767,-100,4,2,1,5,0,0
30842,-100,4,2,1,70,0,0
38192,-125,4,2,1,70,0,0
40892,-100,4,2,1,70,0,0
43892,-90.9090909090909,4,2,1,70,0,1
48617,-90.9090909090909,4,2,1,70,0,0
48692,-90.9090909090909,4,2,1,70,0,1
53492,-100,4,2,1,70,0,0
62717,-100,4,2,1,50,0,0
62792,-100,4,2,1,70,0,0
62867,-100,4,2,1,50,0,0
62942,-100,4,2,1,70,0,0
69167,-100,4,2,1,5,0,0
69242,-100,4,2,1,70,0,0
74192,-125,4,2,1,70,0,0
79292,-100,4,2,1,70,0,0
82292,-90.9090909090909,4,2,1,70,0,1
87017,-90.9090909090909,4,2,1,70,0,0
87092,-90.9090909090909,4,2,1,70,0,1
91817,-90.9090909090909,4,2,1,70,0,0
91892,-90.9090909090909,4,2,1,70,0,1
96617,-90.9090909090909,4,2,1,70,0,0
96692,-90.9090909090909,4,2,1,70,0,1
101492,-100,4,2,1,70,0,0
110492,-125,4,2,1,70,0,0
111092,-100,4,2,1,70,0,0
117017,-100,4,2,1,5,0,0
117092,-100,4,2,1,70,0,0
125492,-83.3333333333333,4,2,1,80,0,0
134492,-71.4285714285714,4,2,1,70,0,0
135092,-62.5,4,2,1,70,0,0
137342,-62.5,4,2,0,70,0,0
137567,-62.5,4,2,1,70,0,0
138692,-62.5,4,2,1,5,0,0
143492,-62.5,4,2,1,50,0,0
146942,-125,4,2,1,50,0,0
148292,-86.9565217391304,4,2,1,70,0,1
153017,-86.9565217391304,4,2,1,70,0,0
153092,-86.9565217391304,4,2,1,70,0,1
153317,-86.9565217391304,4,2,1,5,0,1
153392,-86.9565217391304,4,2,1,70,0,1
153917,-86.9565217391304,4,2,1,5,0,1
153992,-86.9565217391304,4,2,1,70,0,1
157817,-86.9565217391304,4,2,1,70,0,0
157892,-86.9565217391304,4,2,1,70,0,1
162617,-86.9565217391304,4,2,1,70,0,0
162692,-86.9565217391304,4,2,1,70,0,1
167492,-100,4,2,1,70,0,0
177092,-111.111111111111,4,2,1,40,0,0
178142,-111.111111111111,4,2,1,70,0,0
181067,-111.111111111111,4,2,1,5,0,0
181292,-111.111111111111,4,2,1,70,0,0

[Colours]
Combo1 : 174,85,255
Combo2 : 233,122,95
Combo3 : 108,84,243
Combo4 : 102,255,155

[HitObjects]
173,109,1292,6,0,P|259:131|324:91,1,142.500005435944,6|0,0:0|0:0,0:0:0:0:
351,37,1742,1,2,0:0:0:0:
351,37,1817,2,0,L|364:160,1,106.875004076958,0|0,1:0|0:0,0:0:0:0:
267,248,2192,6,0,P|261:179|263:158,1,71.2500027179719,2|0,0:0|0:0,0:0:0:0:
161,182,2492,2,0,P|190:119|202:102,1,71.2500027179719,2|0,0:0|0:0,0:0:0:0:
102,71,2792,2,0,P|158:31|177:22,1,71.2500027179719,2|0,0:0|0:0,0:0:0:0:
221,236,3092,6,0,P|164:263|84:210,1,142.500005435944,6|0,0:0|0:0,0:0:0:0:
61,144,3542,2,0,L|63:81,1,35.625001358986,2|8,0:0|0:0,0:0:0:0:
152,111,3692,2,0,L|162:198,1,71.2500027179719,2|2,0:0|0:0,0:0:0:0:
400,268,3992,5,8,0:0:0:0:
147,174,4142,1,6,0:0:0:0:
132,165,4442,1,6,0:0:0:0:
117,156,4742,1,6,0:0:0:0:
102,147,5042,1,6,0:0:0:0:
87,138,5342,1,6,0:0:0:0:
263,325,5492,6,0,B|306:322|306:322|408:339|408:339|470:292,1,190,6|2,0:0|0:0,0:0:0:0:
236,27,5942,2,0,B|189:99|222:177|222:177|283:213,1,190,8|2,0:0|0:0,0:0:0:0:
27,242,6392,2,0,P|12:293|104:262,1,190,2|2,0:0|0:0,0:0:0:0:
351,58,6842,2,0,L|378:265,1,190,8|2,0:0|0:0,0:0:0:0:
112,210,7292,5,8,0:3:0:0:
252,290,7442,1,4,0:3:0:0:
154,107,7592,1,8,0:0:0:0:
116,112,7667,1,8,0:0:0:0:
78,118,7742,1,8,0:0:0:0:
41,124,7817,1,8,0:0:0:0:
3,129,7892,6,0,B|14:178|14:178|-7:269|-7:269|43:328,1,190,6|2,0:0|0:0,0:0:0:0:
366,238,8342,2,0,P|266:214|162:236,1,190,8|2,0:0|0:0,0:0:0:0:
414,112,8792,2,0,B|484:44|484:44|367:20,1,190,2|2,0:0|0:0,0:0:0:0:
259,284,9242,2,0,P|300:343|438:314,1,190,8|8,0:0|0:0,0:0:0:0:
235,85,9692,5,8,0:3:0:0:
195,92,9767,1,8,0:3:0:0:
167,122,9842,1,4,0:3:0:0:
127,129,9917,1,4,0:3:0:0:
92,176,9992,1,8,0:0:0:0:
88,227,10067,1,8,0:0:0:0:
114,272,10142,1,8,0:0:0:0:
160,295,10217,1,8,0:0:0:0:
211,290,10292,6,0,B|255:281|255:281|345:321|345:321|400:282,1,190,6|2,0:0|0:0,0:0:0:0:
125,155,10742,2,0,P|85:74|163:8,1,190,8|2,0:0|0:0,0:0:0:0:
341,243,11192,2,0,B|286:263|196:280|196:280|182:263|162:247,1,190,2|2,0:0|0:0,0:0:0:0:
377,362,11642,2,0,B|447:342|489:314|489:314|476:273|492:212,1,190,8|2,0:0|0:0,0:0:0:0:
327,75,12092,5,8,0:0:0:0:
327,75,12167,1,8,0:0:0:0:
327,75,12242,2,0,L|314:150,1,47.5,2|2,0:0|0:0,0:0:0:0:
270,240,12392,1,8,0:0:0:0:
222,246,12467,1,8,0:0:0:0:
175,253,12542,1,8,0:0:0:0:
128,260,12617,1,8,0:0:0:0:
81,267,12692,6,0,B|101:216|101:216|74:140|74:140|95:60,1,190,6|8,0:0|0:0,0:0:0:0:
245,48,13142,1,0,3:0:0:0:
6,186,13292,1,8,0:0:0:0:
178,215,13442,1,2,3:2:0:0:
248,59,13592,1,8,0:0:0:0:
138,291,13742,1,2,3:2:0:0:
211,136,13892,6,0,L|127:52,1,95,8|0,0:0|3:0,0:0:0:0:
396,125,14192,1,8,0:0:0:0:
282,0,14342,1,2,3:2:0:0:
283,228,14492,1,8,0:0:0:0:
323,252,14567,1,8,0:0:0:0:
369,257,14642,1,8,0:0:0:0:
414,242,14717,1,8,0:0:0:0:
465,206,14792,1,8,0:0:0:0:
470,238,14867,1,8,0:0:0:0:
475,271,14942,1,8,0:0:0:0:
480,304,15017,1,8,0:0:0:0:
442,355,15092,6,0,B|309:375|309:375|241:326,1,190,6|2,0:0|0:0,0:0:0:0:
118,55,15542,2,0,P|50:53|47:178,1,190,8|2,0:0|0:0,0:0:0:0:
344,216,15992,2,0,B|372:163|383:126|383:126|370:91|370:91|378:57|398:22,1,190,2|2,0:0|0:0,0:0:0:0:
178,233,16442,2,0,P|100:228|124:123,1,190,8|2,0:0|0:0,0:0:0:0:
377,185,16892,5,8,0:3:0:0:
333,362,17042,1,4,0:3:0:0:
257,114,17192,1,8,0:0:0:0:
294,106,17267,1,8,0:0:0:0:
331,98,17342,1,8,0:0:0:0:
368,91,17417,1,8,0:0:0:0:
405,83,17492,6,0,P|461:165|403:249,1,190,6|2,0:0|0:0,0:0:0:0:
57,257,17942,2,0,B|14:173|14:173|63:80,1,190,8|2,0:0|0:0,0:0:0:0:
344,274,18392,2,0,P|283:337|257:267,1,190,8|2,0:0|0:0,0:0:0:0:
477,34,18842,2,0,B|497:80|497:80|470:170|470:170|519:207,1,190,8|2,0:0|0:0,0:0:0:0:
316,75,19292,5,8,0:3:0:0:
273,67,19367,1,8,0:3:0:0:
233,89,19442,1,4,0:3:0:0:
190,81,19517,1,4,0:3:0:0:
137,100,19592,1,8,0:0:0:0:
109,149,19667,1,8,0:0:0:0:
107,205,19742,1,8,0:0:0:0:
129,257,19817,1,8,0:0:0:0:
172,294,19892,6,0,B|220:303|264:291|264:291|301:317|301:317|323:307|370:312,1,190,6|2,0:0|0:0,0:0:0:0:
109,149,20342,2,0,P|102:74|207:19,1,190,8|2,0:0|0:0,0:0:0:0:
254,309,20792,2,0,B|101:279|101:279|53:334,1,190,2|2,0:0|0:0,0:0:0:0:
291,117,21242,2,0,B|261:26|261:26|159:15,1,190,8|2,0:0|0:0,0:0:0:0:
146,252,21692,5,8,0:0:0:0:
146,252,21767,1,8,0:0:0:0:
146,252,21842,2,0,L|200:260,1,47.5,2|2,0:0|0:0,0:0:0:0:
291,117,21992,1,8,0:0:0:0:
338,110,22067,1,8,0:0:0:0:
385,103,22142,1,8,0:0:0:0:
432,96,22217,1,8,0:0:0:0:
479,89,22292,6,0,P|515:162|433:262,1,190,6|8,0:0|0:0,0:0:0:0:
315,187,22742,1,0,3:0:0:0:
446,379,22892,1,8,0:0:0:0:
282,361,23042,1,2,3:2:0:0:
459,164,23192,1,8,0:0:0:0:
376,302,23342,1,2,3:2:0:0:
390,52,23492,6,0,L|510:44,1,95,8|0,0:0|3:0,0:0:0:0:
332,218,23792,1,8,0:0:0:0:
173,189,23942,1,2,3:2:0:0:
428,147,24092,1,8,0:0:0:0:
449,194,24167,1,8,0:0:0:0:
449,245,24242,1,8,0:0:0:0:
428,293,24317,1,8,0:0:0:0:
382,320,24392,1,8,0:0:0:0:
336,311,24467,1,8,0:0:0:0:
290,302,24542,1,8,0:0:0:0:
244,311,24617,1,8,0:0:0:0:
198,320,24692,6,0,P|118:254|155:153,1,190,6|8,0:0|0:0,0:0:0:0:
200,87,25142,1,0,0:0:0:0:
205,229,25292,1,2,0:0:0:0:
122,149,25442,1,2,0:0:0:0:
365,135,25592,1,8,0:0:0:0:
296,225,25742,1,2,0:0:0:0:
320,46,25892,5,0,0:0:0:0:
370,148,26042,2,0,L|472:159,1,95,2|8,0:0|0:0,0:0:0:0:
370,296,26342,1,0,0:0:0:0:
370,296,26417,1,8,0:0:0:0:
370,296,26492,1,2,0:0:0:0:
268,243,26642,2,0,L|258:132,1,95,2|8,0:0|0:0,0:0:0:0:
355,87,26942,1,0,0:0:0:0:
177,207,27092,6,0,P|101:186|66:77,1,190,2|8,0:0|0:0,0:0:0:0:
167,102,27542,1,0,0:0:0:0:
67,224,27692,2,0,P|55:278|45:354,1,95,2|2,0:0|0:0,0:0:0:0:
178,376,27992,1,8,0:0:0:0:
197,173,28142,6,0,P|268:157|347:241,1,190,2|2,0:0|0:0,0:0:0:0:
115,291,28592,2,0,B|71:180|71:180|83:103,1,190,8|0,0:0|0:0,0:0:0:0:
179,170,29042,1,2,0:0:0:0:
88,324,29192,2,0,L|50:228,1,95,8|0,0:0|0:0,0:0:0:0:
302,311,29492,6,0,P|389:293|428:195,1,190,6|8,0:0|0:0,0:0:0:0:
322,101,29942,1,2,0:0:0:0:
326,210,30092,2,0,L|397:295,1,95,0|2,0:0|0:0,0:0:0:0:
205,269,30392,1,8,0:0:0:0:
434,275,30542,6,0,L|330:148,1,142.5,2|0,0:0|0:0,0:0:0:0:
318,132,30842,1,2,0:0:0:0:
463,167,30992,1,8,0:0:0:0:
244,192,31142,1,0,0:0:0:0:
244,192,31217,1,8,0:0:0:0:
244,192,31292,1,2,0:0:0:0:
299,92,31442,1,2,0:0:0:0:
317,251,31592,1,8,0:0:0:0:
223,115,31742,1,0,0:0:0:0:
345,289,31892,6,0,L|439:276,1,95,2|0,0:0|0:0,0:0:0:0:
439,114,32192,2,0,L|344:101,1,95,8|0,0:0|0:0,0:0:0:0:
191,138,32492,1,2,0:0:0:0:
217,286,32642,1,2,0:0:0:0:
179,90,32792,1,8,0:0:0:0:
234,362,32942,6,0,B|190:398|141:379|141:379|90:360|45:389,1,190,2|2,0:0|0:0,0:0:0:0:
107,216,33392,2,0,B|116:170|116:170|92:119,1,95,8|0,0:0|0:0,0:0:0:0:
291,52,33692,2,0,B|250:27|250:27|194:32,1,95,0|2,0:0|0:0,0:0:0:0:
366,197,33992,2,0,B|407:174|407:174|430:123,1,95,8|0,0:0|0:0,0:0:0:0:
152,178,34292,5,8,0:0:0:0:
412,304,34442,1,8,0:0:0:0:
64,268,34742,1,8,0:0:0:0:
367,179,34892,1,8,0:0:0:0:
37,49,35192,5,8,0:0:0:0:
286,282,35342,1,8,0:0:0:0:
249,3,35642,1,8,0:0:0:0:
156,297,35792,1,8,0:0:0:0:
114,312,36092,1,0,0:0:0:0:
73,326,36392,1,0,0:0:0:0:
413,83,36692,5,8,0:0:0:0:
109,147,36842,1,8,0:0:0:0:
472,203,37142,1,8,0:0:0:0:
191,60,37292,1,8,0:0:0:0:
282,339,37592,5,8,0:0:0:0:
334,29,37742,1,8,0:0:0:0:
177,288,38042,1,8,0:0:0:0:
429,152,38192,2,0,P|441:95|419:47,1,76,8|0,0:0|0:0,0:0:0:0:
410,55,38492,1,0,0:0:0:0:
386,39,38792,1,0,0:0:0:0:
87,226,39092,5,8,0:0:0:0:
270,151,39242,1,8,0:0:0:0:
418,269,39392,1,2,0:0:0:0:
142,115,39542,5,8,3:0:0:0:
299,180,39692,1,8,3:0:0:0:
297,352,39842,1,2,0:0:0:0:
291,79,39992,5,4,3:0:0:0:
238,245,40142,1,4,3:0:0:0:
69,268,40292,1,2,0:0:0:0:
351,155,40442,5,8,0:0:0:0:
372,251,40592,1,8,0:0:0:0:
392,347,40742,1,2,0:0:0:0:
168,260,40892,1,8,0:3:0:0:
143,219,40967,1,8,0:3:0:0:
134,173,41042,1,4,0:3:0:0:
142,126,41117,1,4,0:3:0:0:
165,85,41192,2,0,L|242:95,1,47.5,8|8,0:0|0:0,0:0:0:0:
95,209,41342,2,0,L|12:217,1,47.5,2|2,0:0|0:0,0:0:0:0:
276,280,41492,5,8,0:0:0:0:
397,132,41642,2,0,P|403:67|369:17,1,95,8|2,0:0|0:0,0:0:0:0:
267,260,41942,1,8,0:0:0:0:
431,162,42092,2,0,P|458:102|444:44,1,95,8|2,0:0|0:0,0:0:0:0:
158,76,42392,1,8,0:0:0:0:
387,226,42542,6,0,B|357:274|357:274|293:287|293:287|277:333|243:342,1,190,6|2,0:0|3:2,0:0:0:0:
277,91,42992,1,8,0:0:0:0:
216,272,43142,1,2,3:2:0:0:
134,35,43292,1,8,0:0:0:0:
131,221,43442,1,2,3:2:0:0:
3,25,43592,1,8,0:0:0:0:
238,306,43742,1,8,0:0:0:0:
242,310,43817,1,8,0:0:0:0:
246,314,43892,6,0,B|286:321|331:325|331:325|396:296|396:296|469:323,1,209.000006378174,6|8,0:0|0:0,0:0:0:0:
310,225,44342,1,2,0:0:0:0:
445,47,44492,2,0,L|462:159,1,104.500003189087,0|2,0:0|0:0,0:0:0:0:
229,260,44792,1,8,0:0:0:0:
376,180,44942,1,2,0:0:0:0:
154,292,45092,6,0,P|99:267|67:219,1,104.500003189087,0|2,0:0|0:0,0:0:0:0:
168,105,45392,2,0,P|162:44|187:-6,1,104.500003189087,8|2,0:0|0:0,0:0:0:0:
389,164,45692,1,0,0:0:0:0:
276,239,45842,1,2,0:0:0:0:
324,56,45992,1,8,0:0:0:0:
384,322,46142,1,2,0:0:0:0:
384,322,46217,1,2,0:0:0:0:
384,322,46292,6,0,B|329:306|329:306|279:331|219:331|219:331|197:311|189:274,1,209.000006378174,0|8,0:0|0:0,0:0:0:0:
243,92,46742,2,0,P|194:35|171:142,1,209.000006378174,2|2,0:0|0:0,0:0:0:0:
37,39,47192,1,8,0:0:0:0:
232,223,47342,6,0,B|181:187|136:171|136:171|85:202|14:182,1,209.000006378174,2|2,0:0|0:0,0:0:0:0:
233,86,47792,1,8,0:0:0:0:
117,283,47942,1,2,0:0:0:0:
335,112,48092,1,2,0:0:0:0:
379,100,48167,1,2,0:0:0:0:
419,122,48242,1,2,0:0:0:0:
459,145,48317,1,2,0:0:0:0:
505,138,48392,1,8,0:0:0:0:
73,342,48692,6,0,B|13:262|13:262|39:208|39:208|33:116,1,209.000006378174,6|8,0:0|0:0,0:0:0:0:
136,251,49142,1,2,0:0:0:0:
117,33,49292,2,0,P|201:64|215:177,1,209.000006378174,0|8,0:0|0:0,0:0:0:0:
129,131,49742,1,0,0:0:0:0:
346,66,49892,6,0,P|432:83|457:89,1,104.500003189087,2|0,0:0|0:0,0:0:0:0:
368,244,50192,2,0,P|317:255|265:264,1,104.500003189087,8|2,0:0|0:0,0:0:0:0:
97,86,50492,1,0,0:0:0:0:
156,207,50642,1,2,0:0:0:0:
18,343,50792,1,8,0:0:0:0:
62,182,50942,1,0,0:0:0:0:
304,276,51092,6,0,P|232:337|133:296,1,209.000006378174,2|8,0:0|0:0,0:0:0:0:
311,78,51542,2,0,B|356:128|356:128|351:184|351:184|392:210|403:257,1,209.000006378174,2|2,0:0|0:0,0:0:0:0:
163,144,51992,1,8,0:0:0:0:
473,164,52142,6,0,P|524:98|423:91,1,209.000006378174,2|2,0:0|0:0,0:0:0:0:
232,286,52592,2,0,B|280:308|280:308|339:297,1,104.500003189087,8|0,0:0|0:0,0:0:0:0:
153,47,52892,5,8,0:3:0:0:
117,68,52967,1,8,0:3:0:0:
95,103,53042,1,4,0:3:0:0:
89,144,53117,1,4,0:3:0:0:
121,201,53192,1,8,0:0:0:0:
129,252,53267,1,8,0:0:0:0:
115,302,53342,1,8,0:0:0:0:
81,341,53417,1,8,0:0:0:0:
34,363,53492,6,0,B|82:340|82:340|180:370|180:370|226:351,1,190,6|2,0:0|0:0,0:0:0:0:
380,68,53942,2,0,P|296:76|232:193,1,190,8|2,0:0|0:0,0:0:0:0:
442,338,54392,2,0,B|436:285|436:285|377:233|377:233|351:177,1,190,2|2,0:0|0:0,0:0:0:0:
85,59,54842,2,0,P|70:171|158:230,1,190,8|2,0:0|0:0,0:0:0:0:
377,121,55292,5,8,0:3:0:0:
218,70,55442,1,4,0:3:0:0:
337,268,55592,1,8,0:0:0:0:
378,260,55667,1,8,0:0:0:0:
419,253,55742,1,8,0:0:0:0:
460,246,55817,1,8,0:0:0:0:
501,239,55892,6,0,B|472:193|472:193|481:112|481:112|425:146,1,190,6|2,0:0|0:0,0:0:0:0:
208,224,56342,2,0,P|145:168|229:132,1,190,8|2,0:0|0:0,0:0:0:0:
420,266,56792,2,0,B|382:354|382:354|324:249,1,190,2|2,0:0|0:0,0:0:0:0:
353,25,57242,2,0,P|437:41|428:164,1,190,8|2,0:0|0:0,0:0:0:0:
185,199,57692,5,8,0:3:0:0:
197,159,57767,1,8,0:3:0:0:
226,130,57842,1,4,0:3:0:0:
266,116,57917,1,4,0:3:0:0:
307,122,57992,1,8,0:0:0:0:
324,166,58067,1,8,0:0:0:0:
309,214,58142,1,8,0:0:0:0:
326,258,58217,1,8,0:0:0:0:
311,307,58292,6,0,P|353:346|473:300,1,190,6|2,0:0|0:0,0:0:0:0:
195,44,58742,2,0,B|157:87|157:87|204:172|132:155|173:235,1,190,8|2,0:0|0:0,0:0:0:0:
481,157,59192,2,0,P|401:80|302:110,1,190,2|2,0:0|0:0,0:0:0:0:
136,319,59642,2,0,B|198:343|230:336|230:336|267:279|312:270,1,190,8|2,0:0|0:0,0:0:0:0:
221,79,60092,5,8,0:0:0:0:
183,85,60167,1,8,0:0:0:0:
150,103,60242,2,0,L|138:181,1,47.5,2|2,0:0|0:0,0:0:0:0:
48,218,60392,1,8,0:0:0:0:
42,170,60467,1,8,0:0:0:0:
36,123,60542,1,8,0:0:0:0:
30,76,60617,1,8,0:0:0:0:
24,29,60692,6,0,B|57:21|77:21|77:21|125:40|166:47|166:47|195:36|221:32,1,190,6|8,0:0|0:0,0:0:0:0:
159,212,61142,1,0,3:0:0:0:
361,23,61292,1,8,0:0:0:0:
261,173,61442,1,2,3:2:0:0:
470,68,61592,1,8,0:0:0:0:
280,81,61742,1,2,3:2:0:0:
393,239,61892,6,0,L|406:110,1,95,8|0,0:0|3:0,0:0:0:0:
197,187,62192,1,8,0:0:0:0:
246,348,62342,1,2,3:2:0:0:
426,226,62492,5,8,0:0:0:0:
430,183,62567,1,8,0:0:0:0:
434,140,62642,2,0,L|411:65,1,47.5,8|8,0:0|0:0,0:0:0:0:
313,197,62792,2,0,L|327:242,1,47.5,8|8,0:0|0:0,0:0:0:0:
228,88,62942,1,8,0:0:0:0:
175,80,63017,1,8,0:0:0:0:
123,73,63092,6,0,B|101:117|101:117|113:166|113:166|95:203|95:203|108:257,1,190,6|8,0:0|0:0,0:0:0:0:
211,296,63542,1,0,0:0:0:0:
295,177,63692,1,2,0:0:0:0:
185,210,63842,1,2,0:0:0:0:
304,76,63992,1,8,0:0:0:0:
391,149,64142,1,2,0:0:0:0:
216,123,64292,5,0,0:0:0:0:
308,56,64442,2,0,L|419:48,1,95,2|8,0:0|0:0,0:0:0:0:
465,167,64742,1,0,0:0:0:0:
465,167,64817,1,8,0:0:0:0:
465,167,64892,1,2,0:0:0:0:
360,213,65042,2,0,L|240:204,1,95,0|8,0:0|0:0,0:0:0:0:
212,104,65342,1,0,0:0:0:0:
287,247,65492,6,0,B|156:235|156:235|104:275,1,190,2|8,0:0|0:0,0:0:0:0:
195,347,65942,1,0,0:0:0:0:
285,277,66092,2,0,P|280:230|255:158,1,95,2|2,0:0|0:0,0:0:0:0:
194,319,66392,1,8,0:0:0:0:
290,170,66542,6,0,P|209:211|122:132,1,190,2|2,0:0|0:0,0:0:0:0:
295,56,66992,2,0,B|318:109|318:109|290:169|290:169|303:255,1,190,8|0,0:0|0:0,0:0:0:0:
399,178,67442,1,2,0:0:0:0:
301,313,67592,2,0,L|177:293,1,95,8|0,0:0|0:0,0:0:0:0:
48,97,67892,6,0,B|93:96|141:66|141:66|191:104|191:104|239:86,1,190,6|8,0:0|0:0,0:0:0:0:
360,42,68342,2,0,P|408:62|334:117,1,190,2|2,0:0|0:0,0:0:0:0:
470,150,68792,1,8,0:0:0:0:
283,68,68942,6,0,B|193:88|193:88|140:75,1,142.5,2|0,0:0|0:0,0:0:0:0:
105,66,69242,1,2,0:0:0:0:
196,193,69392,1,8,0:0:0:0:
199,14,69542,1,0,0:0:0:0:
199,14,69617,1,8,0:0:0:0:
199,14,69692,1,2,0:0:0:0:
224,124,69842,1,2,0:0:0:0:
84,236,69992,1,8,0:0:0:0:
56,124,70142,1,0,0:0:0:0:
205,304,70292,6,0,P|251:299|327:286,1,95,2|0,0:0|0:0,0:0:0:0:
375,168,70592,2,0,P|328:160|280:155,1,95,8|0,0:0|0:0,0:0:0:0:
412,279,70892,1,2,0:0:0:0:
470,135,71042,1,2,0:0:0:0:
420,318,71192,1,8,0:0:0:0:
423,59,71342,6,0,B|372:29|332:56|332:56|277:91|218:52,1,190,2|2,0:0|0:0,0:0:0:0:
146,238,71792,2,0,B|147:282|147:282|176:323,1,95,8|0,0:0|0:0,0:0:0:0:
363,234,72092,2,0,B|400:210|400:210|421:164,1,95,0|2,0:0|0:0,0:0:0:0:
243,65,72392,2,0,B|203:43|203:43|153:48,1,95,8|0,0:0|0:0,0:0:0:0:
229,317,72692,5,8,0:0:0:0:
421,71,72842,1,8,0:0:0:0:
115,219,73142,1,8,0:0:0:0:
413,193,73292,1,8,0:0:0:0:
189,31,73592,5,8,0:0:0:0:
263,329,73742,1,8,0:0:0:0:
365,38,74042,1,8,0:0:0:0:
150,222,74192,2,0,P|102:213|74:184,1,76,8|0,0:0|0:0,0:0:0:0:
74,173,74492,1,0,0:0:0:0:
72,147,74792,1,0,0:0:0:0:
428,84,75092,5,8,0:0:0:0:
248,316,75242,1,8,0:0:0:0:
330,6,75542,1,8,0:0:0:0:
358,281,75692,1,8,0:0:0:0:
78,67,75992,5,8,0:0:0:0:
395,166,76142,1,8,0:0:0:0:
48,241,76442,1,8,0:0:0:0:
331,66,76592,2,0,L|419:74,1,76,8|0,0:0|0:0,0:0:0:0:
434,76,76892,1,0,0:0:0:0:
462,79,77192,1,0,0:0:0:0:
160,298,77492,5,8,0:0:0:0:
142,118,77642,1,8,0:0:0:0:
304,36,77792,1,2,0:0:0:0:
250,325,77942,5,8,3:0:0:0:
129,198,78092,1,8,3:0:0:0:
192,31,78242,1,2,0:0:0:0:
435,175,78392,5,4,3:0:0:0:
277,291,78542,1,4,3:3:0:0:
106,196,78692,1,2,0:0:0:0:
394,59,78842,5,8,0:0:0:0:
378,180,78992,1,8,0:0:0:0:
357,298,79142,1,2,0:0:0:0:
251,76,79292,2,0,L|256:13,1,47.5,8|8,0:3|0:3,0:0:0:0:
146,82,79442,2,0,L|131:14,1,47.5,4|4,0:3|0:3,0:0:0:0:
59,179,79592,1,8,0:0:0:0:
54,216,79667,1,8,0:0:0:0:
50,254,79742,1,2,0:0:0:0:
46,292,79817,1,2,0:0:0:0:
42,330,79892,5,8,0:0:0:0:
330,205,80042,2,0,L|233:187,1,95,8|2,0:0|0:0,0:0:0:0:
60,313,80342,1,8,0:0:0:0:
348,188,80492,2,0,L|251:170,1,95,8|2,0:0|0:0,0:0:0:0:
78,296,80792,1,8,0:0:0:0:
400,122,80942,6,0,B|245:93|245:93|181:127,1,190,6|2,0:0|0:0,0:0:0:0:
419,22,81392,1,8,0:0:0:0:
254,239,81542,1,2,0:0:0:0:
512,87,81692,1,8,0:0:0:0:
227,144,81842,1,2,0:0:0:0:
509,249,81992,1,8,0:0:0:0:
188,48,82142,1,8,0:0:0:0:
184,44,82217,1,8,0:0:0:0:
180,40,82292,6,0,P|110:139|153:231,1,209.000006378174,6|8,0:0|0:0,0:0:0:0:
255,276,82742,1,2,0:0:0:0:
424,128,82892,2,0,B|375:113|375:113|293:130,1,104.500003189087,0|2,0:0|0:0,0:0:0:0:
445,249,83192,1,8,0:0:0:0:
377,68,83342,1,2,0:0:0:0:
315,291,83492,6,0,P|282:229|300:168,1,104.500003189087,0|2,0:0|0:0,0:0:0:0:
127,148,83792,2,0,P|141:79|194:44,1,104.500003189087,8|2,0:0|0:0,0:0:0:0:
389,111,84092,1,0,0:0:0:0:
215,134,84242,1,2,0:0:0:0:
396,21,84392,1,8,0:0:0:0:
468,296,84542,1,2,0:0:0:0:
468,296,84617,1,2,0:0:0:0:
468,296,84692,6,0,P|437:350|288:330,1,209.000006378174,2|8,0:0|0:0,0:0:0:0:
241,83,85142,2,0,B|202:37|160:14|160:14|104:18|50:42,1,209.000006378174,2|2,0:0|0:0,0:0:0:0:
68,210,85592,1,8,0:0:0:0:
339,132,85742,6,0,P|368:66|268:70,1,209.000006378174,2|2,0:0|0:0,0:0:0:0:
338,270,86192,1,8,0:0:0:0:
458,64,86342,1,2,0:0:0:0:
211,188,86492,1,2,0:0:0:0:
199,237,86567,1,2,0:0:0:0:
213,286,86642,1,2,0:0:0:0:
201,335,86717,1,2,0:0:0:0:
215,384,86792,1,8,0:0:0:0:
61,15,87092,6,0,B|94:29|117:68|117:68|180:85|263:60,1,209.000006378174,6|8,0:0|0:0,0:0:0:0:
371,12,87542,1,2,0:0:0:0:
197,154,87692,2,0,B|179:205|179:205|200:306|200:306|136:292,1,209.000006378174,0|8,0:0|0:0,0:0:0:0:
305,214,88142,1,0,0:0:0:0:
150,369,88292,6,0,P|92:359|26:344,1,104.500003189087,2|0,0:0|0:0,0:0:0:0:
179,128,88592,2,0,P|236:137|303:153,1,104.500003189087,8|2,0:0|0:0,0:0:0:0:
64,266,88892,1,0,0:0:0:0:
27,70,89042,1,2,0:0:0:0:
93,282,89192,1,8,0:0:0:0:
8,98,89342,1,0,0:0:0:0:
304,102,89492,6,0,B|222:70|222:70|145:88|145:88|122:61|107:15,1,209.000006378174,2|8,0:0|0:0,0:0:0:0:
286,203,89942,2,0,P|265:280|162:239,1,209.000006378174,2|2,0:0|0:0,0:0:0:0:
250,28,90392,1,8,0:0:0:0:
150,245,90542,6,0,B|158:184|158:184|134:148|119:114|119:114|131:80|118:35,1,209.000006378174,2|2,0:0|0:0,0:0:0:0:
280,246,90992,1,8,0:0:0:0:
49,191,91142,1,0,0:0:0:0:
260,89,91292,1,8,0:3:0:0:
296,82,91367,1,8,0:3:0:0:
332,76,91442,1,4,0:3:0:0:
368,70,91517,1,4,0:3:0:0:
417,65,91592,1,8,0:0:0:0:
404,111,91667,1,8,0:0:0:0:
391,156,91742,1,8,0:0:0:0:
378,201,91817,1,8,0:0:0:0:
368,248,91892,6,0,P|402:294|533:229,1,209.000006378174,6|8,0:0|0:0,0:0:0:0:
448,143,92342,1,2,0:0:0:0:
240,315,92492,2,0,P|185:320|125:275,1,104.500003189087,0|2,0:0|0:0,0:0:0:0:
175,94,92792,1,8,0:0:0:0:
72,182,92942,1,2,0:0:0:0:
258,344,93092,5,0,0:0:0:0:
304,216,93242,1,2,0:0:0:0:
146,358,93392,2,0,P|130:310|128:247,1,104.500003189087,8|2,0:0|0:0,0:0:0:0:
305,134,93692,1,0,0:0:0:0:
170,111,93842,1,2,0:0:0:0:
328,241,93992,1,8,0:0:0:0:
203,21,94142,1,2,0:0:0:0:
203,21,94217,1,2,0:0:0:0:
203,21,94292,6,0,B|142:15|97:31|97:31|73:89|73:89|20:109,1,209.000006378174,2|8,0:0|0:0,0:0:0:0:
265,135,94742,2,0,P|303:180|201:197,1,209.000006378174,2|2,0:0|0:0,0:0:0:0:
334,330,95192,1,8,0:0:0:0:
177,120,95342,6,0,B|112:97|112:97|68:104|27:92|27:92|15:65|20:26,1,209.000006378174,2|2,0:0|0:0,0:0:0:0:
144,197,95792,1,8,0:0:0:0:
157,26,95942,1,2,0:0:0:0:
29,204,96092,1,2,0:0:0:0:
25,252,96167,1,2,0:0:0:0:
51,292,96242,1,2,0:0:0:0:
49,341,96317,1,2,0:0:0:0:
73,384,96392,1,8,0:0:0:0:
479,29,96692,6,0,B|463:78|463:78|507:174|507:174|483:247,1,209.000006378174,6|8,0:0|0:0,0:0:0:0:
438,348,97142,1,2,0:0:0:0:
337,91,97292,2,0,B|276:68|233:109|233:109|188:156|116:111,1,209.000006378174,0|8,0:0|0:0,0:0:0:0:
296,165,97742,1,0,0:0:0:0:
91,34,97892,5,2,0:0:0:0:
56,165,98042,1,2,0:0:0:0:
236,318,98192,1,8,0:0:0:0:
192,189,98342,1,2,0:0:0:0:
381,339,98492,2,0,P|465:325|496:315,1,104.500003189087,0|2,0:0|0:0,0:0:0:0:
280,187,98792,2,0,P|206:230|181:250,1,104.500003189087,8|0,0:0|0:0,0:0:0:0:
460,124,99092,6,0,B|450:46|397:14|397:14|359:21|359:21|298:54,1,209.000006378174,2|8,0:0|0:0,0:0:0:0:
168,178,99542,2,0,B|269:166|333:154|333:154|377:128,1,209.000006378174,2|2,0:0|0:0,0:0:0:0:
162,44,99992,1,8,0:0:0:0:
242,315,100142,6,0,P|342:313|289:232,1,209.000006378174,2|2,0:0|0:0,0:0:0:0:
86,203,100592,2,0,B|58:159|58:159|59:101,1,104.500003189087,8|0,0:0|0:0,0:0:0:0:
291,37,100892,1,8,0:0:0:0:
337,36,100967,1,8,0:0:0:0:
377,59,101042,1,8,0:0:0:0:
399,100,101117,1,8,0:0:0:0:
395,147,101192,1,8,0:0:0:0:
369,184,101267,1,8,0:0:0:0:
326,202,101342,1,8,0:0:0:0:
280,195,101417,1,8,0:0:0:0:
245,165,101492,6,0,P|193:233|231:327,1,190,6|2,0:0|0:0,0:0:0:0:
321,114,101942,2,0,P|245:74|159:128,1,190,8|2,0:0|0:0,0:0:0:0:
202,328,102392,2,0,B|159:309|159:309|138:214|138:214|75:180,1,190,2|2,0:0|0:0,0:0:0:0:
238,104,102842,2,0,B|195:123|195:123|109:77|109:77|42:102,1,190,8|2,0:0|0:0,0:0:0:0:
245,209,103292,5,8,0:3:0:0:
394,182,103442,1,4,0:3:0:0:
366,32,103592,1,8,0:3:0:0:
217,59,103742,1,4,0:3:0:0:
355,271,103892,6,0,P|429:272|483:147,1,190,6|2,0:0|0:0,0:0:0:0:
286,209,104342,2,0,P|263:256|344:365,1,190,8|2,0:0|0:0,0:0:0:0:
186,174,104792,2,0,B|127:162|127:162|79:182|79:182|43:158|43:158|-14:155,1,190,2|2,0:0|0:0,0:0:0:0:
219,259,105242,2,0,B|258:213|258:213|265:162|265:162|304:143|304:143|335:95,1,190,8|2,0:0|0:0,0:0:0:0:
323,275,105692,5,8,0:3:0:0:
179,171,105842,1,4,0:3:0:0:
348,288,105992,1,8,0:0:0:0:
338,245,106067,1,8,0:0:0:0:
327,204,106142,1,8,0:0:0:0:
317,163,106217,1,8,0:0:0:0:
275,118,106292,6,0,P|303:69|360:149,1,190,6|2,0:0|0:0,0:0:0:0:
172,244,106742,2,0,P|122:215|202:158,1,190,8|2,0:0|0:0,0:0:0:0:
320,334,107192,2,0,P|291:382|234:302,1,190,2|2,0:0|0:0,0:0:0:0:
423,208,107642,2,0,P|471:235|391:292,1,190,8|2,0:0|0:0,0:0:0:0:
257,144,108092,6,0,L|260:96,1,47.5,8|8,0:3|0:3,0:0:0:0:
139,97,108242,2,0,L|133:50,1,47.5,2|2,0:0|0:0,0:0:0:0:
52,198,108392,2,0,L|49:257,1,47.5,4|4,0:3|0:3,0:0:0:0:
183,281,108542,1,8,0:0:0:0:
189,253,108617,1,8,0:0:0:0:
195,225,108692,6,0,B|267:200|267:200|332:220|332:220|376:188,1,190,6|8,0:0|0:0,0:0:0:0:
312,32,109142,1,0,3:0:0:0:
269,278,109292,1,8,0:0:0:0:
358,111,109442,1,2,3:2:0:0:
121,160,109592,5,8,0:0:0:0:
189,326,109742,1,2,3:2:0:0:
220,89,109892,1,8,0:0:0:0:
106,265,110042,1,0,3:0:0:0:
337,147,110192,1,8,0:0:0:0:
121,160,110342,1,2,3:2:0:0:
336,278,110492,6,0,L|437:262,3,76
371,117,111092,5,6,0:0:0:0:
347,114,111167,1,0,0:0:0:0:
323,112,111242,1,0,0:0:0:0:
300,110,111317,1,0,0:0:0:0:
276,92,111392,1,8,0:0:0:0:
252,90,111467,1,0,0:0:0:0:
229,88,111542,1,2,0:0:0:0:
205,86,111617,1,0,0:0:0:0:
181,68,111692,5,0,0:0:0:0:
158,66,111767,1,0,0:0:0:0:
134,64,111842,1,2,0:0:0:0:
110,61,111917,1,0,0:0:0:0:
87,44,111992,1,8,0:0:0:0:
63,41,112067,1,0,0:0:0:0:
40,39,112142,2,0,L|20:95,1,47.5,2|0,0:0|0:0,0:0:0:0:
81,184,112292,5,0,0:0:0:0:
74,217,112367,1,0,0:0:0:0:
67,250,112442,1,2,0:0:0:0:
60,283,112517,1,0,0:0:0:0:
59,323,112592,1,0,0:0:0:0:
89,349,112667,1,0,0:0:0:0:
131,357,112742,1,0,0:0:0:0:
173,350,112817,1,0,0:0:0:0:
202,313,112892,5,0,0:0:0:0:
237,289,112967,1,0,0:0:0:0:
279,280,113042,1,2,0:0:0:0:
321,286,113117,1,0,0:0:0:0:
358,306,113192,2,0,L|379:376,1,47.5,8|0,0:0|0:0,0:0:0:0:
450,243,113342,1,2,0:0:0:0:
442,215,113417,1,2,0:0:0:0:
434,187,113492,6,0,B|412:146|412:146|368:143|334:117|334:117|329:57,1,190,2|8,0:0|0:0,0:0:0:0:
301,266,113942,2,0,P|242:284|187:278,1,95,2|0,0:0|0:0,0:0:0:0:
159,107,114242,1,2,0:0:0:0:
294,358,114392,1,8,0:0:0:0:
329,159,114542,1,2,0:0:0:0:
118,307,114692,6,0,P|45:303|8:276,1,95,0|2,0:0|0:0,0:0:0:0:
20,96,114992,1,8,0:0:0:0:
237,202,115142,2,0,B|251:298|251:298|218:351|218:351|241:383,1,190,2|2,0:0|0:0,0:0:0:0:
344,179,115592,2,0,P|399:167|455:190,1,95,8|0,0:0|0:0,0:0:0:0:
162,270,115892,6,0,P|123:189|188:98,1,190,2|8,0:0|0:0,0:0:0:0:
315,177,116342,2,0,P|259:195|188:174,1,95,2|0,0:0|0:0,0:0:0:0:
254,80,116642,1,2,0:0:0:0:
441,184,116792,2,0,B|423:279|423:279|454:334,1,142.5,8|0,0:0|0:0,0:0:0:0:
353,243,117092,5,0,0:0:0:0:
317,230,117167,1,0,0:0:0:0:
279,231,117242,1,2,0:0:0:0:
245,247,117317,1,0,0:0:0:0:
218,274,117392,1,8,0:0:0:0:
204,309,117467,1,0,0:0:0:0:
182,339,117542,1,2,0:0:0:0:
149,358,117617,1,0,0:0:0:0:
112,362,117692,5,0,0:0:0:0:
75,351,117767,1,0,0:0:0:0:
47,327,117842,1,2,0:0:0:0:
30,293,117917,1,0,0:0:0:0:
28,255,117992,1,8,0:0:0:0:
42,220,118067,1,0,0:0:0:0:
69,192,118142,2,0,L|140:176,1,47.5,2|0,0:0|0:0,0:0:0:0:
244,69,118292,5,2,0:0:0:0:
231,60,118367,2,0,L|149:54,2,47.5
314,165,118592,1,8,0:0:0:0:
327,156,118667,2,0,L|409:150,2,47.5,0|2|0,0:0|0:0|0:0,0:0:0:0:
203,222,118892,5,0,0:0:0:0:
190,213,118967,2,0,L|108:207,2,47.5,0|2|0,0:0|0:0|0:0,0:0:0:0:
295,332,119192,1,8,0:0:0:0:
332,329,119267,1,0,0:0:0:0:
370,326,119342,1,2,0:0:0:0:
408,323,119417,1,0,0:0:0:0:
446,320,119492,6,0,B|476:269|480:238|480:238|469:211|459:186|459:186|470:157|475:124,1,190,0|8,0:0|0:0,0:0:0:0:
444,38,119942,1,2,0:0:0:0:
354,166,120092,2,0,P|284:168|246:143,1,95,0|2,0:0|0:0,0:0:0:0:
322,26,120392,1,8,0:0:0:0:
441,175,120542,2,0,L|432:236,1,47.5,8|8,0:0|0:0,0:0:0:0:
341,322,120692,5,6,0:0:0:0:
310,334,120767,1,0,0:0:0:0:
277,336,120842,1,0,0:0:0:0:
244,329,120917,1,0,0:0:0:0:
216,312,120992,2,0,P|173:311|147:321,1,47.5,8|0,0:0|0:0,0:0:0:0:
59,291,121142,5,2,0:0:0:0:
29,267,121217,1,0,0:0:0:0:
11,233,121292,1,0,0:0:0:0:
7,196,121367,1,0,0:0:0:0:
18,160,121442,2,0,P|37:147|66:103,1,47.5,2|0,0:0|0:0,0:0:0:0:
140,47,121592,5,8,0:0:0:0:
177,67,121667,1,0,0:0:0:0:
219,76,121742,1,2,0:0:0:0:
261,74,121817,1,0,0:0:0:0:
302,60,121892,2,0,P|345:53|387:66,1,47.5
460,141,122042,1,2,0:0:0:0:
477,183,122117,1,0,0:0:0:0:
470,230,122192,1,8,0:0:0:0:
440,267,122267,1,0,0:0:0:0:
396,283,122342,2,0,P|363:283|322:266,1,47.5,2|0,0:0|0:0,0:0:0:0:
226,85,122492,5,0,0:0:0:0:
177,67,122567,1,0,0:0:0:0:
126,75,122642,1,2,0:0:0:0:
85,107,122717,1,0,0:0:0:0:
66,155,122792,2,0,P|72:178|87:207,1,47.5,8|0,0:0|0:0,0:0:0:0:
245,327,122942,5,2,0:0:0:0:
302,332,123017,1,0,0:0:0:0:
351,306,123092,1,2,0:0:0:0:
379,258,123167,1,0,0:0:0:0:
375,201,123242,2,0,P|359:170|324:140,1,47.5
157,226,123392,6,0,L|86:242,2,63.3333333333333,8|0|0,0:0|0:0|0:0,0:0:0:0:
248,93,123692,2,0,L|164:76,2,63.3333333333333
398,286,123992,1,8,0:0:0:0:
347,39,124142,1,2,0:0:0:0:
217,295,124292,6,0,B|117:357|30:279|30:279|46:242|46:242|34:208|34:208|59:162|59:162|37:116,1,380
133,209,125042,1,2,0:0:0:0:
248,69,125192,1,8,0:0:0:0:
218,306,125342,1,8,0:0:0:0:
218,306,125417,1,8,0:0:0:0:
218,306,125492,5,6,0:0:0:0:
437,148,125642,1,0,0:0:0:0:
175,90,125792,1,12,0:0:0:0:
334,246,125942,1,0,0:0:0:0:
425,19,126092,1,12,0:0:0:0:
296,178,126242,1,2,0:0:0:0:
103,143,126392,2,0,P|85:88|113:22,1,113.999996520996,12|2,0:0|0:0,0:0:0:0:
411,291,126692,5,12,0:0:0:0:
222,34,126842,1,0,0:0:0:0:
371,175,126992,1,12,0:0:0:0:
410,32,127142,1,0,0:0:0:0:
169,154,127292,1,12,0:0:0:0:
361,303,127442,1,2,0:0:0:0:
222,34,127592,2,0,P|140:27|88:52,1,113.999996520996,12|2,0:0|0:0,0:0:0:0:
133,347,127892,5,12,0:0:0:0:
350,132,128042,1,0,0:0:0:0:
206,224,128192,1,12,0:0:0:0:
66,124,128342,1,0,0:0:0:0:
345,115,128492,1,12,0:0:0:0:
228,239,128642,1,2,0:0:0:0:
306,33,128792,1,12,0:0:0:0:
312,304,128942,1,2,0:0:0:0:
178,47,129092,6,0,P|123:55|55:73,1,113.999996520996,12|0,0:0|0:0,0:0:0:0:
107,338,129392,2,0,P|163:329|218:315,1,113.999996520996,12|0,0:0|0:0,0:0:0:0:
267,90,129692,2,0,P|211:75|155:67,1,113.999996520996,12|2,0:0|0:0,0:0:0:0:
126,289,129992,2,0,P|181:303|237:312,1,113.999996520996,12|2,0:0|0:0,0:0:0:0:
29,29,130292,5,12,0:0:0:0:
168,278,130442,1,0,0:0:0:0:
266,93,130592,1,12,0:0:0:0:
168,278,130742,1,0,0:0:0:0:
165,21,130892,1,12,0:0:0:0:
254,209,131042,1,2,0:0:0:0:
463,175,131192,2,0,B|484:121|484:121|467:49,1,113.999996520996,12|2,0:0|0:0,0:0:0:0:
191,308,131492,5,12,0:0:0:0:
471,298,131642,1,0,0:0:0:0:
288,153,131792,1,12,0:0:0:0:
471,298,131942,1,0,0:0:0:0:
187,215,132092,1,12,0:0:0:0:
296,27,132242,1,2,0:0:0:0:
359,223,132392,2,0,P|338:296|310:331,1,113.999996520996,12|2,0:0|0:0,0:0:0:0:
38,108,132692,5,12,0:0:0:0:
266,243,132842,1,0,0:0:0:0:
151,82,132992,1,12,0:0:0:0:
266,243,133142,1,0,0:0:0:0:
12,341,133292,1,12,0:0:0:0:
133,88,133442,1,2,0:0:0:0:
285,339,133592,1,12,0:0:0:0:
425,81,133742,1,2,0:0:0:0:
99,275,133892,6,0,P|35:230|106:82,1,227.999993041992,12|12,0:0|0:0,0:0:0:0:
398,152,134342,1,0,0:0:0:0:
94,287,134492,2,0,P|18:234|73:73,1,265.999991882324,12|12,0:0|0:0,0:0:0:0:
445,261,134942,1,2,0:0:0:0:
114,167,135092,6,0,P|137:60|182:12,1,152,12|0,0:0|0:0,0:0:0:0:
472,210,135392,2,0,P|470:285|447:357,1,152,12|0,0:0|0:0,0:0:0:0:
67,335,135692,2,0,P|23:273|9:199,1,152,12|2,0:0|0:0,0:0:0:0:
398,20,135992,2,0,P|449:76|468:149,1,152,12|2,0:0|0:0,0:0:0:0:
208,349,136292,5,12,0:0:0:0:
256,192,136442,12,2,137342,0:0:0:0:
256,192,137492,5,2,0:0:0:0:
256,192,137642,12,0,138692,0:0:0:0:
190,115,143492,5,2,0:0:0:0:
184,143,143792,1,2,0:0:0:0:
178,171,144092,1,2,0:0:0:0:
172,199,144392,1,2,0:0:0:0:
457,304,144692,5,2,0:0:0:0:
451,276,144992,1,2,0:0:0:0:
445,248,145292,1,2,0:0:0:0:
439,220,145592,1,2,0:0:0:0:
112,57,145892,5,2,0:0:0:0:
106,85,146192,1,2,0:0:0:0:
100,113,146492,1,2,0:0:0:0:
94,141,146792,1,2,0:0:0:0:
302,272,146942,6,0,L|289:168,1,76,0|2,0:0|0:0,0:0:0:0:
287,159,147242,1,0,0:0:0:0:
419,235,147392,2,0,L|409:310,1,76,2|0,0:0|0:0,0:0:0:0:
225,247,147692,1,2,0:0:0:0:
121,45,148292,6,0,P|70:94|115:241,1,218.500004167557,6|8,0:0|0:0,0:0:0:0:
235,249,148742,1,2,0:0:0:0:
430,89,148892,2,0,B|379:66|379:66|293:80,1,109.250002083778,0|2,0:0|0:0,0:0:0:0:
303,301,149192,1,8,0:0:0:0:
437,254,149342,1,2,0:0:0:0:
199,148,149492,6,0,P|166:197|180:275,1,109.250002083778,0|2,0:0|0:0,0:0:0:0:
224,16,149792,2,0,P|165:11|104:63,1,109.250002083778,8|2,0:0|0:0,0:0:0:0:
307,228,150092,1,0,0:0:0:0:
466,175,150242,1,2,0:0:0:0:
190,95,150392,1,8,0:0:0:0:
297,323,150542,1,2,0:0:0:0:
292,333,150617,1,2,0:0:0:0:
287,341,150692,6,0,B|232:353|232:353|192:320|139:316|139:316|89:351,1,218.500004167557,2|8,0:0|0:0,0:0:0:0:
278,153,151142,2,0,P|260:42|135:25,1,218.500004167557,2|2,0:0|0:0,0:0:0:0:
108,170,151592,1,8,0:0:0:0:
299,316,151742,6,0,B|411:286|411:286|450:323|450:323|510:333,1,218.500004167557,2|2,0:0|0:0,0:0:0:0:
355,108,152192,1,8,0:0:0:0:
378,259,152342,1,2,0:0:0:0:
408,22,152492,1,2,0:0:0:0:
361,7,152567,1,2,0:0:0:0:
313,15,152642,1,2,0:0:0:0:
273,44,152717,1,2,0:0:0:0:
251,87,152792,1,8,0:0:0:0:
94,342,153092,6,0,P|31:300|37:195,1,163.875003125668,6|0,0:0|0:0,0:0:0:0:
110,136,153392,2,0,P|163:142|244:155,1,109.250002083778,8|2,0:0|0:0,0:0:0:0:
385,268,153692,2,0,P|448:226|442:121,1,163.875003125668
369,62,153992,2,0,P|311:69|235:81,1,109.250002083778,8|0,0:0|0:0,0:0:0:0:
141,331,154292,6,0,P|102:254|109:188,1,109.250002083778,2|2,0:0|0:0,0:0:0:0:
379,257,154592,1,8,0:0:0:0:
285,364,154742,1,2,0:0:0:0:
231,44,154892,1,0,0:0:0:0:
414,143,155042,1,2,0:0:0:0:
158,154,155192,1,8,0:0:0:0:
341,68,155342,1,0,0:0:0:0:
98,260,155492,6,0,B|125:210|125:210|94:148|95:91|95:91|135:44,1,218.500004167557,2|8,0:0|0:0,0:0:0:0:
19,212,155942,1,2,0:0:0:0:
238,120,156092,1,0,0:0:0:0:
180,249,156242,1,2,0:0:0:0:
39,229,156392,1,8,0:0:0:0:
264,100,156542,6,0,P|332:182|283:284,1,218.500004167557,2|2,0:0|0:0,0:0:0:0:
129,216,156992,2,0,B|73:202|73:202|18:222,1,109.250002083778,8|0,0:0|0:0,0:0:0:0:
233,314,157292,1,8,0:3:0:0:
261,280,157367,1,8,0:3:0:0:
276,240,157442,1,4,0:3:0:0:
278,196,157517,1,4,0:3:0:0:
237,169,157592,5,8,0:0:0:0:
221,122,157667,1,8,0:0:0:0:
235,76,157742,1,8,0:0:0:0:
273,45,157817,1,8,0:0:0:0:
321,41,157892,6,0,B|368:73|368:73|392:161,1,109.250002083778,6|0,0:0|0:0,0:0:0:0:
151,231,158192,1,12,0:0:0:0:
183,36,158342,1,0,0:0:0:0:
402,118,158492,2,0,B|418:172|418:172|380:255,1,109.250002083778,12|2,0:0|0:0,0:0:0:0:
150,154,158792,1,12,0:0:0:0:
335,52,158942,1,2,0:0:0:0:
407,320,159092,6,0,L|273:300,1,109.250002083778,12|0,0:0|0:0,0:0:0:0:
88,113,159392,2,0,L|222:93,1,109.250002083778,12|0,0:0|0:0,0:0:0:0:
408,335,159692,1,12,0:0:0:0:
384,89,159842,1,2,0:0:0:0:
384,89,159917,1,2,0:0:0:0:
384,89,159992,1,12,0:0:0:0:
338,284,160142,1,2,0:0:0:0:
144,34,160292,6,0,P|71:44|15:66,1,109.250002083778,12|2,0:0|0:0,0:0:0:0:
164,288,160592,1,12,0:0:0:0:
0,168,160742,1,2,0:0:0:0:
318,43,160892,2,0,P|243:17|181:11,1,109.250002083778,12|2,0:0|0:0,0:0:0:0:
224,225,161192,1,12,0:0:0:0:
416,36,161342,1,2,0:0:0:0:
363,343,161492,6,0,L|336:224,1,109.250002083778,12|2,0:0|0:0,0:0:0:0:
295,12,161792,1,12,0:0:0:0:
507,156,161942,1,2,0:0:0:0:
209,116,162092,5,12,0:0:0:0:
209,116,162167,1,2,0:0:0:0:
209,116,162242,2,0,L|280:99,1,54.6250010418892,2|2,0:0|0:0,0:0:0:0:
353,282,162392,1,12,0:0:0:0:
353,282,162467,1,2,0:0:0:0:
353,282,162542,2,0,L|282:265,1,54.6250010418892,2|2,0:0|0:0,0:0:0:0:
81,66,162692,6,0,L|219:34,1,109.250002083778,12|2,0:0|0:0,0:0:0:0:
379,252,162992,1,12,0:0:0:0:
193,323,163142,1,2,0:0:0:0:
321,58,163292,2,0,L|457:94,1,109.250002083778,12|2,0:0|0:0,0:0:0:0:
444,133,163517,1,2,0:0:0:0:
460,179,163592,1,12,0:0:0:0:
312,334,163742,1,2,0:0:0:0:
128,55,163892,6,0,P|92:124|97:181,1,109.250002083778,12|2,0:0|0:0,0:0:0:0:
400,355,164192,2,0,P|436:286|431:229,1,109.250002083778,12|2,0:0|0:0,0:0:0:0:
81,234,164492,1,12,0:0:0:0:
364,139,164642,1,2,0:0:0:0:
125,148,164792,1,12,0:0:0:0:
301,255,164942,1,2,0:0:0:0:
81,18,165092,5,12,0:0:0:0:
346,295,165242,2,0,L|338:386,2,54.6250010418892,2|2|12,0:0|0:0|0:0,0:0:0:0:
171,54,165542,2,0,L|163:-37,2,54.6250010418892,2|2|12,0:0|0:0|0:0,0:0:0:0:
77,341,165842,2,0,L|-6:326,2,54.6250010418892,2|2|12,0:0|0:0|0:0,0:0:0:0:
372,60,166142,2,0,L|442:65,1,54.6250010418892,2|2,0:0|0:0,0:0:0:0:
337,197,166292,5,12,0:0:0:0:
293,199,166367,1,2,0:0:0:0:
253,184,166442,1,2,0:0:0:0:
222,153,166517,1,2,0:0:0:0:
182,105,166592,1,12,0:0:0:0:
138,93,166667,1,2,0:0:0:0:
96,102,166742,1,2,0:0:0:0:
64,132,166817,1,2,0:0:0:0:
40,186,166892,5,12,0:0:0:0:
49,225,166967,1,2,0:0:0:0:
48,267,167042,1,2,0:0:0:0:
33,304,167117,1,2,0:0:0:0:
92,317,167192,1,12,0:0:0:0:
146,323,167267,1,8,0:0:0:0:
200,330,167342,1,8,0:0:0:0:
254,335,167417,1,8,0:0:0:0:
329,341,167492,6,0,P|355:266|271:164,1,190,6|2,0:0|0:0,0:0:0:0:
75,241,167942,2,0,B|171:284|171:284|226:260|271:273,1,190,8|2,0:0|0:0,0:0:0:0:
190,32,168392,2,0,P|150:97|209:208,1,190,2|2,0:0|0:0,0:0:0:0:
487,164,168842,2,0,B|407:116|407:116|342:126|342:126|298:87,1,190,8|2,0:0|0:0,0:0:0:0:
394,255,169292,5,8,0:3:0:0:
475,61,169442,1,4,0:3:0:0:
290,263,169592,1,8,0:0:0:0:
248,270,169667,1,8,0:0:0:0:
206,260,169742,1,8,0:0:0:0:
172,235,169817,1,8,0:0:0:0:
150,199,169892,6,0,P|88:188|45:311,1,190,6|2,0:0|0:0,0:0:0:0:
256,180,170342,2,0,B|272:136|272:136|250:55|250:55|308:13,1,190,8|2,0:0|0:0,0:0:0:0:
327,284,170792,2,0,B|284:317|227:307|227:307|180:337|127:313,1,190,2|2,0:0|0:0,0:0:0:0:
134,49,171242,2,0,B|176:97|176:97|176:133|154:191|154:191|183:233,1,190,8|2,0:0|0:0,0:0:0:0:
394,204,171692,5,8,0:3:0:0:
414,172,171767,1,8,0:3:0:0:
421,135,171842,1,4,0:3:0:0:
414,98,171917,1,4,0:3:0:0:
387,54,171992,1,8,0:0:0:0:
344,58,172067,1,8,0:0:0:0:
302,63,172142,1,8,0:0:0:0:
259,68,172217,1,8,0:0:0:0:
217,73,172292,6,0,B|193:117|193:117|98:130|98:130|73:189,1,190,6|2,0:0|0:0,0:0:0:0:
253,321,172742,2,0,P|276:247|179:158,1,190,8|2,0:0|0:0,0:0:0:0:
417,161,173192,2,0,P|436:99|342:118,1,190,2|2,0:0|0:0,0:0:0:0:
186,280,173642,2,0,B|132:271|132:271|90:238|90:238|37:228|37:228|11:198,1,190,8|2,0:0|0:0,0:0:0:0:
207,79,174092,5,8,0:0:0:0:
207,79,174167,1,8,0:0:0:0:
207,79,174242,2,0,L|211:149,1,47.5,2|2,0:0|0:0,0:0:0:0:
320,257,174392,1,8,0:0:0:0:
365,268,174467,1,8,0:0:0:0:
411,258,174542,1,8,0:0:0:0:
447,228,174617,1,8,0:0:0:0:
466,185,174692,6,0,B|443:132|430:94|430:94|432:73|432:45|432:45|399:2,1,190,6|8,0:0|0:0,0:0:0:0:
247,47,175142,1,0,3:0:0:0:
512,72,175292,1,8,0:0:0:0:
374,176,175442,1,2,3:2:0:0:
155,60,175592,1,8,0:0:0:0:
202,247,175742,1,2,3:2:0:0:
339,88,175892,6,0,L|213:118,1,95,8|0,0:0|3:0,0:0:0:0:
66,239,176192,1,8,0:0:0:0:
203,342,176342,1,0,3:0:0:0:
401,239,176492,1,8,0:0:0:0:
406,196,176567,1,8,0:0:0:0:
412,154,176642,1,8,0:0:0:0:
417,111,176717,1,8,0:0:0:0:
423,69,176792,2,0,L|486:53,1,47.5,8|8,0:0|0:0,0:0:0:0:
401,239,176942,2,0,L|355:251,1,47.5,8|8,0:0|0:0,0:0:0:0:
177,95,177092,6,0,L|-2:63,1,170.999994781494,6|0,0:0|0:0,0:0:0:0:
57,192,177542,1,0,0:0:0:0:
189,225,177692,2,0,L|277:196,1,85.4999973907472
314,68,177992,1,0,0:0:0:0:
118,339,178142,5,6,0:0:0:0:
458,88,178442,1,6,0:0:0:0:
24,121,178742,1,6,0:0:0:0:
256,192,178892,12,0,181067,0:0:0:0:
251,200,181442,6,0,L|263:146,2,42.7499986953736,8|8|12,0:0|0:0|0:3,0:0:0:0:
