osu file format v14

[General]
AudioFilename: audio.mp3
AudioLeadIn: 0
PreviewTime: 106325
Countdown: 0
SampleSet: Normal
StackLeniency: 0.7
Mode: 1
LetterboxInBreaks: 0
WidescreenStoryboard: 1

[Editor]
DistanceSpacing: 3.4
BeatDivisor: 2
GridSize: 8
TimelineZoom: 1.5

[Metadata]
Title:La Valse d'Amelie
TitleUnicode:La Valse d'Amélie
Artist:Yann Tiersen
ArtistUnicode:Yann Tiersen
Creator:Gamelan4
Version:Futsuu
Source:Amélie
Tags:Le Fabuleux Destin Poulain instrumental film soundtrack contemporary classical novelty
BeatmapID:2043929
BeatmapSetID:976470

[Difficulty]
HPDrainRate:7
CircleSize:2
OverallDifficulty:4
ApproachRate:0
SliderMultiplier:1.4
SliderTickRate:3

[Events]
//Background and Video events
0,0,"AmelieBG.jpg",0,-30
//Break Periods
//Storyboard Layer 0 (Background)
//Storyboard Layer 1 (Fail)
//Storyboard Layer 2 (Pass)
//Storyboard Layer 3 (Foreground)
//Storyboard Layer 4 (Overlay)
//Storyboard Sound Samples

[TimingPoints]
1794,312.5,3,1,0,40,1,0
91794,-100,3,1,0,60,0,1
106325,-97.0873786407767,3,1,0,60,0,0
106794,-95.2380952380952,3,1,0,70,0,1
121794,-100,3,1,0,40,0,0
131012,-100,3,1,0,5,0,0

[HitObjects]
256,192,1794,5,0,0:0:0:0:
256,192,2731,1,8,0:0:0:0:
256,192,3356,1,8,0:0:0:0:
256,192,3669,1,0,0:0:0:0:
256,192,3981,1,8,0:0:0:0:
256,192,4606,1,0,0:0:0:0:
256,192,5544,1,8,0:0:0:0:
256,192,6169,1,8,0:0:0:0:
256,192,6481,1,0,0:0:0:0:
256,192,6794,1,8,0:0:0:0:
256,192,7106,1,8,0:0:0:0:
256,192,7419,1,0,0:0:0:0:
256,192,8356,1,0,0:0:0:0:
256,192,9294,1,0,0:0:0:0:
256,192,10231,1,8,0:0:0:0:
256,192,10856,1,8,0:0:0:0:
256,192,11169,1,0,0:0:0:0:
256,192,11481,1,8,0:0:0:0:
256,192,12106,1,0,0:0:0:0:
256,192,13044,1,8,0:0:0:0:
256,192,13669,1,8,0:0:0:0:
256,192,13981,1,0,0:0:0:0:
256,192,14294,1,8,0:0:0:0:
256,192,14606,1,8,0:0:0:0:
256,192,14919,1,0,0:0:0:0:
256,192,15856,1,0,0:0:0:0:
256,192,16481,1,0,0:0:0:0:
256,192,16794,1,8,0:0:0:0:
256,192,17731,1,0,0:0:0:0:
256,192,18356,1,8,0:0:0:0:
256,192,18669,1,0,0:0:0:0:
256,192,18981,1,8,0:0:0:0:
256,192,19606,1,0,0:0:0:0:
256,192,20231,1,0,0:0:0:0:
256,192,20544,1,8,0:0:0:0:
256,192,21481,1,0,0:0:0:0:
256,192,21794,1,8,0:0:0:0:
256,192,22106,1,8,0:0:0:0:
256,192,22419,1,0,0:0:0:0:
256,192,23356,1,0,0:0:0:0:
256,192,24294,1,8,0:0:0:0:
256,192,25231,1,0,0:0:0:0:
256,192,25856,1,8,0:0:0:0:
256,192,26169,1,0,0:0:0:0:
256,192,26481,1,8,0:0:0:0:
256,192,27106,1,0,0:0:0:0:
256,192,27731,1,0,0:0:0:0:
256,192,28044,1,8,0:0:0:0:
256,192,28981,1,0,0:0:0:0:
256,192,29294,1,8,0:0:0:0:
256,192,29606,1,8,0:0:0:0:
256,192,29919,1,0,0:0:0:0:
256,192,30856,1,0,0:0:0:0:
256,192,31481,1,0,0:0:0:0:
256,192,31794,1,8,0:0:0:0:
256,192,32731,1,0,0:0:0:0:
256,192,33669,1,8,0:0:0:0:
264,192,34606,1,8,0:0:0:0:
256,192,34919,1,0,0:0:0:0:
256,192,35231,1,0,0:0:0:0:
256,192,35544,1,8,0:0:0:0:
256,192,36481,1,0,0:0:0:0:
256,192,37419,1,8,0:0:0:0:
256,192,38356,1,8,0:0:0:0:
256,192,38669,1,0,0:0:0:0:
256,192,38981,1,8,0:0:0:0:
256,192,39294,1,8,0:0:0:0:
256,192,40231,1,8,0:0:0:0:
256,192,40856,1,8,0:0:0:0:
256,192,41169,1,0,0:0:0:0:
256,192,42106,1,8,0:0:0:0:
256,192,42731,1,0,0:0:0:0:
256,192,43044,1,8,0:0:0:0:
256,192,43981,1,8,0:0:0:0:
256,192,44606,1,8,0:0:0:0:
256,192,44919,1,0,0:0:0:0:
256,192,45856,1,8,0:0:0:0:
256,192,46169,1,0,0:0:0:0:
256,192,46481,1,0,0:0:0:0:
256,192,46794,1,8,0:0:0:0:
256,192,47731,1,8,0:0:0:0:
256,192,48669,1,0,0:0:0:0:
256,192,49606,1,8,0:0:0:0:
256,192,49919,1,0,0:0:0:0:
259,198,50231,1,0,0:0:0:0:
256,192,50544,1,8,0:0:0:0:
256,192,51481,1,8,0:0:0:0:
256,192,52106,1,0,0:0:0:0:
256,192,52419,1,8,0:0:0:0:
256,192,53356,1,0,0:0:0:0:
256,192,53669,1,8,0:0:0:0:
256,192,53981,1,0,0:0:0:0:
256,192,54294,1,8,0:0:0:0:
256,192,55231,1,8,0:0:0:0:
264,192,55856,1,8,0:0:0:0:
256,192,56169,1,0,0:0:0:0:
256,192,57106,1,8,0:0:0:0:
256,192,57419,1,0,0:0:0:0:
256,192,57731,1,0,0:0:0:0:
256,192,58044,1,8,0:0:0:0:
256,192,58981,1,8,0:0:0:0:
256,192,59606,1,8,0:0:0:0:
256,192,59919,1,0,0:0:0:0:
256,192,60544,1,0,0:0:0:0:
256,192,60856,1,8,0:0:0:0:
256,192,61481,1,0,0:0:0:0:
256,192,61794,1,8,0:0:0:0:
256,192,62731,1,0,0:0:0:0:
256,192,63356,1,8,0:0:0:0:
256,192,63669,1,0,0:0:0:0:
256,192,64294,1,8,0:0:0:0:
256,192,64606,1,0,0:0:0:0:
256,192,65544,1,8,0:0:0:0:
256,192,66481,1,8,0:0:0:0:
256,192,66794,1,0,0:0:0:0:
256,192,67106,1,0,0:0:0:0:
256,192,67419,1,8,0:0:0:0:
256,192,68356,1,0,0:0:0:0:
256,192,69294,1,8,0:0:0:0:
256,192,70231,1,0,0:0:0:0:
256,192,70856,1,8,0:0:0:0:
256,192,71169,1,0,0:0:0:0:
256,192,72106,1,0,0:0:0:0:
256,192,72731,1,0,0:0:0:0:
256,192,73044,1,8,0:0:0:0:
256,192,73981,1,0,0:0:0:0:
256,192,74137,1,0,0:0:0:0:
256,192,74294,1,0,0:0:0:0:
256,192,74606,1,8,0:0:0:0:
256,192,74919,1,0,0:0:0:0:
256,192,75856,1,0,0:0:0:0:
256,192,76481,1,0,0:0:0:0:
256,192,76794,1,8,0:0:0:0:
256,192,77731,1,0,0:0:0:0:
256,192,78356,1,8,0:0:0:0:
256,192,78669,1,0,0:0:0:0:
256,192,78981,1,8,0:0:0:0:
256,192,79606,1,0,0:0:0:0:
256,192,80231,1,0,0:0:0:0:
256,192,80544,1,8,0:0:0:0:
256,192,81481,1,8,0:0:0:0:
256,192,81637,1,8,0:0:0:0:
256,192,81794,1,8,0:0:0:0:
256,192,82106,1,8,0:0:0:0:
256,192,82419,1,0,0:0:0:0:
256,192,83044,1,8,0:0:0:0:
256,192,83356,1,0,0:0:0:0:
256,192,83981,1,0,0:0:0:0:
256,192,84294,1,8,0:0:0:0:
256,192,84919,1,8,0:0:0:0:
256,192,85231,1,0,0:0:0:0:
256,192,85544,1,8,0:0:0:0:
256,192,86169,1,0,0:0:0:0:
256,192,86794,1,8,0:0:0:0:
256,192,87106,1,0,0:0:0:0:
256,192,87419,1,8,0:0:0:0:
256,192,88044,1,8,0:0:0:0:
256,192,88981,1,8,0:0:0:0:
256,192,89137,1,8,0:0:0:0:
256,192,89294,1,8,0:0:0:0:
256,192,89606,1,8,0:0:0:0:
256,192,89919,1,0,0:0:0:0:
256,192,90544,1,8,0:0:0:0:
256,192,90856,1,0,0:0:0:0:
256,192,91169,1,8,0:0:0:0:
256,192,91481,1,8,0:0:0:0:
256,192,91794,1,4,0:0:0:0:
256,192,92419,1,0,0:0:0:0:
256,192,92731,1,8,0:0:0:0:
256,192,93356,1,0,0:0:0:0:
256,192,93669,1,12,0:0:0:0:
256,192,94294,1,8,0:0:0:0:
256,192,94606,1,8,0:0:0:0:
256,192,94919,1,0,0:0:0:0:
256,192,95231,1,0,0:0:0:0:
256,192,95544,1,12,0:0:0:0:
256,192,96169,1,0,0:0:0:0:
256,192,96481,1,8,0:0:0:0:
256,192,97106,1,0,0:0:0:0:
256,192,97419,1,12,0:0:0:0:
256,192,98044,1,8,0:0:0:0:
256,192,98356,1,8,0:0:0:0:
256,192,98669,1,0,0:0:0:0:
256,192,98981,1,0,0:0:0:0:
256,192,99294,1,12,0:0:0:0:
256,192,99919,1,0,0:0:0:0:
256,192,100231,1,8,0:0:0:0:
256,192,100856,1,8,0:0:0:0:
256,192,101169,1,4,0:0:0:0:
256,192,101794,1,8,0:0:0:0:
256,192,102106,1,8,0:0:0:0:
256,192,102419,1,0,0:0:0:0:
256,192,102731,1,0,0:0:0:0:
256,192,103044,1,12,0:0:0:0:
256,192,103669,1,8,0:0:0:0:
256,192,103981,1,8,0:0:0:0:
256,192,104606,1,8,0:0:0:0:
256,192,104919,1,4,0:0:0:0:
256,192,105856,5,0,0:0:0:0:
256,192,106169,1,0,0:0:0:0:
256,192,106481,1,0,0:0:0:0:
256,192,106794,1,12,0:0:0:0:
256,192,107419,1,0,0:0:0:0:
256,192,107731,1,8,0:0:0:0:
256,192,108356,1,8,0:0:0:0:
256,192,108669,1,4,0:0:0:0:
256,192,109294,1,8,0:0:0:0:
256,192,109606,1,8,0:0:0:0:
256,192,109762,1,8,0:0:0:0:
256,192,109919,1,8,0:0:0:0:
256,192,110231,1,0,0:0:0:0:
256,192,110544,1,12,0:0:0:0:
256,192,111169,1,0,0:0:0:0:
256,192,111481,1,8,0:0:0:0:
256,192,112106,1,8,0:0:0:0:
256,192,112419,1,4,0:0:0:0:
256,192,113356,5,8,0:0:0:0:
256,192,113512,1,8,0:0:0:0:
256,192,113669,1,8,0:0:0:0:
256,192,113981,1,0,0:0:0:0:
256,192,114294,1,12,0:0:0:0:
256,192,114919,1,0,0:0:0:0:
256,192,115231,1,8,0:0:0:0:
256,192,115856,1,8,0:0:0:0:
256,192,116169,1,4,0:0:0:0:
256,192,116794,1,0,0:0:0:0:
256,192,117106,1,8,0:0:0:0:
256,192,117731,1,8,0:0:0:0:
256,192,118044,1,4,0:0:0:0:
260,197,118669,1,0,0:0:0:0:
256,192,118981,1,8,0:0:0:0:
256,192,119606,1,8,0:0:0:0:
256,192,119919,1,4,0:0:0:0:
256,192,120544,1,0,0:0:0:0:
256,192,120856,1,8,0:0:0:0:
256,192,121169,1,0,0:0:0:0:
256,192,121481,1,0,0:0:0:0:
256,192,121794,1,12,0:0:0:0:
256,192,122419,1,0,0:0:0:0:
256,192,122731,1,0,0:0:0:0:
256,192,123044,1,8,0:0:0:0:
256,192,123356,1,8,0:0:0:0:
256,192,123669,1,0,0:0:0:0:
256,192,124606,5,0,0:0:0:0:
264,192,124919,1,0,0:0:0:0:
256,192,125231,1,8,0:0:0:0:
256,192,125544,1,8,0:0:0:0:
248,200,126169,1,0,0:0:0:0:
256,192,126481,1,8,0:0:0:0:
248,200,126794,1,0,0:0:0:0:
256,192,127106,1,0,0:0:0:0:
256,192,127419,1,8,0:0:0:0:
256,192,128356,12,0,131794,0:0:0:0:
