osu file format v14

[General]
AudioFilename: audio.mp3
AudioLeadIn: 0
PreviewTime: 49
Countdown: 0
SampleSet: Soft
StackLeniency: 0.4
Mode: 0
LetterboxInBreaks: 0
WidescreenStoryboard: 1

[Editor]
Bookmarks: 73905
DistanceSpacing: 0.9
BeatDivisor: 8
GridSize: 32
TimelineZoom: 2

[Metadata]
Title:virtual tears
TitleUnicode:virtual tears
Artist:yandere
ArtistUnicode:yandere
Creator:aqilmanuar
Version:artificial
Source:
Tags:dnb remix drum and bass electronic instrumental pop electropop d'n'b breakcore
BeatmapID:4141288
BeatmapSetID:1979235

[Difficulty]
HPDrainRate:5.8
CircleSize:4
OverallDifficulty:9
ApproachRate:9.4
SliderMultiplier:1.9
SliderTickRate:1

[Events]
//Background and Video events
0,0,"wallhaven-x6lw2d.jpg",0,0
//Break Periods
//Storyboard Layer 0 (Background)
//Storyboard Layer 1 (Fail)
//Storyboard Layer 2 (Pass)
//Storyboard Layer 3 (Foreground)
//Storyboard Layer 4 (Overlay)
//Storyboard Sound Samples

[TimingPoints]
49,329.715620277511,4,2,1,50,1,0
49,-111.111111111111,4,2,1,50,0,0
2357,-50,4,2,1,50,0,0
2686,-111.111111111111,4,2,1,50,0,0
7962,-76.9230769230769,4,2,1,50,0,0
10599,-62.5,4,2,1,90,0,0
13237,-166.666666666667,4,2,1,90,0,0
13567,-62.5,4,2,1,90,0,0
15875,-50,4,2,1,90,0,0
16205,-62.5,4,2,1,90,0,0
17523,-41.6666666666667,4,2,1,90,0,0
17853,-83.3333333333333,4,2,1,90,0,0
18513,-62.5,4,2,1,90,0,0
19831,-62.5,4,2,1,70,0,0
20161,-62.5,4,2,1,80,0,0
20491,-62.5,4,2,1,90,0,0
21150,-50,4,2,1,90,0,0
21480,-62.5,4,2,1,90,0,0
22799,-41.6666666666667,4,2,1,90,0,0
23129,-83.3333333333333,4,2,1,90,0,0
23788,-62.5,4,2,1,90,0,0
26426,-50,4,2,1,90,0,0
26755,-62.5,4,2,1,90,0,0
29063,-62.5,4,2,1,70,0,0
29393,-62.5,4,2,1,90,0,0
29723,-62.5,4,2,1,70,0,0
30053,-62.5,4,2,1,90,0,0
31042,-62.5,4,2,1,80,0,0
31371,-62.5,4,2,1,90,0,0
31701,-62.5,4,2,1,80,0,0
32690,-125,4,2,1,80,0,0
33020,-50,4,2,1,90,0,0
34339,-111.111111111111,4,2,1,90,0,0
34669,-62.5,4,2,1,90,0,0
36977,-100,4,2,1,90,0,0
37306,-100,4,2,1,70,0,0
38296,-62.5,4,2,1,70,0,0
38625,-41.6666666666667,4,2,1,90,0,0
38955,-83.3333333333333,4,2,1,90,0,0
39614,-62.5,4,2,1,90,0,0
40933,-55.5555555555556,4,2,1,90,0,0
42252,-50,4,2,1,90,0,0
42582,-62.5,4,2,1,90,0,0
43901,-41.6666666666667,4,2,1,90,0,0
44230,-83.3333333333333,4,2,1,90,0,0
44890,-62.5,4,2,1,90,0,0
47528,-50,4,2,1,90,0,0
47857,-62.5,4,2,1,90,0,0
50165,-62.5,4,2,1,70,0,0
50495,-62.5,4,2,1,90,0,0
50825,-62.5,4,2,1,70,0,0
51154,-62.5,4,2,1,90,0,0
52144,-62.5,4,2,1,80,0,0
52473,-62.5,4,2,1,90,0,0
52803,-50,4,2,1,90,0,0
53133,-62.5,4,2,1,90,0,0
58078,-62.5,4,2,1,90,0,0
59727,-41.6666666666667,4,2,1,90,0,0
60057,-21.7391304347826,4,2,1,90,0,0
60386,-62.5,4,2,1,90,0,0
60716,-50,4,2,1,90,0,0
61046,-62.5,4,2,1,90,0,0
62035,-62.5,4,2,1,80,0,0
62365,-62.5,4,2,1,70,0,0
62694,-62.5,4,2,1,80,0,0
63024,-62.5,4,2,1,90,0,0
63354,-50,4,2,1,90,0,0
63684,-62.5,4,2,1,90,0,0
64673,-100,4,2,1,70,0,0
65332,-62.5,4,2,1,80,0,0
65992,-50,4,2,1,90,0,0
66321,-62.5,4,2,1,90,0,0
68629,-50,4,2,1,90,0,0
68959,-62.5,4,2,1,90,0,0
70608,-21.7391304347826,4,2,1,90,0,0
70937,-62.5,4,2,1,90,0,0
71267,-62.5,4,2,1,70,0,0
71597,-62.5,4,2,1,90,0,0
71927,-62.5,4,2,1,70,0,0
72256,-62.5,4,2,1,90,0,0
73245,-62.5,4,2,1,80,0,0
73575,-62.5,4,2,1,90,0,0

[Colours]
Combo1 : 130,134,147
Combo2 : 90,91,97
Combo3 : 183,179,187
Combo4 : 130,130,130
Combo5 : 69,112,137

[HitObjects]
455,130,49,6,0,L|256:94,1,170.999994781494,2|2,0:2|0:2,0:0:0:0:
157,227,543,2,0,L|356:191,1,170.999994781494,2|2,0:2|0:2,0:0:0:0:
396,323,1038,1,2,0:2:0:0:
396,323,1120,2,0,P|366:329|331:282,1,85.4999973907472,2|2,0:2|0:2,0:0:0:0:
291,257,1367,6,0,P|286:226|335:197,1,85.4999973907472,2|0,0:2|0:0,0:0:0:0:
336,203,1615,2,0,L|357:211,2,21.3749993476868
412,34,2027,6,0,L|328:53,1,85.4999973907472,2|0,0:2|0:0,0:0:0:0:
256,118,2357,2,0,B|249:116|249:116|247:117|247:117|243:114|243:114|234:114|234:114|230:111|230:111|218:108|218:108|215:108|215:108|202:105|202:105|201:105|201:105|199:104|199:104|188:101,6,47.5
203,112,2686,6,0,P|181:161|212:193,1,85.4999973907472,2|0,0:2|0:0,0:0:0:0:
135,266,3016,2,0,P|166:309|209:298,1,85.4999973907472,2|0,0:2|0:0,0:0:0:0:
329,296,3346,6,0,B|276:246|276:246|81:303|81:303|13:259,1,341.999989562989,2|0,0:2|0:0,0:0:0:0:
83,96,4170,6,0,B|64:77|64:77|127:90|127:90|85:141|85:141|91:147|91:147|91:151|91:151|104:208,1,213.749993476868
95,201,4665,2,0,P|136:159|224:188,1,128.249996086121,2|0,0:2|0:0,0:0:0:0:
255,220,4994,1,0,0:0:0:0:
249,227,5077,1,0,0:0:0:0:
251,248,5159,1,0,0:0:0:0:
245,256,5242,1,0,0:0:0:0:
250,272,5324,6,0,P|301:342|386:292,1,170.999994781494,2|0,0:2|0:0,0:0:0:0:
398,115,5819,2,0,B|378:157|405:198|428:182|470:215|446:269,1,170.999994781494,2|2,0:2|0:2,0:0:0:0:
496,127,6313,1,2,0:2:0:0:
496,127,6478,1,2,0:2:0:0:
292,99,6643,6,0,P|250:104|219:77,1,85.4999973907472,2|0,0:2|0:0,0:0:0:0:
218,67,6890,2,0,L|227:44,2,21.3749993476868
114,14,7137,5,2,0:2:0:0:
114,14,7302,2,0,L|134:113,1,85.4999973907472,2|0,0:2|0:0,0:0:0:0:
175,275,7632,2,0,B|177:263|177:263|175:260|175:260|179:253|179:253|178:239|178:239|183:232|183:232|186:212|186:212|186:208|186:208|189:186|189:186|189:185|189:185|191:181|191:181|194:163,1,85.4999973907472,2|0,0:2|0:0,0:0:0:0:
32,84,7962,6,0,L|51:180,1,61.7499971733095,0|0,3:2|0:0,0:0:0:0:
38,71,8291,2,0,L|19:167,1,61.7499971733095,0|0,3:2|0:0,0:0:0:0:
30,64,8621,2,0,L|49:160,1,61.7499971733095,0|0,3:2|0:0,0:0:0:0:
36,51,8951,2,0,L|17:147,1,61.7499971733095,0|0,3:2|0:0,0:0:0:0:
26,43,9281,2,0,L|45:139,1,61.7499971733095,0|0,3:2|0:0,0:0:0:0:
32,30,9610,2,0,L|13:126,1,61.7499971733095,0|0,3:2|0:0,0:0:0:0:
22,21,9940,2,0,L|99:411,1,370.499983039857,0|0,3:2|0:0,0:0:0:0:
348,276,10599,6,0,B|311:241|329:170|329:170|311:240|258:251,1,228,4|0,3:2|0:0,0:0:0:0:
172,137,10929,6,0,P|208:135|234:161,1,76,8|0,3:2|0:0,0:0:0:0:
288,343,11094,1,0,0:0:0:0:
288,343,11176,1,0,0:0:0:0:
288,343,11259,1,0,3:2:0:0:
462,165,11424,6,0,P|426:175|410:208,1,76
430,285,11589,2,0,P|465:274|481:241,1,76,8|0,3:2|0:0,0:0:0:0:
424,53,11753,5,0,0:0:0:0:
424,53,11836,1,0,0:0:0:0:
424,53,11918,2,0,P|332:67|396:134,1,228,0|0,3:2|0:0,0:0:0:0:
462,165,12248,2,0,P|427:130|379:154,1,76,8|0,3:2|0:0,0:0:0:0:
213,177,12413,5,0,0:0:0:0:
213,177,12495,1,0,0:0:0:0:
213,177,12578,2,0,P|282:167|282:72,1,152,0|0,3:2|0:0,0:0:0:0:
51,55,12907,5,8,3:2:0:0:
67,46,12990,1,0,0:0:0:0:
119,44,13072,1,0,0:0:0:0:
169,41,13155,1,0,0:0:0:0:
186,31,13237,2,0,L|199:103,1,56.9999982604981,0|0,3:2|0:0,0:0:0:0:
102,292,13567,6,0,L|129:140,1,152,8|0,3:2|0:0,0:0:0:0:
199,251,13814,1,0,0:0:0:0:
199,251,13897,2,0,L|215:157,1,76,0|0,3:2|0:0,0:0:0:0:
26,214,14061,2,0,L|42:120,1,76
181,340,14226,5,8,3:2:0:0:
232,357,14309,1,0,0:0:0:0:
273,324,14391,1,0,0:0:0:0:
320,350,14474,1,0,0:0:0:0:
361,317,14556,1,0,3:2:0:0:
395,164,14721,6,0,P|420:156|394:158,1,76
334,220,14886,6,0,B|309:226|309:226|285:136|285:136|316:124,1,152,8|0,3:2|0:0,0:0:0:0:
478,85,15133,1,0,0:0:0:0:
478,85,15215,2,0,B|502:78|502:78|526:168|526:168|495:180,1,152,0|0,3:2|0:0,0:0:0:0:
168,137,15545,5,8,3:2:0:0:
165,147,15628,1,0,0:0:0:0:
200,168,15710,1,0,0:0:0:0:
189,101,15792,1,0,0:0:0:0:
178,35,15875,6,0,B|129:310|129:310|12:285,1,380,4|8,3:2|3:2,0:0:0:0:
266,358,16369,5,0,0:0:0:0:
266,358,16452,1,0,0:0:0:0:
266,358,16534,2,0,P|282:355|302:284,1,76,0|0,3:2|0:0,0:0:0:0:
287,149,16699,2,0,P|281:165|333:217,1,76
459,267,16864,1,8,3:2:0:0:
459,267,16946,2,0,P|447:255|376:273,1,76
416,335,17111,1,0,0:0:0:0:
416,335,17194,2,0,L|447:101,1,228,0|0,3:2|0:0,0:0:0:0:
368,18,17523,6,0,L|355:100,1,56.9999982604981,8|0,3:2|3:2,0:0:0:0:
343,42,17606,2,0,L|330:124,1,56.9999982604981,0|0,3:2|3:2,0:0:0:0:
319,67,17688,2,0,L|306:149,1,56.9999982604981,0|0,3:2|3:2,0:0:0:0:
295,92,17771,2,0,L|282:174,1,56.9999982604981,0|0,3:2|3:2,0:0:0:0:
271,117,17853,6,0,L|258:199,1,56.9999982604981,0|0,3:2|0:0,0:0:0:0:
143,31,18183,6,0,L|130:113,1,56.9999982604981,8|0,3:2|0:0,0:0:0:0:
121,165,18348,1,8,0:2:0:0:
93,352,18513,6,0,B|64:363|48:381|48:381|14:320|39:254|119:242,1,228,0|0,3:2|0:0,0:0:0:0:
230,328,18842,2,0,P|176:322|159:264,1,76,8|0,3:2|0:0,0:0:0:0:
174,342,19007,2,0,P|211:345|241:324,1,76
304,166,19172,6,0,P|234:177|219:247,1,152,0|0,3:2|0:0,0:0:0:0:
329,347,19419,1,0,0:0:0:0:
329,347,19502,2,0,L|351:250,1,76,8|0,3:2|0:0,0:0:0:0:
430,296,19667,2,0,L|412:369,1,76
304,166,19831,5,0,3:2:0:0:
350,155,19914,1,0,0:0:0:0:
396,145,19996,1,0,0:0:0:0:
442,135,20079,1,0,0:0:0:0:
489,124,20161,5,8,3:2:0:0:
424,112,20244,1,0,0:0:0:0:
358,101,20326,1,0,0:0:0:0:
293,89,20408,1,0,0:0:0:0:
227,75,20491,6,0,L|237:152,1,76,0|0,3:2|0:0,0:0:0:0:
157,188,20656,2,0,L|146:112,1,76,0|0,3:2|0:0,0:0:0:0:
317,23,20821,6,0,L|306:99,1,76,8|0,3:2|0:0,0:0:0:0:
65,243,20985,2,0,L|76:167,1,76,0|0,3:2|0:0,0:0:0:0:
351,278,21150,6,0,B|383:326|450:320|483:271|480:203|417:169|375:179|338:202|333:232|348:317|238:293,1,380,4|8,3:2|3:2,0:0:0:0:
125,91,21645,6,0,P|150:64|187:65,1,76
259,207,21810,1,0,3:2:0:0:
259,207,21892,1,0,0:0:0:0:
259,207,21975,2,0,P|222:208|196:181,1,76
319,3,22139,5,8,3:2:0:0:
307,13,22222,1,0,0:0:0:0:
324,57,22304,1,0,0:0:0:0:
336,102,22387,1,0,0:0:0:0:
324,112,22469,2,0,B|379:75|429:91|462:136|462:136|410:143|389:210,1,228,0|0,3:2|0:0,0:0:0:0:
327,257,22799,6,0,L|409:244,1,56.9999982604981,8|0,3:2|3:2,0:0:0:0:
359,263,22881,2,0,L|441:250,1,56.9999982604981,0|0,3:2|3:2,0:0:0:0:
391,269,22964,2,0,L|473:256,1,56.9999982604981,0|0,3:2|3:2,0:0:0:0:
423,275,23046,2,0,L|505:262,1,56.9999982604981,0|0,3:2|3:2,0:0:0:0:
455,281,23129,6,0,L|511:272,1,56.9999982604981,0|0,3:2|0:0,0:0:0:0:
309,381,23458,6,0,L|365:372,1,56.9999982604981,8|0,3:2|0:0,0:0:0:0:
444,360,23623,1,8,0:2:0:0:
238,250,23788,6,0,B|197:232|151:270|179:292|146:339|97:322|97:322|142:307|141:264,1,228,0|0,3:2|0:0,0:0:0:0:
56,139,24118,2,0,P|16:201|112:238,1,152,8|0,3:2|0:0,0:0:0:0:
250,324,24365,5,0,0:0:0:0:
250,324,24447,2,0,L|232:216,1,76,0|0,3:2|0:0,0:0:0:0:
322,234,24612,2,0,L|334:308,1,76
165,343,24777,1,8,3:2:0:0:
165,343,24860,2,0,L|152:268,1,76
63,125,25024,5,0,0:0:0:0:
62,125,25107,2,0,P|98:130|120:160,1,76,0|0,3:2|0:0,0:0:0:0:
114,174,25272,2,0,P|77:168|55:138,1,76
237,24,25437,6,0,P|262:50|263:88,1,76,8|0,3:2|0:0,0:0:0:0:
205,107,25601,2,0,P|179:80|179:43,1,76,0|0,0:0|3:2,0:0:0:0:
463,86,25766,6,0,P|462:123|436:149,1,76,0|0,3:2|0:0,0:0:0:0:
362,116,25931,2,0,P|362:78|388:52,1,76
496,212,26096,5,8,3:2:0:0:
491,279,26178,1,0,0:0:0:0:
436,326,26261,1,0,0:0:0:0:
362,325,26343,1,0,0:0:0:0:
301,275,26426,6,0,B|359:228|337:142|337:142|354:228|439:237,1,285,4|0,3:2|0:0,0:0:0:0:
498,124,26755,6,0,P|461:122|435:148,1,76,8|0,3:2|0:0,0:0:0:0:
297,25,26920,2,0,P|383:29|369:102,1,152,0|0,0:0|3:2,0:0:0:0:
244,204,27250,6,0,L|138:185,1,76
94,211,27415,1,8,3:2:0:0:
94,211,27497,2,0,P|92:161|110:141,1,76
204,7,27662,5,0,0:0:0:0:
204,7,27745,2,0,P|206:57|53:43,1,228,0|0,3:2|0:0,0:0:0:0:
20,16,28074,2,0,P|60:45|64:72,1,76,8|0,3:2|0:0,0:0:0:0:
19,224,28239,5,0,0:0:0:0:
19,224,28322,1,0,0:0:0:0:
19,224,28404,2,0,L|125:205,1,76,0|0,3:2|0:0,0:0:0:0:
30,307,28569,2,0,L|104:293,1,76
204,196,28734,5,8,3:2:0:0:
177,188,28816,1,0,0:0:0:0:
185,239,28899,1,0,0:0:0:0:
193,291,28981,1,0,0:0:0:0:
220,299,29063,6,0,L|203:388,1,76,0|0,3:2|0:0,0:0:0:0:
282,384,29228,2,0,L|299:295,1,76
177,188,29393,6,0,L|160:99,1,76,8|0,3:2|0:0,0:0:0:0:
267,91,29558,2,0,L|284:180,1,76
397,257,29723,6,0,L|380:346,1,76,0|0,3:2|0:0,0:0:0:0:
459,342,29888,2,0,L|476:253,1,76
360,97,30053,6,0,L|343:8,1,76,8|0,3:2|0:0,0:0:0:0:
450,0,30217,2,0,L|467:89,1,76
281,165,30382,5,8,3:2:0:0:
512,191,30547,1,8,0:2:0:0:
242,238,30712,1,8,3:2:0:0:
473,267,30877,1,8,0:2:0:0:
204,310,31042,5,8,3:2:0:0:
133,294,31124,1,8,0:2:0:0:
63,279,31207,1,8,0:2:0:0:
77,209,31289,1,8,0:2:0:0:
92,139,31371,5,0,3:2:0:0:
166,123,31454,1,8,0:2:0:0:
239,107,31536,1,8,0:2:0:0:
255,180,31619,1,8,0:2:0:0:
271,255,31701,6,0,B|314:302|314:302|483:264,1,228,12|0,3:2|0:0,0:0:0:0:
512,140,32031,2,0,B|469:93|469:93|300:131,1,228,0|0,3:2|0:0,0:0:0:0:
271,255,32361,2,0,B|314:302|314:302|483:264,1,228,0|0,3:2|0:0,0:0:0:0:
512,140,32690,2,0,B|469:93|469:93|393:109|393:109,1,114,0|0,3:2|0:0,0:0:0:0:
265,28,33020,6,0,B|364:134|364:134|403:-8,1,285,4|0,3:2|0:0,0:0:0:0:
157,211,33350,2,0,B|299:183|299:183|199:74,1,285,0|0,3:2|0:0,0:0:0:0:
258,359,33679,6,0,B|289:266|289:266|190:288,1,190,4|0,3:2|0:0,0:0:0:0:
432,366,33927,2,0,B|370:292|370:292|336:387,1,190,4|0,3:2|0:0,0:0:0:0:
500,253,34174,6,0,B|451:262|451:262|481:296,1,95,4|0,3:2|0:0,0:0:0:0:
459,142,34339,2,0,B|443:183|443:183|484:176,1,85.4999973907472,4|0,3:2|0:0,0:0:0:0:
336,33,34669,6,0,P|253:40|272:127,1,152,8|0,3:2|0:0,0:0:0:0:
91,127,34916,1,0,0:0:0:0:
91,127,34998,2,0,P|138:195|204:135,1,152,0|0,3:2|0:0,0:0:0:0:
298,297,35246,1,0,0:0:0:0:
298,297,35328,2,0,P|333:221|248:194,1,152,8|0,3:2|0:0,0:0:0:0:
293,45,35575,5,0,0:0:0:0:
293,45,35658,2,0,P|259:62|244:96,1,76,0|0,3:2|0:0,0:0:0:0:
191,174,35823,2,0,P|180:182|194:174,1,76
176,12,35988,6,0,P|156:43|161:80,1,76,8|0,3:2|0:0,0:0:0:0:
191,174,36152,2,0,P|180:182|194:174,1,76
62,62,36317,6,0,P|64:99|90:126,1,76,0|0,3:2|0:0,0:0:0:0:
191,174,36482,2,0,P|180:182|194:174,1,76,0|0,0:0|3:2,0:0:0:0:
105,244,36647,5,8,3:2:0:0:
147,281,36729,1,0,3:2:0:0:
202,290,36812,1,0,3:2:0:0:
254,266,36894,1,0,3:2:0:0:
284,218,36977,2,0,P|320:197|405:260,1,142.5
422,316,37306,5,8,3:2:0:0:
437,314,37389,1,0,0:0:0:0:
450,306,37471,1,0,0:0:0:0:
459,293,37554,1,0,0:0:0:0:
512,236,37636,5,0,3:2:0:0:
502,224,37719,1,0,0:0:0:0:
489,216,37801,1,0,0:0:0:0:
474,215,37883,1,0,0:0:0:0:
399,196,37966,5,8,3:2:0:0:
393,210,38048,1,0,0:0:0:0:
393,225,38131,1,0,0:0:0:0:
400,240,38213,1,0,0:0:0:0:
459,293,38296,6,0,L|231:255,1,228,0|0,3:2|0:0,0:0:0:0:
176,365,38625,6,0,L|163:283,1,56.9999982604981,8|0,3:2|3:2,0:0:0:0:
151,341,38708,2,0,L|138:259,1,56.9999982604981,0|0,3:2|3:2,0:0:0:0:
127,316,38790,2,0,L|114:234,1,56.9999982604981,0|0,3:2|3:2,0:0:0:0:
103,291,38873,2,0,L|90:209,1,56.9999982604981,0|0,3:2|3:2,0:0:0:0:
79,266,38955,6,0,L|66:184,1,56.9999982604981,0|0,3:2|0:0,0:0:0:0:
243,311,39285,6,0,L|230:229,1,56.9999982604981,8|0,3:2|0:0,0:0:0:0:
228,177,39450,1,8,0:2:0:0:
378,53,39614,6,0,B|338:62|338:62|318:171,1,152,0|0,3:2|0:0,0:0:0:0:
353,315,39862,1,0,0:0:0:0:
353,315,39944,2,0,B|343:275|343:275|234:255,1,152,8|0,3:2|0:0,0:0:0:0:
89,290,40191,1,0,0:0:0:0:
89,290,40274,2,0,B|128:280|128:280|148:171,1,152,0|0,3:2|0:0,0:0:0:0:
116,30,40521,1,0,0:0:0:0:
116,30,40604,2,0,B|125:69|125:69|234:89,1,152,8|0,3:2|0:0,0:0:0:0:
306,34,40851,5,0,0:0:0:0:
300,31,40933,2,0,L|-11:93,1,256.499992172241,0|0,3:2|0:0,0:0:0:0:
300,31,41263,6,0,L|-11:93,1,256.499992172241,8|0,3:2|0:0,0:0:0:0:
300,31,41593,6,0,L|-11:93,1,256.499992172241,0|0,3:2|0:0,0:0:0:0:
300,31,41922,6,0,L|-11:93,1,256.499992172241,8|0,3:2|0:0,0:0:0:0:
247,121,42252,6,0,B|295:89|289:22|240:-11|172:-8|138:55|148:97|171:134|201:139|286:124|262:234,1,380,4|8,3:2|3:2,0:0:0:0:
433,327,42747,5,0,0:0:0:0:
433,327,42829,1,0,0:0:0:0:
433,327,42912,2,0,L|448:234,1,76,0|0,3:2|0:0,0:0:0:0:
374,170,43076,2,0,L|361:245,1,76
301,374,43241,5,8,3:2:0:0:
292,369,43324,1,0,0:0:0:0:
282,313,43406,1,0,0:0:0:0:
273,257,43489,1,0,0:0:0:0:
265,202,43571,6,0,B|213:185|202:114|202:114|213:186|172:217,1,228,0|0,3:2|0:0,0:0:0:0:
190,301,43901,6,0,L|108:288,1,56.9999982604981,8|0,3:2|3:2,0:0:0:0:
158,307,43983,2,0,L|76:294,1,56.9999982604981,0|0,3:2|3:2,0:0:0:0:
126,313,44066,2,0,L|44:300,1,56.9999982604981,0|0,3:2|3:2,0:0:0:0:
94,319,44148,2,0,L|12:306,1,56.9999982604981,0|0,3:2|3:2,0:0:0:0:
62,325,44230,6,0,L|6:316,1,56.9999982604981,0|0,3:2|0:0,0:0:0:0:
171,217,44560,6,0,L|115:208,1,56.9999982604981,8|0,3:2|0:0,0:0:0:0:
37,193,44725,1,8,0:2:0:0:
152,46,44890,5,0,3:2:0:0:
231,58,45055,1,0,0:0:0:0:
237,63,45137,1,0,0:0:0:0:
243,68,45220,1,8,3:2:0:0:
87,128,45384,1,0,0:0:0:0:
73,80,45467,1,0,0:0:0:0:
59,32,45549,1,0,3:2:0:0:
231,58,45714,1,0,0:0:0:0:
183,203,45879,5,8,3:2:0:0:
171,217,45961,1,0,0:0:0:0:
161,267,46044,1,0,0:0:0:0:
150,317,46126,1,0,0:0:0:0:
138,332,46209,6,0,L|233:364,1,76,0|0,3:2|0:0,0:0:0:0:
231,363,46374,2,0,L|255:290,1,76
171,217,46538,6,0,L|76:185,1,76,8|0,3:2|0:0,0:0:0:0:
58,181,46703,2,0,L|34:254,1,76,0|0,0:0|3:2,0:0:0:0:
152,46,46868,6,0,L|176:118,1,76,0|0,3:2|0:0,0:0:0:0:
250,90,47033,2,0,L|322:65,1,76
492,7,47198,5,8,3:2:0:0:
478,73,47280,1,0,0:0:0:0:
464,143,47363,1,0,0:0:0:0:
448,215,47445,1,0,0:0:0:0:
430,289,47528,6,0,B|519:264|519:264|497:175|497:175|256:239,1,380,4|8,3:2|3:2,0:0:0:0:
101,218,48022,5,0,0:0:0:0:
101,218,48105,1,0,0:0:0:0:
101,218,48187,2,0,P|93:164|145:133,1,76,0|0,3:2|0:0,0:0:0:0:
176,118,48352,2,0,P|183:171|131:202,1,76
5,212,48517,5,8,3:2:0:0:
20,265,48599,1,0,0:0:0:0:
63,301,48682,1,0,0:0:0:0:
119,307,48764,1,0,0:0:0:0:
168,280,48846,2,0,B|209:262|255:300|227:322|260:369|309:352|309:352|264:337|265:294,1,228,0|0,3:2|0:0,0:0:0:0:
421,204,49176,6,0,P|342:213|356:303,1,152,8|0,3:2|0:0,0:0:0:0:
391,335,49423,1,0,0:0:0:0:
391,335,49506,2,0,L|494:310,1,76,0|0,3:2|0:0,0:0:0:0:
494,186,49671,2,0,L|420:203,1,76
278,11,49836,5,8,3:2:0:0:
265,20,49918,1,0,0:0:0:0:
280,64,50000,1,0,0:0:0:0:
290,109,50083,1,0,0:0:0:0:
278,119,50165,6,0,L|351:101,1,76,0|0,3:2|0:0,0:0:0:0:
425,83,50330,2,0,L|351:100,1,76
134,267,50495,6,0,L|152:194,1,76,8|0,3:2|0:0,0:0:0:0:
253,219,50660,2,0,L|235:292,1,76
191,37,50825,6,0,L|264:19,1,76,0|0,3:2|0:0,0:0:0:0:
338,1,50990,2,0,L|264:18,1,76
51,167,51154,6,0,L|69:94,1,76,8|0,3:2|0:0,0:0:0:0:
170,119,51319,2,0,L|152:192,1,76
108,366,51484,5,8,3:2:0:0:
387,320,51649,1,8,0:2:0:0:
134,267,51814,1,8,3:2:0:0:
404,215,51979,1,8,0:2:0:0:
170,119,52144,5,8,3:2:0:0:
147,51,52226,1,8,0:2:0:0:
215,29,52308,1,8,0:2:0:0:
238,97,52391,1,8,0:2:0:0:
256,166,52473,5,8,3:2:0:0:
230,236,52556,1,8,0:2:0:0:
301,262,52638,1,8,0:2:0:0:
327,192,52721,1,8,0:2:0:0:
350,119,52803,6,0,B|316:9|316:9|-16:103,1,380,4|0,3:2|0:0,0:0:0:0:
25,355,53298,6,0,P|68:344|70:292,1,76,8|0,3:2|0:0,0:0:0:0:
25,260,53462,2,0,L|217:308,1,152,8|0,3:2|0:0,0:0:0:0:
465,366,53792,2,0,L|317:329,1,152,8|0,3:2|0:0,0:0:0:0:
317,329,54287,6,0,L|335:253,1,76,0|0,3:2|0:0,0:0:0:0:
371,111,54452,1,8,0:2:0:0:
247,264,54616,6,0,L|265:188,1,76,0|0,3:2|0:0,0:0:0:0:
311,0,54781,2,0,B|309:7|309:7|307:18|307:18|303:29|303:29|302:39|302:39|293:73,1,76,8|0,3:2|0:0,0:0:0:0:
33,154,55111,6,0,B|17:134|17:134|7:163|7:163|53:201|97:150|68:127|106:82|179:115,1,228
184,34,55441,6,0,B|196:129|196:129|191:147|191:147|226:360,1,304,8|0,3:2|0:0,0:0:0:0:
447,149,55935,6,0,P|390:174|393:212,1,76,8|0,3:2|0:0,0:0:0:0:
378,258,56100,2,0,P|372:187|294:157,1,152,8|0,3:2|0:0,0:0:0:0:
74,282,56430,2,0,P|80:353|158:383,1,152,8|0,3:2|0:0,0:0:0:0:
146,384,56924,6,0,L|164:308,1,76,0|0,3:2|0:0,0:0:0:0:
220,91,57089,2,0,L|202:164,1,76,0|0,3:2|0:0,0:0:0:0:
486,273,57419,5,8,0:2:0:0:
283,322,57584,2,0,L|356:304,1,76,0|0,3:2|0:0,0:0:0:0:
492,189,57749,5,0,0:0:0:0:
250,244,57914,2,0,L|323:226,1,76,0|0,3:2|0:0,0:0:0:0:
512,57,58078,6,0,B|428:64|409:153|409:153|433:64|374:14,1,304,12|0,3:2|0:0,0:0:0:0:
201,164,58573,6,0,P|244:117|236:98,1,76,8|0,3:2|0:0,0:0:0:0:
185,62,58738,2,0,L|332:98,1,152,8|0,3:2|0:0,0:0:0:0:
269,360,59068,2,0,L|121:323,1,152,8|0,3:2|0:0,0:0:0:0:
78,38,59397,6,0,L|60:111,1,76,8|0,3:2|0:0,0:0:0:0:
14,297,59562,2,0,L|31:223,1,76,0|0,3:2|0:0,0:0:0:0:
185,62,59727,6,0,L|164:141,1,56.9999982604981,8|0,3:2|3:2,0:0:0:0:
175,97,59809,2,0,L|154:176,1,56.9999982604981,0|0,3:2|3:2,0:0:0:0:
167,133,59892,2,0,L|146:212,1,56.9999982604981,0|0,3:2|3:2,0:0:0:0:
158,169,59974,2,0,L|137:248,1,56.9999982604981,0|0,3:2|3:2,0:0:0:0:
150,204,60057,2,0,B|148:213|148:213|154:226|154:226|139:220|139:220|155:235|155:235|132:227|132:227|155:244|155:244|128:235|128:235|155:251|155:251|123:243|123:243|155:259|155:259|120:251|120:251|150:266|150:266|120:259|120:259|143:272|143:272|119:266|119:266|137:279|137:279|122:274|122:274|144:299|144:299|163:292|163:292|146:305|146:305|167:298|167:298|151:310|151:310|168:304|168:304|157:313|157:313|167:310|167:310|163:318|163:318|168:333|168:333|174:338|174:338|174:344|174:344|174:351|174:351|179:355|179:355|185:372,1,655.500012502671,0|0,3:2|0:0,0:0:0:0:
301,261,60386,6,0,P|262:277|268:334,1,76,8|0,3:2|0:0,0:0:0:0:
262,314,60551,2,0,P|300:297|294:240,1,76
287,153,60716,6,0,B|287:206|329:249|384:253|424:229|424:229|387:214|388:166|388:166|449:63,1,380,12|8,3:2|0:2,0:0:0:0:
142,65,61211,6,0,P|199:90|196:128,1,76,8|0,3:2|0:0,0:0:0:0:
211,174,61376,2,0,P|217:103|295:73,1,152,12|0,3:2|0:0,0:0:0:0:
501,210,61705,2,0,P|495:281|417:311,1,152,0|0,3:2|0:0,0:0:0:0:
170,294,62035,5,4,0:0:0:0:
188,288,62117,1,0,0:0:0:0:
207,283,62200,1,8,3:2:0:0:
225,278,62282,1,0,0:0:0:0:
239,273,62365,5,4,0:0:0:0:
190,263,62447,1,0,0:0:0:0:
140,254,62530,1,8,3:2:0:0:
90,246,62612,1,0,0:0:0:0:
115,289,62694,5,12,3:2:0:0:
105,224,62777,1,0,0:0:0:0:
94,160,62859,1,0,0:0:0:0:
84,95,62942,1,0,0:0:0:0:
72,32,63024,6,0,L|50:143,1,76,0|0,3:2|0:0,0:0:0:0:
15,333,63189,2,0,L|29:258,1,76,8|0,3:2|0:0,0:0:0:0:
187,69,63354,6,0,B|252:45|319:109|273:140|319:216|396:195|396:195|329:167|335:101,1,380,12|0,3:2|0:0,0:0:0:0:
392,366,63848,6,0,P|435:319|427:300,1,76,0|0,3:2|0:0,0:0:0:0:
481,257,64013,2,0,L|334:293,1,152,8|0,3:2|0:0,0:0:0:0:
148,174,64343,2,0,L|1:210,1,152,0|0,3:2|0:0,0:0:0:0:
157,27,64673,6,0,P|176:45|180:78,1,47.5
174,76,64838,2,0,P|155:58|151:25,1,47.5,8|0,3:2|0:0,0:0:0:0:
291,74,65002,6,0,P|291:100|271:126,1,47.5,8|0,0:2|0:0,0:0:0:0:
260,125,65167,2,0,P|259:98|279:72,1,47.5,0|0,3:2|0:0,0:0:0:0:
448,210,65332,6,0,P|416:232|416:276,1,76,0|0,3:2|0:0,0:0:0:0:
457,331,65497,2,0,P|488:308|489:265,1,76
244,277,65662,6,0,P|230:313|255:349,1,76
331,372,65827,2,0,P|344:335|319:299,1,76
155,160,65992,6,0,B|111:133|111:133|75:202|75:202|163:256|163:256|341:219,1,380,12|0,3:2|0:0,0:0:0:0:
430,16,66486,6,0,P|387:63|395:82,1,76,8|0,3:2|0:0,0:0:0:0:
446,117,66651,2,0,L|299:81,1,152,8|0,3:2|0:0,0:0:0:0:
179,340,66981,2,0,L|326:304,1,152,0|0,3:2|0:0,0:0:0:0:
326,303,67475,6,0,L|224:279,1,76,8|0,3:2|0:0,0:0:0:0:
10,233,67640,2,0,L|83:250,1,76,8|0,3:2|0:0,0:0:0:0:
371,139,67970,5,8,0:0:0:0:
175,185,68135,2,0,L|248:167,1,76,0|0,3:2|0:0,0:0:0:0:
389,48,68300,5,0,0:0:0:0:
124,109,68464,2,0,L|197:91,1,76,0|0,3:2|0:0,0:0:0:0:
499,291,68629,6,0,B|468:208|373:188|309:252|309:252|369:255|419:287|412:381,1,380,12|8,3:2|0:0,0:0:0:0:
248,166,69124,6,0,L|175:184,1,76,0|0,3:2|0:0,0:0:0:0:
26,220,69289,2,0,L|209:175,1,152,8|0,3:2|0:0,0:0:0:0:
489,115,69618,2,0,L|341:77,1,152,8|0,3:2|0:0,0:0:0:0:
120,20,69948,6,0,L|193:38,1,76,8|0,3:2|0:0,0:0:0:0:
341,77,70113,2,0,L|268:59,1,76,0|0,3:2|0:0,0:0:0:0:
46,1,70278,2,0,L|193:38,1,152,8|0,3:2|0:0,0:0:0:0:
430,181,70608,6,0,B|382:191|382:191|369:173|369:173|371:166|371:166|420:178,4,109.250002083778,8|0|0|0|0,3:2|0:0|0:0|0:0|0:0,0:0:0:0:
267,58,70937,6,0,L|249:131,1,76,8|0,3:2|0:0,0:0:0:0:
194,357,71102,2,0,L|212:284,1,76,0|0,3:2|0:0,0:0:0:0:
0,107,71267,6,0,L|73:89,1,76,8|0,3:2|0:0,0:0:0:0:
91,165,71432,2,0,L|18:183,1,76
267,58,71597,6,0,L|249:131,1,76,8|0,0:0|0:0,0:0:0:0:
156,73,71762,2,0,L|174:0,1,76,0|0,3:2|0:0,0:0:0:0:
35,261,71927,6,0,L|108:243,1,76,8|0,3:2|0:0,0:0:0:0:
126,319,72091,2,0,L|53:337,1,76
341,190,72256,6,0,L|323:263,1,76,8|0,3:2|0:0,0:0:0:0:
230,205,72421,2,0,L|248:132,1,76
477,32,72586,5,8,0:2:0:0:
512,292,72751,1,8,3:2:0:0:
387,44,72916,1,8,0:2:0:0:
422,304,73081,1,8,3:2:0:0:
277,70,73245,5,8,3:2:0:0:
265,140,73328,1,8,0:2:0:0:
253,212,73410,1,8,0:2:0:0:
244,284,73493,1,8,0:2:0:0:
278,350,73575,5,8,3:2:0:0:
266,267,73658,1,8,0:2:0:0:
255,186,73740,1,8,3:2:0:0:
244,105,73822,1,8,0:2:0:0:
234,24,73905,1,12,3:2:0:0:
