osu file format v14

[General]
AudioFilename: audio.mp3
AudioLeadIn: 0
PreviewTime: 49
Countdown: 0
SampleSet: Soft
StackLeniency: 0.4
Mode: 0
LetterboxInBreaks: 0
WidescreenStoryboard: 1

[Editor]
Bookmarks: 73905
DistanceSpacing: 0.9
BeatDivisor: 2
GridSize: 32
TimelineZoom: 2

[Metadata]
Title:virtual tears
TitleUnicode:virtual tears
Artist:yandere
ArtistUnicode:yandere
Creator:aqilmanuar
Version:normal
Source:
Tags:dnb remix drum and bass electronic instrumental pop electropop d'n'b breakcore
BeatmapID:4142198
BeatmapSetID:1979235

[Difficulty]
HPDrainRate:4
CircleSize:3.5
OverallDifficulty:4.5
ApproachRate:5.5
SliderMultiplier:1.1
SliderTickRate:1

[Events]
//Background and Video events
0,0,"wallhaven-x6lw2d.jpg",0,0
//Break Periods
//Storyboard Layer 0 (Background)
//Storyboard Layer 1 (Fail)
//Storyboard Layer 2 (Pass)
//Storyboard Layer 3 (Foreground)
//Storyboard Layer 4 (Overlay)
//Storyboard Sound Samples

[TimingPoints]
49,329.715620277511,4,2,1,50,1,0
49,-111.111111111111,4,2,1,50,0,0
10599,-90.9090909090909,4,2,1,90,0,0
19831,-90.9090909090909,4,2,1,70,0,0
20161,-90.9090909090909,4,2,1,80,0,0
20491,-90.9090909090909,4,2,1,90,0,0
29063,-90.9090909090909,4,2,1,70,0,0
29393,-90.9090909090909,4,2,1,90,0,0
29723,-90.9090909090909,4,2,1,70,0,0
30053,-90.9090909090909,4,2,1,90,0,0
31042,-90.9090909090909,4,2,1,80,0,0
31371,-90.9090909090909,4,2,1,90,0,0
31701,-90.9090909090909,4,2,1,80,0,0
33020,-90.9090909090909,4,2,1,90,0,0
37306,-90.9090909090909,4,2,1,70,0,0
38625,-90.9090909090909,4,2,1,90,0,0
50165,-90.9090909090909,4,2,1,70,0,0
50495,-90.9090909090909,4,2,1,90,0,0
50825,-90.9090909090909,4,2,1,70,0,0
51154,-90.9090909090909,4,2,1,90,0,0
52144,-90.9090909090909,4,2,1,80,0,0
52473,-90.9090909090909,4,2,1,90,0,0
62035,-90.9090909090909,4,2,1,80,0,0
62365,-90.9090909090909,4,2,1,70,0,0
62694,-90.9090909090909,4,2,1,80,0,0
63024,-90.9090909090909,4,2,1,90,0,0
63354,-90.9090909090909,4,2,1,90,0,0
64673,-90.9090909090909,4,2,1,70,0,0
65332,-90.9090909090909,4,2,1,80,0,0
65992,-90.9090909090909,4,2,1,90,0,0
71267,-90.9090909090909,4,2,1,70,0,0
71597,-90.9090909090909,4,2,1,90,0,0
71927,-90.9090909090909,4,2,1,70,0,0
72256,-90.9090909090909,4,2,1,90,0,0
73245,-90.9090909090909,4,2,1,80,0,0
73575,-90.9090909090909,4,2,1,90,0,0

[Colours]
Combo1 : 130,134,147
Combo2 : 90,91,97
Combo3 : 183,179,187
Combo4 : 130,130,130
Combo5 : 69,112,137

[HitObjects]
244,152,49,6,0,B|217:170|217:170|102:141,2,148.49999546814,2|2|2,0:2|0:2|0:2,0:0:0:0:
318,87,1367,2,0,P|383:80|417:193,1,197.99999395752,2|2,0:2|0:2,0:0:0:0:
361,266,2357,1,0,0:0:0:0:
264,244,2686,6,0,P|255:282|286:336,1,98.9999969787598,2|2,0:2|0:2,0:0:0:0:
369,378,3346,2,0,L|115:330,1,247.4999924469,2|0,0:2|0:0,0:0:0:0:
12,235,4665,2,0,P|53:221|35:129,1,148.49999546814,2|0,0:2|0:0,0:0:0:0:
14,91,5324,6,0,B|46:55|46:55|160:74,1,148.49999546814,2|2,0:2|0:2,0:0:0:0:
194,157,6148,2,0,L|183:223,2,49.4999984893799,2|2|2,0:2|0:2|0:2,0:0:0:0:
230,122,6643,2,0,P|295:145|352:95,1,148.49999546814,2|2,0:2|0:2,0:0:0:0:
373,53,7302,1,2,0:2:0:0:
470,35,7632,1,2,0:2:0:0:
500,129,7962,6,0,L|475:237,1,98.9999969787598,0|0,3:2|3:2,0:0:0:0:
406,295,8621,2,0,L|383:198,1,98.9999969787598,0|0,3:2|3:2,0:0:0:0:
317,124,9281,2,0,L|292:232,1,98.9999969787598,0|0,3:2|3:2,0:0:0:0:
224,290,9940,1,0,3:2:0:0:
88,119,10599,6,0,L|215:93,1,121.000003692627,4|8,3:2|3:2,0:0:0:0:
237,49,11094,2,0,L|364:75,1,121.000003692627
404,47,11589,2,0,L|424:108,1,60.5000018463135,8|0,3:2|0:0,0:0:0:0:
418,159,11918,2,0,B|373:202|373:202|391:269,1,121.000003692627,0|8,3:2|3:2,0:0:0:0:
495,280,12578,2,0,B|510:336|510:336|465:379,1,121.000003692627,0|8,3:2|3:2,0:0:0:0:
356,361,13237,5,0,3:2:0:0:
287,276,13567,1,8,3:2:0:0:
182,305,13897,2,0,P|140:335|67:307,2,121.000003692627,0|8|0,3:2|3:2|3:2,0:0:0:0:
204,259,14721,1,0,0:0:0:0:
204,259,14886,2,0,L|179:140,1,121.000003692627,8|0,3:2|3:2,0:0:0:0:
79,96,15545,2,0,L|91:36,1,60.5000018463135,8|0,3:2|0:0,0:0:0:0:
134,3,15875,6,0,P|172:46|230:41,1,121.000003692627,4|8,3:2|3:2,0:0:0:0:
282,21,16369,1,0,0:0:0:0:
353,108,16699,1,0,0:0:0:0:
353,108,16864,2,0,L|327:235,1,121.000003692627,8|0,3:2|3:2,0:0:0:0:
285,326,17523,2,0,L|344:313,1,60.5000018463135,8|0,3:2|3:2,0:0:0:0:
390,342,17853,1,0,3:2:0:0:
485,290,18183,2,0,L|472:231,1,60.5000018463135,8|8,3:2|0:2,0:0:0:0:
419,216,18513,6,0,P|413:157|457:119,1,121.000003692627,0|8,3:2|3:2,0:0:0:0:
485,14,19172,2,0,B|428:-1|428:-1|385:43,1,121.000003692627,0|8,3:2|3:2,0:0:0:0:
308,122,19831,1,0,3:2:0:0:
207,81,20161,1,8,3:2:0:0:
121,149,20491,2,0,L|109:209,1,60.5000018463135,0|0,3:2|3:2,0:0:0:0:
63,238,20821,2,0,L|75:298,1,60.5000018463135,8|0,3:2|3:2,0:0:0:0:
117,330,21150,6,0,P|175:336|213:292,1,121.000003692627,4|8,3:2|3:2,0:0:0:0:
280,205,21810,2,0,P|338:198|376:242,1,121.000003692627,0|8,3:2|3:2,0:0:0:0:
389,299,22304,1,0,0:0:0:0:
389,299,22469,1,0,3:2:0:0:
485,252,22799,2,0,P|487:221|468:192,1,60.5000018463135,8|0,3:2|3:2,0:0:0:0:
433,157,23129,1,0,3:2:0:0:
330,119,23458,2,0,P|330:89|348:64,1,60.5000018463135,8|8,3:2|0:2,0:0:0:0:
387,28,23788,5,0,3:2:0:0:
279,10,24118,1,8,3:2:0:0:
210,94,24447,2,0,L|91:119,1,121.000003692627,0|8,3:2|3:2,0:0:0:0:
16,200,25107,2,0,B|59:244|59:244|116:229,1,121.000003692627,0|8,3:2|3:2,0:0:0:0:
171,209,25601,1,0,0:0:0:0:
171,209,25766,2,0,L|231:221,1,60.5000018463135,0|0,3:2|0:0,0:0:0:0:
261,265,26096,1,8,3:2:0:0:
343,195,26426,6,0,L|318:76,1,121.000003692627,4|8,3:2|3:2,0:0:0:0:
304,25,26920,1,0,0:0:0:0:
201,49,27250,1,0,0:0:0:0:
201,49,27415,2,0,L|226:168,1,121.000003692627,8|0,3:2|3:2,0:0:0:0:
183,267,28074,1,8,3:2:0:0:
262,341,28404,2,0,P|321:349|362:302,1,121.000003692627,0|8,3:2|3:2,0:0:0:0:
421,217,29063,6,0,B|436:160|436:160|391:117,1,121.000003692627,0|8,3:2|3:2,0:0:0:0:
409,68,29558,1,0,0:0:0:0:
409,68,29723,2,0,B|367:26|367:26|307:43,1,121.000003692627,0|8,3:2|3:2,0:0:0:0:
274,7,30217,1,0,0:0:0:0:
274,7,30382,1,8,3:2:0:0:
195,82,30712,1,8,3:2:0:0:
259,170,31042,2,0,L|271:230,1,60.5000018463135,8|8,3:2|0:2,0:0:0:0:
227,261,31371,2,0,L|215:321,1,60.5000018463135,0|8,3:2|0:2,0:0:0:0:
167,347,31701,6,0,B|110:362|110:362|67:318,1,121.000003692627,12|0,3:2|3:2,0:0:0:0:
32,214,32361,2,0,B|75:170|75:170|132:185,1,121.000003692627,0|0,3:2|3:2,0:0:0:0:
224,244,33020,5,4,3:2:0:0:
331,259,33350,1,0,3:2:0:0:
436,274,33679,2,0,L|458:168,2,90.7500027694703,4|4|4,3:2|3:2|3:2,0:0:0:0:
424,327,34339,5,4,3:2:0:0:
315,338,34669,1,8,3:2:0:0:
206,349,34998,1,0,3:2:0:0:
143,259,35328,1,8,3:2:0:0:
80,169,35658,2,0,L|139:156,1,60.5000018463135,0|0,3:2|0:0,0:0:0:0:
169,106,35988,2,0,L|228:93,1,60.5000018463135,8|0,3:2|0:0,0:0:0:0:
262,51,36317,2,0,L|381:26,1,121.000003692627,0|8,3:2|3:2,0:0:0:0:
474,82,36977,5,0,0:0:0:0:
382,140,37306,2,0,B|365:200|365:200|407:242,1,121.000003692627,8|0,3:2|3:2,0:0:0:0:
490,311,37966,2,0,P|451:354|387:352,1,121.000003692627,8|0,3:2|3:2,0:0:0:0:
299,298,38625,2,0,L|239:285,1,60.5000018463135,8|0,3:2|3:2,0:0:0:0:
185,275,38955,1,0,3:2:0:0:
77,292,39285,2,0,L|65:232,1,60.5000018463135,8|8,3:2|0:2,0:0:0:0:
59,178,39614,6,0,P|118:185|156:141,1,121.000003692627,0|8,3:2|3:2,0:0:0:0:
214,50,40274,2,0,P|252:6|310:14,1,121.000003692627,0|8,3:2|3:2,0:0:0:0:
406,64,40933,5,0,3:2:0:0:
502,114,41263,1,8,3:2:0:0:
411,175,41593,1,0,3:2:0:0:
505,229,41922,1,8,3:2:0:0:
409,282,42252,6,0,L|290:307,1,121.000003692627,4|8,3:2|3:2,0:0:0:0:
191,353,42912,2,0,P|174:297|211:242,1,121.000003692627,0|8,3:2|3:2,0:0:0:0:
304,203,43571,1,0,3:2:0:0:
310,94,43901,2,0,P|279:92|250:111,1,60.5000018463135,8|0,3:2|3:2,0:0:0:0:
215,146,44230,1,0,3:2:0:0:
107,165,44560,2,0,P|76:167|47:148,1,60.5000018463135,8|8,3:2|0:2,0:0:0:0:
44,98,44890,6,0,P|81:54|139:61,1,121.000003692627,0|8,3:2|3:2,0:0:0:0:
215,146,45549,2,0,P|272:153|310:109,1,121.000003692627,0|8,3:2|3:2,0:0:0:0:
378,24,46209,2,0,B|424:65|424:65|411:122,1,121.000003692627,0|8,3:2|3:2,0:0:0:0:
377,167,46703,1,0,0:0:0:0:
377,167,46868,2,0,P|375:198|394:227,1,60.5000018463135,0|0,3:2|0:0,0:0:0:0:
432,256,47198,2,0,P|434:287|415:316,1,60.5000018463135,8|0,3:2|0:0,0:0:0:0:
366,325,47528,6,0,L|247:350,1,121.000003692627,4|8,3:2|3:2,0:0:0:0:
141,372,48187,2,0,L|116:253,1,121.000003692627,0|8,3:2|3:2,0:0:0:0:
95,146,48846,1,0,3:2:0:0:
201,125,49176,1,8,3:2:0:0:
220,232,49506,2,0,L|339:207,1,121.000003692627,0|8,3:2|3:2,0:0:0:0:
422,276,50165,6,0,B|464:229|464:229|447:174,1,121.000003692627,0|8,3:2|3:2,0:0:0:0:
462,123,50660,1,0,0:0:0:0:
462,123,50825,2,0,B|446:65|446:65|386:50,1,121.000003692627,0|8,3:2|3:2,0:0:0:0:
345,84,51319,1,0,0:0:0:0:
345,84,51484,1,8,3:2:0:0:
253,143,51814,1,8,3:2:0:0:
220,39,52144,2,0,L|160:26,1,60.5000018463135,8|8,3:2|0:2,0:0:0:0:
125,68,52473,2,0,L|65:81,1,60.5000018463135,8|8,3:2|0:2,0:0:0:0:
13,96,52803,6,0,L|55:291,1,181.500005538941,4|8,3:2|3:2,0:0:0:0:
70,324,53462,1,8,3:2:0:0:
167,371,53792,2,0,B|181:313|181:313|172:279|172:279|193:194,1,181.500005538941,8|0,3:2|3:2,0:0:0:0:
178,91,54616,1,0,3:2:0:0:
178,91,54781,2,0,P|234:80|275:121,1,121.000003692627,8|0,3:2|0:0,0:0:0:0:
310,224,55441,6,0,P|383:257|449:170,1,181.500005538941,8|8,3:2|3:2,0:0:0:0:
452,139,56100,1,8,3:2:0:0:
390,49,56430,2,0,B|343:20|306:64|322:73|298:131|214:92,1,181.500005538941,8|0,3:2|3:2,0:0:0:0:
193,64,57089,1,0,3:2:0:0:
104,123,57419,1,8,0:2:0:0:
104,123,57584,2,0,L|129:242,1,121.000003692627,0|0,3:2|3:2,0:0:0:0:
98,286,58078,6,0,B|142:308|161:353|161:353|189:322|249:320,1,181.500005538941,12|8,3:2|3:2,0:0:0:0:
291,302,58738,1,8,3:2:0:0:
389,347,59068,1,8,3:2:0:0:
459,263,59397,2,0,P|461:232|442:203,1,60.5000018463135,8|0,3:2|3:2,0:0:0:0:
404,171,59727,2,0,L|379:52,1,121.000003692627,8|0,3:2|3:2,0:0:0:0:
279,8,60386,2,0,L|267:67,1,60.5000018463135,8|0,3:2|0:0,0:0:0:0:
281,120,60716,6,0,B|242:147|242:147|93:116,1,181.500005538941,12|8,3:2|3:2,0:0:0:0:
57,109,61376,2,0,L|82:228,1,121.000003692627,12|0,3:2|3:2,0:0:0:0:
108,333,62035,1,4,0:0:0:0:
203,280,62365,1,4,0:0:0:0:
258,373,62694,1,12,3:2:0:0:
349,313,63024,2,0,L|332:233,1,60.5000018463135,0|8,3:2|3:2,0:0:0:0:
327,200,63354,6,0,P|379:255|468:214,1,181.500005538941,12|0,3:2|3:2,0:0:0:0:
504,179,64013,1,8,3:2:0:0:
435,94,64343,1,0,3:2:0:0:
373,11,64673,1,0,0:0:0:0:
373,11,64838,2,0,P|298:15|283:67,1,121.000003692627,8|0,3:2|3:2,0:0:0:0:
302,100,65332,2,0,L|160:68,1,121.000003692627,0|0,3:2|0:0,0:0:0:0:
83,116,65992,6,0,B|54:163|98:200|107:184|165:208|126:292,1,181.500005538941,12|8,3:2|3:2,0:0:0:0:
109,319,66651,1,8,3:2:0:0:
212,352,66981,2,0,L|250:174,1,181.500005538941,0|8,3:2|3:2,0:0:0:0:
263,121,67640,1,8,3:2:0:0:
357,63,67970,1,8,0:0:0:0:
357,63,68135,2,0,L|382:182,1,121.000003692627,0|0,3:2|3:2,0:0:0:0:
416,223,68629,6,0,P|359:210|317:250,1,121.000003692627,12|8,3:2|0:0,0:0:0:0:
282,292,69124,1,0,3:2:0:0:
282,292,69289,2,0,P|225:304|180:262,1,121.000003692627,8|8,3:2|3:2,0:0:0:0:
249,179,69948,2,0,P|252:149|237:123,1,60.5000018463135,8|0,3:2|3:2,0:0:0:0:
187,100,70278,2,0,B|170:40|170:40|212:-2,1,121.000003692627,8|8,3:2|3:2,0:0:0:0:
302,59,70937,2,0,L|381:75,1,60.5000018463135,8|0,3:2|3:2,0:0:0:0:
414,80,71267,6,0,B|456:122|456:122|439:182,1,121.000003692627,8|8,3:2|0:0,0:0:0:0:
489,214,71762,1,0,3:2:0:0:
489,214,71927,2,0,B|473:271|473:271|413:286,1,121.000003692627,8|8,3:2|3:2,0:0:0:0:
386,335,72421,1,0,0:0:0:0:
386,335,72586,1,8,0:2:0:0:
293,276,72916,1,8,0:2:0:0:
216,351,73245,2,0,L|136:334,1,60.5000018463135,8|8,3:2|0:2,0:0:0:0:
103,326,73575,2,0,L|86:246,1,60.5000018463135,8|8,3:2|3:2,0:0:0:0:
82,212,73905,1,12,3:2:0:0:
