osu file format v14

[General]
AudioFilename: audio.mp3
AudioLeadIn: 0
PreviewTime: 49
Countdown: 0
SampleSet: Soft
StackLeniency: 0.4
Mode: 0
LetterboxInBreaks: 0
WidescreenStoryboard: 1

[Editor]
Bookmarks: 73905
DistanceSpacing: 1.2
BeatDivisor: 4
GridSize: 32
TimelineZoom: 2

[Metadata]
Title:virtual tears
TitleUnicode:virtual tears
Artist:yandere
ArtistUnicode:yandere
Creator:aqilmanuar
Version:hard
Source:
Tags:dnb remix drum and bass electronic instrumental pop electropop d'n'b breakcore
BeatmapID:4141289
BeatmapSetID:1979235

[Difficulty]
HPDrainRate:4.5
CircleSize:3.5
OverallDifficulty:6.8
ApproachRate:8
SliderMultiplier:1.4
SliderTickRate:1

[Events]
//Background and Video events
0,0,"wallhaven-x6lw2d.jpg",0,0
//Break Periods
//Storyboard Layer 0 (Background)
//Storyboard Layer 1 (Fail)
//Storyboard Layer 2 (Pass)
//Storyboard Layer 3 (Foreground)
//Storyboard Layer 4 (Overlay)
//Storyboard Sound Samples

[TimingPoints]
49,329.715620277511,4,2,1,50,1,0
49,-111.111111111111,4,2,1,50,0,0
10599,-86.9565217391304,4,2,1,90,0,0
19831,-86.9565217391304,4,2,1,70,0,0
20161,-86.9565217391304,4,2,1,80,0,0
20491,-86.9565217391304,4,2,1,90,0,0
29063,-86.9565217391304,4,2,1,70,0,0
29393,-86.9565217391304,4,2,1,90,0,0
29723,-86.9565217391304,4,2,1,70,0,0
30053,-86.9565217391304,4,2,1,90,0,0
31042,-86.9565217391304,4,2,1,80,0,0
31371,-86.9565217391304,4,2,1,90,0,0
31701,-95.2380952380952,4,2,1,80,0,0
33020,-86.9565217391304,4,2,1,90,0,0
37306,-86.9565217391304,4,2,1,70,0,0
38625,-86.9565217391304,4,2,1,90,0,0
50165,-86.9565217391304,4,2,1,70,0,0
50495,-86.9565217391304,4,2,1,90,0,0
50825,-86.9565217391304,4,2,1,70,0,0
51154,-86.9565217391304,4,2,1,90,0,0
52144,-86.9565217391304,4,2,1,80,0,0
52473,-86.9565217391304,4,2,1,90,0,0
62035,-86.9565217391304,4,2,1,80,0,0
62365,-86.9565217391304,4,2,1,70,0,0
62694,-86.9565217391304,4,2,1,80,0,0
63024,-86.9565217391304,4,2,1,90,0,0
63354,-86.9565217391304,4,2,1,90,0,0
64673,-95.2380952380952,4,2,1,70,0,0
65332,-86.9565217391304,4,2,1,80,0,0
65992,-86.9565217391304,4,2,1,90,0,0
71267,-86.9565217391304,4,2,1,70,0,0
71597,-86.9565217391304,4,2,1,90,0,0
71927,-86.9565217391304,4,2,1,70,0,0
72256,-86.9565217391304,4,2,1,90,0,0
73245,-86.9565217391304,4,2,1,80,0,0
73575,-86.9565217391304,4,2,1,90,0,0

[Colours]
Combo1 : 130,134,147
Combo2 : 90,91,97
Combo3 : 183,179,187
Combo4 : 130,130,130
Combo5 : 69,112,137

[HitObjects]
116,126,49,6,0,L|141:271,1,125.999996154785,2|2,0:2|0:2,0:0:0:0:
210,270,543,2,0,L|233:132,1,125.999996154785,2|2,0:2|0:2,0:0:0:0:
218,70,1038,2,0,P|263:106|313:89,1,94.499997116089,2|2,0:2|0:2,0:0:0:0:
307,94,1367,6,0,B|328:70|358:65|383:81|384:99|384:99|394:101|394:101|393:111|393:111|401:114|401:114|400:123,1,125.999996154785,2|0,0:2|0:0,0:0:0:0:
349,259,2027,2,0,P|308:264|288:303,1,62.9999980773926,2|0,0:2|0:0,0:0:0:0:
236,327,2357,2,0,B|215:350|215:350|182:339|182:339|179:335|179:335|175:337|175:337|135:324,1,94.499997116089
145,327,2686,6,0,L|124:186,1,125.999996154785,2|2,0:2|0:2,0:0:0:0:
108,52,3346,2,0,B|160:38|198:82|167:99|198:169|262:144|262:144|239:129|237:104,1,251.999992309571,2|0,0:2|0:0,0:0:0:0:
295,56,4170,6,0,B|376:24|376:24|419:51,1,125.999996154785
462,98,4665,1,2,0:2:0:0:
388,236,4994,2,0,L|381:194,3,31.4999990386963
377,194,5324,6,0,P|328:183|278:246,1,125.999996154785,2|0,0:2|0:0,0:0:0:0:
258,306,5819,2,0,P|220:352|160:345,1,125.999996154785,2|2,0:2|0:2,0:0:0:0:
119,283,6313,1,2,0:2:0:0:
119,283,6478,1,2,0:2:0:0:
164,222,6643,6,0,B|170:165|170:165|174:161|174:161|152:133|152:133|153:128|153:128|116:92,1,125.999996154785,2|0,0:2|0:0,0:0:0:0:
155,39,7137,2,0,P|119:37|79:70,1,62.9999980773926,2|2,0:2|0:2,0:0:0:0:
254,88,7632,2,0,B|288:80|288:80|293:75|293:75|315:69|315:69|320:71|320:71|343:66,1,94.499997116089,2|0,0:2|0:0,0:0:0:0:
358,63,7962,5,0,3:2:0:0:
408,163,8291,1,0,3:2:0:0:
287,258,8621,5,0,3:2:0:0:
312,149,8951,1,0,3:2:0:0:
179,86,9281,5,0,3:2:0:0:
223,190,9610,1,0,3:2:0:0:
141,285,9940,6,0,B|102:230|32:253|32:253|70:291|67:334,1,188.999994232178,0|0,3:2|0:0,0:0:0:0:
118,378,10599,6,0,L|299:344,1,161.000003070831,4|8,3:2|3:2,0:0:0:0:
343,278,11094,2,0,L|441:297,1,80.5000015354157,0|0,0:0|3:2,0:0:0:0:
491,224,11424,1,0,0:0:0:0:
436,157,11589,1,8,3:2:0:0:
436,157,11671,1,0,0:0:0:0:
436,157,11753,2,0,L|443:117,1,40.2500007677078
425,72,11918,6,0,B|386:46|345:83|361:93|330:142|260:99,1,161.000003070831,0|8,3:2|3:2,0:0:0:0:
196,66,12413,1,0,0:0:0:0:
196,66,12495,1,0,0:0:0:0:
196,66,12578,2,0,P|177:111|204:160,1,80.5000015354157,0|0,3:2|0:0,0:0:0:0:
262,198,12907,2,0,L|271:249,3,40.2500007677078,8|0|0|0,3:2|0:0|0:0|0:0,0:0:0:0:
243,278,13237,6,0,B|192:286|192:286|189:291|189:291|151:296,1,80.5000015354157,0|0,3:2|0:0,0:0:0:0:
88,352,13567,6,0,P|69:307|96:258,1,80.5000015354157,8|0,3:2|0:0,0:0:0:0:
132,198,13897,2,0,L|102:39,1,161.000003070831,0|8,3:2|3:2,0:0:0:0:
196,20,14391,2,0,L|260:9,2,40.2500007677078,0|0|0,0:0|0:0|3:2,0:0:0:0:
221,115,14721,5,0,0:0:0:0:
221,115,14886,2,0,L|319:96,1,80.5000015354157,8|0,3:2|0:0,0:0:0:0:
346,184,15215,2,0,L|444:203,1,80.5000015354157,0|0,3:2|0:0,0:0:0:0:
479,279,15545,1,8,3:2:0:0:
479,279,15628,1,0,0:0:0:0:
479,279,15710,2,0,L|417:290,1,40.2500007677078
415,328,15875,6,0,B|371:327|341:354|341:354|322:315|281:297,1,161.000003070831,4|8,3:2|3:2,0:0:0:0:
218,228,16369,2,0,P|179:220|142:242,1,80.5000015354157,0|0,0:0|3:2,0:0:0:0:
123,334,16699,1,0,0:0:0:0:
50,270,16864,2,0,P|42:231|64:194,1,80.5000015354157,8|0,3:2|0:0,0:0:0:0:
101,168,17111,1,0,0:0:0:0:
101,168,17194,2,0,L|85:88,1,80.5000015354157,0|0,3:2|0:0,0:0:0:0:
166,34,17523,6,0,B|183:16|183:16|197:39|197:39|218:23|218:23|228:44|228:44|248:27,1,120.750002303124,8|0,3:2|3:2,0:0:0:0:
285,9,17853,2,0,L|251:182,1,161.000003070831,0|8,3:2|3:2,0:0:0:0:
238,262,18348,1,8,0:2:0:0:
321,310,18513,6,0,L|479:279,1,161.000003070831,0|8,3:2|3:2,0:0:0:0:
505,185,19007,1,0,0:0:0:0:
459,100,19172,2,0,B|394:112|394:112|363:95|363:95|281:108,1,161.000003070831,0|8,3:2|3:2,0:0:0:0:
231,58,19667,1,0,0:0:0:0:
231,58,19749,1,0,0:0:0:0:
231,58,19831,6,0,L|215:136,1,80.5000015354157,0|0,3:2|0:0,0:0:0:0:
140,198,20161,2,0,L|124:119,1,80.5000015354157,8|0,3:2|0:0,0:0:0:0:
48,178,20491,5,0,3:2:0:0:
48,178,20656,1,0,3:2:0:0:
54,278,20821,5,8,3:2:0:0:
54,278,20985,1,0,3:2:0:0:
141,316,21150,6,0,B|180:290|221:327|205:337|236:386|306:343,1,161.000003070831,4|8,3:2|3:2,0:0:0:0:
375,382,21645,2,0,L|406:224,1,161.000003070831
488,169,22139,2,0,L|539:181,2,40.2500007677078,8|0|0,3:2|0:0|0:0,0:0:0:0:
426,94,22469,2,0,P|387:86|350:108,1,80.5000015354157,0|0,3:2|0:0,0:0:0:0:
285,175,22799,6,0,B|268:192|268:192|254:170|254:170|233:186|233:186|223:165|223:165|203:182,1,120.750002303124,8|0,3:2|3:2,0:0:0:0:
168,204,23129,2,0,B|169:248|142:278|142:278|181:297|199:338,1,161.000003070831,0|8,3:2|3:2,0:0:0:0:
290,363,23623,1,8,0:2:0:0:
363,300,23788,6,0,B|362:256|389:226|389:226|350:207|332:166,1,161.000003070831,0|8,3:2|3:2,0:0:0:0:
352,81,24283,1,0,0:0:0:0:
352,81,24365,1,0,0:0:0:0:
352,81,24447,2,0,P|313:73|276:95,1,80.5000015354157,0|0,3:2|0:0,0:0:0:0:
238,180,24777,2,0,L|247:231,3,40.2500007677078,8|0|0|0,3:2|0:0|0:0|0:0,0:0:0:0:
275,257,25107,6,0,B|267:276|267:276|190:290,1,80.5000015354157,0|0,3:2|0:0,0:0:0:0:
143,359,25437,2,0,B|122:361|122:361|71:301,1,80.5000015354157,8|0,3:2|0:0,0:0:0:0:
43,300,25684,1,0,3:2:0:0:
43,300,25766,2,0,B|30:283|30:283|56:209,1,80.5000015354157,0|0,3:2|0:0,0:0:0:0:
130,170,26096,1,8,3:2:0:0:
130,170,26178,1,0,0:0:0:0:
130,170,26261,2,0,L|119:108,1,40.2500007677078
115,82,26426,6,0,L|274:112,1,161.000003070831,4|8,3:2|3:2,0:0:0:0:
341,42,26920,2,0,L|439:23,1,80.5000015354157,0|0,0:0|3:2,0:0:0:0:
500,80,27250,1,0,0:0:0:0:
436,153,27415,1,8,3:2:0:0:
436,153,27497,1,0,0:0:0:0:
436,153,27580,2,0,L|425:215,1,40.2500007677078
461,228,27745,6,0,P|410:290|319:241,1,161.000003070831,0|8,3:2|3:2,0:0:0:0:
282,209,28239,1,0,0:0:0:0:
282,209,28322,1,0,0:0:0:0:
282,209,28404,2,0,L|204:193,1,80.5000015354157,0|0,3:2|0:0,0:0:0:0:
164,282,28734,2,0,L|86:298,1,80.5000015354157,8|0,3:2|0:0,0:0:0:0:
65,203,29063,6,0,B|53:142|53:142|71:114,1,80.5000015354157,0|0,3:2|0:0,0:0:0:0:
132,58,29393,1,8,3:2:0:0:
132,58,29558,1,0,0:0:0:0:
227,75,29723,6,0,B|273:34|273:34|307:36,1,80.5000015354157,0|0,3:2|0:0,0:0:0:0:
386,61,30053,1,8,3:2:0:0:
386,61,30217,1,0,0:0:0:0:
406,154,30382,6,0,B|464:173|464:173|479:204,1,80.5000015354157,8|8,3:2|0:2,0:0:0:0:
428,311,30712,2,0,B|369:291|369:291|354:260,1,80.5000015354157,8|8,3:2|0:2,0:0:0:0:
287,228,31042,5,8,3:2:0:0:
287,228,31124,1,8,0:2:0:0:
287,228,31207,2,0,L|225:239,1,40.2500007677078,8|8,0:2|0:2,0:0:0:0:
223,279,31371,2,0,L|161:268,3,40.2500007677078,0|8|8|8,3:2|0:2|0:2|0:2,0:0:0:0:
147,304,31701,6,0,P|80:268|86:219,1,110.249996635437,12|0,3:2|0:0,0:0:0:0:
73,234,32031,6,0,P|140:198|134:149,1,110.249996635437,0|0,3:2|0:0,0:0:0:0:
148,164,32361,6,0,P|81:128|87:79,1,110.249996635437,0|0,3:2|0:0,0:0:0:0:
74,94,32690,6,0,P|128:85|135:40,1,73.4999977569581,0|0,3:2|0:0,0:0:0:0:
219,24,33020,6,0,P|277:17|320:102,1,161.000003070831,4|0,3:2|3:2,0:0:0:0:
372,283,33679,2,0,B|394:294|401:309|401:309|510:269,2,120.750002303124,4|4|4,3:2|3:2|3:2,0:0:0:0:
295,223,34339,2,0,B|244:231|244:231|241:236|241:236|203:241,1,80.5000015354157,4|0,3:2|0:0,0:0:0:0:
164,320,34669,6,0,B|120:319|90:346|90:346|71:307|33:290,1,161.000003070831,8|0,3:2|3:2,0:0:0:0:
115,239,35163,1,0,0:0:0:0:
49,167,35328,2,0,P|43:127|64:94,1,80.5000015354157,8|0,3:2|0:0,0:0:0:0:
147,43,35658,6,0,B|184:27|184:27|210:57,1,80.5000015354157,0|0,3:2|0:0,0:0:0:0:
306,43,35988,2,0,B|322:80|322:80|291:106,1,80.5000015354157,8|0,3:2|0:0,0:0:0:0:
300,202,36317,2,0,B|263:218|263:218|236:187,1,80.5000015354157,0|0,3:2|0:0,0:0:0:0:
207,155,36565,1,0,3:2:0:0:
207,155,36647,2,0,L|145:166,4,40.2500007677078,8|0|0|0|0,3:2|3:2|3:2|3:2|0:0,0:0:0:0:
74,295,37306,6,0,L|152:311,1,80.5000015354157,8|0,3:2|0:0,0:0:0:0:
242,272,37636,2,0,L|320:288,1,80.5000015354157,0|0,3:2|0:0,0:0:0:0:
410,249,37966,2,0,L|488:265,1,80.5000015354157,8|0,3:2|0:0,0:0:0:0:
470,170,38296,6,0,L|326:140,1,120.750002303124,0|0,3:2|0:0,0:0:0:0:
304,135,38625,2,0,B|283:122|283:122|301:103|301:103|281:86|281:86|299:72|299:72|278:56,1,120.750002303124,8|0,3:2|3:2,0:0:0:0:
246,28,38955,6,0,B|181:40|181:40|150:23|150:23|68:36,1,161.000003070831,0|8,3:2|3:2,0:0:0:0:
24,102,39450,1,8,0:2:0:0:
108,149,39614,6,0,P|115:187|97:222,1,80.5000015354157,0|0,3:2|0:0,0:0:0:0:
59,254,39862,1,0,0:0:0:0:
59,254,39944,2,0,P|40:289|48:327,1,80.5000015354157,8|0,3:2|0:0,0:0:0:0:
135,368,40274,2,0,P|173:375|208:357,1,80.5000015354157,0|0,3:2|0:0,0:0:0:0:
240,319,40521,1,0,0:0:0:0:
240,319,40604,2,0,P|275:300|313:308,1,80.5000015354157,8|0,3:2|0:0,0:0:0:0:
400,351,40933,6,0,P|360:289|391:234,1,120.750002303124,0|0,3:2|0:0,0:0:0:0:
409,216,41263,6,0,P|420:158|382:114,1,120.750002303124,8|0,3:2|0:0,0:0:0:0:
336,99,41593,6,0,P|280:117|261:172,1,120.750002303124,0|0,3:2|0:0,0:0:0:0:
272,222,41922,6,0,P|315:260|372:250,1,120.750002303124,8|0,3:2|0:0,0:0:0:0:
409,216,42252,6,0,L|439:56,1,161.000003070831,4|8,3:2|3:2,0:0:0:0:
358,23,42747,1,0,0:0:0:0:
358,23,42829,1,0,0:0:0:0:
358,23,42912,2,0,L|280:39,1,80.5000015354157,0|0,3:2|0:0,0:0:0:0:
201,96,43241,2,0,L|161:90,3,40.2500007677078,8|0|0|0,3:2|0:0|0:0|0:0,0:0:0:0:
124,121,43571,2,0,L|140:199,1,80.5000015354157,0|0,3:2|0:0,0:0:0:0:
220,254,43901,6,0,B|241:241|241:241|223:222|223:222|243:205|243:205|225:191|225:191|246:175,1,120.750002303124,8|0,3:2|3:2,0:0:0:0:
266,137,44230,2,0,L|423:169,1,161.000003070831,0|8,3:2|3:2,0:0:0:0:
453,261,44725,1,8,0:2:0:0:
387,330,44890,6,0,L|230:295,1,161.000003070831,0|8,3:2|3:2,0:0:0:0:
148,339,45384,1,0,0:0:0:0:
148,339,45467,1,0,0:0:0:0:
148,339,45549,2,0,L|132:261,1,80.5000015354157,0|0,3:2|0:0,0:0:0:0:
207,199,45879,2,0,L|213:159,3,40.2500007677078,8|0|0|0,3:2|0:0|0:0|0:0,0:0:0:0:
236,117,46209,6,0,B|228:98|228:98|151:84,1,80.5000015354157,0|0,3:2|0:0,0:0:0:0:
134,4,46538,2,0,B|113:1|113:1|62:61,1,80.5000015354157,8|0,3:2|0:0,0:0:0:0:
32,57,46786,1,0,3:2:0:0:
32,57,46868,2,0,B|19:73|19:73|45:147,1,80.5000015354157,0|0,3:2|0:0,0:0:0:0:
123,197,47198,1,8,3:2:0:0:
123,197,47280,1,0,0:0:0:0:
123,197,47363,2,0,L|112:259,1,40.2500007677078
132,282,47528,6,0,B|175:310|219:268|200:251|244:218|297:255,1,161.000003070831,4|8,3:2|3:2,0:0:0:0:
336,317,48022,1,0,0:0:0:0:
425,282,48187,2,0,L|441:203,1,80.5000015354157,0|0,3:2|0:0,0:0:0:0:
401,124,48517,1,8,3:2:0:0:
401,124,48599,1,0,0:0:0:0:
401,124,48682,2,0,L|391:77,1,40.2500007677078
387,36,48846,6,0,P|336:98|245:49,1,161.000003070831,0|8,3:2|3:2,0:0:0:0:
203,6,49341,1,0,0:0:0:0:
149,86,49506,2,0,L|165:164,1,80.5000015354157,0|0,3:2|0:0,0:0:0:0:
236,231,49836,2,0,L|228:270,3,40.2500007677078,8|0|0|0,3:2|0:0|0:0|0:0,0:0:0:0:
250,312,50165,6,0,B|311:324|311:324|339:306,1,80.5000015354157,0|0,3:2|0:0,0:0:0:0:
395,245,50495,1,8,3:2:0:0:
395,245,50660,1,0,0:0:0:0:
370,151,50825,6,0,B|309:163|309:163|281:145,1,80.5000015354157,0|0,3:2|0:0,0:0:0:0:
225,84,51154,1,8,3:2:0:0:
225,84,51319,1,0,0:0:0:0:
152,146,51484,6,0,B|140:207|140:207|158:235,1,80.5000015354157,8|8,3:2|0:2,0:0:0:0:
250,312,51814,2,0,B|262:251|262:251|244:223,1,80.5000015354157,8|8,3:2|0:2,0:0:0:0:
293,153,52144,5,8,3:2:0:0:
293,153,52226,1,8,0:2:0:0:
293,153,52308,2,0,L|355:164,1,40.2500007677078,8|8,0:2|0:2,0:0:0:0:
360,202,52473,2,0,L|422:191,3,40.2500007677078,8|8|8|8,3:2|0:2|0:2|0:2,0:0:0:0:
438,224,52803,6,0,B|454:186|493:167|493:167|466:137|467:93,1,161.000003070831,4|0,3:2|0:0,0:0:0:0:
394,38,53298,1,8,3:2:0:0:
394,38,53462,2,0,L|316:54,1,80.5000015354157,8|0,3:2|0:0,0:0:0:0:
262,135,53792,2,0,L|184:151,1,80.5000015354157,8|0,3:2|0:0,0:0:0:0:
183,151,54287,6,0,L|199:229,1,80.5000015354157,0|8,3:2|0:2,0:0:0:0:
283,288,54616,1,0,3:2:0:0:
283,288,54781,2,0,B|290:260|290:260|288:256|288:256|295:237|295:237|294:232|294:232|298:210,1,80.5000015354157,8|0,3:2|0:0,0:0:0:0:
381,160,55111,2,0,B|405:150|405:150|372:50,1,120.750002303124
340,27,55441,6,0,B|297:-1|253:41|272:58|227:94|175:54,1,161.000003070831,8|0,3:2|0:0,0:0:0:0:
117,22,55935,1,8,3:2:0:0:
117,22,56100,2,0,P|98:56|105:95,1,80.5000015354157,8|0,3:2|0:0,0:0:0:0:
171,166,56430,2,0,P|177:204|159:239,1,80.5000015354157,8|0,3:2|0:0,0:0:0:0:
162,244,56924,5,0,3:2:0:0:
162,244,57089,2,0,L|84:228,1,80.5000015354157,0|0,3:2|0:0,0:0:0:0:
56,321,57419,1,8,0:2:0:0:
150,340,57584,2,0,L|228:356,1,80.5000015354157,0|0,3:2|0:0,0:0:0:0:
324,371,57914,1,0,3:2:0:0:
333,274,58078,6,0,L|303:114,1,161.000003070831,12|0,3:2|0:0,0:0:0:0:
289,24,58573,1,8,3:2:0:0:
289,24,58738,2,0,L|211:40,1,80.5000015354157,8|0,3:2|0:0,0:0:0:0:
147,114,59068,2,0,L|69:98,1,80.5000015354157,8|0,3:2|0:0,0:0:0:0:
40,193,59397,5,8,3:2:0:0:
40,193,59562,1,0,3:2:0:0:
126,235,59727,2,0,B|147:248|147:248|129:267|129:267|149:284|149:284|131:298|131:298|152:314,1,120.750002303124,8|0,3:2|3:2,0:0:0:0:
178,348,60057,2,0,B|208:335|208:335|214:339|214:339|241:329|241:329|248:331|248:331|283:317|283:317|291:318|291:318|343:303,1,161.000003070831,0|8,3:2|3:2,0:0:0:0:
419,275,60551,1,0,0:0:0:0:
346,211,60716,6,0,B|320:172|357:131|367:147|414:115|373:46,1,161.000003070831,12|8,3:2|0:2,0:0:0:0:
311,12,61211,1,8,3:2:0:0:
311,12,61376,2,0,P|271:13|242:39,1,80.5000015354157,12|0,3:2|0:0,0:0:0:0:
144,29,61705,2,0,P|125:63|133:102,1,80.5000015354157,0|0,3:2|0:0,0:0:0:0:
209,164,62035,6,0,L|199:212,3,40.2500007677078,4|0|8|0,0:0|0:0|3:2|0:0,0:0:0:0:
241,228,62365,2,0,L|250:276,3,40.2500007677078,4|0|8|0,0:0|0:0|3:2|0:0,0:0:0:0:
215,302,62694,2,0,L|205:350,3,40.2500007677078,12|0|0|0,3:2|0:0|0:0|0:0,0:0:0:0:
160,356,63024,2,0,P|120:361|87:340,1,80.5000015354157,0|8,3:2|3:2,0:0:0:0:
7,285,63354,6,0,B|45:269|64:230|64:230|94:257|138:256,1,161.000003070831,12|0,3:2|0:0,0:0:0:0:
204,186,63848,1,0,3:2:0:0:
204,186,64013,2,0,L|282:170,1,80.5000015354157,8|0,3:2|0:0,0:0:0:0:
344,95,64343,2,0,L|422:111,1,80.5000015354157,0|0,3:2|0:0,0:0:0:0:
414,199,64673,6,0,B|403:214|403:214|345:228,3,73.4999977569581,0|8|8|0,0:0|3:2|0:2|3:2,0:0:0:0:
282,169,65332,6,0,B|271:153|271:153|210:141,1,80.5000015354157,0|0,3:2|0:0,0:0:0:0:
169,53,65662,2,0,B|150:54|150:54|109:100,1,80.5000015354157
53,179,65992,6,0,B|62:237|62:237|45:268|45:268|57:333,1,161.000003070831,12|0,3:2|0:0,0:0:0:0:
153,365,66486,1,8,3:2:0:0:
153,365,66651,2,0,L|169:287,1,80.5000015354157,8|0,3:2|0:0,0:0:0:0:
253,236,66981,2,0,L|269:314,1,80.5000015354157,0|0,3:2|0:0,0:0:0:0:
273,318,67475,5,8,3:2:0:0:
273,318,67640,2,0,L|351:302,1,80.5000015354157,8|0,3:2|0:0,0:0:0:0:
445,277,67970,1,8,0:0:0:0:
425,182,68135,2,0,L|409:104,1,80.5000015354157,0|0,3:2|0:0,0:0:0:0:
390,7,68464,1,0,3:2:0:0:
315,69,68629,6,0,L|155:39,1,161.000003070831,12|8,3:2|0:0,0:0:0:0:
92,111,69124,1,0,3:2:0:0:
92,111,69289,2,0,L|170:127,1,80.5000015354157,8|0,3:2|0:0,0:0:0:0:
225,207,69618,2,0,L|147:223,1,80.5000015354157,8|0,3:2|0:0,0:0:0:0:
91,304,69948,5,8,3:2:0:0:
91,304,70113,1,0,3:2:0:0:
164,367,70278,2,0,L|282:344,1,120.750002303124,8|0,3:2|0:0,0:0:0:0:
313,307,70608,2,0,B|344:315|344:315|355:306|355:306|360:313|360:313|378:317|378:317|386:312|386:312|474:330,1,161.000003070831,8|8,3:2|3:2,0:0:0:0:
510,244,71102,1,0,3:2:0:0:
436,181,71267,6,0,B|375:193|375:193|347:175,1,80.5000015354157,8|0,3:2|0:0,0:0:0:0:
303,110,71597,1,8,0:0:0:0:
303,110,71762,1,0,3:2:0:0:
243,186,71927,6,0,B|202:139|202:139|203:105,1,80.5000015354157,8|0,3:2|0:0,0:0:0:0:
238,35,72256,1,8,3:2:0:0:
238,35,72421,1,0,0:0:0:0:
143,49,72586,6,0,B|82:37|82:37|54:55,1,80.5000015354157,8|8,0:2|3:2,0:0:0:0:
10,168,72916,2,0,B|71:180|71:180|99:162,1,80.5000015354157,8|8,0:2|3:2,0:0:0:0:
158,234,73245,6,0,L|171:298,3,40.2500007677078,8|8|8|8,3:2|0:2|0:2|0:2,0:0:0:0:
202,305,73575,1,8,3:2:0:0:
225,312,73658,1,8,0:2:0:0:
250,307,73740,1,8,3:2:0:0:
269,292,73822,1,8,0:2:0:0:
279,269,73905,1,12,3:2:0:0:
