osu file format v14

[General]
AudioFilename: Christmas Medley.mp3
AudioLeadIn: 0
PreviewTime: 189287
Countdown: 0
SampleSet: None
StackLeniency: 0.7
Mode: 0
LetterboxInBreaks: 0
WidescreenStoryboard: 1

[Editor]
Bookmarks: 8371,20522,32674,44826,56974,62792,74428,86064,97701,109337,120974,136671,141256,153067,164775,176482,188189
DistanceSpacing: 1
BeatDivisor: 4
GridSize: 4
TimelineZoom: 1

[Metadata]
Title:Christmas Medley
TitleUnicode:Christmas Medley
Artist:Yancy
ArtistUnicode:Yancy
Creator:BounceBabe
Version:Normal
Source:
Tags:xmas jingle bells rocking around the christmas tree feliz navidad jericho2442
BeatmapID:335415
BeatmapSetID:131016

[Difficulty]
HPDrainRate:4
CircleSize:3
OverallDifficulty:3
ApproachRate:4
SliderMultiplier:1.3
SliderTickRate:2

[Events]
//Background and Video events
0,0,"BG.jpg",0,0
//Break Periods
2,56973,61297
2,109180,119479
2,136694,140603
//Storyboard Layer 0 (Background)
//Storyboard Layer 1 (Fail)
//Storyboard Layer 2 (Pass)
//Storyboard Layer 3 (Foreground)
//Storyboard Sound Samples

[TimingPoints]
206,382.165605095541,3,3,1,80,1,0
4769,382.165605095541,3,3,1,80,1,0
8182,379.746835443038,4,3,1,80,1,0
32485,-100,4,3,1,80,0,1
32580,-100,4,3,1,80,0,0
56799,363.636363636364,4,3,1,80,1,0
62617,-100,4,3,2,60,0,0
85889,-100,4,3,1,80,0,0
97526,-100,4,3,1,80,0,1
97617,-100,4,3,1,80,0,0
120799,-100,4,3,1,80,0,1
136494,487.80487804878,4,3,1,80,1,0
136981,451.127819548872,4,3,1,80,1,0
137657,352.941176470588,4,3,1,80,1,0
138362,413.793103448276,4,3,1,80,1,0
138775,425.531914893617,4,3,1,80,1,0
139200,550.45871559633,4,3,1,80,1,0
139749,425.531914893617,4,3,1,80,1,0
141548,375,4,3,1,80,1,0
142673,365.853658536585,4,3,1,80,1,0
166087,-100,4,3,1,80,0,1
166179,-100,4,3,1,80,0,0
177794,-100,4,3,1,80,0,1
177886,-100,4,3,1,80,0,0
189502,365.853658536585,3,3,1,80,1,0
189502,-100,3,3,1,80,0,1
197093,-100,3,3,1,80,0,0
197184,-100,3,3,1,80,0,1
197276,-100,3,3,1,80,0,0

[Colours]
Combo1 : 0,0,128
Combo2 : 220,170,40
Combo3 : 0,128,0
Combo4 : 255,0,0
Combo5 : 149,0,0
Combo6 : 0,230,255
SliderBorder : 255,255,255
SliderTrackOverride : 120,120,120

[HitObjects]
115,26,206,38,0,P|55:54|55:114,1,130,4|0,0:0|0:0,0:0:0:0:
87,166,779,2,0,L|27:210,2,65
147,194,1352,2,4,L|107:334,2,130
231,94,2498,54,0,P|299:78|343:126,1,130,4|0,0:0|0:0,0:0:0:0:
379,166,3072,2,0,L|451:166,2,65
347,222,3645,2,4,L|443:330,2,130
227,238,4769,6,0,P|195:282|119:290,1,130,4|0,0:0|0:0,0:0:0:0:
59,286,5342,2,0,L|11:342,2,65
51,222,5915,2,4,P|42:168|90:108,2,130
59,286,6870,1,0,0:0:0:0:
123,291,7061,6,4,P|186:286|227:238,1,130
271,114,7826,1,4,0:0:0:0:
392,57,8182,21,6,0:0:0:0:
417,184,8561,1,4,0:0:0:0:
456,308,8941,2,0,L|376:332,1,65,4|0,0:0|0:0,0:0:0:0:
332,308,9321,2,0,L|252:332,1,65,4|0,0:0|0:0,0:0:0:0:
204,340,9700,2,0,P|140:352|64:256,2,195,2|0|0,0:0|0:0|0:0,0:0:0:0:
332,308,11219,5,4,0:0:0:0:
416,208,11599,1,4,0:0:0:0:
288,188,11979,2,0,P|288:144|300:120,1,65,4|0,0:0|0:0,0:0:0:0:
360,112,12359,2,0,P|370:81|368:49,1,65,4|0,0:0|0:0,0:0:0:0:
304,32,12738,2,0,P|216:64|192:156,2,195,2|0|0,0:0|0:0|0:0,0:0:0:0:
412,100,14257,6,4,L|440:236,1,130
336,308,15017,2,4,L|308:172,1,130
284,52,15776,2,0,P|228:104|112:76,2,195,2|0|0,0:0|0:0|0:0,0:0:0:0:
412,36,17295,69,4,0:0:0:0:
364,156,17675,1,4,0:0:0:0:
472,228,18055,1,4,0:0:0:0:
424,348,18435,1,4,0:0:0:0:
316,276,18814,70,0,P|276:316|260:320,1,65,2|4,0:0|0:0,0:0:0:0:
204,312,19194,2,0,P|175:327|157:354,1,65,0|4,0:0|0:0,0:0:0:0:
92,356,19574,2,0,P|73:329|45:313,1,65,0|4,0:0|0:0,0:0:0:0:
36,248,19954,2,4,L|36:180,1,65
36,116,20333,22,4,B|88:112|88:112|112:72|156:64,2,130,6|4|4,0:0|0:0|0:0,0:0:0:0:
36,183,21283,1,0,0:0:0:0:
36,248,21473,2,4,B|88:252|88:252|112:292|156:300,1,130
276,324,22232,1,0,0:0:0:0:
404,304,22612,2,4,L|476:292,2,65,4|0|4,0:0|0:0|0:0,0:0:0:0:
276,324,23371,54,4,P|284:256|324:208,1,130
380,184,23941,1,0,0:0:0:0:
424,136,24131,2,4,P|463:85|469:21,2,130
328,220,25270,1,0,0:0:0:0:
232,308,25650,2,4,L|200:368,2,65,4|0|4,0:0|0:0|0:0,0:0:0:0:
204,180,26409,6,4,P|152:200|80:180,1,130,6|0,0:0|0:0,0:0:0:0:
20,68,27169,2,0,P|72:48|144:68,1,130,4|0,0:0|0:0,0:0:0:0:
204,180,27928,2,0,P|256:200|328:180,1,130,6|0,0:0|0:0,0:0:0:0:
388,68,28688,2,0,P|336:48|264:68,1,130,4|0,0:0|0:0,0:0:0:0:
204,180,29447,6,4,P|160:224|160:292,1,130,6|4,0:0|0:0,0:0:0:0:
280,336,30207,2,4,P|324:292|324:224,1,130
308,100,30966,2,0,L|352:52,1,65,6|0,0:0|0:0,0:0:0:0:
412,72,31346,2,0,L|456:24,2,65,4|4|4,0:0|0:0|0:0,0:0:0:0:
280,296,32485,54,4,P|248:336|124:288,2,195,6|4|4,0:0|0:0|0:0,0:0:0:0:
336,180,34004,2,4,P|368:140|492:188,2,195,6|4|4,0:0|0:0|0:0,0:0:0:0:
280,296,35523,6,0,P|224:264|204:204,1,130,2|0,0:0|0:0,0:0:0:0:
76,192,36283,2,0,P|55:131|0:100,1,130,2|0,0:0|0:0,0:0:0:0:
0,36,36852,2,4,L|136:36,2,130,6|4|6,0:0|0:0|0:0,0:0:0:0:
0,168,37992,2,4,L|48:224,1,65
84,268,38371,1,0,0:0:0:0:
128,316,38561,6,4,B|196:308|256:352|256:352|372:304,1,260,6|4,0:0|0:0,0:0:0:0:
488,248,39700,1,0,0:0:0:0:
476,120,40080,2,4,B|408:128|348:84|348:84|232:132,1,260,6|4,0:0|0:0,0:0:0:0:
116,188,41219,1,0,0:0:0:0:
72,312,41599,54,4,P|140:300|200:332,1,130
308,268,42359,2,4,P|366:294|429:281,1,130
476,236,42928,2,0,P|488:173|462:114,2,130,6|4|4,0:0|0:0|0:0,0:0:0:0:
368,312,44068,2,4,L|296:328,1,65
176,348,44637,6,4,P|76:344|60:264,2,195,6|4|4,0:0|0:0|0:0,0:0:0:0:
300,308,46156,2,4,P|273:221|183:225,2,195,6|4|4,0:0|0:0|0:0,0:0:0:0:
424,348,47675,6,0,P|440:308|424:220,1,130,2|2,0:0|0:0,0:0:0:0:
300,192,48435,2,0,P|284:129|302:68,1,130,2|2,0:0|0:0,0:0:0:0:
364,48,49004,2,0,L|492:20,2,130,6|4|4,0:0|0:0|0:0,0:0:0:0:
236,72,50144,2,4,L|200:128,1,65
164,180,50523,1,4,0:0:0:0:
132,236,50713,54,4,B|104:280|104:280|112:344|196:352|196:352|280:344,1,260,6|4,0:0|0:0,0:0:0:0:
400,312,51852,1,0,0:0:0:0:
448,192,52232,2,4,B|476:148|476:148|468:84|384:76|384:76|300:84,1,260,6|4,0:0|0:0,0:0:0:0:
180,116,53371,1,0,0:0:0:0:
100,220,53751,6,4,B|112:276|112:276|184:312,1,130,6|4,0:0|0:0,0:0:0:0:
296,252,54511,2,4,B|361:284|361:284|373:340,1,130,6|4,0:0|0:0,0:0:0:0:
256,192,55080,12,4,56773,0:0:0:0:
476,352,62617,6,4,L|484:212,1,130
488,156,63162,2,0,P|436:196|348:120,1,195,4|0,0:0|0:0,0:0:0:0:
220,100,64071,2,4,P|161:30|79:70,2,195
220,232,65526,6,0,B|240:304|240:304|276:312|296:336,1,130,4|4,0:0|0:0,0:0:0:0:
416,304,66253,2,0,B|396:232|396:232|360:224|347:207,1,130,4|4,0:0|0:0,0:0:0:0:
340,144,66799,2,0,P|372:96|444:96,2,130,2|2|2,0:0|0:0|0:0,0:0:0:0:
240,228,67889,1,2,0:0:0:0:
240,228,68071,1,2,0:0:0:0:
152,324,68435,6,4,P|176:352|208:356,2,65
108,200,69162,2,4,P|96:140|40:92,1,130
160,32,69889,2,4,P|196:68|228:208,2,195
46,94,71344,54,4,P|94:137|108:200,1,130
204,288,72071,2,4,P|266:301|309:349,1,130
376,348,72617,2,0,P|418:300|481:286,2,130,2|2|2,0:0|0:0|0:0,0:0:0:0:
244,348,73708,1,2,0:0:0:0:
244,348,73889,1,2,0:0:0:0:
112,344,74253,6,4,B|128:280|128:280|52:248|80:176|80:176|124:128,1,260
216,36,75344,1,0,0:0:0:0:
348,40,75708,2,4,B|332:104|332:104|408:136|380:208|380:208|336:256,1,260
244,348,76799,1,0,0:0:0:0:
168,244,77162,6,4,P|80:248|112:324,2,195
228,216,78435,2,0,P|293:156|324:232,1,195,4|2,0:0|0:0,0:0:0:0:
340,292,79162,1,2,0:0:0:0:
460,340,79526,1,2,0:0:0:0:
460,340,79708,1,2,0:0:0:0:
436,212,80071,54,4,B|436:152|436:152|380:116|380:116|377:27|301:26,1,260
173,28,81162,1,0,0:0:0:0:
46,58,81526,2,4,B|46:118|46:118|102:154|102:154|105:243|181:244,1,260
309,242,82617,1,0,0:0:0:0:
436,240,82980,6,4,P|428:296|312:366,2,195
435,174,84253,2,0,P|427:118|318:47,1,195,4|2,0:0|0:0,0:0:0:0:
253,52,84980,1,2,0:0:0:0:
131,97,85344,2,0,L|99:85,2,32.5,2|0|0,0:0|0:0|0:0,0:0:0:0:
196,208,85889,6,4,B|168:228|156:256|156:256|156:332,1,130
284,296,86617,2,4,B|312:276|324:248|324:248|324:172,1,130
408,80,87344,2,4,B|430:141|430:141|432:276,2,195
344,68,88617,2,4,P|304:88|224:56,1,130
96,60,89344,53,0,0:0:0:0:
56,184,89708,1,0,0:0:0:0:
52,248,89889,1,4,0:0:0:0:
68,312,90071,2,4,B|184:296|144:336|264:320,1,195
392,328,90980,1,0,0:0:0:0:
464,220,91344,1,0,0:0:0:0:
332,220,91708,6,4,P|348:152|396:112,1,130
464,220,92435,2,4,P|448:288|400:328,1,130
276,336,93162,2,4,L|144:336,1,130
96,296,93708,2,4,P|44:246|56:120,1,195
160,60,94617,6,4,P|211:109|200:236,2,195
96,64,95889,2,4,P|96:140|64:192,1,130
32,240,96435,1,0,0:0:0:0:
28,304,96617,2,4,P|96:304|152:348,1,130
212,340,97162,2,4,L|284:340,1,65
344,340,97526,53,4,0:0:0:0:
408,332,97708,2,0,L|468:300,1,65,0|4,0:0|0:0,0:0:0:0:
488,240,98071,2,4,P|420:228|384:112,1,195
256,156,98980,2,4,P|237:64|149:35,1,195
28,88,99889,1,0,0:0:0:0:
24,220,100253,1,0,0:0:0:0:
20,284,100435,6,4,P|72:280|120:336,1,130,6|4,0:0|0:0,0:0:0:0:
244,296,101162,2,4,P|281:346|343:346,1,130,6|4,0:0|0:0,0:0:0:0:
404,324,101708,2,0,P|448:279|438:217,2,130,2|2|2,0:0|0:0|0:0,0:0:0:0:
276,336,102799,1,2,0:0:0:0:
276,336,102980,1,2,0:0:0:0:
144,332,103344,6,4,B|116:280|88:280|60:228,1,130
104,108,104071,2,4,B|129:156|157:156|185:208,1,130
276,304,104799,2,4,P|320:228|288:132,2,195
148,328,106253,54,4,P|96:312|56:240,1,130,6|4,0:0|0:0,0:0:0:0:
80,124,106980,2,4,P|132:140|172:212,1,130,6|4,0:0|0:0,0:0:0:0:
236,188,107526,2,0,P|246:125|294:84,2,130,4|4|4,0:0|0:0|0:0,0:0:0:0:
224,316,108617,1,4,0:0:0:0:
164,340,108799,2,4,L|112:356,2,32.5
464,344,120799,6,4,P|472:296|424:224,1,130
392,180,121344,2,4,P|416:124|320:64,1,195
260,84,122071,1,0,0:0:0:0:
208,124,122253,2,4,P|184:180|280:240,1,195
388,308,123162,1,0,0:0:0:0:
392,180,123526,1,0,0:0:0:0:
368,120,123708,6,4,P|308:124|264:72,1,130
136,60,124435,2,4,P|93:106|31:101,1,130
20,164,124980,2,0,L|16:308,2,130,2|2|2,0:0|0:0|0:0,0:0:0:0:
96,56,126071,2,4,P|137:48|158:24,2,65,6|4|4,0:0|0:0|0:0,0:0:0:0:
56,108,126617,54,4,P|100:156|228:144,1,195
276,116,127344,2,4,P|368:97|441:157,1,195
452,220,128071,2,4,B|404:236|392:296|392:296|380:344|324:352,2,195
452,88,129526,6,4,L|312:116,1,130
196,140,130253,2,4,P|188:208|144:252,1,130
72,356,130980,2,4,L|212:328,1,130
328,304,131707,2,4,P|336:236|380:192,1,130
256,192,132435,12,2,136494,0:2:0:0:
44,40,141923,5,0,0:0:0:0:
32,168,142298,1,0,0:0:0:0:
152,112,142673,6,4,P|208:124|232:192,1,130
228,252,143221,2,4,P|248:310|309:326,2,130
232,188,144136,2,0,L|336:92,1,130,2|2,0:0|0:0,0:0:0:0:
428,16,144868,37,4,0:0:0:0:
452,144,145233,1,4,0:0:0:0:
327,99,145599,2,4,P|272:104|224:168,1,130
184,209,146148,2,4,P|133:247|125:310,2,130
225,158,147063,2,4,P|261:242|301:266,1,130,6|6,0:0|0:0,0:0:0:0:
405,325,147794,1,4,0:0:0:0:
497,235,148160,1,4,0:0:0:0:
388,164,148526,22,4,P|388:116|320:80,1,130
256,80,149075,2,4,L|120:80,1,130
60,80,149624,1,0,0:0:0:0:
32,140,149807,2,4,P|60:196|36:272,2,130
60,80,150721,2,4,P|122:94|179:66,1,130
244,56,151270,5,4,0:0:0:0:
372,64,151636,1,0,0:0:0:0:
420,184,152002,2,4,L|460:196,2,32.5
356,188,152368,1,4,0:0:0:0:
312,232,152551,2,4,L|284:296,2,65
312,232,154380,54,4,P|250:246|201:202,1,130
140,186,154929,2,4,L|52:78,2,130
120,248,155843,2,4,L|202:348,1,130,6|6,0:0|0:0,0:0:0:0:
332,348,156575,1,4,0:0:0:0:
460,340,156941,1,4,0:0:0:0:
388,232,157307,6,4,P|428:200|408:124,1,130
392,68,157855,2,4,B|428:36|428:36|512:36,2,130
352,120,158770,2,4,B|316:152|316:152|232:152,1,130,6|6,0:0|0:0,0:0:0:0:
104,156,159502,1,4,0:0:0:0:
52,276,159868,1,4,0:0:0:0:
152,360,160233,6,4,L|284:360,1,130
348,360,160782,2,4,P|372:320|452:296,1,130
492,244,161331,1,0,0:0:0:0:
468,184,161514,2,4,P|428:160|404:80,2,130
492,244,162429,2,4,L|360:220,1,130
300,208,162977,37,0,0:0:0:0:
172,180,163343,1,0,0:0:0:0:
84,84,163709,1,0,0:0:0:0:
52,208,164075,1,0,0:0:0:0:
96,332,164441,1,0,0:0:0:0:
224,356,164807,6,4,L|292:356,2,65,6|4|4,0:0|0:0|0:0,0:0:0:0:
160,356,165355,2,4,P|104:340|64:272,1,130,6|4,0:0|0:0,0:0:0:0:
56,216,165904,1,0,0:0:0:0:
92,164,166087,6,4,B|152:112|152:112|156:44|216:24,2,195,6|4|4,0:0|0:0|0:0,0:0:0:0:
72,292,167551,1,2,0:0:0:0:
180,364,167916,1,0,0:0:0:0:
312,368,168282,2,4,P|344:328|432:324,1,130,4|4,0:0|0:0,0:0:0:0:
476,200,169014,6,4,P|404:180|288:212,2,195,6|4|4,0:0|0:0|0:0,0:0:0:0:
460,328,170477,1,2,0:0:0:0:
336,364,170843,1,0,0:0:0:0:
208,340,171209,2,0,B|168:292|168:292|104:272,1,130,4|4,0:0|0:0,0:0:0:0:
44,156,171941,38,4,B|112:136|112:136|136:76|136:76|196:56,2,195,6|4|4,0:0|0:0|0:0,0:0:0:0:
36,220,173221,1,0,0:0:0:0:
56,280,173404,2,4,P|116:276|172:328,1,130
232,316,173953,2,4,P|280:357|343:354,2,130
256,192,174868,12,4,177063,0:0:0:0:
444,56,177794,6,4,B|476:112|436:180|436:180|463:212|456:248,2,195,6|4|4,0:0|0:0|0:0,0:0:0:0:
324,104,179258,2,0,P|300:164|316:232,1,130,2|0,0:0|0:0,0:0:0:0:
380,336,179990,1,4,0:0:0:0:
380,336,180355,1,4,0:0:0:0:
380,336,180721,6,4,P|280:344|208:280,2,195,6|4|4,0:0|0:0|0:0,0:0:0:0:
388,204,182185,2,0,P|340:216|280:168,1,130,2|0,0:0|0:0,0:0:0:0:
188,80,182916,1,4,0:0:0:0:
188,80,183282,1,4,0:0:0:0:
188,80,183648,6,4,B|156:128|160:176|160:176|116:196|92:248,2,195,6|4|4,0:0|0:0|0:0,0:0:0:0:
312,44,185112,2,0,P|322:106|290:161,1,130,2|0,0:0|0:0,0:0:0:0:
232,276,185843,1,4,0:0:0:0:
232,276,186209,1,4,0:0:0:0:
256,192,186575,12,4,188770,0:0:0:0:
336,220,189136,37,0,0:0:0:0:
464,204,189502,6,4,P|468:264|364:344,1,195,6|4,0:0|0:0,0:0:0:0:
308,344,190233,2,0,L|240:344,1,65,0|0,0:0|0:0,0:0:0:0:
176,344,190599,1,6,0:0:0:0:
48,344,190965,1,6,0:0:0:0:
116,232,191331,1,0,0:0:0:0:
112,104,191697,6,4,B|100:56|100:56|192:80|244:32,1,195,6|4,0:0|0:0,0:0:0:0:
304,36,192428,2,0,P|336:60|364:64,1,65
424,64,192794,1,6,0:0:0:0:
476,184,193160,1,6,0:0:0:0:
440,308,193526,1,0,0:0:0:0:
316,348,193892,6,4,B|304:272|360:212|360:212|352:176|368:152,1,195,6|4,0:0|0:0,0:0:0:0:
348,104,194623,2,0,P|316:88|296:64,1,65
236,44,194989,1,6,0:0:0:0:
108,72,195355,1,6,0:0:0:0:
64,196,195721,38,4,L|96:260,1,65
124,312,196087,2,4,B|200:300|196:324|264:312,2,130
64,196,197184,5,4,0:1:0:0:
