osu file format v14

[General]
AudioFilename: Christmas Medley.mp3
AudioLeadIn: 0
PreviewTime: 189287
Countdown: 0
SampleSet: None
StackLeniency: 0.4
Mode: 0
LetterboxInBreaks: 0
WidescreenStoryboard: 1

[Editor]
Bookmarks: 8371,20522,32674,44826,56974,62792,74428,86064,97701,109337,120974,136671,141256,153067,164775,176482,188189
DistanceSpacing: 1.2
BeatDivisor: 4
GridSize: 8
TimelineZoom: 1

[Metadata]
Title:Christmas Medley
TitleUnicode:Christmas Medley
Artist:Yancy
ArtistUnicode:Yancy
Creator:BounceBabe
Version:Merry Christmas
Source:
Tags:xmas jingle bells rocking around the christmas tree feliz navidad jericho2442
BeatmapID:330120
BeatmapSetID:131016

[Difficulty]
HPDrainRate:5
CircleSize:4
OverallDifficulty:6
ApproachRate:8
SliderMultiplier:2
SliderTickRate:2

[Events]
//Background and Video events
0,0,"BG.jpg",0,0
//Break Periods
2,56825,61867
2,109362,120049
2,136694,140985
//Storyboard Layer 0 (Background)
//Storyboard Layer 1 (Fail)
//Storyboard Layer 2 (Pass)
//Storyboard Layer 3 (Foreground)
//Storyboard Sound Samples

[TimingPoints]
206,382.165605095541,3,3,1,80,1,0
4769,382.165605095541,3,3,1,80,1,0
8182,379.746835443038,4,3,1,80,1,0
32485,-100,4,3,1,80,0,1
32580,-100,4,3,1,80,0,0
56799,363.636363636364,4,3,1,80,1,0
62617,-100,4,3,2,60,0,0
85889,-100,4,3,1,80,0,0
97526,-100,4,3,1,80,0,1
97617,-100,4,3,1,80,0,0
120799,-100,4,3,1,80,0,1
136494,487.80487804878,4,3,1,80,1,0
136981,451.127819548872,4,3,1,80,1,0
137657,352.941176470588,4,3,1,80,1,0
138362,413.793103448276,4,3,1,80,1,0
138775,425.531914893617,4,3,1,80,1,0
139200,550.45871559633,4,3,1,80,1,0
139749,425.531914893617,4,3,1,80,1,0
141548,375,4,3,1,80,1,0
142673,365.853658536585,4,3,1,80,1,0
166087,-100,4,3,1,80,0,1
166179,-100,4,3,1,80,0,0
177794,-100,4,3,1,80,0,1
177886,-100,4,3,1,80,0,0
189502,365.853658536585,3,3,1,80,1,0
189502,-100,3,3,1,80,0,1
197093,-100,3,3,1,80,0,0
197184,-100,3,3,1,80,0,1
197276,-100,3,3,1,80,0,0

[Colours]
Combo1 : 0,0,128
Combo2 : 220,170,40
Combo3 : 0,128,0
Combo4 : 255,0,0
Combo5 : 149,0,0
Combo6 : 0,230,255
SliderBorder : 255,255,255
SliderTrackOverride : 120,120,120

[HitObjects]
128,352,206,6,0,P|72:336|48:208,1,200,4|0,0:0|0:0,0:0:0:0:
136,128,779,1,0,0:0:0:0:
184,240,970,2,0,P|224:288|264:288,1,100
288,176,1352,2,4,P|352:144|360:240,2,200
80,48,2498,6,0,P|72:120|168:184,1,200,4|0,0:0|0:0,0:0:0:0:
288,176,3072,1,0,0:0:0:0:
408,184,3263,2,0,P|456:152|464:112,1,100
288,176,3645,2,4,P|220:240|240:344,2,200
496,292,4769,6,0,P|436:340|340:280,1,200,4|0,0:0|0:0,0:0:0:0:
288,176,5342,1,0,0:0:0:0:
192,104,5533,2,0,P|144:80|88:88,1,100
120,200,5915,2,4,P|104:256|200:360,2,200
192,104,6870,1,0,0:0:0:0:
304,72,7061,6,4,P|360:56|464:152,1,200
376,360,7826,1,0,0:0:0:0:
151,340,8182,5,0,0:0:0:0:
32,144,8561,1,0,0:0:0:0:
256,56,8941,2,0,P|264:120|296:144,1,100
400,192,9321,1,4,0:0:0:0:
336,296,9511,2,0,P|256:352|176:296,1,200,6|0,0:0|0:0,0:0:0:0:
128,192,10080,1,0,0:0:0:0:
176,80,10270,2,0,P|216:48|280:40,1,100
264,160,10650,2,0,P|314:165|365:205,1,100,0|4,0:0|0:0,0:0:0:0:
408,304,11030,1,4,0:0:0:0:
296,344,11219,6,0,P|192:344|136:264,2,200,4|4|0,0:0|0:0|0:0,0:0:0:0:
344,233,12169,2,0,P|282:158|185:162,1,200,4|4,0:0|0:0,0:0:0:0:
95,82,12738,1,2,0:0:0:0:
209,44,12928,2,0,P|261:42|308:57,1,100,0|4,0:0|0:0,0:0:0:0:
406,123,13308,2,0,P|432:165|447:224,2,100
306,56,13878,1,4,0:0:0:0:
413,2,14068,1,4,0:0:0:0:
264,176,14257,6,0,P|152:160|112:80,1,200,4|0,0:0|0:0,0:0:0:0:
8,304,15017,2,4,P|56:352|136:344,1,150
312,336,15587,2,0,P|416:344|464:272,1,200,6|0,0:0|0:0,0:0:0:0:
352,224,16156,2,0,P|376:176|424:160,2,100
232,224,16726,2,0,P|208:176|160:160,1,100,0|4,0:0|0:0,0:0:0:0:
56,120,17106,1,4,0:0:0:0:
168,88,17295,54,0,B|232:64|232:64|296:96|360:56,1,200,4|0,0:0|0:0,0:0:0:0:
232,264,18055,2,0,B|168:288|168:288|104:256|40:296,1,200,4|0,0:0|0:0,0:0:0:0:
32,176,18625,2,0,P|128:160|168:72,1,200,6|0,0:0|0:0,0:0:0:0:
280,32,19194,1,4,0:0:0:0:
328,144,19384,2,0,P|384:136|432:160,1,100,0|4,0:0|0:0,0:0:0:0:
360,256,19764,2,0,P|408:280|432:320,1,100,0|4,0:0|0:0,0:0:0:0:
320,360,20144,1,4,0:0:0:0:
200,360,20333,6,4,P|112:360|56:272,1,200
48,32,21093,1,0,0:0:0:0:
48,32,21283,2,4,P|136:32|192:120,1,200,4|4,0:0|0:0,0:0:0:0:
200,240,21852,1,2,0:0:0:0:
384,352,22042,1,0,0:0:0:0:
264,336,22232,1,0,0:0:0:0:
496,304,22422,1,0,0:0:0:0:
400,232,22612,2,0,L|440:200,1,50,4|0,0:0|0:0,0:0:0:0:
336,136,22897,2,0,L|296:104,1,50,0|4,0:0|0:0,0:0:0:0:
200,32,23182,1,4,0:0:0:0:
144,136,23371,6,4,B|72:208|72:208|96:304,1,200
328,360,24131,1,0,0:0:0:0:
328,360,24321,2,4,B|400:288|400:288|376:192,1,200,4|4,0:0|0:0,0:0:0:0:
352,72,24890,1,2,0:0:0:0:
152,184,25080,1,0,0:0:0:0:
272,160,25270,1,0,0:0:0:0:
32,176,25460,1,0,0:0:0:0:
80,288,25650,2,0,L|48:336,1,50,4|0,0:0|0:0,0:0:0:0:
152,184,25935,2,0,L|184:136,1,50,0|4,0:0|0:0,0:0:0:0:
192,296,26219,1,4,0:0:0:0:
312,264,26409,54,4,B|384:240|392:160|392:160|424:136|456:152,1,200
224,72,27169,1,0,0:0:0:0:
224,72,27359,2,4,B|152:96|144:176|144:176|112:200|80:184,1,200
32,296,27928,2,0,P|88:312|224:264,1,200,6|4,0:0|0:0,0:0:0:0:
312,192,28498,2,0,P|401:150|498:165,1,200,6|4,0:0|0:0,0:0:0:0:
468,284,29068,2,0,P|412:276|372:300,1,100,4|0,0:0|0:0,0:0:0:0:
256,296,29447,6,0,P|208:272|200:136,1,200,2|0,0:0|0:0,0:0:0:0:
144,32,30017,2,0,P|88:104|64:208,1,200,2|0,0:0|0:0,0:0:0:0:
104,320,30587,1,4,0:0:0:0:
63,208,30776,1,0,0:0:0:0:
216,352,30966,5,4,0:0:0:0:
336,344,31156,1,4,0:0:0:0:
440,288,31346,1,4,0:0:0:0:
480,168,31536,1,4,0:0:0:0:
456,48,31726,1,6,0:0:0:0:
456,48,32485,54,4,P|472:96|464:152,1,100
256,32,33055,2,0,P|280:128|256:224,1,200,4|0,0:0|0:0,0:0:0:0:
152,288,33625,1,4,0:0:0:0:
48,224,33814,1,0,0:0:0:0:
48,104,34004,6,4,L|120:32,1,100
48,264,34574,2,0,P|120:192|216:192,1,200,4|0,0:0|0:0,0:0:0:0:
280,296,35144,1,4,0:0:0:0:
400,272,35333,1,0,0:0:0:0:
488,192,35523,5,4,0:0:0:0:
256,24,35903,1,4,0:0:0:0:
16,192,36283,1,4,0:0:0:0:
256,360,36663,1,4,0:0:0:0:
168,272,36852,54,4,P|256:232|344:272,1,200
456,224,37422,1,0,0:0:0:0:
360,152,37612,2,0,L|288:80,1,100,0|4,0:0|0:0,0:0:0:0:
232,184,37992,2,0,L|112:160,1,100,0|4,0:0|0:0,0:0:0:0:
168,272,38371,1,4,0:0:0:0:
256,352,38561,5,4,0:0:0:0:
368,312,38751,2,0,P|432:240|424:136,2,200,4|4|0,0:0|0:0|0:0,0:0:0:0:
144,312,39890,2,0,P|80:240|88:136,2,200,4|4|0,0:0|0:0|0:0,0:0:0:0:
256,96,41030,2,4,B|280:152|256:192|232:232|256:296|256:296,1,200
368,320,41599,6,4,B|365:322|417:277|415:231|414:184|462:147,2,200
256,272,42549,1,0,0:0:0:0:
144,320,42738,1,4,0:0:0:0:
32,272,42928,54,4,P|16:176|72:88,1,200
176,32,43498,1,4,0:0:0:0:
256,128,43688,2,0,L|224:168,1,50,0|4,0:0|0:0,0:0:0:0:
104,168,43973,6,0,L|152:120,1,50,0|4,0:0|0:0,0:0:0:0:
128,256,44257,1,4,0:0:0:0:
128,256,44352,1,0,0:0:0:0:
128,256,44447,1,4,0:0:0:0:
64,352,44637,5,4,0:0:0:0:
184,352,44827,2,0,B|256:328|256:328|312:328|312:328|376:296,2,200,4|4|4,0:0|0:0|0:0,0:0:0:0:
120,248,45776,2,0,P|104:192|64:160,1,100
56,48,46156,1,4,0:0:0:0:
168,96,46346,2,4,B|232:152|232:240|232:240|272:240,2,200
56,48,47295,2,0,P|44:96|56:144,1,100
104,256,47675,54,4,B|136:328|208:344|208:344|272:344,1,200
480,240,48435,2,4,B|448:168|376:152|376:152|312:152,1,200
200,128,49004,2,0,P|208:216|304:264,1,200,6|0,0:0|0:0,0:0:0:0:
408,312,49574,2,0,P|368:352|320:360,1,100,2|0,0:0|0:0,0:0:0:0:
118,313,49954,2,0,P|158:341|208:344,1,100,2|0,0:0|0:0,0:0:0:0:
88,200,50333,2,4,P|55:153|56:105,1,100
176,120,50713,5,4,0:0:0:0:
176,120,50903,2,4,B|216:168|200:224|200:224|256:224|288:256,2,200
56,88,51852,1,0,0:0:0:0:
56,208,52042,2,4,P|72:304|160:344,1,200
280,360,52612,1,0,0:0:0:0:
400,336,52802,2,4,P|486:294|502:199,1,200
384,188,53371,2,0,P|384:220|328:220,1,100
256,120,53751,6,4,P|208:208|240:296,2,200
368,72,54700,1,0,0:0:0:0:
480,24,54890,1,4,0:0:0:0:
368,72,55080,2,4,P|352:152|432:232,1,200
480,344,55650,2,0,L|376:336,1,100
264,320,56030,1,4,0:0:0:0:
144,304,56219,1,4,0:0:0:0:
120,288,56314,1,0,0:0:0:0:
104,264,56409,1,4,0:0:0:0:
96,236,56504,1,0,0:0:0:0:
96,208,56599,1,4,0:0:0:0:
472,40,62617,85,4,0:0:0:0:
456,280,62799,1,0,0:0:0:0:
464,160,62980,1,4,0:0:0:0:
456,280,63162,2,4,P|424:344|320:304,1,200
248,208,63708,2,0,P|208:248|200:296,1,100
104,368,64071,1,4,0:0:0:0:
56,256,64253,2,4,P|72:176|-8:88,2,200
104,368,65162,2,0,P|152:336|176:296,1,100
184,184,65526,6,4,B|224:136|224:136|296:144|352:88,1,200
504,272,66253,2,4,B|464:320|464:320|392:312|336:368,1,200
216,344,66799,2,0,P|256:288|368:224,1,200,2|2,0:0|0:0,0:0:0:0:
480,176,67344,1,0,0:0:0:0:
480,56,67526,1,2,0:0:0:0:
368,112,67708,1,0,0:0:0:0:
480,176,67889,1,2,0:0:0:0:
368,112,68071,1,2,0:0:0:0:
368,112,68435,5,4,0:0:0:0:
216,272,68617,1,0,0:0:0:0:
328,224,68799,1,4,0:0:0:0:
216,272,68980,1,0,0:0:0:0:
216,272,69162,2,4,B|168:304|168:304|80:272|40:344,1,200
16,104,69889,2,4,B|64:72|64:72|152:104|192:32,1,200
312,40,70435,2,4,P|280:104|176:184,1,200
64,208,70980,1,4,0:0:0:0:
136,304,71162,1,0,0:0:0:0:
256,320,71344,6,4,P|352:288|432:344,1,200
496,240,71889,2,4,P|448:200|400:176,1,100
296,168,72253,1,0,0:0:0:0:
176,176,72435,1,4,0:0:0:0:
72,240,72617,1,2,0:0:0:0:
176,296,72799,1,4,0:0:0:0:
176,176,72980,1,2,0:0:0:0:
176,176,73344,37,2,0:0:0:0:
176,296,73526,1,0,0:0:0:0:
72,240,73708,1,2,0:0:0:0:
176,176,73889,1,2,0:0:0:0:
368,32,74253,5,4,0:0:0:0:
336,144,74435,1,0,0:0:0:0:
456,112,74617,1,4,0:0:0:0:
256,56,74799,2,4,P|224:184|264:240,1,200
376,248,75344,1,0,0:0:0:0:
304,344,75526,1,0,0:0:0:0:
184,344,75708,6,4,L|72:312,1,100
24,216,76071,1,0,0:0:0:0:
24,96,76253,2,4,B|96:112|120:160|120:160|216:160,1,200
320,160,76799,1,0,0:0:0:0:
432,128,76980,1,0,0:0:0:0:
496,24,77162,5,4,0:0:0:0:
80,24,77526,2,4,P|168:64|192:160,1,200
112,248,78071,1,0,0:0:0:0:
232,272,78253,1,4,0:0:0:0:
472,40,78617,37,2,0:0:0:0:
456,160,78799,1,2,0:0:0:0:
360,88,78980,2,0,L|264:40,1,100,0|2,0:0|0:0,0:0:0:0:
264,160,79344,2,0,L|152:160,1,100,2|0,0:0|0:0,0:0:0:0:
216,272,79708,1,2,0:0:0:0:
472,344,80071,6,4,P|456:296|416:272,1,100
256,176,80435,2,0,P|272:224|312:248,1,100
456,128,80799,2,0,P|408:144|384:200,1,100,4|0,0:0|0:0,0:0:0:0:
344,328,81162,2,0,P|312:360|248:360,1,100
144,336,81526,5,4,0:0:0:0:
56,256,81708,2,0,P|40:208|48:160,1,100
24,40,82071,2,4,P|120:56|168:144,1,200
208,256,82617,2,0,P|240:296|288:312,1,100
392,264,82980,5,4,0:0:0:0:
392,264,83162,1,4,0:0:0:0:
280,48,83526,1,0,0:0:0:0:
224,152,83708,1,4,0:0:0:0:
160,48,83889,1,0,0:0:0:0:
32,256,84253,1,4,0:0:0:0:
0,376,84435,37,2,0:0:0:0:
112,336,84617,1,0,0:0:0:0:
152,224,84799,2,0,P|200:192|216:144,1,100,2|0,0:0|0:0,0:0:0:0:
104,104,85162,2,0,P|136:56|184:40,1,100,2|0,0:0|0:0,0:0:0:0:
288,72,85526,1,2,0:0:0:0:
472,344,85889,6,4,P|440:288|488:168,1,200
472,48,86435,2,4,L|368:48,1,100
248,48,86799,1,0,0:0:0:0:
40,128,86980,1,0,0:0:0:0:
128,48,87162,1,4,0:0:0:0:
40,248,87344,2,4,P|48:312|176:336,1,200
168,224,87889,2,4,P|262:217|292:127,1,200
176,112,88435,5,0,0:0:0:0:
176,112,88617,2,4,B|144:108|112:120|112:120|88:48|8:48,2,200
296,96,89526,1,0,0:0:0:0:
448,240,89708,1,0,0:0:0:0:
408,128,89889,1,4,0:0:0:0:
400,352,90071,1,0,0:0:0:0:
280,376,90253,5,4,0:0:0:0:
280,376,90435,1,0,0:0:0:0:
184,152,90799,1,4,0:0:0:0:
184,152,90980,2,0,P|152:200|112:200,1,100,4|0,0:0|0:0,0:0:0:0:
96,320,91344,2,0,P|48:326|25:368,1,100,4|0,0:0|0:0,0:0:0:0:
208,296,91708,38,4,P|272:248|296:136,1,200
344,24,92253,2,4,P|384:72|400:112,1,100
416,224,92617,1,0,0:0:0:0:
392,344,92799,1,4,0:0:0:0:
505,306,92980,1,0,0:0:0:0:
416,224,93162,2,4,P|344:232|264:336,1,200
176,240,93708,2,4,P|121:320|25:341,1,200
16,224,94253,2,0,P|64:192|48:152,1,100
56,40,94617,6,4,B|136:64|168:136|168:136|200:136|232:152,1,200
336,144,95162,1,0,0:0:0:0:
456,120,95344,2,4,P|432:176|496:288,1,200
400,360,95889,2,4,P|348:278|252:269,1,200
136,312,96435,1,0,0:0:0:0:
24,360,96617,2,4,B|16:272|64:224|64:224|96:216|112:192,1,200
272,40,97162,1,4,0:0:0:0:
168,96,97344,1,4,0:0:0:0:
112,200,97526,5,4,0:0:0:0:
144,312,97708,2,0,P|192:328|240:312,1,100
352,344,98071,2,4,P|432:280|448:176,1,200
376,88,98617,1,0,0:0:0:0:
264,136,98799,1,0,0:0:0:0:
152,88,98980,6,4,P|112:104|80:152,1,100
112,264,99344,1,0,0:0:0:0:
216,328,99526,2,4,P|312:312|408:368,1,200
456,256,100071,2,0,L|488:160,1,100
368,176,100435,38,4,L|352:72,1,100
248,136,100799,2,0,L|184:56,1,100
144,168,101162,2,4,L|48:120,1,100
56,248,101526,1,0,0:0:0:0:
136,336,101708,6,4,P|224:312|328:336,1,200
424,264,102253,1,0,0:0:0:0:
320,200,102435,2,0,L|336:144,1,50,0|4,0:0|0:0,0:0:0:0:
288,40,102708,2,0,L|264:112,1,50,0|4,0:0|0:0,0:0:0:0:
160,120,102980,1,0,0:0:0:0:
56,184,103162,1,0,0:0:0:0:
56,304,103344,6,4,P|104:328|160:328,1,100
256,264,103708,1,0,0:0:0:0:
352,328,103889,1,0,0:0:0:0:
360,208,104071,2,4,P|320:168|304:120,1,100
424,128,104435,2,0,P|464:168|480:216,1,100
424,312,104799,53,4,0:0:0:0:
304,312,104980,2,0,P|256:296|216:256,1,100
104,272,105344,2,4,P|40:200|48:96,2,200
152,160,106253,6,4,L|208:72,1,100
280,168,106617,2,0,L|384:144,1,100
344,264,106980,1,4,0:0:0:0:
256,344,107162,1,4,0:0:0:0:
168,264,107344,1,4,0:0:0:0:
256,184,107526,1,4,0:0:0:0:
256,192,107708,12,0,109162,0:0:0:0:
40,40,120799,5,6,0:0:0:0:
128,120,120980,1,0,0:0:0:0:
40,200,121162,1,4,0:0:0:0:
128,280,121344,2,4,P|216:240|304:280,1,200
416,240,121889,1,0,0:0:0:0:
472,136,122071,1,0,0:0:0:0:
392,48,122253,6,4,P|328:40|304:16,2,100
472,136,122799,2,4,P|472:232|408:312,1,200
288,312,123344,2,0,P|248:280|232:232,1,100
112,216,123708,38,4,P|136:160|176:128,1,100
312,40,124071,2,0,P|288:96|248:128,1,100
208,264,124435,2,4,B|192:200|208:168|224:128|208:64,1,200
104,64,124980,2,0,B|94:127|63:157|36:181|26:246,1,200,2|0,0:0|0:0,0:0:0:0:
112,336,125526,5,6,0:0:0:0:
208,264,125708,1,0,0:0:0:0:
304,336,125889,1,6,0:0:0:0:
400,264,126071,1,0,0:0:0:0:
448,152,126253,1,4,0:0:0:0:
400,40,126435,1,0,0:0:0:0:
312,120,126617,6,4,P|280:160|232:176,1,100
208,56,126980,2,0,P|176:80|112:80,1,100
32,168,127344,2,4,L|80:264,1,100
200,248,127708,2,0,L|288:336,1,100
320,208,128071,6,4,L|432:208,2,100
200,248,128617,2,4,P|202:150|288:88,1,200
384,40,129162,1,0,0:0:0:0:
464,128,129344,1,0,0:0:0:0:
392,224,129526,38,4,L|456:312,1,100
328,288,129889,2,0,L|392:376,1,100
120,224,130253,2,4,L|56:312,1,100
184,288,130616,2,0,L|120:376,1,100
208,120,130980,6,4,P|168:88|152:40,1,100
312,120,131344,2,0,P|352:152|368:200,1,100
256,336,131708,2,4,L|256:224,1,100
256,48,132071,2,0,L|256:160,1,100
159,48,132435,6,4,P|256:335|351:47,1,800
256,192,133980,12,4,136494,0:1:0:0:
40,40,141735,5,4,0:0:0:0:
144,104,141923,2,4,B|160:160|113:224|113:224|105:271|120:296,1,200
232,344,142485,1,0,0:0:0:0:
352,344,142673,70,4,P|408:336|440:304,1,100,6|4,0:0|0:0,0:0:0:0:
456,184,143038,1,0,0:0:0:0:
344,232,143221,2,4,P|336:136|408:72,1,200
456,184,143770,2,0,P|468:240|456:280,1,100
352,344,144136,1,2,0:0:0:0:
112,360,144502,1,2,0:0:0:0:
232,352,144685,53,0,0:0:0:0:
160,256,144868,2,4,B|120:224|120:224|128:192|128:192|64:168|56:104,1,200
176,80,145416,1,0,0:0:0:0:
256,168,145599,22,4,P|312:208|344:208,1,100,6|4,0:0|0:0,0:0:0:0:
456,184,145965,1,0,0:0:0:0:
368,104,146148,2,4,P|328:192|376:280,1,200
496,296,146697,2,0,P|480:344|440:376,1,100
320,376,147063,1,2,0:0:0:0:
112,264,147429,1,2,0:0:0:0:
216,328,147612,5,0,0:0:0:0:
224,208,147794,2,4,B|280:200|280:200|312:160|368:168|368:168|400:136,1,200
472,40,148343,1,0,0:0:0:0:
360,40,148526,38,4,B|320:64|320:64|216:88|176:24,1,200
56,40,149075,2,4,P|96:112|192:176,1,200
312,176,149624,1,0,0:0:0:0:
432,160,149807,2,4,B|416:216|464:264|464:264|464:352,2,200
312,176,150721,2,4,B|312:261|312:261|360:309|344:365,1,200
224,344,151270,2,4,B|80:304|176:368|16:328,1,200
16,208,151819,21,0,0:0:0:0:
56,96,152002,2,4,L|8:56,2,50
144,184,152368,1,0,0:0:0:0:
264,208,152551,1,4,0:0:0:0:
184,296,152733,1,0,0:0:0:0:
304,320,152916,5,4,0:0:0:0:
304,320,153282,1,2,2:2:0:0:
384,40,154380,54,0,L|464:104,1,100,6|0,0:0|0:0,0:0:0:0:
40,344,154929,1,0,0:0:0:0:
80,232,155112,1,4,0:0:0:0:
168,320,155294,1,0,0:0:0:0:
472,344,155660,1,0,0:0:0:0:
432,232,155843,1,4,0:0:0:0:
344,320,156025,1,0,0:0:0:0:
200,32,156392,6,0,L|144:120,1,100,0|4,0:0|0:0,0:0:0:0:
312,32,156758,2,0,L|368:120,1,100,0|4,0:0|0:0,0:0:0:0:
256,168,157124,1,0,0:0:0:0:
280,288,157307,6,0,P|320:320|376:328,1,100,6|0,0:0|0:0,0:0:0:0:
472,272,157672,1,0,0:0:0:0:
448,152,157855,2,4,P|408:120|352:112,1,100
256,168,158221,2,0,L|160:128,1,100
48,168,158587,1,0,0:0:0:0:
144,240,158770,1,4,0:0:0:0:
48,312,158953,1,0,0:0:0:0:
160,360,159136,1,4,0:0:0:0:
256,288,159319,37,0,0:0:0:0:
352,360,159502,2,4,P|440:320|464:224,1,200
368,152,160051,1,0,0:0:0:0:
256,192,160233,2,0,P|160:176|104:96,1,200,6|0,0:0|0:0,0:0:0:0:
224,80,160782,6,4,P|328:80|368:160,1,200
480,192,161331,1,0,0:0:0:0:
368,227,161514,2,4,P|319:309|224:304,1,200
272,192,162063,1,0,0:0:0:0:
152,192,162246,1,0,0:0:0:0:
64,272,162429,2,4,P|32:176|80:96,1,200
184,32,162977,1,0,0:0:0:0:
256,192,163160,12,0,164624,0:0:0:0:
200,344,164807,5,0,0:0:0:0:
88,304,164990,1,4,0:0:0:0:
40,192,165172,1,0,0:0:0:0:
144,136,165355,2,4,P|168:208|288:240,1,200
392,208,165904,1,0,0:0:0:0:
288,144,166087,6,4,P|272:232|344:328,1,200,6|4,0:0|0:0,0:0:0:0:
392,208,166636,2,4,P|408:120|336:24,1,200
232,48,167185,2,0,P|184:80|136:72,1,100
32,32,167551,37,6,0:0:0:0:
40,152,167733,1,6,0:0:0:0:
208,304,167916,1,0,0:0:0:0:
96,256,168099,1,0,0:0:0:0:
328,312,168282,2,4,P|400:304|480:200,1,200,6|4,0:0|0:0,0:0:0:0:
464,88,168831,1,0,0:0:0:0:
368,160,169014,6,4,P|336:200|288:104,1,200,6|4,0:0|0:0,0:0:0:0:
152,120,169563,2,4,P|137:35|60:73,1,200
64,192,170112,1,0,0:0:0:0:
88,312,170294,1,0,0:0:0:0:
200,360,170477,5,6,0:0:0:0:
320,359,170660,2,0,P|362:335|412:334,2,100,0|6|0,0:0|0:0|0:0,0:0:0:0:
200,360,171209,2,4,P|232:288|336:232,1,200,6|4,0:0|0:0,0:0:0:0:
456,216,171758,1,0,0:0:0:0:
472,96,171941,6,4,P|408:128|352:32,1,200,6|4,0:0|0:0,0:0:0:0:
228,36,172490,2,4,P|193:120|106:95,1,200
8,24,173038,1,4,0:0:0:0:
0,144,173221,1,0,0:0:0:0:
80,232,173404,1,4,0:0:0:0:
200,232,173587,1,4,0:0:0:0:
200,232,173953,37,2,0:0:0:0:
200,232,174319,1,2,0:0:0:0:
256,192,174685,12,4,176331,0:0:0:0:
32,32,176514,5,0,0:0:0:0:
128,248,176697,1,4,0:0:0:0:
56,152,176880,1,0,0:0:0:0:
232,312,177063,2,4,P|327:321|391:245,1,200
280,200,177612,1,0,0:0:0:0:
168,160,177794,6,4,P|120:128|96:80,1,100,6|4,0:0|0:0,0:0:0:0:
88,248,178160,2,0,P|40:216|16:168,1,100,4|0,0:0|0:0,0:0:0:0:
24,352,178526,1,4,0:0:0:0:
136,312,178709,1,0,0:0:0:0:
248,352,178892,1,4,0:0:0:0:
360,304,179075,1,0,0:0:0:0:
440,216,179258,6,0,P|480:168|480:128,1,100,4|0,0:0|0:0,0:0:0:0:
360,128,179624,2,0,P|344:80|304:48,1,100
248,152,179990,2,4,B|192:168|152:144|152:144|64:208,1,200
176,264,180538,1,0,0:0:0:0:
296,232,180721,38,4,P|344:200|368:152,1,100,6|4,0:0|0:0,0:0:0:0:
376,320,181087,2,0,P|424:288|448:240,1,100,4|0,0:0|0:0,0:0:0:0:
472,136,181453,1,4,0:0:0:0:
392,48,181636,2,0,P|328:24|288:24,2,100,0|4|0,0:0|0:0|0:0,0:0:0:0:
312,136,182185,1,4,0:0:0:0:
216,208,182368,6,0,P|168:224|128:272,1,100
120,136,182733,1,0,0:0:0:0:
232,96,182916,2,4,P|320:128|336:224,1,200
256,312,183465,1,0,0:0:0:0:
136,336,183648,6,4,P|48:288|16:192,1,200,6|4,0:0|0:0,0:0:0:0:
136,224,184197,2,4,P|128:128|192:48,1,200
256,152,184746,1,4,0:0:0:0:
256,272,184929,1,0,0:0:0:0:
352,344,185112,6,0,P|400:320|424:280,2,100,4|0|4,0:0|0:0|0:0,0:0:0:0:
256,272,185660,1,0,0:0:0:0:
160,344,185843,2,0,P|112:320|88:280,2,100,4|0|4,0:0|0:0|0:0,0:0:0:0:
256,272,186392,1,0,0:0:0:0:
368,224,186575,38,4,L|440:152,1,100,6|4,0:0|0:0,0:0:0:0:
320,144,186941,2,0,L|400:72,1,100
144,224,187307,2,4,L|72:152,1,100,6|4,0:0|0:0,0:0:0:0:
192,144,187673,2,0,L|112:72,1,100
256,40,188038,2,4,L|256:240,1,200,6|4,0:0|0:0,0:0:0:0:
144,224,188587,5,0,0:0:0:0:
112,336,188770,2,4,P|168:352|216:352,1,100,6|4,0:0|0:0,0:0:0:0:
320,336,189136,5,4,0:0:0:0:
320,336,189502,2,4,P|408:344|456:248,1,200,6|4,0:0|0:0,0:0:0:0:
344,224,190050,2,4,P|368:176|408:152,1,100
480,56,190416,1,0,0:0:0:0:
360,48,190599,2,4,P|288:96|224:200,1,200
40,344,191331,21,4,0:0:0:0:
40,344,191697,2,4,P|104:328|40:256,1,200,6|4,0:0|0:0,0:0:0:0:
40,136,192245,2,4,P|96:128|112:80,1,100
208,16,192611,1,0,0:0:0:0:
216,136,192794,2,4,P|192:200|64:248,1,200
312,64,193526,5,4,0:0:0:0:
312,64,193709,1,0,0:0:0:0:
312,64,193800,1,0,0:0:0:0:
312,64,193892,2,4,B|368:144|368:144|424:136|472:176,1,200,6|4,0:0|0:0,0:0:0:0:
480,288,194441,2,4,P|424:280|376:248,1,100
280,208,194806,1,0,0:0:0:0:
200,112,194989,2,4,P|128:72|16:112,1,200
184,288,195721,37,4,0:0:0:0:
280,360,195904,1,0,0:0:0:0:
400,360,196087,1,4,0:0:0:0:
280,360,196270,1,4,0:0:0:0:
184,288,196453,1,4,0:0:0:0:
129,180,196636,1,0,0:0:0:0:
127,59,196819,1,4,0:0:0:0:
127,59,197184,5,4,0:1:0:0:
