osu file format v14

[General]
AudioFilename: audio.mp3
AudioLeadIn: 0
PreviewTime: 125422
Countdown: 2
SampleSet: None
StackLeniency: 0.7
Mode: 0
LetterboxInBreaks: 0
WidescreenStoryboard: 1

[Editor]
Bookmarks: 17059
DistanceSpacing: 0.7
BeatDivisor: 4
GridSize: 4
TimelineZoom: 1

[Metadata]
Title:Yukitoki
TitleUnicode:ユキトキ
Artist:Yanaginagi
ArtistUnicode:やなぎなぎ
Creator:ProPootisMan
Version:Normal
Source:Yahari ore no Seishun Love Comedy wa Machigatteiru
Tags:SNAFU, My Youth Romantic Comedy is Wrong as I Expected
BeatmapID:1414483
BeatmapSetID:668609

[Difficulty]
HPDrainRate:3
CircleSize:3
OverallDifficulty:4
ApproachRate:4
SliderMultiplier:0.8
SliderTickRate:1

[Events]
//Background and Video events
0,0,"OregairuBackground.jpg",0,0
//Break Periods
2,80531,87738
//Storyboard Layer 0 (Background)
//Storyboard Layer 1 (Fail)
//Storyboard Layer 2 (Pass)
//Storyboard Layer 3 (Foreground)
//Storyboard Sound Samples

[TimingPoints]
1059,363.636363636364,4,2,1,35,1,0
1059,-100,4,2,1,35,0,0
8149,-100,4,2,1,50,0,0
19968,363.636363636364,4,2,1,20,1,0
20695,363.636363636364,4,2,1,25,1,0
20695,-133.333333333333,4,2,1,25,0,0
31967,-100,4,3,1,50,0,0
43785,-100,4,2,1,50,0,0
54976,-100,4,3,1,50,0,0
57058,-100,4,3,1,50,0,1
58967,-133.333333333333,4,3,1,50,0,1
59695,-100,4,3,1,50,0,1
67058,-100,4,3,1,50,0,0
68695,-100,4,3,1,50,0,1
80331,-100,4,3,1,50,0,0
125422,-100,4,3,1,50,0,1
135422,-100,4,3,1,50,0,0
137058,-100,4,3,1,50,0,1
148695,-100,4,3,1,50,0,0
186513,363.636363636364,3,3,1,75,1,0
187240,363.636363636364,4,3,1,75,1,0
190149,363.636363636364,3,3,1,75,1,0
190512,363.636363636364,4,3,1,75,1,0
190612,-100,4,3,1,75,0,0
197784,-100,4,2,1,25,0,0
209421,-100,4,3,1,50,0,0
221057,-100,4,3,1,80,0,1
231057,-100,4,3,1,75,0,0
232693,-100,4,3,1,90,0,1
242693,-100,4,3,1,90,0,0

[Colours]
Combo1 : 255,85,85
Combo2 : 255,111,183
Combo3 : 127,127,127
Combo4 : 0,118,236
Combo5 : 255,192,0

[HitObjects]
72,100,1059,6,0,L|168:100,1,80
296,68,1786,1,0,0:0:0:0:
424,112,2149,1,0,0:0:0:0:
344,192,2513,2,0,L|344:280,1,80
248,328,3240,1,0,0:0:0:0:
104,328,3604,1,0,0:0:0:0:
104,216,3968,6,0,L|132:128,1,80
224,72,4695,2,0,L|312:72,1,80
384,100,5422,2,0,P|444:124|448:144,1,80
372,216,6149,2,0,L|372:296,1,80
276,344,6877,1,0,0:0:0:0:
256,192,7240,12,0,7968,0:0:0:0:
104,144,8331,6,0,L|172:80,1,80,4|0,0:0|0:0,0:0:0:0:
236,64,8877,2,0,L|320:64,1,80,4|0,0:0|0:0,0:0:0:0:
396,116,9422,2,0,L|440:192,1,80
324,208,10149,2,0,L|324:304,2,80
424,80,11240,6,0,L|336:80,1,80,4|0,0:0|0:0,0:0:0:0:
232,80,11786,2,0,B|176:76|152:92|152:104,1,80,4|0,0:0|0:0,0:0:0:0:
92,160,12331,2,0,L|92:256,1,80
232,204,13059,2,0,L|324:204,2,80
108,276,14149,1,4,0:0:0:0:
128,180,14513,6,0,L|128:84,1,80,8|0,0:0|0:0,0:0:0:0:
224,52,15240,2,0,L|308:52,1,80,8|0,0:0|0:0,0:0:0:0:
416,84,15968,2,0,L|416:176,1,80,8|0,0:0|0:0,0:0:0:0:
420,284,16695,1,8,0:0:0:0:
296,340,17059,1,4,0:0:0:0:
76,308,17422,6,0,L|76:216,1,80,8|0,0:0|0:0,0:0:0:0:
72,112,18149,1,8,0:0:0:0:
212,100,18513,2,0,L|304:100,2,80,0|8|0,0:0|0:0|0:0,0:0:0:0:
72,112,19604,1,0,0:0:0:0:
116,84,20695,5,0,0:0:0:0:
248,80,21422,1,0,0:0:0:0:
380,88,22149,1,0,0:0:0:0:
444,184,22876,1,0,0:0:0:0:
112,152,23604,2,0,L|112:272,1,120.000004577637
196,328,24695,1,0,0:0:0:0:
276,256,25058,2,0,L|408:256,1,120.000004577637
104,112,26513,6,0,L|104:180,2,60.0000022888184
248,92,27967,2,0,L|320:92,2,60.0000022888184
104,144,29422,2,0,L|104:212,1,60.0000022888184
104,320,30149,1,0,0:0:0:0:
112,72,31967,5,8,0:0:0:0:
248,72,32331,2,0,L|336:72,1,80,0|8,0:0|0:0,0:0:0:0:
436,132,33058,2,0,L|436:228,1,80,2|8,0:0|0:0,0:0:0:0:
384,312,33785,1,2,0:0:0:0:
244,328,34149,1,8,0:0:0:0:
208,220,34513,2,0,L|144:152,1,80,2|8,0:0|0:0,0:0:0:0:
312,88,35240,6,0,L|408:88,2,80,2|8|2,0:0|0:0|0:0,0:0:0:0:
148,80,36331,1,8,0:0:0:0:
84,152,36695,2,0,L|84:244,1,80,2|8,0:0|0:0,0:0:0:0:
192,172,37422,2,0,L|280:172,1,80,2|8,0:0|0:0,0:0:0:0:
208,92,38149,6,0,B|112:84|64:156|96:252,1,240,2|0,0:0|0:0,0:0:0:0:
344,80,39604,6,0,B|344:320,1,240,2|8,0:0|0:0,0:0:0:0:
116,80,41058,6,0,L|116:176,3,80,2|8|2|8,0:0|0:0|0:0|0:0,0:0:0:0:
112,292,42513,1,2,0:0:0:0:
208,212,42876,1,8,0:0:0:0:
312,124,43240,2,0,L|400:124,2,80,0|0|4,0:0|0:0|0:0,0:0:0:0:
92,68,44695,6,0,L|96:152,1,80
132,228,45240,2,0,L|176:296,1,80
252,248,45967,2,0,L|252:152,1,80
160,88,46695,1,0,0:0:0:0:
272,72,46876,2,0,L|320:72,1,40
404,128,47422,1,0,0:0:0:0:
328,212,47785,2,0,L|328:296,1,80
428,104,48695,2,0,L|340:104,1,80
164,100,49422,2,0,L|80:140,1,80,0|4,0:0|0:0,0:0:0:0:
376,104,50513,6,0,L|380:184,1,80
400,300,51058,1,0,0:0:0:0:
240,276,51422,2,0,L|152:276,2,80
100,104,52695,5,0,0:0:0:0:
224,64,53058,2,0,L|312:64,1,80
312,156,53785,2,0,L|220:156,1,80
128,140,54331,2,0,L|128:224,1,80,0|4,0:0|0:0,0:0:0:0:
76,80,57058,6,0,L|168:80,1,80,2|8,0:0|0:0,0:0:0:0:
296,108,57785,2,0,L|332:148,2,40,2|2|0,0:0|0:0|0:0,0:0:0:0:
416,236,58513,1,2,0:0:0:0:
312,308,58876,2,0,P|216:308|156:272,1,160,8|8,0:0|0:0,0:0:0:0:
88,144,59967,5,2,0:0:0:0:
172,60,60331,1,8,0:0:0:0:
244,152,60695,1,2,0:0:0:0:
336,72,61058,1,8,0:0:0:0:
416,164,61422,2,0,L|416:256,2,80,2|8|2,0:0|0:0|0:0,0:0:0:0:
336,72,62513,1,8,0:0:0:0:
188,96,62876,6,0,L|116:156,1,80,2|8,0:0|0:0,0:0:0:0:
96,240,63604,2,0,L|160:304,1,80,2|8,0:0|0:0,0:0:0:0:
252,336,64331,2,0,L|344:336,1,80,2|8,0:0|0:0,0:0:0:0:
396,232,65058,2,0,L|396:136,1,80,2|8,0:0|0:0,0:0:0:0:
332,68,65785,2,0,L|236:68,2,80,2|8|2,0:0|0:0|0:0,0:0:0:0:
436,148,66876,1,0,0:0:0:0:
304,196,67422,6,0,L|304:248,3,40,0|8|0|8,0:0|0:0|0:0|0:0,0:0:0:0:
380,92,68331,1,8,0:0:0:0:
220,72,68695,5,2,0:0:0:0:
72,132,69058,1,8,0:0:0:0:
172,200,69422,2,0,L|172:296,1,80,2|8,0:0|0:0,0:0:0:0:
260,324,70149,2,0,L|348:324,1,80,2|8,0:0|0:0,0:0:0:0:
424,248,70876,1,2,0:0:0:0:
344,104,71240,1,8,0:0:0:0:
208,104,71604,6,0,L|128:148,3,80,2|8|2|8,0:0|0:0|0:0|0:0,0:0:0:0:
76,216,73058,2,0,L|76:312,1,80,2|8,0:0|0:0,0:0:0:0:
176,324,73785,1,2,0:0:0:0:
288,336,74149,1,8,0:0:0:0:
388,252,74513,6,0,P|424:188|400:140,1,120,2|0,0:0|0:0,0:0:0:0:
304,92,75422,1,2,0:0:0:0:
172,100,75967,6,0,P|84:124|76:156,1,120
76,264,76876,1,0,0:0:0:0:
192,328,77422,5,8,0:0:0:0:
332,336,77785,1,2,0:0:0:0:
392,228,78149,2,0,L|392:176,3,40,0|0|0|6,0:0|0:0|0:0|0:0,0:0:0:0:
372,80,79058,6,0,L|320:80,1,40
296,168,79422,2,0,L|248:168,1,40
196,68,79967,1,0,0:0:0:0:
60,148,80331,1,0,0:0:0:0:
108,108,89058,6,0,L|192:108,1,80
304,180,89785,2,0,L|392:180,1,80
120,92,90513,2,0,L|120:184,1,80
292,64,91240,1,0,0:0:0:0:
412,124,91604,1,8,0:0:0:0:
312,192,91967,6,0,B|312:288|208:304|120:280,1,240
84,112,93422,2,0,L|176:112,1,80
304,108,94149,1,0,0:0:0:0:
224,236,94513,1,10,0:0:0:0:
40,84,94876,6,0,L|160:84,1,120
176,84,95604,1,0,0:0:0:0:
360,84,96331,2,0,L|360:220,1,120
360,236,97058,1,0,0:0:0:0:
64,100,97785,2,0,L|148:100,2,80
84,72,100695,2,0,L|216:72,1,120
300,76,101422,2,0,L|400:152,1,120
384,240,102149,2,0,L|280:304,1,120
120,308,102876,2,0,L|124:216,1,80
80,64,103604,5,0,0:0:0:0:
200,72,103967,2,0,L|284:72,1,80
396,104,104695,2,0,L|448:168,1,80
396,264,105422,2,0,L|316:264,1,80
236,168,106149,1,0,0:0:0:0:
88,52,106513,6,0,L|88:188,1,120
88,212,107240,1,0,0:0:0:0:
188,288,107604,1,0,0:0:0:0:
236,124,107967,1,0,0:0:0:0:
332,56,108331,2,0,L|380:136,1,80
332,252,109058,1,0,0:0:0:0:
92,64,109422,6,0,L|92:232,3,160
112,328,111967,2,0,L|168:328,1,40
208,328,112331,1,0,0:0:0:0:
