osu file format v14

[General]
AudioFilename: audio.mp3
AudioLeadIn: 0
PreviewTime: 125422
Countdown: 2
SampleSet: None
StackLeniency: 0.7
Mode: 0
LetterboxInBreaks: 0
WidescreenStoryboard: 0

[Editor]
Bookmarks: 17059
DistanceSpacing: 1.1
BeatDivisor: 4
GridSize: 4
TimelineZoom: 1

[Metadata]
Title:Yukitoki
TitleUnicode:ユキトキ
Artist:Yanaginagi
ArtistUnicode:やなぎなぎ
Creator:ProPootisMan
Version:Hard
Source:Yahari ore no Seishun Love Comedy wa Machigatteiru
Tags:SNAFU, My Youth Romantic Comedy is Wrong as I Expected
BeatmapID:1414431
BeatmapSetID:668609

[Difficulty]
HPDrainRate:5
CircleSize:5
OverallDifficulty:6
ApproachRate:6
SliderMultiplier:1.4
SliderTickRate:1

[Events]
//Background and Video events
0,0,"OregairuBackground.jpg",0,0
//Break Periods
2,54895,55645
2,80531,87826
2,122531,124372
2,172167,182917
2,194712,196734
//Storyboard Layer 0 (Background)
//Storyboard Layer 1 (Fail)
//Storyboard Layer 2 (Pass)
//Storyboard Layer 3 (Foreground)
//Storyboard Sound Samples

[TimingPoints]
1059,363.636363636364,4,2,1,35,1,0
1059,-100,4,2,1,50,0,0
19968,363.636363636364,4,2,1,20,1,0
20695,363.636363636364,4,2,1,25,1,0
31967,-100,4,3,1,50,0,0
40967,-200,4,3,1,50,0,0
41876,-100,4,3,1,75,0,0
43785,-100,4,2,1,50,0,0
54976,-100,4,3,1,50,0,0
57058,-100,4,3,1,50,0,1
58967,-133.333333333333,4,3,1,50,0,1
59695,-100,4,3,1,50,0,1
67058,-100,4,3,1,50,0,0
68695,-100,4,3,1,50,0,1
80331,-100,4,3,1,50,0,0
103513,-133.333333333333,4,3,1,50,0,0
104967,-100,4,3,1,50,0,0
125422,-100,4,3,1,50,0,1
135422,-100,4,3,1,50,0,0
137058,-100,4,3,1,50,0,1
148695,-100,4,3,1,50,0,0
186513,363.636363636364,3,3,1,75,1,0
187240,363.636363636364,4,3,1,75,1,0
190149,363.636363636364,3,3,1,75,1,0
190512,363.636363636364,4,3,1,75,1,0
190612,-100,4,3,1,75,0,0
197784,-100,4,2,1,25,0,0
209421,-100,4,3,1,50,0,0
221057,-100,4,3,1,80,0,1
231057,-100,4,3,1,75,0,0
232693,-100,4,3,1,90,0,1
242693,-100,4,3,1,90,0,0

[Colours]
Combo1 : 255,85,85
Combo2 : 255,111,183
Combo3 : 127,127,127
Combo4 : 0,118,236
Combo5 : 255,192,0

[HitObjects]
196,84,1059,6,0,B|144:112|136:152,1,70
108,188,1422,2,0,P|96:224|120:252,1,70
196,216,1786,1,0,0:0:0:0:
280,140,2149,2,0,P|316:96|324:104,1,70
328,224,2695,1,0,0:0:0:0:
416,82,3059,2,0,L|416:232,1,140
108,148,3968,37,0,0:0:0:0:
240,116,4331,2,0,P|272:92|308:104,2,70
340,184,5059,2,0,L|340:268,1,70
120,160,5604,2,0,P|88:120|104:104,1,70
168,64,5968,1,0,0:0:0:0:
256,192,6331,12,0,7968,0:0:0:0:
136,156,8331,6,0,P|112:104|136:80,2,70,4|0|0,0:0|0:0|0:0,0:0:0:0:
208,68,8877,2,0,L|276:96,2,70,4|0|0,0:0|0:0|0:0,0:0:0:0:
104,64,9422,1,0,0:0:0:0:
156,156,9968,2,0,L|156:228,1,70
264,220,10513,2,0,B|320:200|332:156|280:112,1,140
160,160,11240,6,0,L|160:252,2,70,4|0|0,0:0|0:0|0:0,0:0:0:0:
248,228,11786,2,0,L|248:140,2,70,4|0|0,0:0|0:0|0:0,0:0:0:0:
348,200,12331,1,0,0:0:0:0:
400,64,12695,1,0,0:0:0:0:
304,100,12877,2,0,L|256:124,2,35
380,164,13240,2,0,L|400:200,2,35
280,192,13604,2,0,L|240:212,4,35
320,104,14149,5,4,0:0:0:0:
172,88,14513,2,0,L|240:48,2,70,8|0|0,0:0|0:0|0:0,0:0:0:0:
108,164,15059,2,0,L|108:240,2,70,0|8|0,0:0|0:0|0:0,0:0:0:0:
192,168,15604,2,0,P|240:196|232:216,2,70,0|0|8,0:0|0:0|0:0,0:0:0:0:
260,96,16149,2,0,L|344:96,2,70
184,96,16695,1,8,0:0:0:0:
256,192,17059,12,0,19968,0:0:0:0:
108,40,20513,5,0,0:0:0:0:
180,88,20695,1,0,0:0:0:0:
272,92,21240,2,0,P|320:92|352:128,1,70
424,144,21967,2,0,L|424:244,1,70
328,176,22513,2,0,P|240:176|236:136,1,140
128,76,23604,5,0,0:0:0:0:
236,68,24149,2,0,L|312:104,1,70
420,120,24876,1,0,0:0:0:0:
432,192,25058,2,0,P|436:264|364:292,2,140
160,240,26513,5,0,0:0:0:0:
144,152,27058,2,0,P|148:112|180:96,1,70
292,60,27967,1,0,0:0:0:0:
388,104,28513,2,0,P|392:180|388:184,1,70
236,144,29422,1,0,0:0:0:0:
120,176,29967,2,0,L|88:244,1,70
216,148,30876,1,0,0:0:0:0:
392,124,31967,5,8,0:0:0:0:
288,84,32331,2,0,L|288:228,1,140
212,144,33058,2,0,P|168:148|140:192,2,70,2|2|8,0:0|0:0|0:0,0:0:0:0:
284,64,33604,1,0,0:0:0:0:
372,84,33785,2,0,P|428:112|408:184,1,140,0|8,0:0|0:0,0:0:0:0:
228,148,34513,2,0,P|228:212|244:240,2,70,2|2|8,0:0|0:0|0:0,0:0:0:0:
328,104,35240,6,0,B|388:128|415:161|400:208|400:208,1,140,0|8,0:0|0:0,0:0:0:0:
248,184,35967,2,0,P|196:204|196:220,2,70,2|2|8,0:0|0:0|0:0,0:0:0:0:
304,104,36513,1,0,0:0:0:0:
412,128,36695,2,0,L|412:268,1,140,0|8,0:0|0:0,0:0:0:0:
296,248,37240,1,0,0:0:0:0:
288,144,37422,2,0,P|288:100|264:76,2,70,2|2|8,0:0|0:0|0:0,0:0:0:0:
160,84,38149,6,0,P|152:172|184:232,2,140,0|8|2,0:0|0:0|0:0,0:0:0:0:
252,124,39058,2,0,L|312:160,1,70,2|8,0:0|0:0,0:0:0:0:
152,80,39604,6,0,L|152:224,1,140,0|8,0:0|0:0,0:0:0:0:
256,256,40331,2,0,P|312:256|320:244,2,70,2|2|8,0:0|0:0|0:0,0:0:0:0:
104,52,41058,6,0,P|84:124|116:192,1,140
208,72,42149,1,0,0:0:0:0:
236,188,42513,5,2,0:0:0:0:
312,160,42695,2,0,L|400:160,1,70,8|0,0:0|0:0,0:0:0:0:
308,248,43058,1,8,0:0:0:0:
408,232,43240,2,0,L|408:312,2,70,2|2|8,0:0|0:0|0:0,0:0:0:0:
128,104,43967,5,4,0:0:0:0:
256,64,44695,2,0,L|312:116,2,70
192,156,45240,1,0,0:0:0:0:
404,156,45604,1,0,0:0:0:0:
296,184,45967,2,0,P|295:227|220:292,1,140
168,112,46695,1,0,0:0:0:0:
272,88,46876,2,0,L|368:88,1,70
436,140,47422,1,0,0:0:0:0:
344,188,47785,2,0,L|344:264,2,70
248,112,48513,6,0,L|160:144,4,70
328,80,49422,1,0,0:0:0:0:
392,132,49604,1,0,0:0:0:0:
356,204,49785,1,4,0:0:0:0:
216,132,50513,6,0,P|216:204|212:208,2,70
296,80,51058,1,0,0:0:0:0:
380,144,51422,2,0,L|380:224,2,70
416,56,52149,1,0,0:0:0:0:
272,40,52695,5,4,0:0:0:0:
148,76,53058,1,0,0:0:0:0:
96,152,53240,1,0,0:0:0:0:
180,160,53422,1,0,0:0:0:0:
112,228,53604,1,0,0:0:0:0:
184,240,53785,1,0,0:0:0:0:
272,176,53967,1,0,0:0:0:0:
308,252,54149,2,0,L|308:336,2,70
376,192,54695,1,4,0:0:0:0:
176,128,56695,5,0,0:0:0:0:
272,88,57058,2,0,P|311:98|336:132,1,70,4|0,0:0|0:0,0:0:0:0:
340,192,57422,2,0,P|338:231|312:264,1,70,8|0,0:0|0:0,0:0:0:0:
240,184,57785,1,2,0:0:0:0:
156,212,57967,2,0,L|156:288,2,70,2|8|0,0:0|0:0|0:0,0:0:0:0:
156,132,58513,1,2,0:0:0:0:
232,60,58695,1,0,0:0:0:0:
292,140,58876,1,8,0:0:0:0:
412,96,59058,2,0,B|424:184|412:224|384:248,1,157.500006008148,2|8,0:0|0:0,0:0:0:0:
152,112,59967,6,0,L|224:112,1,70,2|0,0:0|0:0,0:0:0:0:
304,112,60331,2,0,P|352:128|360:148,1,70,8|0,0:0|0:0,0:0:0:0:
288,212,60695,1,2,0:0:0:0:
188,204,60876,1,2,0:0:0:0:
224,296,61058,1,8,0:0:0:0:
324,296,61240,2,0,P|384:260|448:288,1,140,0|2,0:0|0:0,0:0:0:0:
448,192,61785,2,0,B|408:167|368:248|312:201|270:233|176:196,1,280,8|0,0:0|0:0,0:0:0:0:
188,132,62695,5,0,0:0:0:0:
304,104,62876,2,0,L|392:152,1,70,4|0,0:0|0:0,0:0:0:0:
292,188,63422,2,0,L|292:360,1,140
144,240,64149,2,0,L|144:148,1,70,0|4,0:0|0:0,0:0:0:0:
144,88,64513,1,0,0:0:0:0:
248,96,64876,2,0,P|312:136|304:192,1,140
216,168,65604,2,0,L|216:308,2,140,4|0|0,0:0|0:0|0:0,0:0:0:0:
216,80,66695,1,0,0:0:0:0:
336,92,67422,6,0,L|400:132,1,70,4|0,0:0|0:0,0:0:0:0:
316,172,67785,2,0,L|264:228,1,70,4|0,0:0|0:0,0:0:0:0:
216,112,68331,1,4,0:0:0:0:
412,64,68695,5,2,0:0:0:0:
444,160,68876,1,0,0:0:0:0:
384,252,69058,1,8,0:0:0:0:
296,288,69240,2,0,P|240:308|208:288,1,70,0|2,0:0|0:0,0:0:0:0:
144,316,69604,1,2,0:0:0:0:
104,252,69785,2,0,P|64:144|80:84,1,175,8|0,0:0|0:0,0:0:0:0:
152,40,70422,1,8,0:0:0:0:
236,44,70604,2,0,P|312:36|392:96,1,175
432,176,71240,1,8,0:0:0:0:
440,256,71604,6,0,L|356:296,1,70,2|0,0:0|0:0,0:0:0:0:
320,212,71967,1,8,0:0:0:0:
396,148,72149,2,0,L|356:84,1,70,0|2,0:0|0:0,0:0:0:0:
264,40,72513,1,2,0:0:0:0:
140,56,72695,1,8,0:0:0:0:
152,136,72876,2,0,L|152:284,2,140
212,56,73967,2,0,L|304:56,1,70
388,72,74331,5,0,0:0:0:0:
452,136,74513,2,0,L|452:212,1,70,2|0,0:0|0:0,0:0:0:0:
400,288,74876,1,8,0:0:0:0:
328,260,75058,2,0,L|328:120,1,140,2|2,0:0|0:0,0:0:0:0:
236,76,75604,1,8,0:0:0:0:
120,88,75785,6,0,P|92:136|80:176,1,70,2|2,0:0|0:0,0:0:0:0:
64,228,76149,1,0,0:0:0:0:
136,292,76331,1,8,0:0:0:0:
220,296,76513,2,0,P|304:308|368:264,1,140,2|2,0:0|0:0,0:0:0:0:
440,196,77058,1,8,0:0:0:0:
420,76,77240,6,0,L|344:76,1,70,0|4,0:0|0:0,0:0:0:0:
212,72,77604,1,0,0:0:0:0:
76,76,77785,1,0,0:0:0:0:
144,148,77967,2,0,L|144:244,1,70,4|4,0:0|0:0,0:0:0:0:
200,288,78331,2,0,L|272:288,1,70,4|4,0:0|0:0,0:0:0:0:
348,204,78695,1,8,0:0:0:0:
284,104,79058,6,0,L|192:104,1,70
156,160,79422,2,0,L|116:224,1,70
280,316,79967,1,0,0:0:0:0:
280,184,80331,1,10,0:0:0:0:
148,100,88876,5,0,0:0:0:0:
228,72,89058,1,2,0:0:0:0:
376,40,89331,1,8,0:0:0:0:
448,104,89604,2,0,P|472:140|464:168,1,70,8|0,0:0|0:0,0:0:0:0:
412,216,89967,1,2,0:0:0:0:
432,340,90331,1,2,0:0:0:0:
340,312,90513,2,0,P|264:280|280:240,2,140
192,160,91604,2,0,L|160:140,2,35,8|8|8,0:0|0:0|0:0,0:0:0:0:
136,124,91967,5,2,0:0:0:0:
160,44,92240,1,0,0:0:0:0:
236,104,92513,2,0,L|320:104,1,70
360,36,92967,1,0,0:0:0:0:
428,96,93240,1,8,0:0:0:0:
420,168,93422,2,0,B|424:264|384:304|350:319|296:304,1,210
248,248,94149,1,0,0:0:0:0:
128,220,94513,1,10,0:0:0:0:
184,120,94876,6,0,L|44:120,2,140,4|8|0,0:0|0:0|0:0,0:0:0:0:
304,120,95967,1,8,0:0:0:0:
416,124,96331,2,0,B|416:208|412:236|412:236|392:288,1,140,0|8,0:0|0:0,0:0:0:0:
296,304,97058,1,2,0:0:0:0:
260,212,97422,2,0,P|260:172|260:168,2,35,8|0|8,0:0|0:0|0:0,0:0:0:0:
140,96,97785,2,0,P|140:220|140:312,1,210,2|0,0:0|0:0,0:0:0:0:
216,320,98513,1,4,0:0:0:0:
176,100,100513,5,0,0:0:0:0:
292,96,100695,2,0,P|376:140|384:252,1,210,2|0,0:0|0:0,0:0:0:0:
300,308,101422,1,2,0:0:0:0:
268,204,101604,1,8,0:0:0:0:
168,140,101967,1,8,0:0:0:0:
252,92,102331,2,0,L|340:92,1,70,8|8,0:0|0:0,0:0:0:0:
440,132,102876,2,0,L|440:216,1,70,8|8,0:0|0:0,0:0:0:0:
372,288,103240,2,0,L|316:288,2,35,8|8|8,0:0|0:0|0:0,0:0:0:0:
344,160,103604,6,0,B|292:88|284:80|280:80|200:80,1,157.500006008148,4|8,0:0|0:0,0:0:0:0:
108,148,104331,2,0,P|108:280|136:312,1,157.500006008148
228,264,105058,2,0,L|392:236,2,140
140,192,106149,1,10,0:0:0:0:
248,136,106513,6,0,P|284:64|384:116,1,210,4|0,0:0|0:0,0:0:0:0:
432,180,107240,1,8,0:0:0:0:
356,244,107422,1,0,0:0:0:0:
196,252,107785,1,8,0:0:0:0:
108,164,108149,2,0,L|188:132,1,70,8|8,0:0|0:0,0:0:0:0:
260,88,108695,2,0,L|332:88,1,70,8|8,0:0|0:0,0:0:0:0:
424,168,109058,2,0,L|424:128,2,35,8|0|8,0:0|0:0|0:0,0:0:0:0:
396,252,109422,6,0,L|228:252,1,140,8|2,0:0|0:0,0:0:0:0:
236,168,110149,2,0,L|204:96,1,70,8|0,0:0|0:0,0:0:0:0:
104,68,110695,1,8,0:0:0:0:
96,164,111058,2,0,L|96:240,1,70,8|0,0:0|0:0,0:0:0:0:
180,292,111604,1,8,0:0:0:0:
268,248,111785,1,8,0:0:0:0:
340,192,111967,2,0,L|340:132,4,35
116,144,113058,6,0,L|20:144,2,70
196,132,113604,2,0,P|236:76|320:68,1,140
416,92,114149,1,0,0:0:0:0:
372,168,114331,2,0,B|372:264|372:264|304:264,1,140
216,248,114876,1,0,0:0:0:0:
144,320,115058,1,0,0:0:0:0:
60,320,115240,2,0,L|60:232,1,70
60,236,115604,1,0,0:0:0:0:
64,164,115785,2,0,P|44:104|88:40,1,140
160,60,116331,2,0,L|244:60,1,70
408,64,116876,6,0,L|408:136,1,70
476,196,117240,1,0,0:0:0:0:
408,264,117422,2,0,L|328:264,1,70
268,192,117785,2,0,L|248:152,4,35
432,76,118876,6,0,L|432:172,2,70
344,36,119422,1,0,0:0:0:0:
340,192,119785,1,0,0:0:0:0:
268,112,120149,2,0,L|104:112,1,140
56,208,121058,5,0,0:0:0:0:
152,84,121422,2,0,L|224:84,1,70
224,156,121785,2,0,L|136:156,2,70
324,160,122331,1,0,0:0:0:0:
64,96,125422,22,0,P|77:161|104:176,1,70,2|0,0:0|0:0,0:0:0:0:
112,220,125785,2,0,P|128:248|168:264,1,70,8|0,0:0|0:0,0:0:0:0:
240,276,126149,2,0,P|324:276|324:208,1,140,2|8,0:0|0:0,0:0:0:0:
408,188,126695,1,0,0:0:0:0:
464,96,126876,1,0,0:0:0:0:
360,68,127058,2,0,L|260:68,1,70,0|8,0:0|0:0,0:0:0:0:
204,68,127422,1,0,0:0:0:0:
120,68,127604,1,0,0:0:0:0:
44,120,127785,2,0,L|44:204,1,70,0|8,0:0|0:0,0:0:0:0:
368,96,128331,6,0,L|464:96,2,70,2|2|8,0:0|0:0|0:0,0:0:0:0:
280,56,128876,1,0,0:0:0:0:
196,56,129058,1,2,0:0:0:0:
104,56,129240,1,2,0:0:0:0:
56,152,129422,1,8,0:0:0:0:
56,232,129604,2,0,P|56:316|104:352,1,140
192,344,130149,1,8,0:0:0:0:
280,324,130331,1,0,0:0:0:0:
376,324,130513,2,0,L|464:293,2,70,2|2|8,0:0|0:0|0:0,0:0:0:0:
416,208,131058,6,0,L|416:112,1,70,0|4,0:0|0:0,0:0:0:0:
416,56,131422,1,0,0:0:0:0:
308,56,131785,2,0,B|200:56|200:56|176:92,1,140,8|2,0:0|0:0,0:0:0:0:
108,148,132331,1,8,0:0:0:0:
216,180,132513,1,0,0:0:0:0:
132,272,132695,1,4,0:0:0:0:
240,264,132876,2,0,L|312:312,1,70,0|8,0:0|0:0,0:0:0:0:
384,328,133240,2,0,P|424:248|412:196,1,140
432,72,133785,1,8,0:0:0:0:
324,80,133967,2,0,L|244:80,1,70,0|4,0:0|0:0,0:0:0:0:
180,84,134331,1,0,0:0:0:0:
100,168,134695,2,0,P|92:224|164:264,1,140
268,112,135785,5,0,0:0:0:0:
360,116,135967,1,8,0:0:0:0:
444,160,136149,2,0,L|444:236,1,70,0|8,0:0|0:0,0:0:0:0:
440,312,136513,1,0,0:0:0:0:
320,272,136695,2,0,L|320:220,2,35,8|4|8,0:0|0:0|0:0,0:0:0:0:
412,92,137058,6,0,L|336:92,1,70,2|2,0:0|0:0,0:0:0:0:
272,44,137422,2,0,P|224:44|204:52,1,70,8|0,0:0|0:0,0:0:0:0:
128,88,137785,2,0,P|40:136|52:184,1,140,2|8,0:0|0:0,0:0:0:0:
48,260,138331,2,0,B|128:264|128:264|180:296,1,140
260,324,138876,1,8,0:0:0:0:
336,328,139058,2,0,P|400:320|420:244,1,140
440,176,139604,1,8,0:0:0:0:
224,168,139967,6,0,L|224:28,2,140,2|8|2,0:0|0:0|0:0,0:0:0:0:
312,148,141058,1,2,0:0:0:0:
420,168,141240,2,0,P|416:232|344:276,1,140
280,312,141785,1,8,0:0:0:0:
180,292,141967,2,0,P|132:296|108:256,2,70
240,228,142513,1,8,0:0:0:0:
152,212,142695,5,0,0:0:0:0:
104,140,142876,2,0,L|164:96,1,70
268,88,143240,1,8,0:0:0:0:
380,56,143422,2,0,B|416:64|432:92|440:144|412:192,1,140
432,284,143967,1,8,0:0:0:0:
328,344,144149,5,0,0:0:0:0:
248,304,144331,2,0,L|192:240,1,70
108,228,144695,1,8,0:0:0:0:
104,144,144876,2,0,P|136:88|216:48,1,140
316,76,145604,6,0,L|448:160,3,140
160,80,147058,1,0,0:0:0:0:
284,144,147422,5,0,0:0:0:0:
368,172,147604,1,0,0:0:0:0:
444,212,147785,1,0,0:0:0:0:
408,292,147967,2,0,L|264:288,1,140
152,224,148695,1,10,0:0:0:0:
68,132,152331,6,0,L|160:132,1,70
220,80,152876,2,0,P|284:84|336:148,1,140
436,184,153604,2,0,B|440:272|412:296|412:296|384:304,1,140
276,244,154149,2,0,L|184:244,1,70
204,328,154513,2,0,B|156:340|104:304|96:248|104:184|212:152,1,280
80,64,155604,1,0,0:0:0:0:
184,68,155967,6,0,L|324:68,1,140
396,72,156513,2,0,B|424:116|420:152,1,70
432,216,157058,1,0,0:0:0:0:
376,316,157422,2,0,L|236:316,1,140
92,316,158149,2,0,L|92:176,1,140
144,80,158876,2,0,L|292:80,1,140
364,88,159422,5,0,0:0:0:0:
428,208,159785,2,0,L|356:264,1,70
308,312,160149,2,0,L|216:316,1,70
116,272,160695,1,0,0:0:0:0:
84,160,161058,2,0,L|192:64,3,140
296,68,162331,2,0,L|368:68,1,70
444,128,162876,1,0,0:0:0:0:
452,204,163240,6,0,B|432:256|384:308|348:296,1,140
260,336,163785,1,0,0:0:0:0:
172,328,163967,2,0,B|96:328|96:328|40:264,1,140
136,240,164513,1,0,0:0:0:0:
152,132,164695,2,0,L|264:236,1,140
348,284,165240,6,0,P|412:256|416:188,1,140
340,88,165785,2,0,L|244:88,1,70
148,56,166149,2,0,L|148:268,1,210
112,348,166876,1,0,0:0:0:0:
232,256,167240,1,0,0:0:0:0:
280,112,167604,6,0,L|416:112,2,105
188,112,168331,1,0,0:0:0:0:
96,148,168695,2,0,P|84:192|144:288,1,140
256,192,169240,12,0,171967,0:0:0:0:
112,220,183967,6,0,L|112:128,2,70
208,152,184513,2,0,L|208:232,1,70
144,312,184876,2,0,L|284:312,1,140
404,312,185422,1,0,0:0:0:0:
344,232,185604,2,0,L|344:88,1,140
272,44,186149,1,0,0:0:0:0:
176,56,186331,2,0,L|32:56,1,140
104,152,186876,1,0,0:0:0:0:
52,140,187603,5,0,0:0:0:0:
132,144,187785,1,0,0:0:0:0:
188,204,187967,2,0,L|188:284,2,70
232,128,188512,2,0,L|376:128,1,140
456,132,189058,1,0,0:0:0:0:
428,212,189240,2,0,B|433:256|412:300|336:320,1,140
344,172,189785,1,0,0:0:0:0:
248,240,189967,2,0,L|92:240,1,140
56,92,190875,6,0,L|56:180,1,70
128,176,191239,2,0,L|208:176,1,70
272,96,191602,1,0,0:0:0:0:
384,112,191784,2,0,B|420:136|432:192|392:248,1,140
328,320,192330,1,0,0:0:0:0:
192,316,192512,2,0,B|192:228|192:228|192:188|220:176,1,140
296,148,193057,1,0,0:0:0:0:
292,64,193239,2,0,L|432:64,1,140
468,156,193784,1,0,0:0:0:0:
348,172,193966,2,0,L|220:236,1,140
132,152,194512,5,0,0:0:0:0:
88,96,197784,6,0,L|184:96,3,70
232,96,198512,2,0,P|312:100|352:152,1,140
440,208,199057,1,0,0:0:0:0:
352,244,199421,2,0,L|192:244,1,140
64,124,200693,6,0,L|212:124,1,140
300,76,201239,2,0,B|368:100|416:128|448:196|424:236,1,210
352,296,201966,2,0,L|196:296,1,140
108,328,202693,1,0,0:0:0:0:
128,204,203421,6,0,L|128:120,2,70
184,44,204148,2,0,L|328:44,1,140
428,72,204875,2,0,P|436:136|368:160,2,140
340,88,205966,1,0,0:0:0:0:
232,72,206330,2,0,L|232:168,1,70
316,196,206693,1,0,0:0:0:0:
412,236,207057,2,0,L|412:80,1,140
72,60,209421,6,0,L|72:152,1,70,2|0,0:0|0:0,0:0:0:0:
120,200,209784,2,0,P|144:232|192:244,1,70
212,316,210148,2,0,P|296:320|320:264,1,140,8|0,0:0|0:0,0:0:0:0:
396,224,210693,2,0,L|396:76,2,140
432,324,211784,1,0,0:0:0:0:
320,284,212330,6,0,L|320:200,1,70
308,128,212693,2,0,L|248:88,1,70
144,48,213057,2,0,P|52:96|40:144,1,140,8|0,0:0|0:0,0:0:0:0:
48,232,213602,1,0,0:0:0:0:
144,180,213966,2,0,L|292:180,1,140
228,284,214693,1,0,0:0:0:0:
80,328,215057,6,0,L|80:244,1,70,0|4,0:0|0:0,0:0:0:0:
80,184,215421,1,0,0:0:0:0:
136,120,215784,2,0,P|168:56|240:40,1,140,8|0,0:0|0:0,0:0:0:0:
256,144,216512,2,0,L|256:284,2,140,0|0|8,0:0|0:0|0:0,0:0:0:0:
256,56,217602,1,0,0:0:0:0:
364,84,217966,5,0,0:0:0:0:
328,184,218148,2,0,L|328:268,2,70,12|2|8,0:0|0:0|0:0,0:0:0:0:
248,252,218693,2,0,L|248:168,2,70,12|2|8,0:0|0:0|0:0,0:0:0:0:
168,212,219239,1,8,0:0:0:0:
224,108,219784,5,0,0:0:0:0:
292,172,219966,1,0,0:0:0:0:
324,92,220148,1,0,0:0:0:0:
200,192,220330,1,0,0:0:0:0:
212,280,220512,2,0,L|304:280,1,70
72,92,221057,6,0,L|148:92,1,70,2|0,0:0|0:0,0:0:0:0:
240,92,221421,2,0,L|316:92,1,70,8|0,0:0|0:0,0:0:0:0:
424,104,221784,2,0,L|424:272,1,140,2|8,0:0|0:0,0:0:0:0:
308,196,222330,2,0,L|152:196,1,140,0|8,0:0|0:0,0:0:0:0:
76,296,222875,1,0,0:0:0:0:
72,184,223057,2,0,L|72:20,1,140,2|2,0:0|0:0,0:0:0:0:
168,36,223602,1,8,0:0:0:0:
316,104,223966,5,4,0:0:0:0:
352,176,224148,1,0,0:0:0:0:
444,156,224330,1,8,0:0:0:0:
448,236,224512,1,0,0:0:0:0:
424,328,224693,2,0,L|264:328,1,140,0|8,0:0|0:0,0:0:0:0:
208,248,225239,2,0,L|208:168,3,70,0|0|0|8,0:0|0:0|0:0|0:0,0:0:0:0:
200,104,225966,2,0,L|368:60,1,140,2|2,0:0|0:0,0:0:0:0:
432,68,226512,1,8,0:0:0:0:
436,168,226693,6,0,L|436:264,1,70,0|4,0:0|0:0,0:0:0:0:
380,320,227057,1,0,0:0:0:0:
348,208,227239,1,8,0:0:0:0:
264,288,227421,2,0,L|116:288,1,140,2|2,0:0|0:0,0:0:0:0:
56,228,227966,1,8,0:0:0:0:
120,152,228148,6,0,L|120:68,1,70,2|4,0:0|0:0,0:0:0:0:
200,48,228512,2,0,L|280:48,1,70,2|8,0:0|0:0,0:0:0:0:
344,60,228875,2,0,P|412:108|408:180,1,140
432,280,229421,1,8,0:0:0:0:
328,224,229602,2,0,P|308:280|220:304,1,140,4|0,0:0|0:0,0:0:0:0:
140,336,230148,1,8,0:0:0:0:
52,284,230330,2,0,L|52:144,1,140,2|2,0:0|0:0,0:0:0:0:
52,56,230875,1,8,0:0:0:0:
160,56,231057,1,0,0:0:0:0:
312,96,231421,6,0,L|388:96,1,70,4|0,0:0|0:0,0:0:0:0:
304,180,231784,2,0,L|384:180,1,70,0|4,0:0|0:0,0:0:0:0:
336,268,232148,1,0,0:0:0:0:
224,224,232330,2,0,L|224:164,2,35,4|0|0,0:0|0:0|0:0,0:0:0:0:
88,72,232693,5,2,0:0:0:0:
64,192,232875,1,0,0:0:0:0:
196,72,233057,1,8,0:0:0:0:
184,192,233239,1,0,0:0:0:0:
128,136,233421,2,0,L|272:136,1,140,2|8,0:0|0:0,0:0:0:0:
324,64,233966,2,0,L|408:64,1,70
456,120,234330,2,0,L|456:196,1,70,0|8,0:0|0:0,0:0:0:0:
360,188,234693,2,0,P|360:260|288:312,1,140
268,228,235239,2,0,L|184:228,1,70,8|0,0:0|0:0,0:0:0:0:
80,296,235602,6,0,L|80:216,1,70
84,144,235966,2,0,L|84:60,1,70,8|0,0:0|0:0,0:0:0:0:
168,60,236330,2,0,L|248:60,1,70
176,152,236693,1,8,0:0:0:0:
272,144,236875,2,0,L|440:144,2,140
164,156,237784,1,2,0:0:0:0:
72,204,237966,2,0,L|72:300,1,70,2|8,0:0|0:0,0:0:0:0:
176,272,238330,6,0,L|304:180,1,140
392,144,238875,1,8,0:0:0:0:
304,80,239057,2,0,L|164:80,1,140
72,156,239602,1,8,0:0:0:0:
172,180,239784,6,0,L|172:320,2,140
92,120,240693,1,0,0:0:0:0:
176,64,240875,2,0,L|252:64,1,70,0|8,0:0|0:0,0:0:0:0:
320,108,241239,2,0,L|380:168,1,70,0|4,0:0|0:0,0:0:0:0:
428,244,241602,5,0,0:0:0:0:
320,244,241784,2,0,L|240:244,1,70,0|4,0:0|0:0,0:0:0:0:
192,320,242148,1,0,0:0:0:0:
88,316,242330,1,4,0:0:0:0:
136,232,242512,2,0,L|136:148,1,70,0|12,0:0|0:0,0:0:0:0:
232,80,243057,6,0,L|304:80,1,70
372,96,243421,2,0,L|444:136,1,70
336,172,243784,2,0,L|244:172,1,70
164,168,244330,21,6,0:0:0:0:
