osu file format v14

[General]
AudioFilename: 05 Soldier.mp3
AudioLeadIn: 0
PreviewTime: 52801
Countdown: 0
SampleSet: Normal
StackLeniency: 0.7
Mode: 0
LetterboxInBreaks: 0
WidescreenStoryboard: 1

[Editor]
DistanceSpacing: 1.7
BeatDivisor: 4
GridSize: 8
TimelineZoom: 1

[Metadata]
Title:Muteki no Soldier
TitleUnicode:無敵のSoldier
Artist:Yanaginagi
ArtistUnicode:麻枝准 X やなぎなぎ
Creator:[ Ichiro ]
Version:Kreygasm
Source:
Tags:
BeatmapID:814857
BeatmapSetID:372038

[Difficulty]
HPDrainRate:7
CircleSize:3.5
OverallDifficulty:8.5
ApproachRate:9.2
SliderMultiplier:1.4
SliderTickRate:1

[Events]
//Background and Video events
0,0,"1366x768-smoky-black-solid-color-background.jpg",0,0
//Break Periods
2,73572,81945
//Storyboard Layer 0 (Background)
//Storyboard Layer 1 (Fail)
//Storyboard Layer 2 (Pass)
//Storyboard Layer 3 (Foreground)
//Storyboard Sound Samples

[TimingPoints]
230,285.714285714286,4,1,0,30,1,0
1515,-133.333333333333,4,1,0,30,0,0
2515,-100,4,1,0,30,0,0
9372,-100,4,1,0,30,0,0
18515,-66.6666666666667,4,1,0,30,0,0
20444,-100,4,1,0,30,0,0
21015,-66.6666666666667,4,1,0,30,0,0
25015,-100,4,1,0,30,0,0
25587,-66.6666666666667,4,1,0,30,0,0
32230,-100,4,1,0,30,0,0
36944,-66.6666666666667,4,1,0,30,0,0
38515,-100,4,1,0,30,0,0
39158,-66.6666666666667,4,1,0,30,0,0
43658,-76.9230769230769,4,1,0,30,0,0
55087,-66.6666666666667,4,1,0,70,0,1
59944,-80,4,1,0,70,0,1
61587,-66.6666666666667,4,1,0,70,0,1
73372,-66.6666666666667,4,1,0,30,0,0
88944,-100,4,1,0,30,0,0
91801,-66.6666666666667,4,1,0,30,0,0
94515,-80,4,1,0,30,0,0
96230,-80,4,1,0,70,0,1
100801,-80,4,1,0,30,0,0
116801,-66.6666666666667,4,1,0,30,0,0
119087,-66.6666666666667,4,1,0,70,0,1
125944,-133.333333333333,4,1,0,30,0,0
126515,-117.647058823529,4,1,0,30,0,0
127087,-100,4,1,0,30,0,0
128230,-100,4,1,0,70,0,1
132372,-80,4,1,0,70,0,1
137372,-133.333333333333,4,1,0,30,0,0
147944,-80,4,1,0,30,0,0
154658,-133.333333333333,4,1,0,30,0,0
169372,-100,4,1,0,30,0,0
173944,-66.6666666666667,4,1,0,30,0,0
176230,-100,4,1,0,30,0,0
176658,-66.6666666666667,4,1,0,30,0,0
178515,-100,4,1,0,30,0,0
178872,-100,4,1,0,5,0,0
179087,-100,4,1,0,30,0,0
179372,-100,4,1,0,5,0,0
179515,-100,4,1,0,30,0,0

[Colours]
Combo1 : 226,45,124
Combo2 : 164,32,240
Combo3 : 37,185,239
Combo4 : 23,209,116

[HitObjects]
136,32,230,5,8,0:0:0:0:
248,40,372,1,8,0:0:0:0:
296,136,515,2,0,P|240:152|208:152,1,70,8|0,0:0|0:0,0:0:0:0:
80,112,801,2,0,L|120:136,2,35,8|0|8,0:0|0:0|0:0,0:0:0:0:
146,285,1087,6,0,P|115:268|96:240,1,70,0|8,0:0|0:0,0:0:0:0:
256,240,1515,1,8,0:0:0:0:
352,240,1658,1,8,0:0:0:0:
304,312,1801,1,8,0:0:0:0:
216,312,1944,2,0,P|176:296|152:272,1,52.5000020027161
160,168,2230,6,0,P|176:147|196:130,1,52.5000020027161,8|0,0:0|0:0,0:0:0:0:
96,240,2515,2,0,P|72:184|80:160,2,70,8|0|8,0:0|0:0|0:0,0:0:0:0:
192,280,2944,1,0,0:0:0:0:
96,240,3087,2,0,P|96:192|112:160,1,70,8|0,0:0|0:0,0:0:0:0:
168,72,3372,5,8,0:0:0:0:
168,72,3515,1,8,0:0:0:0:
304,64,3658,6,0,L|376:104,1,70,8|0,0:0|0:0,0:0:0:0:
462,223,3944,2,0,L|398:191,1,70,8|0,0:0|0:0,0:0:0:0:
304,56,4230,6,0,L|254:105,1,70,8|0,0:0|0:0,0:0:0:0:
456,224,4516,2,0,L|512:272,1,70,8|0,0:0|0:0,0:0:0:0:
168,208,4801,6,0,P|176:256|200:288,2,70,8|0|8,0:0|0:0|0:0,0:0:0:0:
224,128,5230,1,0,0:0:0:0:
224,128,5372,2,0,P|216:80|192:48,2,70,0|8|0,0:0|0:0|0:0,0:0:0:0:
144,304,5801,5,0,0:0:0:0:
144,304,5944,2,0,L|224:320,1,70,8|0,0:0|0:0,0:0:0:0:
312,232,6230,2,0,P|312:280|304:312,2,70,8|0|8,0:0|0:0|0:0,0:0:0:0:
240,128,6658,1,8,0:0:0:0:
240,128,6801,2,0,P|248:80|264:48,1,70,8|0,0:0|0:0,0:0:0:0:
392,48,7087,5,8,0:0:0:0:
464,128,7230,1,8,0:0:0:0:
392,216,7372,2,0,P|352:208|328:184,1,70
392,48,7658,1,8,0:0:0:0:
464,128,7801,1,8,0:0:0:0:
392,216,7943,2,0,P|352:208|328:184,1,70
232,104,8230,6,0,P|184:80|152:80,1,70,8|0,0:0|0:0,0:0:0:0:
88,144,8515,6,0,P|136:168|168:168,1,70,8|0,0:0|0:0,0:0:0:0:
360,96,8801,6,0,L|328:112,2,35,8|0|8,0:0|0:0|0:0,0:0:0:0:
207,87,9087,2,0,L|232:112,2,35,8|0|8,0:0|0:0|0:0,0:0:0:0:
336,304,9372,6,0,P|272:272|264:248,1,70,8|0,0:0|0:0,0:0:0:0:
112,40,9658,6,0,P|160:72|176:96,1,70,8|0,0:0|0:0,0:0:0:0:
200,200,9944,6,0,P|152:168|136:144,2,70,8|0|8,0:0|0:0|0:0,0:0:0:0:
320,176,10372,1,0,0:0:0:0:
320,176,10515,2,0,P|352:136|360:104,2,70,8|0|0,0:0|0:0|0:0,0:0:0:0:
192,256,10944,5,8,0:0:0:0:
128,168,11087,2,0,P|128:112|152:80,1,70,8|0,0:0|0:0,0:0:0:0:
224,48,11372,2,0,P|257:39|292:46,1,70,8|0,0:0|0:0,0:0:0:0:
440,176,11658,5,8,0:0:0:0:
304,208,11801,1,0,0:0:0:0:
360,64,11944,1,8,0:0:0:0:
416,272,12087,2,0,P|432:304|448:336,2,70
280,192,12515,5,8,0:0:0:0:
368,88,12658,1,0,0:0:0:0:
472,160,12801,1,8,0:0:0:0:
328,304,12944,1,0,0:0:0:0:
328,304,13087,2,0,P|264:304|232:288,1,70,8|0,0:0|0:0,0:0:0:0:
64,240,13372,5,8,0:0:0:0:
160,184,13515,1,0,0:0:0:0:
256,232,13658,1,8,0:0:0:0:
64,136,13801,1,0,0:0:0:0:
64,136,13944,2,0,P|56:80|72:48,1,70,8|0,0:0|0:0,0:0:0:0:
144,56,14230,6,0,P|168:88|200:104,1,70,8|0,0:0|0:0,0:0:0:0:
376,80,14515,5,8,0:0:0:0:
256,120,14658,1,0,0:0:0:0:
360,200,14801,1,8,0:0:0:0:
376,80,14944,1,0,0:0:0:0:
376,80,15230,1,0,0:0:0:0:
256,232,15372,1,8,0:0:0:0:
224,40,15515,1,0,0:0:0:0:
136,280,15658,6,0,P|168:240|176:208,2,70,8|0|0,0:0|0:0|0:0,0:0:0:0:
48,208,16087,1,0,0:0:0:0:
152,128,16230,2,0,P|96:104|64:104,2,70,8|0|0,0:0|0:0|0:0,0:0:0:0:
272,208,16658,1,0,0:0:0:0:
400,136,16801,2,0,P|440:112|456:80,2,70,8|0|8,0:0|0:0|0:0,0:0:0:0:
216,152,17230,5,0,0:0:0:0:
216,152,17372,2,0,P|240:96|272:72,1,70
312,40,17658,2,0,P|336:96|360:120,1,70,8|0,0:0|0:0,0:0:0:0:
400,192,17944,5,4,0:0:0:0:
406,226,18016,1,4,0:0:0:0:
399,261,18087,1,4,0:0:0:0:
381,290,18158,1,4,0:0:0:0:
360,312,18230,2,0,P|320:328|280:328,1,70,0|4,0:0|0:0,0:0:0:0:
112,312,18515,5,0,0:0:0:0:
112,312,18658,1,0,0:0:0:0:
112,312,18801,2,0,P|80:240|80:208,1,105.000004005432
128,56,19087,6,0,P|160:120|160:152,2,105.000004005432
72,128,19515,5,0,0:0:0:0:
280,56,19801,1,0,0:0:0:0:
248,248,20087,1,0,0:0:0:0:
152,48,20372,1,0,0:0:0:0:
168,168,20515,6,0,P|128:192|96:192,1,70
232,96,20801,2,0,P|264:80|304:80,1,70
360,240,21087,2,0,L|361:135,1,105.000004005432
464,176,21515,5,0,0:0:0:0:
304,312,21801,1,0,0:0:0:0:
360,112,22087,1,0,0:0:0:0:
208,240,22372,1,0,0:0:0:0:
256,64,22658,1,0,0:0:0:0:
104,184,22944,5,0,0:0:0:0:
104,184,23087,2,0,P|112:128|144:88,2,105.000004005432
184,232,23515,1,0,0:0:0:0:
184,232,23658,2,0,P|176:288|144:328,2,105.000004005432
176,104,24087,5,0,0:0:0:0:
176,104,24230,2,0,P|216:56|256:48,1,105.000004005432
416,144,24658,1,0,0:0:0:0:
280,192,24944,1,0,0:0:0:0:
312,64,25087,6,0,P|344:32|400:24,1,70
280,192,25372,2,0,P|232:208|192:184,1,70
160,128,25658,6,0,P|160:64|184:32,2,105.000004005432
192,319,26087,2,0,P|220:275|216:224,1,105.000004005432
216,224,26372,5,0,0:0:0:0:
296,64,26658,1,0,0:0:0:0:
416,160,26944,1,0,0:0:0:0:
488,112,27087,1,0,0:0:0:0:
384,48,27230,1,0,0:0:0:0:
416,160,27372,2,0,P|392:216|352:240,1,105.000004005432,8|0,0:0|0:0,0:0:0:0:
112,280,27801,5,0,0:0:0:0:
184,192,27944,1,0,0:0:0:0:
240,280,28087,1,0,0:0:0:0:
104,288,28230,5,0,0:0:0:0:
184,176,28373,1,0,0:0:0:0:
312,184,28516,1,0,0:0:0:0:
80,176,28658,2,0,P|64:120|80:72,1,105.000004005432
77,76,28944,1,0,0:0:0:0:
200,40,29087,5,8,0:0:0:0:
320,64,29230,1,8,0:0:0:0:
200,128,29372,1,8,0:0:0:0:
320,160,29515,1,8,0:0:0:0:
320,160,29587,1,8,0:0:0:0:
320,160,29658,2,0,P|288:224|256:240,1,105.000004005432
80,248,29944,6,0,P|56:192|64:144,2,105.000004005432
160,304,30372,1,0,0:0:0:0:
240,240,30515,2,0,P|224:176|192:152,1,105.000004005432
160,224,30801,2,0,L|272:160,1,105.000004005432
303,113,31087,6,0,P|256:93|208:112,1,105.000004005432
80,200,31372,2,0,P|136:256|272:280,1,210.000008010865
352,240,31801,2,0,P|400:144|376:40,1,210.000008010865
144,128,32230,5,0,0:0:0:0:
240,184,32372,1,0,0:0:0:0:
224,48,32515,2,0,P|184:24|160:24,1,70
144,128,32801,2,0,P|200:144|232:128,1,70
304,104,33087,5,0,0:0:0:0:
392,64,33230,1,0,0:0:0:0:
464,128,33372,2,0,P|440:208|368:240,1,140
120,272,33801,1,0,0:0:0:0:
120,272,33944,2,0,P|192:264|248:224,1,140
376,56,34372,5,0,0:0:0:0:
376,56,34515,2,0,L|336:144,1,70
256,264,34801,1,0,0:0:0:0:
294,197,34944,1,0,0:0:0:0:
361,235,35087,1,0,0:0:0:0:
322,302,35230,1,0,0:0:0:0:
280,152,35372,5,0,0:0:0:0:
400,216,35515,1,0,0:0:0:0:
232,280,35658,2,0,P|176:264|160:240,1,70
104,144,35944,2,0,P|96:104|112:56,2,70
152,224,36372,5,0,0:0:0:0:
248,248,36515,1,0,0:0:0:0:
216,152,36658,1,0,0:0:0:0:
176,64,36944,5,0,0:0:0:0:
176,64,37087,2,0,P|128:88|88:128,1,105.000004005432
48,240,37372,2,0,P|112:216|152:200,1,105.000004005432
352,112,37801,5,0,0:0:0:0:
352,112,37944,2,0,P|392:160|408:208,1,105.000004005432
400,304,38230,2,0,P|336:256|320:208,1,105.000004005432
184,96,38658,6,0,L|128:144,1,70
264,88,38944,2,0,L|226:28,1,70
344,192,39230,5,0,0:0:0:0:
344,192,39372,2,0,P|392:160|416:120,1,105.000004005432
208,128,39658,2,0,P|168:168|152:216,1,105.000004005432
328,248,39944,2,0,L|224:200,1,105.000004005432
120,144,40230,6,0,P|136:88|168:56,1,105.000004005432
208,128,40515,2,0,P|248:176|288:192,1,105.000004005432
352,64,40944,5,0,0:0:0:0:
352,64,41015,1,0,0:0:0:0:
352,64,41087,1,0,0:0:0:0:
432,144,41230,1,0,0:0:0:0:
248,224,41515,6,0,P|280:168|320:152,2,105.000004005432
200,304,41944,2,0,P|160:344|112:360,1,105.000004005432
96,168,42372,5,0,0:0:0:0:
152,312,42515,1,0,0:0:0:0:
160,32,42658,1,0,0:0:0:0:
208,168,42801,1,0,0:0:0:0:
400,200,43230,6,0,L|376:248,1,52.5000020027161
352,96,43515,1,0,0:0:0:0:
352,96,43658,2,0,P|288:120|272:160,1,90.9999958343508
232,232,43944,6,0,P|184:272|144:264,1,90.9999958343508
88,208,44230,2,0,P|88:136|152:184,1,181.999991668702
160,256,44658,5,0,0:0:0:0:
160,256,44730,1,0,0:0:0:0:
160,256,44801,2,0,P|208:288|240:296,1,90.9999958343508
392,288,45087,5,8,0:0:0:0:
472,208,45230,1,8,0:0:0:0:
360,184,45372,5,8,0:0:0:0:
432,96,45515,1,8,0:0:0:0:
360,184,45658,1,8,0:0:0:0:
304,72,45801,1,8,0:0:0:0:
88,296,46087,5,0,0:0:0:0:
88,296,46230,2,0,P|96:240|120:200,1,90.9999958343508
176,128,46515,2,0,P|208:176|216:216,2,90.9999958343508
88,136,46944,5,0,0:0:0:0:
88,136,47015,1,0,0:0:0:0:
88,136,47087,2,0,P|104:88|152:48,1,90.9999958343508
240,32,47372,2,0,P|296:56|328:80,1,90.9999958343508
408,144,47801,2,0,L|432:192,1,45.4999979171754
328,224,48087,1,0,0:0:0:0:
432,280,48372,6,0,P|440:328|416:368,2,90.9999958343508
336,128,48801,2,0,P|288:96|248:88,1,90.9999958343508
144,128,49087,2,0,P|192:160|232:168,1,90.9999958343508
360,200,49372,6,0,P|328:240|272:264,1,90.9999958343508
176,296,49658,2,0,P|224:336|264:344,2,90.9999958343508
96,208,50087,5,0,0:0:0:0:
96,208,50158,1,0,0:0:0:0:
96,208,50230,1,0,0:0:0:0:
208,176,50372,1,0,0:0:0:0:
120,96,50658,6,0,P|144:56|192:48,1,90.9999958343508
288,80,50944,1,0,0:0:0:0:
384,168,51087,2,0,P|360:208|312:216,1,90.9999958343508
80,152,51515,5,0,0:0:0:0:
80,152,51658,2,0,L|112:240,1,90.9999958343508
184,320,51944,1,0,0:0:0:0:
184,320,52015,1,0,0:0:0:0:
184,320,52087,2,0,P|208:256|232:248,1,90.9999958343508
312,256,52372,2,0,L|344:288,1,45.4999979171754
432,304,52658,1,0,0:0:0:0:
432,304,52801,2,0,P|440:248|432:208,1,90.9999958343508
352,176,53087,6,0,P|344:128|360:72,1,90.9999958343508
432,96,53372,2,0,L|336:152,1,90.9999958343508
224,200,53658,2,0,P|192:240|184:280,2,90.9999958343508
296,136,54087,1,0,0:0:0:0:
296,136,54158,1,0,0:0:0:0:
296,136,54230,2,0,P|280:72|248:56,1,90.9999958343508
128,32,54515,6,0,P|88:80|128:288,1,272.999987503052
256,272,55087,1,2,0:0:0:0:
360,208,55230,1,2,0:0:0:0:
248,152,55372,1,2,0:0:0:0:
336,288,55515,1,2,0:0:0:0:
328,128,55658,1,2,0:0:0:0:
192,216,55801,1,2,0:0:0:0:
392,264,55944,5,2,0:0:0:0:
272,96,56087,1,2,0:0:0:0:
192,280,56230,1,2,0:0:0:0:
408,144,56372,5,2,0:0:0:0:
176,136,56515,1,2,0:0:0:0:
352,336,56658,1,2,0:0:0:0:
352,336,56801,2,0,P|408:352|448:328,1,105.000004005432
488,232,57087,2,0,P|480:176|448:128,1,105.000004005432
256,72,57372,5,2,0:0:0:0:
256,176,57515,1,2,0:0:0:0:
328,248,57658,1,2,0:0:0:0:
360,64,57801,1,0,0:0:0:0:
168,128,57944,2,0,P|220:126|267:148,1,105.000004005432,2|2,0:0|0:0,0:0:0:0:
280,304,58230,5,0,0:0:0:0:
200,240,58372,1,2,0:0:0:0:
304,200,58515,2,0,L|416:200,2,105.000004005432
200,240,58944,1,0,0:0:0:0:
280,304,59087,1,0,0:0:0:0:
136,144,59230,5,2,0:0:0:0:
136,144,59301,1,0,0:0:0:0:
136,144,59372,2,0,P|168:200|200:224,1,105.000004005432
312,208,59658,6,0,P|312:264|280:312,1,105.000004005432
248,104,59944,2,0,P|248:56|272:24,2,87.5
192,208,60372,1,0,0:0:0:0:
192,208,60515,2,0,P|120:216|96:200,2,87.5
320,208,60944,1,0,0:0:0:0:
320,208,61087,2,0,P|360:194|402:205,2,87.5
360,304,61515,1,0,0:0:0:0:
224,176,61658,6,0,P|208:112|224:64,1,105.000004005432
296,24,61944,2,0,P|312:96|288:144,1,105.000004005432
280,224,62230,2,0,P|216:280|160:280,1,105.000004005432
104,256,62515,2,0,P|80:208|88:152,1,105.000004005432
144,56,62801,6,0,P|168:112|208:136,1,105.000004005432
320,160,63087,2,0,P|368:128|392:80,2,105.000004005432
104,176,63658,6,0,L|48:264,1,105.000004005432
224,176,63944,6,0,L|280:264,1,105.000004005432
136,152,64230,5,2,0:0:0:0:
216,64,64372,1,2,0:0:0:0:
328,56,64515,1,2,0:0:0:0:
248,192,64658,5,2,0:0:0:0:
248,192,64801,2,0,P|280:144|336:128,1,105.000004005432,2|0,0:0|0:0,0:0:0:0:
448,120,65087,1,2,0:0:0:0:
424,224,65230,1,2,0:0:0:0:
336,288,65372,1,2,0:0:0:0:
320,112,65515,5,2,0:0:0:0:
320,112,65658,2,2,P|360:64|400:56,1,105.000004005432
192,192,65944,2,0,P|136:192|88:176,1,105.000004005432,2|0,0:0|0:0,0:0:0:0:
16,104,66230,2,0,P|96:96|144:112,1,105.000004005432,2|0,0:0|0:0,0:0:0:0:
216,112,66515,6,0,P|272:96|312:64,2,105.000004005432,2|0|2,0:0|0:0|0:0,0:0:0:0:
96,136,66944,1,2,0:0:0:0:
96,136,67087,2,0,P|128:184|184:216,1,105.000004005432,2|0,0:0|0:0,0:0:0:0:
256,240,67372,2,0,P|320:216|336:176,1,105.000004005432,2|0,0:0|0:0,0:0:0:0:
272,128,67658,2,0,P|296:72|344:56,1,105.000004005432,2|0,0:0|0:0,0:0:0:0:
432,88,67944,6,0,P|416:144|384:184,1,105.000004005432,2|0,0:0|0:0,0:0:0:0:
312,208,68230,2,0,P|296:272|296:328,1,105.000004005432,2|0,0:0|0:0,0:0:0:0:
368,312,68515,2,0,L|272:240,1,105.000004005432,2|0,0:0|0:0,0:0:0:0:
208,192,68801,5,0,0:0:0:0:
208,192,68944,1,0,0:0:0:0:
208,192,69087,2,0,P|160:144|120:128,1,105.000004005432
32,168,69372,6,0,P|64:216|120:256,1,105.000004005432
184,288,69658,2,0,P|248:296|296:272,1,105.000004005432
376,224,69944,2,0,P|400:168|400:112,1,105.000004005432
336,32,70230,2,0,P|312:88|312:144,1,105.000004005432
376,224,70515,2,0,P|400:168|400:112,1,105.000004005432
336,32,70801,2,0,P|312:88|312:144,1,105.000004005432
376,224,71087,6,0,P|352:280|104:256,1,315.000012016297
48,200,71658,6,0,P|72:144|320:168,1,315.000012016297
408,288,72230,5,0,0:0:0:0:
304,248,72372,1,0,0:0:0:0:
280,136,72515,1,0,0:0:0:0:
400,168,72658,1,0,0:0:0:0:
304,248,72801,1,0,0:0:0:0:
184,264,72944,1,0,0:0:0:0:
88,184,73087,5,0,0:0:0:0:
99,133,73158,1,0,0:0:0:0:
130,91,73229,1,0,0:0:0:0:
176,66,73301,1,0,0:0:0:0:
228,63,73372,1,0,0:0:0:0:
360,112,82515,6,0,P|384:160|376:216,1,105.000004005432
344,328,82801,2,0,P|304:280|296:224,1,105.000004005432
280,64,83230,1,0,0:0:0:0:
192,200,83515,1,0,0:0:0:0:
344,200,83801,1,0,0:0:0:0:
136,64,84087,1,0,0:0:0:0:
280,64,84372,5,0,0:0:0:0:
332,68,84443,1,0,0:0:0:0:
379,90,84514,1,0,0:0:0:0:
416,126,84586,1,0,0:0:0:0:
439,173,84657,1,0,0:0:0:0:
440,288,84801,6,0,P|392:320|344:320,1,105.000004005432
208,288,85087,6,0,P|256:256|304:256,2,105.000004005432
80,304,85515,1,0,0:0:0:0:
80,304,85658,2,0,P|112:256|128:200,1,105.000004005432
80,144,85944,2,0,P|96:88|128:56,1,105.000004005432
216,56,86230,2,0,P|272:72|320:56,1,105.000004005432
400,96,86515,2,0,P|440:144|448:184,1,105.000004005432
312,312,86801,5,0,0:0:0:0:
432,240,86944,1,0,0:0:0:0:
456,328,87087,2,0,P|392:312|368:264,1,105.000004005432
352,184,87372,2,0,P|328:112|296:96,1,105.000004005432
216,80,87658,6,0,P|160:88|112:120,1,105.000004005432
80,208,87944,2,0,P|136:200|184:168,1,105.000004005432
216,80,88230,2,0,P|272:88|320:120,1,105.000004005432
392,216,88515,6,0,P|432:168|440:120,2,105.000004005432
288,272,88944,1,0,0:0:0:0:
257,288,89015,1,0,0:0:0:0:
223,297,89086,1,0,0:0:0:0:
188,297,89158,1,0,0:0:0:0:
154,290,89229,1,0,0:0:0:0:
123,274,89301,1,0,0:0:0:0:
104,256,89372,2,0,P|80:216|88:176,1,70
96,64,89658,6,0,P|152:48|192:64,1,70
272,112,89944,2,0,P|216:128|176:112,1,70
184,48,90230,5,8,0:0:0:0:
184,48,90372,1,8,0:0:0:0:
184,48,90515,1,8,0:0:0:0:
216,144,90658,1,0,0:0:0:0:
304,56,90801,1,8,0:0:0:0:
304,56,90944,1,8,0:0:0:0:
384,176,91230,5,8,0:0:0:0:
312,288,91515,1,8,0:0:0:0:
48,280,91801,5,0,0:0:0:0:
48,280,91944,2,0,B|64:216|64:216|104:208,1,105.000004005432
176,192,92230,2,0,P|232:184|264:144,1,105.000004005432
304,88,92515,2,0,B|336:40|336:40|392:48,1,105.000004005432
328,184,92944,5,0,0:0:0:0:
400,280,93087,1,0,0:0:0:0:
512,256,93230,1,0,0:0:0:0:
456,144,93372,1,0,0:0:0:0:
328,184,93515,1,0,0:0:0:0:
272,80,93658,1,0,0:0:0:0:
208,280,93801,5,0,0:0:0:0:
208,280,93872,1,0,0:0:0:0:
208,280,93944,2,0,P|144:296|88:272,1,105.000004005432
32,160,94230,2,0,P|56:96|88:64,1,105.000004005432
184,40,94515,6,0,P|192:112|256:192,1,175
368,240,94944,6,0,P|360:168|296:88,1,175
112,88,95372,6,0,P|104:144|184:280,1,218.75
264,320,95801,6,0,P|280:272|240:160,1,175
112,40,96230,5,2,0:0:0:0:
72,152,96372,1,2,0:0:0:0:
200,120,96515,1,2,0:0:0:0:
104,32,96658,5,2,0:0:0:0:
64,144,96800,1,2,0:0:0:0:
152,224,96943,1,2,0:0:0:0:
96,24,97087,5,2,0:0:0:0:
56,136,97229,1,2,0:0:0:0:
144,216,97372,2,0,P|200:232|400:184,1,262.5
344,32,97944,2,0,L|224:280,1,262.5
184,336,98515,6,0,P|128:272|136:88,1,262.5
224,136,99087,2,0,L|-8:280,1,262.5
256,192,99658,12,0,100658,0:0:0:0:
400,64,100944,5,0,0:0:0:0:
368,200,101087,2,0,P|336:264|304:280,1,87.5
248,152,101372,2,0,P|216:88|184:72,1,87.5
208,80,101801,2,0,P|240:40|280:24,2,87.5
152,168,102230,1,0,0:0:0:0:
328,256,102658,6,0,L|360:312,1,43.75
288,160,102944,2,0,P|296:112|336:80,2,87.5
384,192,103372,2,0,P|416:144|416:96,1,87.5
344,48,103658,2,0,P|288:32|248:40,1,87.5
64,176,104087,5,0,0:0:0:0:
208,176,104230,1,0,0:0:0:0:
144,40,104372,1,0,0:0:0:0:
96,264,104515,1,0,0:0:0:0:
176,264,104658,1,0,0:0:0:0:
304,256,104944,6,0,L|264:312,1,43.75
360,184,105230,2,0,P|360:136|384:96,2,87.5
400,288,105658,2,0,P|456:248|464:224,1,87.5
424,96,105944,1,0,0:0:0:0:
424,96,106087,1,0,0:0:0:0:
240,136,106372,6,0,P|264:88|304:64,2,87.5
224,224,106801,2,0,P|200:280|160:304,1,87.5
80,200,107230,6,0,L|56:160,1,43.75
176,56,107515,2,0,P|128:96|112:128,2,87.5
272,88,107944,2,0,P|304:144|328:160,1,87.5
432,176,108230,2,0,P|424:224|400:264,1,87.5
176,328,108515,5,0,0:0:0:0:
248,240,108658,1,0,0:0:0:0:
248,240,108730,1,0,0:0:0:0:
248,240,108801,2,0,P|256:168|248:128,2,87.5
368,112,109372,5,8,0:0:0:0:
368,112,109515,1,8,0:0:0:0:
288,200,109658,1,8,0:0:0:0:
258,168,109729,1,8,0:0:0:0:
244,127,109800,1,8,0:0:0:0:
250,84,109872,1,0,0:0:0:0:
264,48,109944,2,0,P|304:24|344:24,1,87.5
432,80,110230,2,0,P|416:144|392:160,1,87.5
288,200,110515,2,0,P|264:240|264:288,1,87.5
80,256,110944,5,0,0:0:0:0:
80,256,111015,1,0,0:0:0:0:
80,256,111087,2,0,P|128:232|168:240,1,87.5
136,152,111372,2,0,P|128:96|144:64,1,87.5
288,72,111801,6,0,L|248:112,1,43.75
384,144,112015,2,0,L|408:192,1,43.75
184,320,112372,5,0,0:0:0:0:
184,320,112515,2,0,P|168:256|176:216,1,87.5
192,88,112801,1,0,0:0:0:0:
192,88,112944,1,0,0:0:0:0:
304,176,113230,5,0,0:0:0:0:
360,272,113372,1,0,0:0:0:0:
416,176,113515,1,0,0:0:0:0:
264,272,113658,1,0,0:0:0:0:
456,272,113801,2,0,P|456:320|432:352,1,87.5
360,272,114087,6,0,L|320:224,1,43.75
416,176,114301,2,0,L|432:136,1,43.75
104,208,114658,5,0,0:0:0:0:
104,208,114730,1,0,0:0:0:0:
104,208,114801,2,0,P|160:184|184:152,1,87.5
256,72,115087,5,0,0:0:0:0:
352,48,115230,1,0,0:0:0:0:
416,120,115372,2,0,P|416:176|392:208,1,87.5
336,264,115658,2,0,P|296:296|256:304,1,87.5
176,304,115944,2,0,B|104:304|88:264|88:264|104:176,1,175
128,88,116372,6,0,L|152:48,1,43.75
208,112,116587,2,0,L|249:133,1,43.75
336,136,116801,6,0,B|416:88|416:88|384:320,1,315.000012016297
296,336,117372,2,0,P|264:280|224:264,1,105.000004005432
144,328,117658,2,0,B|96:288|96:288|96:232,1,105.000004005432
104,144,117944,2,0,P|136:88|176:176,1,210.000008010865
256,224,118372,5,0,0:0:0:0:
306,235,118443,1,0,0:0:0:0:
356,221,118514,1,0,0:0:0:0:
393,184,118586,1,0,0:0:0:0:
408,135,118657,1,0,0:0:0:0:
397,84,118729,1,0,0:0:0:0:
368,48,118801,2,0,P|312:32|264:40,1,105.000004005432
112,64,119087,5,2,0:0:0:0:
88,192,119230,1,2,0:0:0:0:
200,248,119372,1,2,0:0:0:0:
200,88,119515,1,2,0:0:0:0:
88,184,119658,1,2,0:0:0:0:
216,272,119801,1,2,0:0:0:0:
328,200,119944,1,2,0:0:0:0:
280,56,120087,1,2,0:0:0:0:
184,144,120230,1,2,0:0:0:0:
259,254,120372,1,2,0:0:0:0:
408,288,120515,5,2,0:0:0:0:
472,200,120658,1,2,0:0:0:0:
424,96,120801,1,2,0:0:0:0:
360,192,120944,2,0,P|320:240|272:256,2,105.000004005432
304,80,121372,2,0,P|208:56|24:176,1,315.000012016297,8|0,0:0|0:0,0:0:0:0:
80,264,121944,5,2,0:0:0:0:
152,328,122087,1,2,0:0:0:0:
224,256,122230,1,2,0:0:0:0:
144,192,122372,1,2,0:0:0:0:
152,328,122515,5,2,0:0:0:0:
280,328,122658,1,2,0:0:0:0:
280,192,122801,1,2,0:0:0:0:
200,96,122944,1,2,0:0:0:0:
328,80,123087,1,2,0:0:0:0:
280,192,123230,1,2,0:0:0:0:
200,96,123372,1,2,0:0:0:0:
328,80,123515,5,0,0:0:0:0:
328,80,123587,1,0,0:0:0:0:
328,80,123658,2,0,P|392:96|440:320,1,315.000012016297,8|0,0:0|0:0,0:0:0:0:
256,328,124230,5,2,0:0:0:0:
192,232,124372,1,2,0:0:0:0:
240,112,124515,1,2,0:0:0:0:
352,168,124658,1,2,0:0:0:0:
296,280,124801,1,2,0:0:0:0:
176,232,124944,1,2,0:0:0:0:
88,112,125087,5,2,0:0:0:0:
48,216,125230,1,2,0:0:0:0:
96,312,125372,1,2,0:0:0:0:
104,120,125515,5,2,0:0:0:0:
64,224,125658,1,2,0:0:0:0:
112,320,125800,1,2,0:0:0:0:
176,272,125944,6,0,P|152:208|160:160,1,105.000004005432,8|0,0:0|0:0,0:0:0:0:
176,272,126515,6,0,P|152:208|160:144,1,119.000002269745,8|0,0:0|0:0,0:0:0:0:
176,272,127087,6,0,P|152:208|160:136,1,140,8|0,0:0|0:0,0:0:0:0:
176,272,127658,5,8,0:0:0:0:
160,240,127729,1,8,0:0:0:0:
151,206,127800,1,8,0:0:0:0:
150,171,127872,1,8,0:0:0:0:
156,137,127943,1,8,0:0:0:0:
169,105,128015,1,8,0:0:0:0:
188,75,128086,1,8,0:0:0:0:
360,64,128230,5,2,0:0:0:0:
416,152,128372,1,2,0:0:0:0:
416,256,128515,1,2,0:0:0:0:
224,296,128658,1,2,0:0:0:0:
168,208,128801,1,2,0:0:0:0:
288,208,128944,1,2,0:0:0:0:
168,344,129087,6,2,P|120:320|112:296,1,70
80,208,129372,2,2,P|80:152|96:120,1,70
192,112,129658,5,2,0:0:0:0:
304,128,129801,1,2,0:0:0:0:
224,216,129944,2,0,P|232:264|360:232,1,210,8|0,0:0|0:0,0:0:0:0:
288,224,130515,2,0,P|288:272|416:240,1,210,8|0,0:0|0:0,0:0:0:0:
448,120,131087,5,2,0:0:0:0:
336,40,131230,1,2,0:0:0:0:
312,176,131372,1,2,0:0:0:0:
224,264,131515,1,2,0:0:0:0:
104,256,131658,2,0,P|72:176|160:216,1,210,8|0,0:0|0:0,0:0:0:0:
88,56,132372,5,0,0:0:0:0:
88,56,132515,2,0,P|112:112|216:152,1,175,8|0,0:0|0:0,0:0:0:0:
360,216,132944,1,2,0:0:0:0:
456,152,133087,1,2,0:0:0:0:
440,40,133230,1,2,0:0:0:0:
288,48,133372,6,0,L|224:120,1,87.5,8|0,0:0|0:0,0:0:0:0:
136,184,133658,1,2,0:0:0:0:
96,280,133801,1,2,0:0:0:0:
200,264,133944,1,2,0:0:0:0:
40,200,134087,1,2,0:0:0:0:
232,176,134230,2,0,P|288:184|312:208,1,87.5,8|0,0:0|0:0,0:0:0:0:
360,272,134515,2,0,P|400:304|448:304,2,87.5
208,96,134944,5,2,0:0:0:0:
208,96,135087,2,0,P|264:72|448:176,1,262.5,8|0,0:0|0:0,0:0:0:0:
210,112,135658,2,0,P|266:80|450:184,1,262.5,8|0,0:0|0:0,0:0:0:0:
216,128,136230,1,8,0:0:0:0:
250,102,136301,1,8,0:0:0:0:
292,88,136372,1,8,0:0:0:0:
335,88,136444,1,8,0:0:0:0:
377,102,136515,1,8,0:0:0:0:
411,128,136587,1,8,0:0:0:0:
436,164,136658,1,8,0:0:0:0:
464,288,136801,6,0,P|416:320|376:320,1,87.5,8|0,0:0|0:0,0:0:0:0:
272,312,137087,5,2,0:0:0:0:
229,305,137158,1,2,0:0:0:0:
195,278,137229,1,2,0:0:0:0:
80,80,137372,6,2,P|112:112|120:136,1,52.5000020027161
312,152,137658,6,2,P|280:184|272:208,1,52.5000020027161
296,288,137944,6,0,P|352:256|392:192,1,131.25000500679,2|0,0:0|0:0,0:0:0:0:
408,160,138372,2,0,P|424:128|456:104,2,52.5000020027161,2|0|2,0:0|0:0|0:0,0:0:0:0:
368,240,138801,2,0,B|328:304|328:304|240:304,1,157.500006008148,2|0,0:0|0:0,0:0:0:0:
152,304,139372,5,8,0:0:0:0:
127,295,139443,1,8,0:0:0:0:
109,276,139514,1,8,0:0:0:0:
102,251,139586,1,8,0:0:0:0:
96,232,139658,2,0,P|96:176|104:160,1,52.5000020027161,2|2,0:0|0:0,0:0:0:0:
160,48,139944,2,2,P|168:88|168:112,1,52.5000020027161
184,184,140230,2,2,B|208:232|208:232|272:256,1,105.000004005432
344,272,140658,6,0,P|392:280|416:280,2,52.5000020027161
264,248,141087,2,0,B|248:200|248:200|248:80,1,157.500006008148
248,16,141658,2,0,P|296:16|320:32,1,78.7500030040742
400,104,141944,5,0,0:0:0:0:
328,160,142087,1,0,0:0:0:0:
256,216,142230,2,0,L|200:264,2,52.5000020027161
328,160,142658,1,0,0:0:0:0:
240,120,142801,1,0,0:0:0:0:
176,192,142944,5,0,0:0:0:0:
120,264,143087,2,0,L|80:312,2,52.5000020027161
216,144,143515,5,0,0:0:0:0:
312,184,143658,1,0,0:0:0:0:
296,80,143801,1,0,0:0:0:0:
232,248,143944,2,0,P|232:288|240:304,1,52.5000020027161
104,184,144372,5,8,0:0:0:0:
106,157,144443,1,8,0:0:0:0:
116,134,144514,1,8,0:0:0:0:
134,114,144586,1,8,0:0:0:0:
156,101,144657,1,8,0:0:0:0:
182,95,144729,1,8,0:0:0:0:
208,96,144801,2,0,L|272:104,1,52.5000020027161
352,192,145087,2,0,L|416:200,2,52.5000020027161
224,184,145515,5,8,0:0:0:0:
200,194,145586,1,8,0:0:0:0:
180,211,145657,1,8,0:0:0:0:
165,233,145729,1,8,0:0:0:0:
157,258,145800,1,8,0:0:0:0:
157,284,145872,1,8,0:0:0:0:
160,312,145944,2,0,P|176:336|280:288,1,157.500006008148
312,144,146515,5,2,0:0:0:0:
408,48,146658,1,2,0:0:0:0:
464,248,146801,1,2,0:0:0:0:
336,256,146944,1,2,0:0:0:0:
392,152,147087,2,0,P|424:120|440:120,2,52.5000020027161
248,280,147515,5,2,0:0:0:0:
144,224,147658,1,2,0:0:0:0:
104,112,147801,1,2,0:0:0:0:
216,64,147944,2,0,P|256:48|280:8,2,87.5,2|0|2,0:0|0:0|0:0,0:0:0:0:
80,104,148372,2,0,P|32:144|88:224,1,175
208,256,148801,5,2,0:0:0:0:
328,280,148944,1,2,0:0:0:0:
416,120,149087,1,2,0:0:0:0:
464,248,149230,1,2,0:0:0:0:
272,168,149372,1,0,0:0:0:0:
256,128,149443,1,0,0:0:0:0:
267,86,149514,1,0,0:0:0:0:
352,8,149658,6,0,P|368:64|360:104,1,87.5
352,184,149944,2,0,P|344:232|352:280,1,87.5
376,344,150230,2,0,B|280:360|280:360|192:320,1,175
104,288,150658,2,0,P|56:224|120:216,1,175
118,214,151087,2,0,B|136:136|136:136|176:120,1,87.5
232,96,151372,2,0,B|214:174|214:174|174:190,1,87.5
128,128,151658,6,0,B|96:80|96:80|128:48,1,87.5
221,26,151944,2,0,B|253:74|253:74|221:106,1,87.5
128,128,152230,2,0,P|144:192|312:256,1,262.5
400,216,152801,2,0,P|432:144|352:152,1,175
361,137,153230,2,0,P|296:64|272:224,1,350
255,219,153944,2,0,P|279:360|149:302,1,350
112,176,154658,6,0,B|240:8|272:200|400:88,1,315.000012016297
456,40,155658,2,0,B|528:152|352:224|456:296,1,262.500010013581
472,360,156515,2,0,B|408:384|368:328|368:328|312:328,1,157.500006008148
248,304,157087,2,0,P|208:264|328:168,1,262.500010013581
432,240,157944,5,0,0:0:0:0:
288,232,158087,1,0,0:0:0:0:
368,104,158230,2,0,P|344:136|320:144,2,52.5000020027161
376,8,158658,5,0,0:0:0:0:
464,104,158801,1,0,0:0:0:0:
240,152,158944,1,0,0:0:0:0:
168,80,159087,1,0,0:0:0:0:
72,240,159230,1,0,0:0:0:0:
208,288,159372,6,0,L|232:304,3,26.2500010013581
256,312,159658,1,0,0:0:0:0:
279,324,159729,1,0,0:0:0:0:
304,329,159800,1,0,0:0:0:0:
330,329,159872,1,0,0:0:0:0:
356,321,159943,1,0,0:0:0:0:
378,308,160015,1,0,0:0:0:0:
396,289,160086,1,0,0:0:0:0:
409,267,160158,1,0,0:0:0:0:
416,248,160230,6,0,L|416:192,1,52.5000020027161
408,56,160515,2,0,L|360:88,1,52.5000020027161
248,144,160801,2,0,P|224:184|216:208,2,52.5000020027161
352,112,161230,1,0,0:0:0:0:
352,112,161372,2,0,P|376:80|384:56,2,52.5000020027161
88,200,161801,5,0,0:0:0:0:
88,200,161944,2,0,L|112:256,1,52.5000020027161
208,312,162230,2,0,L|184:256,1,52.5000020027161
120,96,162515,6,0,P|152:64|176:56,1,52.5000020027161
368,64,162801,2,0,P|352:96|352:120,1,52.5000020027161
192,224,163087,2,0,P|176:256|160:272,1,52.5000020027161
344,184,163515,5,0,0:0:0:0:
344,184,163658,2,0,P|360:224|416:200,1,105.000004005432
400,88,164087,1,0,0:0:0:0:
400,88,164230,2,0,B|344:64|344:64|288:88,1,105.000004005432
208,112,164658,1,0,0:0:0:0:
80,192,164801,5,0,0:0:0:0:
80,192,164872,1,0,0:0:0:0:
80,192,164944,1,0,0:0:0:0:
96,104,165087,2,0,P|136:120|152:136,1,52.5000020027161
224,184,165372,2,0,P|256:208|280:208,1,52.5000020027161
400,72,165801,5,0,0:0:0:0:
400,72,165944,2,0,L|408:128,1,52.5000020027161
408,232,166230,2,0,B|384:272|384:272|328:288,1,105.000004005432
200,312,166658,1,0,0:0:0:0:
80,248,166801,2,0,B|64:208|64:208|104:176|56:80,1,157.500006008148
136,40,167372,6,0,B|160:96|160:96|208:104|208:104|232:168,1,157.500006008148
280,264,167944,2,0,P|296:288|320:296,1,52.5000020027161
440,272,168230,2,0,P|448:232|440:208,1,52.5000020027161
384,128,168515,2,0,P|352:128|328:136,1,52.5000020027161
216,192,168801,6,0,P|184:160|184:104,2,78.7500030040742
312,248,169372,2,0,P|392:256|448:232,1,140
178,262,169944,2,0,P|258:270|314:246,1,140
44,276,170515,2,0,P|124:284|180:260,1,140
208,144,171087,6,0,P|232:104|256:88,1,70
336,64,171372,2,0,B|344:136|344:136|320:192,1,105
280,240,171658,2,0,B|216:304|128:304|80:248|64:208|64:160|96:120|144:96|544:208|264:112|304:24|232:0|192:0|120:24|80:8|48:104|40:168,1,770
56,272,173372,5,0,0:0:0:0:
144,352,173515,1,0,0:0:0:0:
272,328,173658,2,0,P|312:312|336:288,1,70
392,216,173944,5,0,0:0:0:0:
425,176,174015,1,0,0:0:0:0:
434,125,174086,1,0,0:0:0:0:
415,77,174158,1,0,0:0:0:0:
374,45,174229,1,0,0:0:0:0:
322,39,174301,1,0,0:0:0:0:
275,60,174372,1,0,0:0:0:0:
260,195,174515,5,0,0:0:0:0:
213,216,174586,1,0,0:0:0:0:
161,210,174658,1,0,0:0:0:0:
120,178,174729,1,0,0:0:0:0:
101,130,174801,1,0,0:0:0:0:
110,79,174872,1,0,0:0:0:0:
144,40,174943,1,0,0:0:0:0:
336,56,175230,5,0,0:0:0:0:
336,56,175372,2,0,P|352:112|344:168,1,105.000004005432
280,328,175658,2,0,P|256:264|264:208,1,105.000004005432
248,112,175944,2,0,P|200:64|152:56,1,105.000004005432
64,160,176230,6,0,L|32:184,3,35
136,232,176515,2,0,L|152:272,3,35
240,216,176801,2,0,L|288:184,3,52.5000020027161
384,120,177087,2,0,P|440:128|472:176,1,105.000004005432
256,64,177372,6,0,L|192:48,2,52.5000020027161
320,144,177658,6,0,L|384:160,2,52.5000020027161
184,104,177944,1,0,0:0:0:0:
132,92,178015,1,0,0:0:0:0:
81,80,178086,1,0,0:0:0:0:
59,124,178158,1,0,0:0:0:0:
62,176,178229,1,0,0:0:0:0:
27,210,178301,1,0,0:0:0:0:
23,248,178372,1,0,0:0:0:0:
120,304,178515,6,0,P|176:328|208:320,1,70
288,320,178801,2,0,P|344:288|360:240,1,105
368,216,179087,2,0,P|360:160|336:136,1,70
328,120,179301,2,0,P|312:64|320:40,1,70
320,16,179515,2,0,P|368:40|432:128,1,140
432,200,179944,2,0,P|384:280|256:272,1,210
168,216,180515,2,0,L|136:192,1,35
248,56,180801,5,0,0:0:0:0:
200,136,180944,1,0,0:0:0:0:
336,144,181087,2,0,P|376:168|400:208,1,70
416,96,181372,2,0,P|408:160|392:184,1,70
360,248,181658,2,0,P|328:296|288:312,1,70
88,328,181944,6,0,B|160:280|160:280|136:216|136:216|200:176,1,210
240,120,182515,6,0,B|286:149|286:149|262:213|262:213|334:261,1,210
256,192,183087,12,0,185515,0:0:0:0:
88,128,185658,6,0,P|128:96|152:88,1,70
280,56,185944,1,0,0:0:0:0:
280,56,186087,1,0,0:0:0:0:
232,144,186230,6,0,P|208:184|208:224,1,70
216,312,186515,1,0,0:0:0:0:
216,312,186658,1,0,0:0:0:0:
312,256,186801,6,0,P|336:216|360:200,1,70
464,128,187087,1,0,0:0:0:0:
368,64,187230,1,0,0:0:0:0:
248,56,187372,1,0,0:0:0:0:
128,88,187515,1,0,0:0:0:0:
56,232,187658,2,0,P|154:204|198:113,1,210
