osu file format v14

[General]
AudioFilename: Yanaginagi - Landscape.mp3
AudioLeadIn: 0
PreviewTime: 64328
Countdown: 0
SampleSet: None
StackLeniency: 0.7
Mode: 3
LetterboxInBreaks: 0
SpecialStyle: 0
WidescreenStoryboard: 0

[Editor]
Bookmarks: 119493
DistanceSpacing: 1.6
BeatDivisor: 4
GridSize: 4
TimelineZoom: 2.7

[Metadata]
Title:Landscape
TitleUnicode:Landscape
Artist:Yanaginagi
ArtistUnicode:Yanaginagi
Creator:Applequestria
Version:For Kawawa
Source:
Tags:
BeatmapID:4536948
BeatmapSetID:677745

[Difficulty]
HPDrainRate:8
CircleSize:7
OverallDifficulty:8
ApproachRate:5
SliderMultiplier:1.4
SliderTickRate:1

[Events]
//Background and Video events
0,0,"Yanaginagi - Landscape.jpg",0,0
//Break Periods
//Storyboard Layer 0 (Background)
//Storyboard Layer 1 (Fail)
//Storyboard Layer 2 (Pass)
//Storyboard Layer 3 (Foreground)
//Storyboard Layer 4 (Overlay)
//Storyboard Sound Samples

[TimingPoints]
425,372.670807453416,4,2,0,10,1,0
64524,-100,4,2,0,10,0,1
88375,-100,4,2,0,10,0,0
137567,-100,4,2,0,10,0,1
161418,-100,4,2,0,10,0,0
194213,-100,4,2,0,10,0,1
218064,-100,4,2,0,10,0,0

[HitObjects]
36,192,425,5,0,0:0:0:0:
475,192,425,5,0,0:0:0:0:
109,192,425,1,0,0:0:0:0:
256,192,425,1,0,0:0:0:0:
402,192,425,1,0,0:0:0:0:
402,192,984,1,0,0:0:0:0:
475,192,984,1,0,0:0:0:0:
256,192,984,1,0,0:0:0:0:
329,192,1356,1,0,0:0:0:0:
475,192,1356,1,0,0:0:0:0:
256,192,1543,1,0,0:0:0:0:
402,192,1543,1,0,0:0:0:0:
182,192,1729,1,0,0:0:0:0:
329,192,1729,1,0,0:0:0:0:
36,192,1915,1,0,0:0:0:0:
109,192,1915,1,0,0:0:0:0:
256,192,1915,1,0,0:0:0:0:
329,192,2661,1,0,0:0:0:0:
182,192,2661,1,0,0:0:0:0:
256,192,3406,1,0,0:0:0:0:
402,192,3406,1,0,0:0:0:0:
475,192,3406,1,0,0:0:0:0:
182,192,3406,1,0,0:0:0:0:
36,192,3406,1,0,0:0:0:0:
329,192,3592,1,0,0:0:0:0:
109,192,3592,1,0,0:0:0:0:
182,192,3779,1,0,0:0:0:0:
36,192,3779,1,0,0:0:0:0:
475,192,3965,1,0,0:0:0:0:
402,192,3965,1,0,0:0:0:0:
256,192,3965,1,0,0:0:0:0:
182,192,4151,1,0,0:0:0:0:
36,192,4151,1,0,0:0:0:0:
109,192,4338,1,0,0:0:0:0:
475,192,4338,1,0,0:0:0:0:
329,192,4338,1,0,0:0:0:0:
256,192,4524,1,0,0:0:0:0:
402,192,4524,1,0,0:0:0:0:
182,192,4710,1,0,0:0:0:0:
329,192,4710,1,0,0:0:0:0:
256,192,4897,1,0,0:0:0:0:
402,192,4897,1,0,0:0:0:0:
475,192,4897,1,0,0:0:0:0:
109,192,4897,1,0,0:0:0:0:
36,192,4897,1,0,0:0:0:0:
475,192,5269,128,0,5642:0:0:0:0:
329,192,5269,128,0,5642:0:0:0:0:
182,192,5269,1,0,0:0:0:0:
402,192,5642,128,0,6015:0:0:0:0:
256,192,5642,128,0,6015:0:0:0:0:
109,192,5642,1,0,0:0:0:0:
36,192,6015,1,0,0:0:0:0:
329,192,6015,128,0,6387:0:0:0:0:
182,192,6015,128,0,6387:0:0:0:0:
402,192,6387,1,0,0:0:0:0:
475,192,6387,1,0,0:0:0:0:
36,192,6387,1,0,0:0:0:0:
109,192,6387,1,0,0:0:0:0:
256,192,6387,1,0,0:0:0:0:
329,192,6574,1,0,0:0:0:0:
182,192,6574,1,0,0:0:0:0:
36,192,6760,1,0,0:0:0:0:
109,192,6760,1,0,0:0:0:0:
402,192,6946,1,0,0:0:0:0:
475,192,6946,1,0,0:0:0:0:
256,192,6946,1,0,0:0:0:0:
36,192,7133,1,0,0:0:0:0:
109,192,7133,1,0,0:0:0:0:
329,192,7319,1,0,0:0:0:0:
475,192,7319,1,0,0:0:0:0:
182,192,7319,1,0,0:0:0:0:
256,192,7505,1,0,0:0:0:0:
402,192,7505,1,0,0:0:0:0:
182,192,7692,1,0,0:0:0:0:
329,192,7692,1,0,0:0:0:0:
36,192,7878,128,0,8530:0:0:0:0:
109,192,7878,128,0,8530:0:0:0:0:
256,192,7878,128,0,8530:0:0:0:0:
402,192,7878,128,0,8530:0:0:0:0:
475,192,7878,128,0,8530:0:0:0:0:
36,192,8623,128,0,9275:0:0:0:0:
109,192,8623,128,0,9275:0:0:0:0:
256,192,8623,128,0,9275:0:0:0:0:
329,192,8623,128,0,9275:0:0:0:0:
402,192,8623,128,0,9275:0:0:0:0:
109,192,9369,128,0,10766:0:0:0:0:
182,192,9369,128,0,10766:0:0:0:0:
329,192,9369,128,0,10766:0:0:0:0:
402,192,9369,128,0,10766:0:0:0:0:
475,192,9369,128,0,10766:0:0:0:0:
36,192,10859,128,0,12257:0:0:0:0:
109,192,10859,128,0,12257:0:0:0:0:
256,192,10859,128,0,12257:0:0:0:0:
475,192,10859,128,0,12257:0:0:0:0:
402,192,10859,128,0,12257:0:0:0:0:
36,192,12350,1,0,0:0:0:0:
109,192,12350,1,0,0:0:0:0:
256,192,12350,1,0,0:0:0:0:
402,192,12350,1,0,0:0:0:0:
475,192,12350,1,0,0:0:0:0:
182,192,12598,1,0,0:0:0:0:
329,192,12598,1,0,0:0:0:0:
256,192,12847,1,0,0:0:0:0:
109,192,12847,1,0,0:0:0:0:
36,192,12847,1,0,0:0:0:0:
182,192,13095,128,0,14586:0:0:0:0:
329,192,13654,128,0,14586:0:0:0:0:
36,192,14586,1,0,0:0:0:0:
475,192,14586,1,0,0:0:0:0:
109,192,14586,1,0,0:0:0:0:
402,192,14586,1,0,0:0:0:0:
256,192,14586,1,0,0:0:0:0:
475,192,14772,1,0,0:0:0:0:
36,192,14772,1,0,0:0:0:0:
182,192,14772,1,0,0:0:0:0:
329,192,14772,1,0,0:0:0:0:
402,192,14865,1,0,0:0:0:0:
109,192,14865,1,0,0:0:0:0:
36,192,14959,1,0,0:0:0:0:
475,192,14959,1,0,0:0:0:0:
256,192,14959,1,0,0:0:0:0:
182,192,14959,1,0,0:0:0:0:
329,192,14959,1,0,0:0:0:0:
109,192,15145,1,0,0:0:0:0:
402,192,15145,1,0,0:0:0:0:
36,192,15145,1,0,0:0:0:0:
475,192,15145,1,0,0:0:0:0:
182,192,15238,1,0,0:0:0:0:
329,192,15238,1,0,0:0:0:0:
36,192,15331,1,0,0:0:0:0:
475,192,15331,1,0,0:0:0:0:
256,192,15331,1,0,0:0:0:0:
109,192,15331,1,0,0:0:0:0:
402,192,15331,1,0,0:0:0:0:
36,192,15518,1,0,0:0:0:0:
256,192,15518,1,0,0:0:0:0:
475,192,15518,1,0,0:0:0:0:
109,192,15611,1,0,0:0:0:0:
329,192,15611,1,0,0:0:0:0:
182,192,15704,1,0,0:0:0:0:
475,192,15704,1,0,0:0:0:0:
402,192,15704,1,0,0:0:0:0:
36,192,15704,1,0,0:0:0:0:
329,192,15797,1,0,0:0:0:0:
36,192,15890,1,0,0:0:0:0:
256,192,15890,1,0,0:0:0:0:
475,192,15890,1,0,0:0:0:0:
402,192,15984,1,0,0:0:0:0:
182,192,15984,1,0,0:0:0:0:
475,192,16077,1,0,0:0:0:0:
109,192,16077,1,0,0:0:0:0:
36,192,16077,1,0,0:0:0:0:
329,192,16077,1,0,0:0:0:0:
256,192,16170,1,0,0:0:0:0:
182,192,16263,1,0,0:0:0:0:
109,192,16263,1,0,0:0:0:0:
402,192,16263,1,0,0:0:0:0:
475,192,16263,1,0,0:0:0:0:
329,192,16356,1,0,0:0:0:0:
475,192,16449,1,0,0:0:0:0:
256,192,16449,1,0,0:0:0:0:
182,192,16449,1,0,0:0:0:0:
36,192,16449,1,0,0:0:0:0:
402,192,16543,1,0,0:0:0:0:
475,192,16636,1,0,0:0:0:0:
329,192,16636,1,0,0:0:0:0:
256,192,16636,1,0,0:0:0:0:
109,192,16636,1,0,0:0:0:0:
36,192,16636,1,0,0:0:0:0:
109,192,16822,1,0,0:0:0:0:
36,192,16822,1,0,0:0:0:0:
256,192,16822,1,0,0:0:0:0:
329,192,16915,1,0,0:0:0:0:
182,192,16915,1,0,0:0:0:0:
256,192,17008,1,0,0:0:0:0:
475,192,17008,1,0,0:0:0:0:
402,192,17008,1,0,0:0:0:0:
36,192,17008,1,0,0:0:0:0:
109,192,17102,1,0,0:0:0:0:
329,192,17102,1,0,0:0:0:0:
36,192,17195,1,0,0:0:0:0:
475,192,17195,1,0,0:0:0:0:
182,192,17195,1,0,0:0:0:0:
402,192,17195,1,0,0:0:0:0:
475,192,17381,1,0,0:0:0:0:
256,192,17381,1,0,0:0:0:0:
402,192,17381,1,0,0:0:0:0:
182,192,17474,1,0,0:0:0:0:
329,192,17474,1,0,0:0:0:0:
36,192,17567,1,0,0:0:0:0:
475,192,17567,1,0,0:0:0:0:
109,192,17567,1,0,0:0:0:0:
256,192,17567,1,0,0:0:0:0:
402,192,17754,1,0,0:0:0:0:
329,192,17754,1,0,0:0:0:0:
182,192,17754,1,0,0:0:0:0:
256,192,17847,1,0,0:0:0:0:
109,192,17847,1,0,0:0:0:0:
475,192,17940,1,0,0:0:0:0:
36,192,17940,1,0,0:0:0:0:
182,192,17940,1,0,0:0:0:0:
402,192,17940,1,0,0:0:0:0:
36,192,18126,1,0,0:0:0:0:
182,192,18126,1,0,0:0:0:0:
109,192,18220,1,0,0:0:0:0:
256,192,18220,1,0,0:0:0:0:
475,192,18313,1,0,0:0:0:0:
36,192,18313,1,0,0:0:0:0:
329,192,18313,1,0,0:0:0:0:
182,192,18313,1,0,0:0:0:0:
402,192,18406,1,0,0:0:0:0:
36,192,18499,1,0,0:0:0:0:
329,192,18499,1,0,0:0:0:0:
109,192,18499,1,0,0:0:0:0:
402,192,18592,1,0,0:0:0:0:
182,192,18592,1,0,0:0:0:0:
256,192,18685,1,0,0:0:0:0:
36,192,18685,1,0,0:0:0:0:
475,192,18685,1,0,0:0:0:0:
329,192,18685,1,0,0:0:0:0:
109,192,18779,1,0,0:0:0:0:
182,192,18872,1,0,0:0:0:0:
402,192,18872,1,0,0:0:0:0:
109,192,18965,1,0,0:0:0:0:
329,192,18965,1,0,0:0:0:0:
475,192,19058,1,0,0:0:0:0:
36,192,19058,1,0,0:0:0:0:
256,192,19058,1,0,0:0:0:0:
182,192,19058,1,0,0:0:0:0:
402,192,19151,1,0,0:0:0:0:
329,192,19244,1,0,0:0:0:0:
256,192,19244,1,0,0:0:0:0:
109,192,19244,1,0,0:0:0:0:
36,192,19244,1,0,0:0:0:0:
475,192,19338,1,0,0:0:0:0:
402,192,19431,1,0,0:0:0:0:
329,192,19431,1,0,0:0:0:0:
182,192,19431,1,0,0:0:0:0:
109,192,19431,1,0,0:0:0:0:
36,192,19524,1,0,0:0:0:0:
475,192,19617,1,0,0:0:0:0:
182,192,19617,1,0,0:0:0:0:
256,192,19617,1,0,0:0:0:0:
402,192,19617,1,0,0:0:0:0:
36,192,19803,1,0,0:0:0:0:
109,192,19803,1,0,0:0:0:0:
329,192,19803,1,0,0:0:0:0:
182,192,19897,1,0,0:0:0:0:
402,192,19897,1,0,0:0:0:0:
475,192,19990,1,0,0:0:0:0:
256,192,19990,1,0,0:0:0:0:
36,192,19990,1,0,0:0:0:0:
109,192,20083,1,0,0:0:0:0:
329,192,20083,1,0,0:0:0:0:
475,192,20176,1,0,0:0:0:0:
36,192,20176,1,0,0:0:0:0:
402,192,20176,1,0,0:0:0:0:
182,192,20176,1,0,0:0:0:0:
109,192,20269,1,0,0:0:0:0:
256,192,20269,1,0,0:0:0:0:
329,192,20269,1,0,0:0:0:0:
475,192,20362,1,0,0:0:0:0:
36,192,20362,1,0,0:0:0:0:
182,192,20362,1,0,0:0:0:0:
402,192,20362,1,0,0:0:0:0:
256,192,20549,1,0,0:0:0:0:
109,192,20549,1,0,0:0:0:0:
402,192,20549,1,0,0:0:0:0:
329,192,20642,1,0,0:0:0:0:
182,192,20642,1,0,0:0:0:0:
256,192,20735,1,0,0:0:0:0:
36,192,20735,1,0,0:0:0:0:
475,192,20735,1,0,0:0:0:0:
182,192,20828,1,0,0:0:0:0:
329,192,20828,1,0,0:0:0:0:
256,192,20921,1,0,0:0:0:0:
475,192,20921,1,0,0:0:0:0:
36,192,20921,1,0,0:0:0:0:
109,192,21015,1,0,0:0:0:0:
402,192,21015,1,0,0:0:0:0:
182,192,21108,1,0,0:0:0:0:
256,192,21108,1,0,0:0:0:0:
329,192,21108,1,0,0:0:0:0:
109,192,21201,1,0,0:0:0:0:
402,192,21201,1,0,0:0:0:0:
475,192,21294,1,0,0:0:0:0:
36,192,21294,1,0,0:0:0:0:
182,192,21294,1,0,0:0:0:0:
329,192,21294,1,0,0:0:0:0:
256,192,21294,1,0,0:0:0:0:
109,192,21387,1,0,0:0:0:0:
329,192,21480,1,0,0:0:0:0:
402,192,21480,1,0,0:0:0:0:
475,192,21480,1,0,0:0:0:0:
182,192,21480,1,0,0:0:0:0:
36,192,21574,1,0,0:0:0:0:
109,192,21667,1,0,0:0:0:0:
256,192,21667,1,0,0:0:0:0:
329,192,21667,1,0,0:0:0:0:
402,192,21667,1,0,0:0:0:0:
475,192,21760,1,0,0:0:0:0:
182,192,21853,1,0,0:0:0:0:
256,192,21853,1,0,0:0:0:0:
329,192,21853,1,0,0:0:0:0:
36,192,21853,1,0,0:0:0:0:
36,192,22226,1,0,0:0:0:0:
109,192,22226,1,0,0:0:0:0:
329,192,22226,1,0,0:0:0:0:
475,192,22226,1,0,0:0:0:0:
256,192,22319,1,0,0:0:0:0:
36,192,22412,1,0,0:0:0:0:
402,192,22412,1,0,0:0:0:0:
475,192,22412,1,0,0:0:0:0:
182,192,22412,1,0,0:0:0:0:
256,192,22505,1,0,0:0:0:0:
329,192,22598,1,0,0:0:0:0:
109,192,22598,1,0,0:0:0:0:
475,192,22598,1,0,0:0:0:0:
36,192,22598,1,0,0:0:0:0:
182,192,22971,1,0,0:0:0:0:
475,192,22971,1,0,0:0:0:0:
402,192,22971,1,0,0:0:0:0:
36,192,22971,1,0,0:0:0:0:
256,192,23064,1,0,0:0:0:0:
36,192,23157,1,0,0:0:0:0:
109,192,23157,1,0,0:0:0:0:
329,192,23157,1,0,0:0:0:0:
475,192,23157,1,0,0:0:0:0:
256,192,23251,1,0,0:0:0:0:
36,192,23344,1,0,0:0:0:0:
182,192,23344,1,0,0:0:0:0:
402,192,23344,1,0,0:0:0:0:
475,192,23344,1,0,0:0:0:0:
475,192,23716,1,0,0:0:0:0:
36,192,23716,1,0,0:0:0:0:
182,192,23716,1,0,0:0:0:0:
329,192,23716,1,0,0:0:0:0:
109,192,23810,1,0,0:0:0:0:
256,192,23810,1,0,0:0:0:0:
402,192,23810,1,0,0:0:0:0:
475,192,23903,1,0,0:0:0:0:
36,192,23903,1,0,0:0:0:0:
182,192,23903,1,0,0:0:0:0:
329,192,23903,1,0,0:0:0:0:
109,192,23996,1,0,0:0:0:0:
402,192,23996,1,0,0:0:0:0:
182,192,24089,1,0,0:0:0:0:
329,192,24089,1,0,0:0:0:0:
256,192,24089,1,0,0:0:0:0:
402,192,24182,1,0,0:0:0:0:
109,192,24182,1,0,0:0:0:0:
475,192,24275,1,0,0:0:0:0:
36,192,24275,1,0,0:0:0:0:
182,192,24275,1,0,0:0:0:0:
329,192,24275,1,0,0:0:0:0:
256,192,24275,1,0,0:0:0:0:
109,192,24369,1,0,0:0:0:0:
182,192,24462,1,0,0:0:0:0:
475,192,24462,1,0,0:0:0:0:
402,192,24462,1,0,0:0:0:0:
109,192,24555,1,0,0:0:0:0:
329,192,24555,1,0,0:0:0:0:
475,192,24648,1,0,0:0:0:0:
36,192,24648,1,0,0:0:0:0:
256,192,24648,1,0,0:0:0:0:
182,192,24741,1,0,0:0:0:0:
329,192,24834,1,0,0:0:0:0:
475,192,24834,1,0,0:0:0:0:
36,192,24834,1,0,0:0:0:0:
109,192,24928,1,0,0:0:0:0:
402,192,24928,1,0,0:0:0:0:
256,192,24928,1,0,0:0:0:0:
182,192,25021,1,0,0:0:0:0:
36,192,25021,1,0,0:0:0:0:
475,192,25021,1,0,0:0:0:0:
329,192,25021,1,0,0:0:0:0:
402,192,25207,1,0,0:0:0:0:
182,192,25207,1,0,0:0:0:0:
256,192,25207,1,0,0:0:0:0:
36,192,25207,1,0,0:0:0:0:
182,192,25393,1,0,0:0:0:0:
109,192,25393,1,0,0:0:0:0:
329,192,25393,1,0,0:0:0:0:
475,192,25393,1,0,0:0:0:0:
256,192,25580,1,0,0:0:0:0:
109,192,25580,1,0,0:0:0:0:
36,192,25580,1,0,0:0:0:0:
402,192,25580,1,0,0:0:0:0:
475,192,25580,1,0,0:0:0:0:
475,192,26325,1,0,0:0:0:0:
256,192,26325,1,0,0:0:0:0:
402,192,26325,1,0,0:0:0:0:
36,192,26511,1,0,0:0:0:0:
109,192,26558,1,0,0:0:0:0:
182,192,26605,1,0,0:0:0:0:
256,192,26651,1,0,0:0:0:0:
329,192,26698,1,0,0:0:0:0:
475,192,26698,1,0,0:0:0:0:
256,192,26744,1,0,0:0:0:0:
182,192,26791,1,0,0:0:0:0:
109,192,26838,1,0,0:0:0:0:
402,192,26884,1,0,0:0:0:0:
36,192,26884,1,0,0:0:0:0:
329,192,26931,1,0,0:0:0:0:
256,192,26977,1,0,0:0:0:0:
182,192,27024,1,0,0:0:0:0:
475,192,27070,1,0,0:0:0:0:
109,192,27070,1,0,0:0:0:0:
402,192,27117,1,0,0:0:0:0:
329,192,27164,1,0,0:0:0:0:
256,192,27210,1,0,0:0:0:0:
475,192,27257,1,0,0:0:0:0:
36,192,27257,1,0,0:0:0:0:
182,192,27257,1,0,0:0:0:0:
109,192,27443,1,0,0:0:0:0:
182,192,27629,1,0,0:0:0:0:
402,192,27629,1,0,0:0:0:0:
475,192,27629,1,0,0:0:0:0:
256,192,27816,1,0,0:0:0:0:
402,192,27816,1,0,0:0:0:0:
329,192,27816,1,0,0:0:0:0:
109,192,28188,1,0,0:0:0:0:
402,192,28188,1,0,0:0:0:0:
475,192,28188,1,0,0:0:0:0:
182,192,28375,1,0,0:0:0:0:
256,192,28561,1,0,0:0:0:0:
402,192,28561,1,0,0:0:0:0:
329,192,28561,1,0,0:0:0:0:
36,192,28747,1,0,0:0:0:0:
182,192,28747,1,0,0:0:0:0:
109,192,28934,1,0,0:0:0:0:
182,192,29120,1,0,0:0:0:0:
402,192,29120,1,0,0:0:0:0:
475,192,29120,1,0,0:0:0:0:
256,192,29306,1,0,0:0:0:0:
402,192,29306,1,0,0:0:0:0:
329,192,29306,1,0,0:0:0:0:
109,192,29679,1,0,0:0:0:0:
402,192,29679,1,0,0:0:0:0:
475,192,29679,1,0,0:0:0:0:
182,192,29865,1,0,0:0:0:0:
256,192,30052,1,0,0:0:0:0:
329,192,30052,1,0,0:0:0:0:
402,192,30052,1,0,0:0:0:0:
36,192,30238,1,0,0:0:0:0:
182,192,30238,1,0,0:0:0:0:
402,192,30238,1,0,0:0:0:0:
475,192,30238,1,0,0:0:0:0:
109,192,30424,1,0,0:0:0:0:
182,192,30611,1,0,0:0:0:0:
256,192,30797,1,0,0:0:0:0:
402,192,30797,1,0,0:0:0:0:
475,192,30797,1,0,0:0:0:0:
402,192,30984,1,0,0:0:0:0:
329,192,30984,1,0,0:0:0:0:
109,192,31170,1,0,0:0:0:0:
182,192,31356,1,0,0:0:0:0:
256,192,31543,1,0,0:0:0:0:
36,192,31729,1,0,0:0:0:0:
182,192,31729,1,0,0:0:0:0:
109,192,31915,1,0,0:0:0:0:
182,192,32102,1,0,0:0:0:0:
256,192,32288,1,0,0:0:0:0:
109,192,32661,1,0,0:0:0:0:
182,192,32847,1,0,0:0:0:0:
256,192,33033,1,0,0:0:0:0:
475,192,33220,1,0,0:0:0:0:
329,192,33220,1,0,0:0:0:0:
402,192,33406,1,0,0:0:0:0:
329,192,33592,1,0,0:0:0:0:
109,192,33592,1,0,0:0:0:0:
182,192,33592,1,0,0:0:0:0:
256,192,33779,1,0,0:0:0:0:
109,192,33779,1,0,0:0:0:0:
36,192,33779,1,0,0:0:0:0:
402,192,34151,1,0,0:0:0:0:
109,192,34151,1,0,0:0:0:0:
182,192,34151,1,0,0:0:0:0:
329,192,34338,1,0,0:0:0:0:
256,192,34524,1,0,0:0:0:0:
109,192,34524,1,0,0:0:0:0:
36,192,34524,1,0,0:0:0:0:
475,192,34710,1,0,0:0:0:0:
329,192,34710,1,0,0:0:0:0:
402,192,34897,1,0,0:0:0:0:
329,192,35083,1,0,0:0:0:0:
109,192,35083,1,0,0:0:0:0:
182,192,35083,1,0,0:0:0:0:
256,192,35269,1,0,0:0:0:0:
109,192,35269,1,0,0:0:0:0:
36,192,35269,1,0,0:0:0:0:
402,192,35642,1,0,0:0:0:0:
109,192,35642,1,0,0:0:0:0:
182,192,35642,1,0,0:0:0:0:
329,192,35828,1,0,0:0:0:0:
256,192,36015,1,0,0:0:0:0:
109,192,36015,1,0,0:0:0:0:
36,192,36015,1,0,0:0:0:0:
475,192,36201,1,0,0:0:0:0:
329,192,36201,1,0,0:0:0:0:
402,192,36387,1,0,0:0:0:0:
329,192,36574,1,0,0:0:0:0:
109,192,36574,1,0,0:0:0:0:
182,192,36574,1,0,0:0:0:0:
256,192,36760,1,0,0:0:0:0:
109,192,36760,1,0,0:0:0:0:
36,192,36760,1,0,0:0:0:0:
402,192,37133,1,0,0:0:0:0:
109,192,37133,1,0,0:0:0:0:
182,192,37133,1,0,0:0:0:0:
329,192,37319,1,0,0:0:0:0:
256,192,37505,1,0,0:0:0:0:
109,192,37505,1,0,0:0:0:0:
36,192,37505,1,0,0:0:0:0:
329,192,37692,128,0,38344:0:0:0:0:
475,192,37692,128,0,38344:0:0:0:0:
182,192,38251,128,0,38344:0:0:0:0:
36,192,38251,128,0,38344:0:0:0:0:
36,192,38437,1,0,0:0:0:0:
182,192,38437,1,0,0:0:0:0:
329,192,38437,1,0,0:0:0:0:
475,192,38437,1,0,0:0:0:0:
109,192,38530,1,0,0:0:0:0:
402,192,38530,1,0,0:0:0:0:
182,192,38623,1,0,0:0:0:0:
329,192,38623,1,0,0:0:0:0:
256,192,38623,1,0,0:0:0:0:
109,192,38716,1,0,0:0:0:0:
402,192,38716,1,0,0:0:0:0:
36,192,38810,1,0,0:0:0:0:
475,192,38810,1,0,0:0:0:0:
182,192,38810,1,0,0:0:0:0:
329,192,38810,1,0,0:0:0:0:
109,192,38996,1,0,0:0:0:0:
182,192,38996,1,0,0:0:0:0:
329,192,38996,1,0,0:0:0:0:
402,192,38996,1,0,0:0:0:0:
36,192,39182,1,0,0:0:0:0:
182,192,39182,1,0,0:0:0:0:
256,192,39182,1,0,0:0:0:0:
329,192,39182,1,0,0:0:0:0:
475,192,39182,1,0,0:0:0:0:
109,192,39275,1,0,0:0:0:0:
182,192,39369,1,0,0:0:0:0:
329,192,39369,1,0,0:0:0:0:
475,192,39369,1,0,0:0:0:0:
109,192,39462,1,0,0:0:0:0:
256,192,39462,1,0,0:0:0:0:
36,192,39555,1,0,0:0:0:0:
475,192,39555,1,0,0:0:0:0:
182,192,39555,1,0,0:0:0:0:
402,192,39555,1,0,0:0:0:0:
256,192,39648,1,0,0:0:0:0:
329,192,39741,1,0,0:0:0:0:
109,192,39741,1,0,0:0:0:0:
36,192,39741,1,0,0:0:0:0:
475,192,39741,1,0,0:0:0:0:
182,192,39834,1,0,0:0:0:0:
256,192,39834,1,0,0:0:0:0:
475,192,39928,1,0,0:0:0:0:
36,192,39928,1,0,0:0:0:0:
402,192,39928,1,0,0:0:0:0:
329,192,39928,1,0,0:0:0:0:
256,192,40021,1,0,0:0:0:0:
182,192,40114,1,0,0:0:0:0:
36,192,40114,1,0,0:0:0:0:
402,192,40114,1,0,0:0:0:0:
475,192,40114,1,0,0:0:0:0:
329,192,40207,1,0,0:0:0:0:
109,192,40207,1,0,0:0:0:0:
256,192,40300,1,0,0:0:0:0:
475,192,40300,1,0,0:0:0:0:
36,192,40300,1,0,0:0:0:0:
402,192,40393,1,0,0:0:0:0:
182,192,40393,1,0,0:0:0:0:
329,192,40487,1,0,0:0:0:0:
109,192,40487,1,0,0:0:0:0:
36,192,40487,1,0,0:0:0:0:
475,192,40487,1,0,0:0:0:0:
182,192,40580,1,0,0:0:0:0:
256,192,40580,1,0,0:0:0:0:
36,192,40673,1,0,0:0:0:0:
109,192,40673,1,0,0:0:0:0:
475,192,40673,1,0,0:0:0:0:
329,192,40673,1,0,0:0:0:0:
402,192,40766,1,0,0:0:0:0:
329,192,40859,1,0,0:0:0:0:
182,192,40859,1,0,0:0:0:0:
36,192,40859,1,0,0:0:0:0:
402,192,40952,1,0,0:0:0:0:
256,192,40952,1,0,0:0:0:0:
475,192,41046,1,0,0:0:0:0:
36,192,41046,1,0,0:0:0:0:
329,192,41046,1,0,0:0:0:0:
109,192,41046,1,0,0:0:0:0:
256,192,41139,1,0,0:0:0:0:
182,192,41232,1,0,0:0:0:0:
402,192,41232,1,0,0:0:0:0:
475,192,41232,1,0,0:0:0:0:
36,192,41232,1,0,0:0:0:0:
329,192,41325,1,0,0:0:0:0:
256,192,41325,1,0,0:0:0:0:
36,192,41418,1,0,0:0:0:0:
475,192,41418,1,0,0:0:0:0:
109,192,41418,1,0,0:0:0:0:
182,192,41418,1,0,0:0:0:0:
256,192,41511,1,0,0:0:0:0:
329,192,41605,1,0,0:0:0:0:
475,192,41605,1,0,0:0:0:0:
109,192,41605,1,0,0:0:0:0:
36,192,41605,1,0,0:0:0:0:
182,192,41698,1,0,0:0:0:0:
402,192,41698,1,0,0:0:0:0:
256,192,41791,1,0,0:0:0:0:
36,192,41791,1,0,0:0:0:0:
475,192,41791,1,0,0:0:0:0:
109,192,41884,1,0,0:0:0:0:
329,192,41884,1,0,0:0:0:0:
182,192,41977,1,0,0:0:0:0:
402,192,41977,1,0,0:0:0:0:
475,192,41977,1,0,0:0:0:0:
36,192,41977,1,0,0:0:0:0:
329,192,42070,1,0,0:0:0:0:
256,192,42070,1,0,0:0:0:0:
475,192,42164,1,0,0:0:0:0:
402,192,42164,1,0,0:0:0:0:
36,192,42164,1,0,0:0:0:0:
109,192,42164,1,0,0:0:0:0:
329,192,42257,1,0,0:0:0:0:
256,192,42350,1,0,0:0:0:0:
109,192,42350,1,0,0:0:0:0:
36,192,42350,1,0,0:0:0:0:
182,192,42443,1,0,0:0:0:0:
329,192,42443,1,0,0:0:0:0:
402,192,42536,1,0,0:0:0:0:
475,192,42536,1,0,0:0:0:0:
256,192,42536,1,0,0:0:0:0:
36,192,42536,1,0,0:0:0:0:
182,192,42629,1,0,0:0:0:0:
109,192,42723,1,0,0:0:0:0:
36,192,42723,1,0,0:0:0:0:
329,192,42723,1,0,0:0:0:0:
402,192,42723,1,0,0:0:0:0:
256,192,42816,1,0,0:0:0:0:
109,192,42909,1,0,0:0:0:0:
182,192,42909,1,0,0:0:0:0:
475,192,42909,1,0,0:0:0:0:
402,192,42909,1,0,0:0:0:0:
329,192,43002,1,0,0:0:0:0:
256,192,43095,1,0,0:0:0:0:
36,192,43095,1,0,0:0:0:0:
109,192,43095,1,0,0:0:0:0:
475,192,43095,1,0,0:0:0:0:
182,192,43188,1,0,0:0:0:0:
329,192,43188,1,0,0:0:0:0:
256,192,43282,1,0,0:0:0:0:
402,192,43282,1,0,0:0:0:0:
475,192,43282,1,0,0:0:0:0:
36,192,43282,1,0,0:0:0:0:
109,192,43282,1,0,0:0:0:0:
182,192,43375,1,0,0:0:0:0:
329,192,43375,1,0,0:0:0:0:
256,192,43468,1,0,0:0:0:0:
475,192,43468,1,0,0:0:0:0:
36,192,43468,1,0,0:0:0:0:
402,192,43561,1,0,0:0:0:0:
109,192,43561,1,0,0:0:0:0:
36,192,43654,1,0,0:0:0:0:
475,192,43654,1,0,0:0:0:0:
256,192,43654,1,0,0:0:0:0:
329,192,43654,1,0,0:0:0:0:
182,192,43654,1,0,0:0:0:0:
402,192,43747,1,0,0:0:0:0:
329,192,43841,1,0,0:0:0:0:
109,192,43841,1,0,0:0:0:0:
36,192,43841,1,0,0:0:0:0:
402,192,43934,1,0,0:0:0:0:
182,192,43934,1,0,0:0:0:0:
475,192,44027,1,0,0:0:0:0:
36,192,44027,1,0,0:0:0:0:
256,192,44027,1,0,0:0:0:0:
329,192,44027,1,0,0:0:0:0:
109,192,44120,1,0,0:0:0:0:
182,192,44213,1,0,0:0:0:0:
475,192,44213,1,0,0:0:0:0:
329,192,44213,1,0,0:0:0:0:
256,192,44306,1,0,0:0:0:0:
109,192,44306,1,0,0:0:0:0:
402,192,44306,1,0,0:0:0:0:
475,192,44400,1,0,0:0:0:0:
182,192,44400,1,0,0:0:0:0:
36,192,44400,1,0,0:0:0:0:
329,192,44400,1,0,0:0:0:0:
402,192,44493,1,0,0:0:0:0:
329,192,44586,1,0,0:0:0:0:
109,192,44586,1,0,0:0:0:0:
36,192,44586,1,0,0:0:0:0:
402,192,44679,1,0,0:0:0:0:
182,192,44679,1,0,0:0:0:0:
475,192,44772,1,0,0:0:0:0:
256,192,44772,1,0,0:0:0:0:
36,192,44772,1,0,0:0:0:0:
329,192,44772,1,0,0:0:0:0:
182,192,44865,1,0,0:0:0:0:
402,192,44865,1,0,0:0:0:0:
109,192,44959,1,0,0:0:0:0:
329,192,44959,1,0,0:0:0:0:
475,192,44959,1,0,0:0:0:0:
36,192,45052,1,0,0:0:0:0:
256,192,45052,1,0,0:0:0:0:
182,192,45145,1,0,0:0:0:0:
402,192,45145,1,0,0:0:0:0:
475,192,45145,1,0,0:0:0:0:
329,192,45145,1,0,0:0:0:0:
109,192,45238,1,0,0:0:0:0:
36,192,45331,1,0,0:0:0:0:
256,192,45331,1,0,0:0:0:0:
475,192,45331,1,0,0:0:0:0:
182,192,45424,1,0,0:0:0:0:
402,192,45424,1,0,0:0:0:0:
109,192,45518,1,0,0:0:0:0:
329,192,45518,1,0,0:0:0:0:
36,192,45518,1,0,0:0:0:0:
256,192,45611,1,0,0:0:0:0:
36,192,45704,1,0,0:0:0:0:
182,192,45704,1,0,0:0:0:0:
475,192,45704,1,0,0:0:0:0:
402,192,45704,1,0,0:0:0:0:
256,192,45797,1,0,0:0:0:0:
109,192,45797,1,0,0:0:0:0:
329,192,45890,1,0,0:0:0:0:
182,192,45890,1,0,0:0:0:0:
475,192,45890,1,0,0:0:0:0:
109,192,45984,1,0,0:0:0:0:
36,192,46077,1,0,0:0:0:0:
475,192,46077,1,0,0:0:0:0:
256,192,46077,1,0,0:0:0:0:
402,192,46077,1,0,0:0:0:0:
182,192,46170,1,0,0:0:0:0:
329,192,46170,1,0,0:0:0:0:
109,192,46263,1,0,0:0:0:0:
36,192,46263,1,0,0:0:0:0:
256,192,46263,1,0,0:0:0:0:
475,192,46263,1,0,0:0:0:0:
402,192,46263,1,0,0:0:0:0:
182,192,46356,1,0,0:0:0:0:
329,192,46356,1,0,0:0:0:0:
256,192,46449,1,0,0:0:0:0:
36,192,46449,1,0,0:0:0:0:
475,192,46449,1,0,0:0:0:0:
109,192,46543,1,0,0:0:0:0:
402,192,46543,1,0,0:0:0:0:
36,192,46636,1,0,0:0:0:0:
256,192,46636,1,0,0:0:0:0:
182,192,46636,1,0,0:0:0:0:
329,192,46636,1,0,0:0:0:0:
475,192,46636,1,0,0:0:0:0:
109,192,46729,1,0,0:0:0:0:
36,192,46822,1,0,0:0:0:0:
256,192,46822,1,0,0:0:0:0:
475,192,46822,1,0,0:0:0:0:
182,192,46915,1,0,0:0:0:0:
402,192,46915,1,0,0:0:0:0:
109,192,47008,1,0,0:0:0:0:
329,192,47008,1,0,0:0:0:0:
36,192,47008,1,0,0:0:0:0:
475,192,47008,1,0,0:0:0:0:
256,192,47102,1,0,0:0:0:0:
36,192,47195,1,0,0:0:0:0:
182,192,47195,1,0,0:0:0:0:
475,192,47195,1,0,0:0:0:0:
402,192,47195,1,0,0:0:0:0:
256,192,47288,1,0,0:0:0:0:
109,192,47288,1,0,0:0:0:0:
182,192,47381,1,0,0:0:0:0:
329,192,47381,1,0,0:0:0:0:
475,192,47381,1,0,0:0:0:0:
109,192,47474,1,0,0:0:0:0:
36,192,47567,1,0,0:0:0:0:
475,192,47567,1,0,0:0:0:0:
402,192,47567,1,0,0:0:0:0:
256,192,47567,1,0,0:0:0:0:
182,192,47661,1,0,0:0:0:0:
329,192,47661,1,0,0:0:0:0:
109,192,47754,1,0,0:0:0:0:
36,192,47754,1,0,0:0:0:0:
256,192,47754,1,0,0:0:0:0:
475,192,47754,1,0,0:0:0:0:
402,192,47754,1,0,0:0:0:0:
182,192,47847,1,0,0:0:0:0:
329,192,47847,1,0,0:0:0:0:
256,192,47940,1,0,0:0:0:0:
109,192,47940,1,0,0:0:0:0:
402,192,47940,1,0,0:0:0:0:
329,192,48033,1,0,0:0:0:0:
182,192,48033,1,0,0:0:0:0:
36,192,48126,1,0,0:0:0:0:
475,192,48126,1,0,0:0:0:0:
109,192,48126,1,0,0:0:0:0:
256,192,48126,1,0,0:0:0:0:
402,192,48126,1,0,0:0:0:0:
182,192,48220,1,0,0:0:0:0:
36,192,48313,1,0,0:0:0:0:
109,192,48313,1,0,0:0:0:0:
329,192,48313,1,0,0:0:0:0:
402,192,48313,1,0,0:0:0:0:
256,192,48406,1,0,0:0:0:0:
182,192,48499,1,0,0:0:0:0:
109,192,48499,1,0,0:0:0:0:
402,192,48499,1,0,0:0:0:0:
475,192,48499,1,0,0:0:0:0:
329,192,48592,1,0,0:0:0:0:
256,192,48685,1,0,0:0:0:0:
182,192,48685,1,0,0:0:0:0:
475,192,48685,1,0,0:0:0:0:
36,192,48685,1,0,0:0:0:0:
109,192,48779,1,0,0:0:0:0:
329,192,48779,1,0,0:0:0:0:
402,192,48779,1,0,0:0:0:0:
36,192,48872,1,0,0:0:0:0:
256,192,48872,1,0,0:0:0:0:
475,192,48872,1,0,0:0:0:0:
182,192,48965,1,0,0:0:0:0:
109,192,49058,1,0,0:0:0:0:
36,192,49058,1,0,0:0:0:0:
475,192,49058,1,0,0:0:0:0:
329,192,49058,1,0,0:0:0:0:
256,192,49151,1,0,0:0:0:0:
182,192,49244,1,0,0:0:0:0:
109,192,49244,1,0,0:0:0:0:
402,192,49244,1,0,0:0:0:0:
475,192,49244,1,0,0:0:0:0:
329,192,49338,1,0,0:0:0:0:
256,192,49431,1,0,0:0:0:0:
182,192,49431,1,0,0:0:0:0:
475,192,49431,1,0,0:0:0:0:
36,192,49431,1,0,0:0:0:0:
402,192,49524,1,0,0:0:0:0:
36,192,49617,1,0,0:0:0:0:
475,192,49617,1,0,0:0:0:0:
329,192,49617,1,0,0:0:0:0:
256,192,49617,1,0,0:0:0:0:
402,192,49710,1,0,0:0:0:0:
109,192,49710,1,0,0:0:0:0:
329,192,49803,1,0,0:0:0:0:
182,192,49803,1,0,0:0:0:0:
256,192,49803,1,0,0:0:0:0:
109,192,49897,1,0,0:0:0:0:
402,192,49897,1,0,0:0:0:0:
36,192,49990,1,0,0:0:0:0:
182,192,49990,1,0,0:0:0:0:
475,192,49990,1,0,0:0:0:0:
329,192,49990,1,0,0:0:0:0:
402,192,50083,1,0,0:0:0:0:
256,192,50083,1,0,0:0:0:0:
36,192,50176,1,0,0:0:0:0:
109,192,50176,1,0,0:0:0:0:
475,192,50176,1,0,0:0:0:0:
329,192,50176,1,0,0:0:0:0:
402,192,50269,1,0,0:0:0:0:
256,192,50269,1,0,0:0:0:0:
475,192,50362,1,0,0:0:0:0:
182,192,50362,1,0,0:0:0:0:
36,192,50362,1,0,0:0:0:0:
329,192,50362,1,0,0:0:0:0:
109,192,50456,1,0,0:0:0:0:
402,192,50456,1,0,0:0:0:0:
182,192,50549,1,0,0:0:0:0:
256,192,50549,1,0,0:0:0:0:
329,192,50549,1,0,0:0:0:0:
109,192,50642,1,0,0:0:0:0:
402,192,50642,1,0,0:0:0:0:
36,192,50735,1,0,0:0:0:0:
475,192,50735,1,0,0:0:0:0:
329,192,50735,1,0,0:0:0:0:
256,192,50735,1,0,0:0:0:0:
329,192,50921,1,0,0:0:0:0:
402,192,50921,1,0,0:0:0:0:
182,192,50921,1,0,0:0:0:0:
109,192,50921,1,0,0:0:0:0:
475,192,51108,1,0,0:0:0:0:
36,192,51108,1,0,0:0:0:0:
109,192,51108,1,0,0:0:0:0:
402,192,51108,1,0,0:0:0:0:
256,192,51108,1,0,0:0:0:0:
329,192,51480,1,0,0:0:0:0:
475,192,51480,1,0,0:0:0:0:
182,192,51480,1,0,0:0:0:0:
402,192,51853,1,0,0:0:0:0:
256,192,51853,1,0,0:0:0:0:
475,192,51853,1,0,0:0:0:0:
329,192,52039,1,0,0:0:0:0:
182,192,52039,1,0,0:0:0:0:
109,192,52226,1,0,0:0:0:0:
36,192,52226,1,0,0:0:0:0:
256,192,52226,1,0,0:0:0:0:
182,192,52412,1,0,0:0:0:0:
329,192,52412,1,0,0:0:0:0:
256,192,52598,1,0,0:0:0:0:
475,192,52598,1,0,0:0:0:0:
36,192,52598,1,0,0:0:0:0:
402,192,52598,1,0,0:0:0:0:
36,192,52971,1,0,0:0:0:0:
256,192,52971,1,0,0:0:0:0:
475,192,52971,1,0,0:0:0:0:
402,192,53157,1,0,0:0:0:0:
329,192,53157,1,0,0:0:0:0:
109,192,53344,1,0,0:0:0:0:
182,192,53344,1,0,0:0:0:0:
36,192,53344,1,0,0:0:0:0:
329,192,53530,1,0,0:0:0:0:
402,192,53530,1,0,0:0:0:0:
36,192,53716,1,0,0:0:0:0:
256,192,53716,1,0,0:0:0:0:
475,192,53716,1,0,0:0:0:0:
109,192,53903,1,0,0:0:0:0:
182,192,53903,1,0,0:0:0:0:
329,192,53903,1,0,0:0:0:0:
36,192,54089,1,0,0:0:0:0:
256,192,54089,1,0,0:0:0:0:
402,192,54089,1,0,0:0:0:0:
475,192,54089,1,0,0:0:0:0:
256,192,54462,1,0,0:0:0:0:
402,192,54462,1,0,0:0:0:0:
475,192,54462,1,0,0:0:0:0:
182,192,54648,1,0,0:0:0:0:
329,192,54648,1,0,0:0:0:0:
36,192,54834,1,0,0:0:0:0:
256,192,54834,1,0,0:0:0:0:
109,192,54834,1,0,0:0:0:0:
329,192,55021,1,0,0:0:0:0:
182,192,55021,1,0,0:0:0:0:
256,192,55207,1,0,0:0:0:0:
475,192,55207,1,0,0:0:0:0:
402,192,55207,1,0,0:0:0:0:
182,192,55393,1,0,0:0:0:0:
329,192,55393,1,0,0:0:0:0:
475,192,55580,1,0,0:0:0:0:
109,192,55580,1,0,0:0:0:0:
256,192,55580,1,0,0:0:0:0:
36,192,55580,1,0,0:0:0:0:
36,192,55952,1,0,0:0:0:0:
256,192,55952,1,0,0:0:0:0:
475,192,55952,1,0,0:0:0:0:
182,192,56139,1,0,0:0:0:0:
109,192,56139,1,0,0:0:0:0:
402,192,56325,1,0,0:0:0:0:
475,192,56325,1,0,0:0:0:0:
329,192,56325,1,0,0:0:0:0:
36,192,56511,1,0,0:0:0:0:
256,192,56511,1,0,0:0:0:0:
475,192,56511,1,0,0:0:0:0:
109,192,56605,1,0,0:0:0:0:
329,192,56605,1,0,0:0:0:0:
475,192,56698,1,0,0:0:0:0:
402,192,56698,1,0,0:0:0:0:
182,192,56698,1,0,0:0:0:0:
36,192,56698,1,0,0:0:0:0:
109,192,56884,1,0,0:0:0:0:
402,192,56884,1,0,0:0:0:0:
329,192,56884,1,0,0:0:0:0:
36,192,57070,1,0,0:0:0:0:
475,192,57070,1,0,0:0:0:0:
256,192,57070,1,0,0:0:0:0:
329,192,57070,1,0,0:0:0:0:
182,192,57070,1,0,0:0:0:0:
256,192,57257,1,0,0:0:0:0:
475,192,57257,1,0,0:0:0:0:
109,192,57257,1,0,0:0:0:0:
182,192,57350,1,0,0:0:0:0:
402,192,57350,1,0,0:0:0:0:
329,192,57443,1,0,0:0:0:0:
109,192,57443,1,0,0:0:0:0:
36,192,57443,1,0,0:0:0:0:
475,192,57443,1,0,0:0:0:0:
182,192,57629,1,0,0:0:0:0:
402,192,57629,1,0,0:0:0:0:
36,192,57629,1,0,0:0:0:0:
329,192,57723,1,0,0:0:0:0:
109,192,57723,1,0,0:0:0:0:
36,192,57816,1,0,0:0:0:0:
256,192,57816,1,0,0:0:0:0:
475,192,57816,1,0,0:0:0:0:
402,192,57816,1,0,0:0:0:0:
256,192,58002,1,0,0:0:0:0:
475,192,58002,1,0,0:0:0:0:
109,192,58002,1,0,0:0:0:0:
36,192,58002,1,0,0:0:0:0:
182,192,58095,1,0,0:0:0:0:
402,192,58095,1,0,0:0:0:0:
329,192,58095,1,0,0:0:0:0:
36,192,58188,1,0,0:0:0:0:
109,192,58188,1,0,0:0:0:0:
475,192,58188,1,0,0:0:0:0:
256,192,58188,1,0,0:0:0:0:
329,192,58375,1,0,0:0:0:0:
109,192,58375,1,0,0:0:0:0:
475,192,58375,1,0,0:0:0:0:
182,192,58468,1,0,0:0:0:0:
402,192,58468,1,0,0:0:0:0:
109,192,58561,1,0,0:0:0:0:
475,192,58561,1,0,0:0:0:0:
36,192,58561,1,0,0:0:0:0:
256,192,58561,1,0,0:0:0:0:
36,192,58747,1,0,0:0:0:0:
182,192,58747,1,0,0:0:0:0:
402,192,58747,1,0,0:0:0:0:
109,192,58841,1,0,0:0:0:0:
256,192,58841,1,0,0:0:0:0:
182,192,58934,1,0,0:0:0:0:
475,192,58934,1,0,0:0:0:0:
329,192,58934,1,0,0:0:0:0:
36,192,58934,1,0,0:0:0:0:
256,192,59120,1,0,0:0:0:0:
109,192,59120,1,0,0:0:0:0:
475,192,59120,1,0,0:0:0:0:
182,192,59213,1,0,0:0:0:0:
329,192,59213,1,0,0:0:0:0:
256,192,59306,1,0,0:0:0:0:
402,192,59306,1,0,0:0:0:0:
36,192,59306,1,0,0:0:0:0:
109,192,59306,1,0,0:0:0:0:
36,192,59493,1,0,0:0:0:0:
402,192,59493,1,0,0:0:0:0:
182,192,59493,1,0,0:0:0:0:
475,192,59493,1,0,0:0:0:0:
256,192,59586,1,0,0:0:0:0:
109,192,59586,1,0,0:0:0:0:
329,192,59586,1,0,0:0:0:0:
475,192,59679,1,0,0:0:0:0:
36,192,59679,1,0,0:0:0:0:
182,192,59679,1,0,0:0:0:0:
402,192,59679,1,0,0:0:0:0:
402,192,59865,1,0,0:0:0:0:
36,192,59865,1,0,0:0:0:0:
256,192,59865,1,0,0:0:0:0:
182,192,59959,1,0,0:0:0:0:
329,192,59959,1,0,0:0:0:0:
475,192,60052,1,0,0:0:0:0:
109,192,60052,1,0,0:0:0:0:
402,192,60052,1,0,0:0:0:0:
256,192,60052,1,0,0:0:0:0:
36,192,60238,1,0,0:0:0:0:
182,192,60238,1,0,0:0:0:0:
329,192,60238,1,0,0:0:0:0:
402,192,60238,1,0,0:0:0:0:
109,192,60424,1,0,0:0:0:0:
256,192,60424,1,0,0:0:0:0:
329,192,60424,1,0,0:0:0:0:
475,192,60424,1,0,0:0:0:0:
36,192,60611,1,0,0:0:0:0:
182,192,60611,1,0,0:0:0:0:
256,192,60611,1,0,0:0:0:0:
402,192,60611,1,0,0:0:0:0:
109,192,60797,1,0,0:0:0:0:
329,192,60797,1,0,0:0:0:0:
475,192,60797,1,0,0:0:0:0:
182,192,60797,1,0,0:0:0:0:
36,192,60984,1,0,0:0:0:0:
402,192,60984,1,0,0:0:0:0:
182,192,60984,1,0,0:0:0:0:
256,192,60984,1,0,0:0:0:0:
475,192,61170,1,0,0:0:0:0:
256,192,61170,1,0,0:0:0:0:
329,192,61170,1,0,0:0:0:0:
109,192,61170,1,0,0:0:0:0:
329,192,61356,1,0,0:0:0:0:
36,192,61356,1,0,0:0:0:0:
402,192,61356,1,0,0:0:0:0:
182,192,61356,1,0,0:0:0:0:
36,192,61543,1,0,0:0:0:0:
402,192,61543,1,0,0:0:0:0:
475,192,61543,1,0,0:0:0:0:
182,192,61543,1,0,0:0:0:0:
256,192,61636,1,0,0:0:0:0:
475,192,61729,1,0,0:0:0:0:
36,192,61729,1,0,0:0:0:0:
109,192,61729,1,0,0:0:0:0:
329,192,61729,1,0,0:0:0:0:
256,192,61822,1,0,0:0:0:0:
36,192,61915,1,0,0:0:0:0:
182,192,61915,1,0,0:0:0:0:
402,192,61915,1,0,0:0:0:0:
475,192,61915,1,0,0:0:0:0:
256,192,62008,1,0,0:0:0:0:
329,192,62102,1,0,0:0:0:0:
475,192,62102,1,0,0:0:0:0:
109,192,62102,1,0,0:0:0:0:
36,192,62102,1,0,0:0:0:0:
256,192,62195,1,0,0:0:0:0:
182,192,62288,1,0,0:0:0:0:
36,192,62288,1,0,0:0:0:0:
402,192,62288,1,0,0:0:0:0:
475,192,62288,1,0,0:0:0:0:
329,192,62381,1,0,0:0:0:0:
256,192,62381,1,0,0:0:0:0:
402,192,62474,1,0,0:0:0:0:
475,192,62474,1,0,0:0:0:0:
36,192,62474,1,0,0:0:0:0:
109,192,62474,1,0,0:0:0:0:
182,192,62567,1,0,0:0:0:0:
256,192,62567,1,0,0:0:0:0:
36,192,62661,1,0,0:0:0:0:
109,192,62661,1,0,0:0:0:0:
402,192,62661,1,0,0:0:0:0:
475,192,62661,1,0,0:0:0:0:
329,192,62754,1,0,0:0:0:0:
256,192,62754,1,0,0:0:0:0:
402,192,62847,1,0,0:0:0:0:
475,192,62847,1,0,0:0:0:0:
109,192,62847,1,0,0:0:0:0:
36,192,62847,1,0,0:0:0:0:
182,192,62940,1,0,0:0:0:0:
256,192,62940,1,0,0:0:0:0:
475,192,63033,1,0,0:0:0:0:
36,192,63033,1,0,0:0:0:0:
109,192,63033,1,0,0:0:0:0:
329,192,63033,1,0,0:0:0:0:
182,192,63126,1,0,0:0:0:0:
402,192,63126,1,0,0:0:0:0:
256,192,63220,1,0,0:0:0:0:
475,192,63220,1,0,0:0:0:0:
36,192,63220,1,0,0:0:0:0:
109,192,63313,1,0,0:0:0:0:
329,192,63313,1,0,0:0:0:0:
182,192,63406,1,0,0:0:0:0:
402,192,63406,1,0,0:0:0:0:
475,192,63406,1,0,0:0:0:0:
36,192,63499,1,0,0:0:0:0:
256,192,63499,1,0,0:0:0:0:
109,192,63592,1,0,0:0:0:0:
329,192,63592,1,0,0:0:0:0:
182,192,63685,1,0,0:0:0:0:
402,192,63685,1,0,0:0:0:0:
256,192,63779,1,0,0:0:0:0:
475,192,63779,1,0,0:0:0:0:
36,192,63779,1,0,0:0:0:0:
109,192,63872,1,0,0:0:0:0:
402,192,63872,1,0,0:0:0:0:
475,192,63965,1,0,0:0:0:0:
36,192,63965,1,0,0:0:0:0:
256,192,63965,1,0,0:0:0:0:
182,192,64058,1,0,0:0:0:0:
329,192,64058,1,0,0:0:0:0:
36,192,64151,1,0,0:0:0:0:
109,192,64151,1,0,0:0:0:0:
475,192,64151,1,0,0:0:0:0:
402,192,64151,1,0,0:0:0:0:
182,192,64244,1,0,0:0:0:0:
329,192,64244,1,0,0:0:0:0:
256,192,64338,1,0,0:0:0:0:
36,192,64338,1,0,0:0:0:0:
475,192,64338,1,0,0:0:0:0:
402,192,64431,1,0,0:0:0:0:
109,192,64431,1,0,0:0:0:0:
182,192,64524,1,0,0:0:0:0:
329,192,64524,1,0,0:0:0:0:
256,192,64524,1,0,0:0:0:0:
36,192,64524,1,0,0:0:0:0:
475,192,64524,1,0,0:0:0:0:
109,192,64617,1,0,0:0:0:0:
402,192,64617,1,0,0:0:0:0:
36,192,64710,1,0,0:0:0:0:
182,192,64710,1,0,0:0:0:0:
256,192,64710,1,0,0:0:0:0:
475,192,64710,1,0,0:0:0:0:
109,192,64803,1,0,0:0:0:0:
329,192,64803,1,0,0:0:0:0:
36,192,64897,1,0,0:0:0:0:
182,192,64897,1,0,0:0:0:0:
475,192,64897,1,0,0:0:0:0:
402,192,64897,1,0,0:0:0:0:
256,192,64990,1,0,0:0:0:0:
109,192,64990,1,0,0:0:0:0:
36,192,65083,1,0,0:0:0:0:
182,192,65083,1,0,0:0:0:0:
329,192,65083,1,0,0:0:0:0:
475,192,65083,1,0,0:0:0:0:
402,192,65176,1,0,0:0:0:0:
475,192,65269,1,0,0:0:0:0:
36,192,65269,1,0,0:0:0:0:
256,192,65269,1,0,0:0:0:0:
109,192,65362,1,0,0:0:0:0:
475,192,65456,1,0,0:0:0:0:
182,192,65456,1,0,0:0:0:0:
329,192,65456,1,0,0:0:0:0:
109,192,65549,1,0,0:0:0:0:
475,192,65642,1,0,0:0:0:0:
36,192,65642,1,0,0:0:0:0:
256,192,65642,1,0,0:0:0:0:
402,192,65735,1,0,0:0:0:0:
329,192,65828,1,0,0:0:0:0:
36,192,65828,1,0,0:0:0:0:
109,192,65828,1,0,0:0:0:0:
402,192,65921,1,0,0:0:0:0:
182,192,65921,1,0,0:0:0:0:
475,192,66015,1,0,0:0:0:0:
256,192,66015,1,0,0:0:0:0:
36,192,66015,1,0,0:0:0:0:
109,192,66015,1,0,0:0:0:0:
182,192,66108,1,0,0:0:0:0:
402,192,66108,1,0,0:0:0:0:
109,192,66201,1,0,0:0:0:0:
36,192,66201,1,0,0:0:0:0:
329,192,66201,1,0,0:0:0:0:
256,192,66201,1,0,0:0:0:0:
182,192,66294,1,0,0:0:0:0:
475,192,66294,1,0,0:0:0:0:
109,192,66387,1,0,0:0:0:0:
36,192,66387,1,0,0:0:0:0:
402,192,66387,1,0,0:0:0:0:
256,192,66387,1,0,0:0:0:0:
182,192,66480,1,0,0:0:0:0:
329,192,66480,1,0,0:0:0:0:
109,192,66574,1,0,0:0:0:0:
36,192,66574,1,0,0:0:0:0:
256,192,66574,1,0,0:0:0:0:
475,192,66574,1,0,0:0:0:0:
402,192,66667,1,0,0:0:0:0:
182,192,66760,1,0,0:0:0:0:
329,192,66760,1,0,0:0:0:0:
475,192,66760,1,0,0:0:0:0:
109,192,66853,1,0,0:0:0:0:
36,192,66946,1,0,0:0:0:0:
256,192,66946,1,0,0:0:0:0:
402,192,66946,1,0,0:0:0:0:
109,192,67039,1,0,0:0:0:0:
182,192,67133,1,0,0:0:0:0:
329,192,67133,1,0,0:0:0:0:
402,192,67226,1,0,0:0:0:0:
475,192,67319,1,0,0:0:0:0:
182,192,67319,1,0,0:0:0:0:
36,192,67319,1,0,0:0:0:0:
402,192,67412,1,0,0:0:0:0:
109,192,67412,1,0,0:0:0:0:
329,192,67505,1,0,0:0:0:0:
182,192,67505,1,0,0:0:0:0:
36,192,67505,1,0,0:0:0:0:
256,192,67505,1,0,0:0:0:0:
109,192,67598,1,0,0:0:0:0:
402,192,67598,1,0,0:0:0:0:
36,192,67692,1,0,0:0:0:0:
182,192,67692,1,0,0:0:0:0:
475,192,67692,1,0,0:0:0:0:
256,192,67692,1,0,0:0:0:0:
109,192,67785,1,0,0:0:0:0:
329,192,67785,1,0,0:0:0:0:
36,192,67878,1,0,0:0:0:0:
182,192,67878,1,0,0:0:0:0:
402,192,67878,1,0,0:0:0:0:
475,192,67878,1,0,0:0:0:0:
109,192,67971,1,0,0:0:0:0:
256,192,67971,1,0,0:0:0:0:
36,192,68064,1,0,0:0:0:0:
182,192,68064,1,0,0:0:0:0:
329,192,68064,1,0,0:0:0:0:
475,192,68064,1,0,0:0:0:0:
402,192,68157,1,0,0:0:0:0:
256,192,68251,1,0,0:0:0:0:
36,192,68251,1,0,0:0:0:0:
475,192,68251,1,0,0:0:0:0:
109,192,68344,1,0,0:0:0:0:
402,192,68437,1,0,0:0:0:0:
475,192,68437,1,0,0:0:0:0:
182,192,68437,1,0,0:0:0:0:
329,192,68530,1,0,0:0:0:0:
109,192,68530,1,0,0:0:0:0:
36,192,68623,1,0,0:0:0:0:
256,192,68623,1,0,0:0:0:0:
475,192,68623,1,0,0:0:0:0:
402,192,68716,1,0,0:0:0:0:
329,192,68810,1,0,0:0:0:0:
109,192,68810,1,0,0:0:0:0:
36,192,68810,1,0,0:0:0:0:
182,192,68903,1,0,0:0:0:0:
402,192,68903,1,0,0:0:0:0:
256,192,68996,1,0,0:0:0:0:
475,192,68996,1,0,0:0:0:0:
36,192,68996,1,0,0:0:0:0:
109,192,68996,1,0,0:0:0:0:
329,192,68996,1,0,0:0:0:0:
182,192,69089,1,0,0:0:0:0:
402,192,69089,1,0,0:0:0:0:
475,192,69182,1,0,0:0:0:0:
256,192,69182,1,0,0:0:0:0:
109,192,69275,1,0,0:0:0:0:
329,192,69275,1,0,0:0:0:0:
36,192,69369,1,0,0:0:0:0:
182,192,69369,1,0,0:0:0:0:
256,192,69369,1,0,0:0:0:0:
402,192,69369,1,0,0:0:0:0:
475,192,69369,1,0,0:0:0:0:
109,192,69462,1,0,0:0:0:0:
329,192,69462,1,0,0:0:0:0:
256,192,69555,1,0,0:0:0:0:
36,192,69555,1,0,0:0:0:0:
402,192,69648,1,0,0:0:0:0:
182,192,69648,1,0,0:0:0:0:
109,192,69741,1,0,0:0:0:0:
36,192,69741,1,0,0:0:0:0:
329,192,69741,1,0,0:0:0:0:
256,192,69741,1,0,0:0:0:0:
475,192,69741,1,0,0:0:0:0:
182,192,69834,1,0,0:0:0:0:
402,192,69834,1,0,0:0:0:0:
256,192,69928,1,0,0:0:0:0:
475,192,69928,1,0,0:0:0:0:
109,192,70021,1,0,0:0:0:0:
329,192,70021,1,0,0:0:0:0:
402,192,70114,1,0,0:0:0:0:
475,192,70114,1,0,0:0:0:0:
182,192,70114,1,0,0:0:0:0:
36,192,70114,1,0,0:0:0:0:
256,192,70114,1,0,0:0:0:0:
109,192,70207,1,0,0:0:0:0:
329,192,70207,1,0,0:0:0:0:
256,192,70300,1,0,0:0:0:0:
36,192,70300,1,0,0:0:0:0:
475,192,70300,1,0,0:0:0:0:
182,192,70393,1,0,0:0:0:0:
402,192,70393,1,0,0:0:0:0:
36,192,70487,1,0,0:0:0:0:
109,192,70487,1,0,0:0:0:0:
256,192,70487,1,0,0:0:0:0:
329,192,70487,1,0,0:0:0:0:
475,192,70487,1,0,0:0:0:0:
182,192,70580,1,0,0:0:0:0:
402,192,70580,1,0,0:0:0:0:
109,192,70673,1,0,0:0:0:0:
36,192,70673,1,0,0:0:0:0:
329,192,70673,1,0,0:0:0:0:
256,192,70673,1,0,0:0:0:0:
182,192,70766,1,0,0:0:0:0:
475,192,70766,1,0,0:0:0:0:
109,192,70859,1,0,0:0:0:0:
36,192,70859,1,0,0:0:0:0:
402,192,70859,1,0,0:0:0:0:
256,192,70859,1,0,0:0:0:0:
182,192,70952,1,0,0:0:0:0:
329,192,70952,1,0,0:0:0:0:
109,192,71046,1,0,0:0:0:0:
36,192,71046,1,0,0:0:0:0:
475,192,71046,1,0,0:0:0:0:
256,192,71046,1,0,0:0:0:0:
402,192,71139,1,0,0:0:0:0:
475,192,71232,1,0,0:0:0:0:
36,192,71232,1,0,0:0:0:0:
256,192,71232,1,0,0:0:0:0:
109,192,71325,1,0,0:0:0:0:
475,192,71418,1,0,0:0:0:0:
182,192,71418,1,0,0:0:0:0:
329,192,71418,1,0,0:0:0:0:
109,192,71511,1,0,0:0:0:0:
475,192,71605,1,0,0:0:0:0:
36,192,71605,1,0,0:0:0:0:
256,192,71605,1,0,0:0:0:0:
402,192,71698,1,0,0:0:0:0:
329,192,71791,1,0,0:0:0:0:
36,192,71791,1,0,0:0:0:0:
182,192,71791,1,0,0:0:0:0:
402,192,71884,1,0,0:0:0:0:
109,192,71884,1,0,0:0:0:0:
475,192,71977,1,0,0:0:0:0:
36,192,71977,1,0,0:0:0:0:
182,192,71977,1,0,0:0:0:0:
256,192,71977,1,0,0:0:0:0:
109,192,72070,1,0,0:0:0:0:
329,192,72070,1,0,0:0:0:0:
36,192,72164,1,0,0:0:0:0:
182,192,72164,1,0,0:0:0:0:
402,192,72164,1,0,0:0:0:0:
475,192,72164,1,0,0:0:0:0:
109,192,72257,1,0,0:0:0:0:
256,192,72257,1,0,0:0:0:0:
36,192,72350,1,0,0:0:0:0:
182,192,72350,1,0,0:0:0:0:
329,192,72350,1,0,0:0:0:0:
475,192,72350,1,0,0:0:0:0:
109,192,72443,1,0,0:0:0:0:
402,192,72443,1,0,0:0:0:0:
36,192,72536,1,0,0:0:0:0:
182,192,72536,1,0,0:0:0:0:
256,192,72536,1,0,0:0:0:0:
475,192,72536,1,0,0:0:0:0:
402,192,72629,1,0,0:0:0:0:
475,192,72723,1,0,0:0:0:0:
329,192,72723,1,0,0:0:0:0:
182,192,72723,1,0,0:0:0:0:
109,192,72816,1,0,0:0:0:0:
402,192,72909,1,0,0:0:0:0:
256,192,72909,1,0,0:0:0:0:
36,192,72909,1,0,0:0:0:0:
109,192,73002,1,0,0:0:0:0:
329,192,73095,1,0,0:0:0:0:
182,192,73095,1,0,0:0:0:0:
402,192,73188,1,0,0:0:0:0:
36,192,73282,1,0,0:0:0:0:
182,192,73282,1,0,0:0:0:0:
475,192,73282,1,0,0:0:0:0:
256,192,73282,1,0,0:0:0:0:
109,192,73375,1,0,0:0:0:0:
402,192,73375,1,0,0:0:0:0:
475,192,73468,1,0,0:0:0:0:
36,192,73468,1,0,0:0:0:0:
329,192,73468,1,0,0:0:0:0:
182,192,73561,1,0,0:0:0:0:
256,192,73654,1,0,0:0:0:0:
329,192,73654,1,0,0:0:0:0:
36,192,73654,1,0,0:0:0:0:
475,192,73654,1,0,0:0:0:0:
402,192,73747,1,0,0:0:0:0:
109,192,73747,1,0,0:0:0:0:
182,192,73841,1,0,0:0:0:0:
475,192,73841,1,0,0:0:0:0:
36,192,73841,1,0,0:0:0:0:
109,192,73934,1,0,0:0:0:0:
256,192,73934,1,0,0:0:0:0:
182,192,74027,1,0,0:0:0:0:
329,192,74027,1,0,0:0:0:0:
475,192,74027,1,0,0:0:0:0:
402,192,74027,1,0,0:0:0:0:
109,192,74120,1,0,0:0:0:0:
256,192,74120,1,0,0:0:0:0:
36,192,74213,1,0,0:0:0:0:
182,192,74213,1,0,0:0:0:0:
402,192,74213,1,0,0:0:0:0:
475,192,74213,1,0,0:0:0:0:
256,192,74306,1,0,0:0:0:0:
36,192,74400,1,0,0:0:0:0:
329,192,74400,1,0,0:0:0:0:
402,192,74400,1,0,0:0:0:0:
109,192,74400,1,0,0:0:0:0:
182,192,74493,1,0,0:0:0:0:
329,192,74586,1,0,0:0:0:0:
256,192,74586,1,0,0:0:0:0:
36,192,74586,1,0,0:0:0:0:
475,192,74586,1,0,0:0:0:0:
109,192,74679,1,0,0:0:0:0:
182,192,74772,1,0,0:0:0:0:
256,192,74772,1,0,0:0:0:0:
402,192,74772,1,0,0:0:0:0:
36,192,74772,1,0,0:0:0:0:
475,192,74772,1,0,0:0:0:0:
36,192,75145,1,0,0:0:0:0:
475,192,75145,1,0,0:0:0:0:
402,192,75145,1,0,0:0:0:0:
182,192,75145,1,0,0:0:0:0:
256,192,75238,1,0,0:0:0:0:
329,192,75331,1,0,0:0:0:0:
475,192,75331,1,0,0:0:0:0:
109,192,75331,1,0,0:0:0:0:
36,192,75331,1,0,0:0:0:0:
256,192,75424,1,0,0:0:0:0:
182,192,75518,1,0,0:0:0:0:
36,192,75518,1,0,0:0:0:0:
402,192,75518,1,0,0:0:0:0:
475,192,75518,1,0,0:0:0:0:
256,192,75611,1,0,0:0:0:0:
475,192,75704,1,0,0:0:0:0:
329,192,75704,1,0,0:0:0:0:
109,192,75704,1,0,0:0:0:0:
36,192,75704,1,0,0:0:0:0:
182,192,75797,1,0,0:0:0:0:
256,192,75797,1,0,0:0:0:0:
109,192,75890,1,0,0:0:0:0:
36,192,75890,1,0,0:0:0:0:
402,192,75890,1,0,0:0:0:0:
475,192,75890,1,0,0:0:0:0:
256,192,75984,1,0,0:0:0:0:
329,192,75984,1,0,0:0:0:0:
36,192,76077,1,0,0:0:0:0:
109,192,76077,1,0,0:0:0:0:
475,192,76077,1,0,0:0:0:0:
402,192,76077,1,0,0:0:0:0:
182,192,76170,1,0,0:0:0:0:
256,192,76170,1,0,0:0:0:0:
109,192,76263,1,0,0:0:0:0:
36,192,76263,1,0,0:0:0:0:
402,192,76263,1,0,0:0:0:0:
475,192,76263,1,0,0:0:0:0:
329,192,76356,1,0,0:0:0:0:
256,192,76356,1,0,0:0:0:0:
36,192,76449,1,0,0:0:0:0:
475,192,76449,1,0,0:0:0:0:
109,192,76449,1,0,0:0:0:0:
402,192,76449,1,0,0:0:0:0:
256,192,76543,1,0,0:0:0:0:
182,192,76543,1,0,0:0:0:0:
329,192,76636,1,0,0:0:0:0:
475,192,76636,1,0,0:0:0:0:
36,192,76636,1,0,0:0:0:0:
109,192,76636,1,0,0:0:0:0:
402,192,76729,1,0,0:0:0:0:
182,192,76729,1,0,0:0:0:0:
475,192,76822,1,0,0:0:0:0:
256,192,76822,1,0,0:0:0:0:
36,192,76822,1,0,0:0:0:0:
109,192,76822,1,0,0:0:0:0:
182,192,76915,1,0,0:0:0:0:
329,192,76915,1,0,0:0:0:0:
402,192,77008,1,0,0:0:0:0:
475,192,77008,1,0,0:0:0:0:
36,192,77008,1,0,0:0:0:0:
109,192,77008,1,0,0:0:0:0:
329,192,77102,1,0,0:0:0:0:
256,192,77195,1,0,0:0:0:0:
36,192,77195,1,0,0:0:0:0:
475,192,77195,1,0,0:0:0:0:
109,192,77288,1,0,0:0:0:0:
329,192,77381,1,0,0:0:0:0:
182,192,77381,1,0,0:0:0:0:
475,192,77381,1,0,0:0:0:0:
109,192,77474,1,0,0:0:0:0:
256,192,77567,1,0,0:0:0:0:
36,192,77567,1,0,0:0:0:0:
475,192,77567,1,0,0:0:0:0:
402,192,77661,1,0,0:0:0:0:
182,192,77754,1,0,0:0:0:0:
36,192,77754,1,0,0:0:0:0:
329,192,77754,1,0,0:0:0:0:
109,192,77847,1,0,0:0:0:0:
402,192,77847,1,0,0:0:0:0:
36,192,77940,1,0,0:0:0:0:
182,192,77940,1,0,0:0:0:0:
475,192,77940,1,0,0:0:0:0:
256,192,77940,1,0,0:0:0:0:
402,192,78033,1,0,0:0:0:0:
109,192,78033,1,0,0:0:0:0:
329,192,78126,1,0,0:0:0:0:
256,192,78126,1,0,0:0:0:0:
182,192,78126,1,0,0:0:0:0:
36,192,78126,1,0,0:0:0:0:
475,192,78220,1,0,0:0:0:0:
109,192,78220,1,0,0:0:0:0:
402,192,78313,1,0,0:0:0:0:
256,192,78313,1,0,0:0:0:0:
182,192,78313,1,0,0:0:0:0:
36,192,78313,1,0,0:0:0:0:
329,192,78406,1,0,0:0:0:0:
109,192,78406,1,0,0:0:0:0:
256,192,78499,1,0,0:0:0:0:
475,192,78499,1,0,0:0:0:0:
182,192,78499,1,0,0:0:0:0:
36,192,78499,1,0,0:0:0:0:
402,192,78592,1,0,0:0:0:0:
475,192,78685,1,0,0:0:0:0:
329,192,78685,1,0,0:0:0:0:
182,192,78685,1,0,0:0:0:0:
109,192,78779,1,0,0:0:0:0:
402,192,78872,1,0,0:0:0:0:
256,192,78872,1,0,0:0:0:0:
36,192,78872,1,0,0:0:0:0:
109,192,78965,1,0,0:0:0:0:
329,192,79058,1,0,0:0:0:0:
182,192,79058,1,0,0:0:0:0:
402,192,79151,1,0,0:0:0:0:
475,192,79244,1,0,0:0:0:0:
36,192,79244,1,0,0:0:0:0:
109,192,79244,1,0,0:0:0:0:
182,192,79338,1,0,0:0:0:0:
402,192,79338,1,0,0:0:0:0:
109,192,79431,1,0,0:0:0:0:
256,192,79431,1,0,0:0:0:0:
329,192,79431,1,0,0:0:0:0:
36,192,79431,1,0,0:0:0:0:
402,192,79524,1,0,0:0:0:0:
182,192,79524,1,0,0:0:0:0:
475,192,79617,1,0,0:0:0:0:
256,192,79617,1,0,0:0:0:0:
109,192,79617,1,0,0:0:0:0:
36,192,79617,1,0,0:0:0:0:
329,192,79710,1,0,0:0:0:0:
182,192,79710,1,0,0:0:0:0:
402,192,79803,1,0,0:0:0:0:
475,192,79803,1,0,0:0:0:0:
109,192,79803,1,0,0:0:0:0:
36,192,79803,1,0,0:0:0:0:
256,192,79897,1,0,0:0:0:0:
182,192,79897,1,0,0:0:0:0:
329,192,79990,1,0,0:0:0:0:
475,192,79990,1,0,0:0:0:0:
109,192,79990,1,0,0:0:0:0:
36,192,79990,1,0,0:0:0:0:
402,192,80083,1,0,0:0:0:0:
475,192,80176,1,0,0:0:0:0:
36,192,80176,1,0,0:0:0:0:
256,192,80176,1,0,0:0:0:0:
109,192,80269,1,0,0:0:0:0:
182,192,80362,1,0,0:0:0:0:
475,192,80362,1,0,0:0:0:0:
402,192,80362,1,0,0:0:0:0:
109,192,80456,1,0,0:0:0:0:
329,192,80456,1,0,0:0:0:0:
475,192,80549,1,0,0:0:0:0:
256,192,80549,1,0,0:0:0:0:
36,192,80549,1,0,0:0:0:0:
402,192,80642,1,0,0:0:0:0:
109,192,80735,1,0,0:0:0:0:
329,192,80735,1,0,0:0:0:0:
36,192,80735,1,0,0:0:0:0:
402,192,80828,1,0,0:0:0:0:
182,192,80828,1,0,0:0:0:0:
109,192,80921,1,0,0:0:0:0:
329,192,80921,1,0,0:0:0:0:
36,192,80921,1,0,0:0:0:0:
256,192,80921,1,0,0:0:0:0:
475,192,80921,1,0,0:0:0:0:
402,192,81015,1,0,0:0:0:0:
182,192,81015,1,0,0:0:0:0:
256,192,81108,1,0,0:0:0:0:
475,192,81108,1,0,0:0:0:0:
329,192,81201,1,0,0:0:0:0:
109,192,81201,1,0,0:0:0:0:
402,192,81294,1,0,0:0:0:0:
475,192,81294,1,0,0:0:0:0:
256,192,81294,1,0,0:0:0:0:
36,192,81294,1,0,0:0:0:0:
182,192,81294,1,0,0:0:0:0:
329,192,81387,1,0,0:0:0:0:
109,192,81387,1,0,0:0:0:0:
36,192,81480,1,0,0:0:0:0:
256,192,81480,1,0,0:0:0:0:
182,192,81574,1,0,0:0:0:0:
402,192,81574,1,0,0:0:0:0:
256,192,81667,1,0,0:0:0:0:
475,192,81667,1,0,0:0:0:0:
329,192,81667,1,0,0:0:0:0:
109,192,81667,1,0,0:0:0:0:
36,192,81667,1,0,0:0:0:0:
402,192,81760,1,0,0:0:0:0:
182,192,81760,1,0,0:0:0:0:
475,192,81853,1,0,0:0:0:0:
256,192,81853,1,0,0:0:0:0:
329,192,81946,1,0,0:0:0:0:
109,192,81946,1,0,0:0:0:0:
36,192,82039,1,0,0:0:0:0:
256,192,82039,1,0,0:0:0:0:
182,192,82039,1,0,0:0:0:0:
402,192,82039,1,0,0:0:0:0:
475,192,82039,1,0,0:0:0:0:
329,192,82133,1,0,0:0:0:0:
109,192,82133,1,0,0:0:0:0:
36,192,82226,1,0,0:0:0:0:
256,192,82226,1,0,0:0:0:0:
475,192,82226,1,0,0:0:0:0:
329,192,82319,1,0,0:0:0:0:
182,192,82319,1,0,0:0:0:0:
475,192,82412,1,0,0:0:0:0:
36,192,82412,1,0,0:0:0:0:
256,192,82412,1,0,0:0:0:0:
109,192,82412,1,0,0:0:0:0:
402,192,82412,1,0,0:0:0:0:
329,192,82598,1,0,0:0:0:0:
475,192,82598,1,0,0:0:0:0:
402,192,82598,1,0,0:0:0:0:
182,192,82598,1,0,0:0:0:0:
109,192,82598,1,0,0:0:0:0:
475,192,82785,1,0,0:0:0:0:
329,192,82785,1,0,0:0:0:0:
182,192,82785,1,0,0:0:0:0:
109,192,82878,1,0,0:0:0:0:
256,192,82878,1,0,0:0:0:0:
402,192,82878,1,0,0:0:0:0:
36,192,82971,1,0,0:0:0:0:
182,192,82971,1,0,0:0:0:0:
475,192,82971,1,0,0:0:0:0:
329,192,82971,1,0,0:0:0:0:
475,192,83344,1,0,0:0:0:0:
402,192,83344,1,0,0:0:0:0:
329,192,83344,1,0,0:0:0:0:
182,192,83344,1,0,0:0:0:0:
109,192,83344,1,0,0:0:0:0:
36,192,83530,1,0,0:0:0:0:
109,192,83530,1,0,0:0:0:0:
402,192,83530,1,0,0:0:0:0:
329,192,83530,1,0,0:0:0:0:
256,192,83530,1,0,0:0:0:0:
36,192,83716,1,0,0:0:0:0:
475,192,83716,1,0,0:0:0:0:
182,192,83716,1,0,0:0:0:0:
256,192,83716,1,0,0:0:0:0:
329,192,83716,1,0,0:0:0:0:
109,192,83810,1,0,0:0:0:0:
402,192,83810,1,0,0:0:0:0:
475,192,83903,1,0,0:0:0:0:
36,192,83903,1,0,0:0:0:0:
256,192,83903,1,0,0:0:0:0:
182,192,83903,1,0,0:0:0:0:
329,192,83903,1,0,0:0:0:0:
182,192,84089,1,0,0:0:0:0:
36,192,84089,1,0,0:0:0:0:
109,192,84089,1,0,0:0:0:0:
329,192,84089,1,0,0:0:0:0:
402,192,84089,1,0,0:0:0:0:
36,192,84275,1,0,0:0:0:0:
182,192,84275,1,0,0:0:0:0:
329,192,84275,1,0,0:0:0:0:
402,192,84369,1,0,0:0:0:0:
256,192,84369,1,0,0:0:0:0:
109,192,84369,1,0,0:0:0:0:
475,192,84462,1,0,0:0:0:0:
329,192,84462,1,0,0:0:0:0:
36,192,84462,1,0,0:0:0:0:
182,192,84462,1,0,0:0:0:0:
36,192,84834,1,0,0:0:0:0:
109,192,84834,1,0,0:0:0:0:
182,192,84834,1,0,0:0:0:0:
329,192,84834,1,0,0:0:0:0:
402,192,84834,1,0,0:0:0:0:
182,192,85021,1,0,0:0:0:0:
475,192,85021,1,0,0:0:0:0:
36,192,85021,1,0,0:0:0:0:
256,192,85021,1,0,0:0:0:0:
329,192,85021,1,0,0:0:0:0:
109,192,85114,1,0,0:0:0:0:
402,192,85114,1,0,0:0:0:0:
182,192,85207,1,0,0:0:0:0:
329,192,85207,1,0,0:0:0:0:
256,192,85207,1,0,0:0:0:0:
36,192,85300,1,0,0:0:0:0:
475,192,85300,1,0,0:0:0:0:
109,192,85393,1,0,0:0:0:0:
182,192,85393,1,0,0:0:0:0:
256,192,85393,1,0,0:0:0:0:
329,192,85393,1,0,0:0:0:0:
402,192,85393,1,0,0:0:0:0:
182,192,85673,1,0,0:0:0:0:
329,192,85673,1,0,0:0:0:0:
475,192,85766,1,0,0:0:0:0:
402,192,85766,1,0,0:0:0:0:
36,192,85766,1,0,0:0:0:0:
109,192,85766,1,0,0:0:0:0:
256,192,85766,1,0,0:0:0:0:
109,192,86046,1,0,0:0:0:0:
402,192,86046,1,0,0:0:0:0:
36,192,86139,1,0,0:0:0:0:
475,192,86139,1,0,0:0:0:0:
329,192,86139,1,0,0:0:0:0:
182,192,86139,1,0,0:0:0:0:
256,192,86139,1,0,0:0:0:0:
36,192,86418,1,0,0:0:0:0:
475,192,86418,1,0,0:0:0:0:
256,192,86511,1,0,0:0:0:0:
182,192,86511,1,0,0:0:0:0:
109,192,86511,1,0,0:0:0:0:
402,192,86511,1,0,0:0:0:0:
329,192,86511,1,0,0:0:0:0:
256,192,86791,1,0,0:0:0:0:
36,192,86884,1,0,0:0:0:0:
109,192,86884,1,0,0:0:0:0:
329,192,86884,1,0,0:0:0:0:
475,192,86884,1,0,0:0:0:0:
402,192,86884,1,0,0:0:0:0:
182,192,86884,1,0,0:0:0:0:
36,192,87257,128,0,88282:0:0:0:0:
109,192,87257,128,0,88282:0:0:0:0:
182,192,87257,128,0,88282:0:0:0:0:
329,192,87257,128,0,88282:0:0:0:0:
402,192,87257,128,0,88282:0:0:0:0:
475,192,87257,128,0,88282:0:0:0:0:
36,192,88375,1,0,0:0:0:0:
402,192,88375,1,0,0:0:0:0:
475,192,88375,1,0,0:0:0:0:
109,192,88375,1,0,0:0:0:0:
256,192,88375,1,0,0:0:0:0:
182,192,88561,1,0,0:0:0:0:
329,192,88561,1,0,0:0:0:0:
256,192,88747,1,0,0:0:0:0:
402,192,88747,1,0,0:0:0:0:
36,192,88934,1,0,0:0:0:0:
109,192,88934,1,0,0:0:0:0:
329,192,88934,1,0,0:0:0:0:
475,192,88934,1,0,0:0:0:0:
36,192,89865,1,0,0:0:0:0:
182,192,89865,1,0,0:0:0:0:
402,192,89865,1,0,0:0:0:0:
475,192,89865,1,0,0:0:0:0:
109,192,90052,1,0,0:0:0:0:
256,192,90052,1,0,0:0:0:0:
182,192,90238,1,0,0:0:0:0:
329,192,90238,1,0,0:0:0:0:
256,192,90424,1,0,0:0:0:0:
402,192,90424,1,0,0:0:0:0:
109,192,90424,1,0,0:0:0:0:
36,192,90424,1,0,0:0:0:0:
36,192,90797,1,0,0:0:0:0:
109,192,90984,1,0,0:0:0:0:
182,192,91170,1,0,0:0:0:0:
109,192,91356,1,0,0:0:0:0:
36,192,91356,1,0,0:0:0:0:
256,192,91356,1,0,0:0:0:0:
402,192,91356,1,0,0:0:0:0:
329,192,91543,1,0,0:0:0:0:
182,192,91543,1,0,0:0:0:0:
256,192,91729,1,0,0:0:0:0:
109,192,91729,1,0,0:0:0:0:
182,192,91915,1,0,0:0:0:0:
36,192,91915,1,0,0:0:0:0:
402,192,91915,1,0,0:0:0:0:
475,192,91915,1,0,0:0:0:0:
402,192,92288,1,0,0:0:0:0:
329,192,92474,1,0,0:0:0:0:
256,192,92661,1,0,0:0:0:0:
36,192,92754,1,0,0:0:0:0:
182,192,92800,1,0,0:0:0:0:
329,192,92847,1,0,0:0:0:0:
475,192,92893,1,0,0:0:0:0:
256,192,93033,1,0,0:0:0:0:
402,192,93033,1,0,0:0:0:0:
329,192,93220,1,0,0:0:0:0:
182,192,93220,1,0,0:0:0:0:
109,192,93406,1,0,0:0:0:0:
256,192,93406,1,0,0:0:0:0:
402,192,93406,1,0,0:0:0:0:
475,192,93406,1,0,0:0:0:0:
182,192,93779,1,0,0:0:0:0:
36,192,93779,1,0,0:0:0:0:
109,192,94338,1,0,0:0:0:0:
256,192,94338,1,0,0:0:0:0:
475,192,94338,1,0,0:0:0:0:
36,192,94338,1,0,0:0:0:0:
402,192,94338,1,0,0:0:0:0:
329,192,94897,1,0,0:0:0:0:
475,192,94897,1,0,0:0:0:0:
36,192,94897,1,0,0:0:0:0:
109,192,94897,1,0,0:0:0:0:
402,192,95269,1,0,0:0:0:0:
329,192,95456,1,0,0:0:0:0:
256,192,95642,1,0,0:0:0:0:
402,192,95828,1,0,0:0:0:0:
475,192,95828,1,0,0:0:0:0:
36,192,95828,1,0,0:0:0:0:
182,192,95828,1,0,0:0:0:0:
329,192,96201,1,0,0:0:0:0:
182,192,96201,1,0,0:0:0:0:
109,192,96387,1,0,0:0:0:0:
36,192,96387,1,0,0:0:0:0:
256,192,96387,1,0,0:0:0:0:
402,192,96387,1,0,0:0:0:0:
36,192,96760,1,0,0:0:0:0:
109,192,96946,1,0,0:0:0:0:
182,192,97133,1,0,0:0:0:0:
109,192,97319,1,0,0:0:0:0:
36,192,97319,1,0,0:0:0:0:
256,192,97319,1,0,0:0:0:0:
475,192,97319,128,0,97365:0:0:0:0:
329,192,97505,128,0,97552:0:0:0:0:
182,192,97692,128,0,97738:0:0:0:0:
402,192,97878,1,0,0:0:0:0:
475,192,97878,1,0,0:0:0:0:
36,192,97878,128,0,97924:0:0:0:0:
475,192,98251,128,0,98297:0:0:0:0:
109,192,98437,1,0,0:0:0:0:
36,192,98437,1,0,0:0:0:0:
256,192,98437,128,0,98484:0:0:0:0:
36,192,99555,1,0,0:0:0:0:
109,192,99555,1,0,0:0:0:0:
256,192,99555,1,0,0:0:0:0:
475,192,99555,1,0,0:0:0:0:
402,192,99741,1,0,0:0:0:0:
329,192,99928,1,0,0:0:0:0:
475,192,100300,1,0,0:0:0:0:
402,192,100300,1,0,0:0:0:0:
36,192,100300,1,0,0:0:0:0:
109,192,100300,1,0,0:0:0:0:
182,192,100300,1,0,0:0:0:0:
329,192,100393,1,0,0:0:0:0:
256,192,100487,1,0,0:0:0:0:
36,192,100487,1,0,0:0:0:0:
329,192,100580,1,0,0:0:0:0:
109,192,100580,1,0,0:0:0:0:
402,192,100673,1,0,0:0:0:0:
475,192,100673,1,0,0:0:0:0:
182,192,100673,1,0,0:0:0:0:
36,192,100673,1,0,0:0:0:0:
256,192,100766,1,0,0:0:0:0:
475,192,100859,1,0,0:0:0:0:
329,192,100859,1,0,0:0:0:0:
109,192,100859,1,0,0:0:0:0:
36,192,100859,1,0,0:0:0:0:
182,192,100952,1,0,0:0:0:0:
256,192,100952,1,0,0:0:0:0:
329,192,101046,1,0,0:0:0:0:
402,192,101046,1,0,0:0:0:0:
475,192,101046,1,0,0:0:0:0:
36,192,101046,1,0,0:0:0:0:
109,192,101139,1,0,0:0:0:0:
36,192,101232,1,0,0:0:0:0:
402,192,101232,1,0,0:0:0:0:
475,192,101232,1,0,0:0:0:0:
182,192,101232,1,0,0:0:0:0:
329,192,101325,1,0,0:0:0:0:
109,192,101325,1,0,0:0:0:0:
36,192,101418,1,0,0:0:0:0:
256,192,101418,1,0,0:0:0:0:
475,192,101418,1,0,0:0:0:0:
182,192,101511,1,0,0:0:0:0:
402,192,101511,1,0,0:0:0:0:
109,192,101605,1,0,0:0:0:0:
36,192,101605,1,0,0:0:0:0:
329,192,101605,1,0,0:0:0:0:
475,192,101605,1,0,0:0:0:0:
256,192,101698,1,0,0:0:0:0:
182,192,101698,1,0,0:0:0:0:
36,192,101791,1,0,0:0:0:0:
109,192,101791,1,0,0:0:0:0:
475,192,101791,1,0,0:0:0:0:
402,192,101791,1,0,0:0:0:0:
182,192,101884,1,0,0:0:0:0:
256,192,101977,1,0,0:0:0:0:
475,192,101977,1,0,0:0:0:0:
182,192,102070,1,0,0:0:0:0:
402,192,102070,1,0,0:0:0:0:
109,192,102164,1,0,0:0:0:0:
36,192,102164,1,0,0:0:0:0:
329,192,102164,1,0,0:0:0:0:
475,192,102164,1,0,0:0:0:0:
256,192,102257,1,0,0:0:0:0:
36,192,102350,1,0,0:0:0:0:
182,192,102350,1,0,0:0:0:0:
402,192,102350,1,0,0:0:0:0:
475,192,102350,1,0,0:0:0:0:
329,192,102443,1,0,0:0:0:0:
256,192,102443,1,0,0:0:0:0:
182,192,102536,1,0,0:0:0:0:
109,192,102536,1,0,0:0:0:0:
36,192,102536,1,0,0:0:0:0:
475,192,102536,1,0,0:0:0:0:
402,192,102629,1,0,0:0:0:0:
475,192,102723,1,0,0:0:0:0:
109,192,102723,1,0,0:0:0:0:
36,192,102723,1,0,0:0:0:0:
329,192,102723,1,0,0:0:0:0:
182,192,102816,1,0,0:0:0:0:
402,192,102816,1,0,0:0:0:0:
475,192,102909,1,0,0:0:0:0:
256,192,102909,1,0,0:0:0:0:
36,192,102909,1,0,0:0:0:0:
329,192,103002,1,0,0:0:0:0:
109,192,103002,1,0,0:0:0:0:
402,192,103095,1,0,0:0:0:0:
475,192,103095,1,0,0:0:0:0:
182,192,103095,1,0,0:0:0:0:
36,192,103095,1,0,0:0:0:0:
256,192,103188,1,0,0:0:0:0:
329,192,103188,1,0,0:0:0:0:
475,192,103282,1,0,0:0:0:0:
402,192,103282,1,0,0:0:0:0:
36,192,103282,1,0,0:0:0:0:
109,192,103282,1,0,0:0:0:0:
182,192,103375,1,0,0:0:0:0:
256,192,103468,1,0,0:0:0:0:
329,192,103468,1,0,0:0:0:0:
475,192,103468,1,0,0:0:0:0:
402,192,103561,1,0,0:0:0:0:
182,192,103561,1,0,0:0:0:0:
36,192,103654,1,0,0:0:0:0:
256,192,103654,1,0,0:0:0:0:
109,192,103654,1,0,0:0:0:0:
329,192,103654,1,0,0:0:0:0:
402,192,103747,1,0,0:0:0:0:
182,192,103841,1,0,0:0:0:0:
475,192,103841,1,0,0:0:0:0:
256,192,103841,1,0,0:0:0:0:
36,192,103841,1,0,0:0:0:0:
329,192,103934,1,0,0:0:0:0:
109,192,104027,1,0,0:0:0:0:
182,192,104027,1,0,0:0:0:0:
402,192,104027,1,0,0:0:0:0:
475,192,104027,1,0,0:0:0:0:
256,192,104120,1,0,0:0:0:0:
329,192,104213,1,0,0:0:0:0:
475,192,104213,1,0,0:0:0:0:
36,192,104213,1,0,0:0:0:0:
109,192,104213,1,0,0:0:0:0:
182,192,104306,1,0,0:0:0:0:
402,192,104306,1,0,0:0:0:0:
36,192,104400,1,0,0:0:0:0:
475,192,104400,1,0,0:0:0:0:
109,192,104400,1,0,0:0:0:0:
256,192,104400,1,0,0:0:0:0:
182,192,104493,1,0,0:0:0:0:
329,192,104493,1,0,0:0:0:0:
256,192,104586,1,0,0:0:0:0:
36,192,104586,1,0,0:0:0:0:
475,192,104586,1,0,0:0:0:0:
109,192,104679,1,0,0:0:0:0:
402,192,104679,1,0,0:0:0:0:
36,192,104772,1,0,0:0:0:0:
182,192,104772,1,0,0:0:0:0:
256,192,104772,1,0,0:0:0:0:
329,192,104772,1,0,0:0:0:0:
475,192,104772,1,0,0:0:0:0:
256,192,104959,1,0,0:0:0:0:
475,192,104959,1,0,0:0:0:0:
109,192,104959,1,0,0:0:0:0:
182,192,105052,1,0,0:0:0:0:
402,192,105052,1,0,0:0:0:0:
109,192,105145,1,0,0:0:0:0:
329,192,105145,1,0,0:0:0:0:
36,192,105145,1,0,0:0:0:0:
475,192,105145,1,0,0:0:0:0:
36,192,105331,1,0,0:0:0:0:
182,192,105331,1,0,0:0:0:0:
402,192,105331,1,0,0:0:0:0:
109,192,105424,1,0,0:0:0:0:
329,192,105424,1,0,0:0:0:0:
36,192,105518,1,0,0:0:0:0:
256,192,105518,1,0,0:0:0:0:
475,192,105518,1,0,0:0:0:0:
402,192,105518,1,0,0:0:0:0:
36,192,105704,1,0,0:0:0:0:
475,192,105704,1,0,0:0:0:0:
256,192,105704,1,0,0:0:0:0:
402,192,105797,1,0,0:0:0:0:
109,192,105797,1,0,0:0:0:0:
329,192,105844,1,0,0:0:0:0:
182,192,105844,1,0,0:0:0:0:
36,192,105890,1,0,0:0:0:0:
256,192,105890,1,0,0:0:0:0:
475,192,105890,1,0,0:0:0:0:
475,192,106077,1,0,0:0:0:0:
329,192,106077,1,0,0:0:0:0:
182,192,106077,1,0,0:0:0:0:
256,192,106170,1,0,0:0:0:0:
402,192,106170,1,0,0:0:0:0:
36,192,106263,1,0,0:0:0:0:
329,192,106263,1,0,0:0:0:0:
109,192,106263,1,0,0:0:0:0:
475,192,106263,1,0,0:0:0:0:
182,192,106356,1,0,0:0:0:0:
475,192,106449,1,0,0:0:0:0:
256,192,106449,1,0,0:0:0:0:
402,192,106543,1,0,0:0:0:0:
182,192,106543,1,0,0:0:0:0:
329,192,106636,1,0,0:0:0:0:
475,192,106636,1,0,0:0:0:0:
109,192,106636,1,0,0:0:0:0:
36,192,106636,1,0,0:0:0:0:
256,192,106729,1,0,0:0:0:0:
402,192,106822,1,0,0:0:0:0:
475,192,106822,1,0,0:0:0:0:
36,192,106822,1,0,0:0:0:0:
182,192,106822,1,0,0:0:0:0:
256,192,106915,1,0,0:0:0:0:
329,192,106915,1,0,0:0:0:0:
36,192,107008,1,0,0:0:0:0:
475,192,107008,1,0,0:0:0:0:
182,192,107008,1,0,0:0:0:0:
109,192,107008,1,0,0:0:0:0:
402,192,107102,1,0,0:0:0:0:
36,192,107195,1,0,0:0:0:0:
329,192,107195,1,0,0:0:0:0:
475,192,107195,1,0,0:0:0:0:
109,192,107195,1,0,0:0:0:0:
402,192,107288,1,0,0:0:0:0:
182,192,107288,1,0,0:0:0:0:
36,192,107381,1,0,0:0:0:0:
256,192,107381,1,0,0:0:0:0:
475,192,107381,1,0,0:0:0:0:
109,192,107474,1,0,0:0:0:0:
329,192,107474,1,0,0:0:0:0:
182,192,107567,1,0,0:0:0:0:
36,192,107567,1,0,0:0:0:0:
402,192,107567,1,0,0:0:0:0:
475,192,107567,1,0,0:0:0:0:
329,192,107661,1,0,0:0:0:0:
256,192,107661,1,0,0:0:0:0:
36,192,107754,1,0,0:0:0:0:
109,192,107754,1,0,0:0:0:0:
475,192,107754,1,0,0:0:0:0:
402,192,107754,1,0,0:0:0:0:
329,192,107847,1,0,0:0:0:0:
36,192,107940,1,0,0:0:0:0:
256,192,107940,1,0,0:0:0:0:
109,192,108033,1,0,0:0:0:0:
329,192,108033,1,0,0:0:0:0:
182,192,108126,1,0,0:0:0:0:
36,192,108126,1,0,0:0:0:0:
402,192,108126,1,0,0:0:0:0:
475,192,108126,1,0,0:0:0:0:
256,192,108220,1,0,0:0:0:0:
109,192,108313,1,0,0:0:0:0:
36,192,108313,1,0,0:0:0:0:
475,192,108313,1,0,0:0:0:0:
329,192,108313,1,0,0:0:0:0:
256,192,108406,1,0,0:0:0:0:
182,192,108406,1,0,0:0:0:0:
475,192,108499,1,0,0:0:0:0:
36,192,108499,1,0,0:0:0:0:
329,192,108499,1,0,0:0:0:0:
402,192,108499,1,0,0:0:0:0:
109,192,108592,1,0,0:0:0:0:
475,192,108685,1,0,0:0:0:0:
182,192,108685,1,0,0:0:0:0:
36,192,108685,1,0,0:0:0:0:
402,192,108685,1,0,0:0:0:0:
109,192,108779,1,0,0:0:0:0:
329,192,108779,1,0,0:0:0:0:
475,192,108872,1,0,0:0:0:0:
256,192,108872,1,0,0:0:0:0:
36,192,108872,1,0,0:0:0:0:
402,192,108965,1,0,0:0:0:0:
182,192,108965,1,0,0:0:0:0:
329,192,109058,1,0,0:0:0:0:
475,192,109058,1,0,0:0:0:0:
109,192,109058,1,0,0:0:0:0:
36,192,109058,1,0,0:0:0:0:
182,192,109151,1,0,0:0:0:0:
256,192,109151,1,0,0:0:0:0:
475,192,109244,1,0,0:0:0:0:
402,192,109244,1,0,0:0:0:0:
36,192,109244,1,0,0:0:0:0:
109,192,109244,1,0,0:0:0:0:
329,192,109338,1,0,0:0:0:0:
256,192,109431,1,0,0:0:0:0:
475,192,109431,1,0,0:0:0:0:
36,192,109431,1,0,0:0:0:0:
182,192,109524,1,0,0:0:0:0:
402,192,109524,1,0,0:0:0:0:
109,192,109617,1,0,0:0:0:0:
329,192,109617,1,0,0:0:0:0:
36,192,109617,1,0,0:0:0:0:
475,192,109617,1,0,0:0:0:0:
256,192,109710,1,0,0:0:0:0:
182,192,109803,1,0,0:0:0:0:
36,192,109803,1,0,0:0:0:0:
402,192,109803,1,0,0:0:0:0:
475,192,109803,1,0,0:0:0:0:
329,192,109897,1,0,0:0:0:0:
256,192,109990,1,0,0:0:0:0:
109,192,109990,1,0,0:0:0:0:
475,192,109990,1,0,0:0:0:0:
182,192,110083,1,0,0:0:0:0:
402,192,110083,1,0,0:0:0:0:
329,192,110176,1,0,0:0:0:0:
36,192,110176,1,0,0:0:0:0:
109,192,110176,1,0,0:0:0:0:
475,192,110176,1,0,0:0:0:0:
256,192,110269,1,0,0:0:0:0:
182,192,110362,1,0,0:0:0:0:
402,192,110362,1,0,0:0:0:0:
36,192,110362,1,0,0:0:0:0:
475,192,110362,1,0,0:0:0:0:
109,192,110456,1,0,0:0:0:0:
329,192,110456,1,0,0:0:0:0:
36,192,110549,1,0,0:0:0:0:
256,192,110549,1,0,0:0:0:0:
402,192,110549,1,0,0:0:0:0:
475,192,110549,1,0,0:0:0:0:
182,192,110642,1,0,0:0:0:0:
329,192,110642,1,0,0:0:0:0:
36,192,110735,1,0,0:0:0:0:
109,192,110735,1,0,0:0:0:0:
256,192,110735,1,0,0:0:0:0:
402,192,110735,1,0,0:0:0:0:
475,192,110735,1,0,0:0:0:0:
182,192,110828,1,0,0:0:0:0:
109,192,110921,1,0,0:0:0:0:
36,192,110921,1,0,0:0:0:0:
329,192,110921,1,0,0:0:0:0:
475,192,110921,1,0,0:0:0:0:
256,192,111015,1,0,0:0:0:0:
182,192,111108,1,0,0:0:0:0:
36,192,111108,1,0,0:0:0:0:
475,192,111108,1,0,0:0:0:0:
402,192,111108,1,0,0:0:0:0:
329,192,111201,1,0,0:0:0:0:
256,192,111294,1,0,0:0:0:0:
475,192,111294,1,0,0:0:0:0:
109,192,111294,1,0,0:0:0:0:
36,192,111294,1,0,0:0:0:0:
182,192,111387,1,0,0:0:0:0:
329,192,111387,1,0,0:0:0:0:
36,192,111480,1,0,0:0:0:0:
475,192,111480,1,0,0:0:0:0:
109,192,111480,1,0,0:0:0:0:
402,192,111480,1,0,0:0:0:0:
182,192,111574,1,0,0:0:0:0:
36,192,111667,1,0,0:0:0:0:
256,192,111667,1,0,0:0:0:0:
475,192,111667,1,0,0:0:0:0:
402,192,111667,1,0,0:0:0:0:
182,192,111760,1,0,0:0:0:0:
329,192,111760,1,0,0:0:0:0:
256,192,111853,1,0,0:0:0:0:
109,192,111853,1,0,0:0:0:0:
36,192,111853,1,0,0:0:0:0:
475,192,111853,1,0,0:0:0:0:
329,192,111946,1,0,0:0:0:0:
182,192,111946,1,0,0:0:0:0:
36,192,112039,1,0,0:0:0:0:
256,192,112039,1,0,0:0:0:0:
402,192,112039,1,0,0:0:0:0:
475,192,112039,1,0,0:0:0:0:
109,192,112133,1,0,0:0:0:0:
182,192,112226,1,0,0:0:0:0:
475,192,112226,1,0,0:0:0:0:
36,192,112226,1,0,0:0:0:0:
256,192,112226,1,0,0:0:0:0:
329,192,112226,1,0,0:0:0:0:
109,192,112319,1,0,0:0:0:0:
475,192,112412,1,0,0:0:0:0:
329,192,112412,1,0,0:0:0:0:
182,192,112412,1,0,0:0:0:0:
256,192,112505,1,0,0:0:0:0:
109,192,112505,1,0,0:0:0:0:
182,192,112598,1,0,0:0:0:0:
402,192,112598,1,0,0:0:0:0:
36,192,112598,1,0,0:0:0:0:
475,192,112598,1,0,0:0:0:0:
256,192,112692,1,0,0:0:0:0:
36,192,112785,1,0,0:0:0:0:
475,192,112785,1,0,0:0:0:0:
329,192,112785,1,0,0:0:0:0:
109,192,112785,1,0,0:0:0:0:
256,192,112878,1,0,0:0:0:0:
182,192,112878,1,0,0:0:0:0:
402,192,112971,1,0,0:0:0:0:
329,192,112971,1,0,0:0:0:0:
475,192,112971,1,0,0:0:0:0:
36,192,112971,1,0,0:0:0:0:
256,192,113064,1,0,0:0:0:0:
402,192,113157,1,0,0:0:0:0:
475,192,113157,1,0,0:0:0:0:
182,192,113157,1,0,0:0:0:0:
36,192,113157,1,0,0:0:0:0:
109,192,113251,1,0,0:0:0:0:
329,192,113251,1,0,0:0:0:0:
36,192,113344,1,0,0:0:0:0:
475,192,113344,1,0,0:0:0:0:
256,192,113344,1,0,0:0:0:0:
182,192,113437,1,0,0:0:0:0:
402,192,113437,1,0,0:0:0:0:
36,192,113530,1,0,0:0:0:0:
475,192,113530,1,0,0:0:0:0:
329,192,113530,1,0,0:0:0:0:
109,192,113530,1,0,0:0:0:0:
256,192,113623,1,0,0:0:0:0:
182,192,113623,1,0,0:0:0:0:
475,192,113716,1,0,0:0:0:0:
329,192,113716,1,0,0:0:0:0:
36,192,113716,1,0,0:0:0:0:
109,192,113716,1,0,0:0:0:0:
402,192,113810,1,0,0:0:0:0:
36,192,113903,1,0,0:0:0:0:
182,192,113903,1,0,0:0:0:0:
329,192,113903,1,0,0:0:0:0:
256,192,113996,1,0,0:0:0:0:
402,192,113996,1,0,0:0:0:0:
329,192,114089,1,0,0:0:0:0:
109,192,114089,1,0,0:0:0:0:
475,192,114089,1,0,0:0:0:0:
36,192,114089,1,0,0:0:0:0:
256,192,114182,1,0,0:0:0:0:
475,192,114275,1,0,0:0:0:0:
36,192,114275,1,0,0:0:0:0:
182,192,114275,1,0,0:0:0:0:
402,192,114275,1,0,0:0:0:0:
256,192,114369,1,0,0:0:0:0:
329,192,114369,1,0,0:0:0:0:
109,192,114462,1,0,0:0:0:0:
182,192,114462,1,0,0:0:0:0:
36,192,114462,1,0,0:0:0:0:
475,192,114462,1,0,0:0:0:0:
256,192,114555,1,0,0:0:0:0:
109,192,114648,1,0,0:0:0:0:
36,192,114648,1,0,0:0:0:0:
329,192,114648,1,0,0:0:0:0:
475,192,114648,1,0,0:0:0:0:
402,192,114741,1,0,0:0:0:0:
182,192,114741,1,0,0:0:0:0:
475,192,114834,1,0,0:0:0:0:
36,192,114834,1,0,0:0:0:0:
256,192,114834,1,0,0:0:0:0:
329,192,114928,1,0,0:0:0:0:
109,192,114928,1,0,0:0:0:0:
475,192,115021,1,0,0:0:0:0:
36,192,115021,1,0,0:0:0:0:
182,192,115021,1,0,0:0:0:0:
402,192,115021,1,0,0:0:0:0:
256,192,115114,1,0,0:0:0:0:
329,192,115114,1,0,0:0:0:0:
36,192,115207,1,0,0:0:0:0:
109,192,115207,1,0,0:0:0:0:
475,192,115207,1,0,0:0:0:0:
402,192,115207,1,0,0:0:0:0:
329,192,115300,1,0,0:0:0:0:
36,192,115393,1,0,0:0:0:0:
109,192,115393,1,0,0:0:0:0:
256,192,115393,1,0,0:0:0:0:
329,192,115487,1,0,0:0:0:0:
182,192,115487,1,0,0:0:0:0:
256,192,115580,1,0,0:0:0:0:
36,192,115580,1,0,0:0:0:0:
402,192,115580,1,0,0:0:0:0:
475,192,115580,1,0,0:0:0:0:
182,192,115673,1,0,0:0:0:0:
329,192,115766,1,0,0:0:0:0:
402,192,115766,1,0,0:0:0:0:
109,192,115766,1,0,0:0:0:0:
36,192,115766,1,0,0:0:0:0:
256,192,115859,1,0,0:0:0:0:
475,192,115952,1,0,0:0:0:0:
402,192,115952,1,0,0:0:0:0:
109,192,115952,1,0,0:0:0:0:
182,192,115952,1,0,0:0:0:0:
329,192,116046,1,0,0:0:0:0:
109,192,116139,1,0,0:0:0:0:
475,192,116139,1,0,0:0:0:0:
256,192,116139,1,0,0:0:0:0:
36,192,116139,1,0,0:0:0:0:
329,192,116232,1,0,0:0:0:0:
182,192,116232,1,0,0:0:0:0:
36,192,116325,1,0,0:0:0:0:
109,192,116325,1,0,0:0:0:0:
475,192,116325,1,0,0:0:0:0:
256,192,116325,1,0,0:0:0:0:
402,192,116325,1,0,0:0:0:0:
329,192,116418,1,0,0:0:0:0:
182,192,116418,1,0,0:0:0:0:
36,192,116511,1,0,0:0:0:0:
475,192,116511,1,0,0:0:0:0:
256,192,116511,1,0,0:0:0:0:
109,192,116605,1,0,0:0:0:0:
402,192,116605,1,0,0:0:0:0:
329,192,116698,1,0,0:0:0:0:
182,192,116698,1,0,0:0:0:0:
256,192,116698,1,0,0:0:0:0:
36,192,116698,1,0,0:0:0:0:
475,192,116698,1,0,0:0:0:0:
402,192,116791,1,0,0:0:0:0:
36,192,116884,1,0,0:0:0:0:
109,192,116884,1,0,0:0:0:0:
329,192,116884,1,0,0:0:0:0:
182,192,116977,1,0,0:0:0:0:
402,192,116977,1,0,0:0:0:0:
256,192,117070,1,0,0:0:0:0:
329,192,117070,1,0,0:0:0:0:
475,192,117070,1,0,0:0:0:0:
36,192,117070,1,0,0:0:0:0:
109,192,117164,1,0,0:0:0:0:
329,192,117257,1,0,0:0:0:0:
475,192,117257,1,0,0:0:0:0:
182,192,117257,1,0,0:0:0:0:
402,192,117350,1,0,0:0:0:0:
109,192,117350,1,0,0:0:0:0:
256,192,117350,1,0,0:0:0:0:
36,192,117443,1,0,0:0:0:0:
329,192,117443,1,0,0:0:0:0:
475,192,117443,1,0,0:0:0:0:
182,192,117443,1,0,0:0:0:0:
402,192,117536,1,0,0:0:0:0:
36,192,117629,1,0,0:0:0:0:
109,192,117629,1,0,0:0:0:0:
329,192,117629,1,0,0:0:0:0:
182,192,117723,1,0,0:0:0:0:
402,192,117723,1,0,0:0:0:0:
36,192,117816,1,0,0:0:0:0:
329,192,117816,1,0,0:0:0:0:
475,192,117816,1,0,0:0:0:0:
256,192,117816,1,0,0:0:0:0:
402,192,117909,1,0,0:0:0:0:
182,192,117909,1,0,0:0:0:0:
475,192,118002,1,0,0:0:0:0:
329,192,118002,1,0,0:0:0:0:
109,192,118002,1,0,0:0:0:0:
256,192,118095,1,0,0:0:0:0:
36,192,118095,1,0,0:0:0:0:
475,192,118188,1,0,0:0:0:0:
329,192,118188,1,0,0:0:0:0:
182,192,118188,1,0,0:0:0:0:
402,192,118188,1,0,0:0:0:0:
109,192,118282,1,0,0:0:0:0:
475,192,118375,1,0,0:0:0:0:
256,192,118375,1,0,0:0:0:0:
36,192,118375,1,0,0:0:0:0:
402,192,118468,1,0,0:0:0:0:
182,192,118468,1,0,0:0:0:0:
36,192,118561,1,0,0:0:0:0:
329,192,118561,1,0,0:0:0:0:
109,192,118561,1,0,0:0:0:0:
256,192,118654,1,0,0:0:0:0:
475,192,118747,1,0,0:0:0:0:
402,192,118747,1,0,0:0:0:0:
36,192,118747,1,0,0:0:0:0:
182,192,118747,1,0,0:0:0:0:
109,192,118841,1,0,0:0:0:0:
256,192,118841,1,0,0:0:0:0:
475,192,118934,1,0,0:0:0:0:
182,192,118934,1,0,0:0:0:0:
329,192,118934,1,0,0:0:0:0:
109,192,119027,1,0,0:0:0:0:
256,192,119120,1,0,0:0:0:0:
402,192,119120,1,0,0:0:0:0:
36,192,119120,1,0,0:0:0:0:
475,192,119120,1,0,0:0:0:0:
329,192,119213,1,0,0:0:0:0:
182,192,119213,1,0,0:0:0:0:
475,192,119306,1,0,0:0:0:0:
402,192,119306,1,0,0:0:0:0:
256,192,119306,1,0,0:0:0:0:
109,192,119306,1,0,0:0:0:0:
36,192,119306,1,0,0:0:0:0:
329,192,119400,1,0,0:0:0:0:
182,192,119400,1,0,0:0:0:0:
475,192,119493,1,0,0:0:0:0:
36,192,119493,1,0,0:0:0:0:
256,192,119493,1,0,0:0:0:0:
402,192,119586,1,0,0:0:0:0:
109,192,119586,1,0,0:0:0:0:
329,192,119679,1,0,0:0:0:0:
475,192,119679,1,0,0:0:0:0:
182,192,119679,1,0,0:0:0:0:
36,192,119679,1,0,0:0:0:0:
256,192,119679,1,0,0:0:0:0:
109,192,119772,1,0,0:0:0:0:
475,192,119865,1,0,0:0:0:0:
256,192,119865,1,0,0:0:0:0:
36,192,119865,1,0,0:0:0:0:
402,192,119959,1,0,0:0:0:0:
182,192,119959,1,0,0:0:0:0:
36,192,120052,1,0,0:0:0:0:
475,192,120052,1,0,0:0:0:0:
109,192,120052,1,0,0:0:0:0:
329,192,120052,1,0,0:0:0:0:
256,192,120145,1,0,0:0:0:0:
475,192,120238,1,0,0:0:0:0:
402,192,120238,1,0,0:0:0:0:
36,192,120238,1,0,0:0:0:0:
182,192,120238,1,0,0:0:0:0:
109,192,120331,1,0,0:0:0:0:
256,192,120331,1,0,0:0:0:0:
475,192,120424,1,0,0:0:0:0:
329,192,120424,1,0,0:0:0:0:
182,192,120424,1,0,0:0:0:0:
109,192,120518,1,0,0:0:0:0:
402,192,120611,1,0,0:0:0:0:
256,192,120611,1,0,0:0:0:0:
36,192,120611,1,0,0:0:0:0:
475,192,120611,1,0,0:0:0:0:
329,192,120704,1,0,0:0:0:0:
182,192,120704,1,0,0:0:0:0:
475,192,120797,1,0,0:0:0:0:
402,192,120797,1,0,0:0:0:0:
256,192,120797,1,0,0:0:0:0:
109,192,120797,1,0,0:0:0:0:
36,192,120797,1,0,0:0:0:0:
329,192,120890,1,0,0:0:0:0:
182,192,120890,1,0,0:0:0:0:
402,192,120984,1,0,0:0:0:0:
109,192,120984,1,0,0:0:0:0:
256,192,120984,1,0,0:0:0:0:
182,192,121077,1,0,0:0:0:0:
329,192,121077,1,0,0:0:0:0:
256,192,121170,1,0,0:0:0:0:
402,192,121170,1,0,0:0:0:0:
109,192,121170,1,0,0:0:0:0:
36,192,121170,1,0,0:0:0:0:
475,192,121170,1,0,0:0:0:0:
182,192,121263,1,0,0:0:0:0:
329,192,121356,1,0,0:0:0:0:
402,192,121356,1,0,0:0:0:0:
36,192,121356,1,0,0:0:0:0:
109,192,121356,1,0,0:0:0:0:
256,192,121449,1,0,0:0:0:0:
402,192,121543,1,0,0:0:0:0:
475,192,121543,1,0,0:0:0:0:
182,192,121543,1,0,0:0:0:0:
109,192,121543,1,0,0:0:0:0:
329,192,121636,1,0,0:0:0:0:
475,192,121729,1,0,0:0:0:0:
36,192,121729,1,0,0:0:0:0:
256,192,121729,1,0,0:0:0:0:
182,192,121729,1,0,0:0:0:0:
402,192,121822,1,0,0:0:0:0:
329,192,121822,1,0,0:0:0:0:
109,192,121822,1,0,0:0:0:0:
475,192,121915,1,0,0:0:0:0:
256,192,121915,1,0,0:0:0:0:
36,192,121915,1,0,0:0:0:0:
182,192,122008,1,0,0:0:0:0:
475,192,122102,1,0,0:0:0:0:
329,192,122102,1,0,0:0:0:0:
109,192,122102,1,0,0:0:0:0:
36,192,122102,1,0,0:0:0:0:
256,192,122195,1,0,0:0:0:0:
402,192,122288,1,0,0:0:0:0:
475,192,122288,1,0,0:0:0:0:
182,192,122288,1,0,0:0:0:0:
109,192,122288,1,0,0:0:0:0:
329,192,122381,1,0,0:0:0:0:
475,192,122474,1,0,0:0:0:0:
36,192,122474,1,0,0:0:0:0:
256,192,122474,1,0,0:0:0:0:
182,192,122474,1,0,0:0:0:0:
402,192,122567,1,0,0:0:0:0:
329,192,122661,1,0,0:0:0:0:
256,192,122661,1,0,0:0:0:0:
36,192,122661,1,0,0:0:0:0:
475,192,122661,1,0,0:0:0:0:
109,192,122754,1,0,0:0:0:0:
402,192,122754,1,0,0:0:0:0:
256,192,122847,1,0,0:0:0:0:
182,192,122847,1,0,0:0:0:0:
329,192,122847,1,0,0:0:0:0:
402,192,122940,1,0,0:0:0:0:
109,192,122940,1,0,0:0:0:0:
329,192,123033,1,0,0:0:0:0:
475,192,123033,1,0,0:0:0:0:
36,192,123033,1,0,0:0:0:0:
182,192,123033,1,0,0:0:0:0:
402,192,123126,1,0,0:0:0:0:
256,192,123126,1,0,0:0:0:0:
329,192,123220,1,0,0:0:0:0:
475,192,123220,1,0,0:0:0:0:
36,192,123220,1,0,0:0:0:0:
109,192,123220,1,0,0:0:0:0:
402,192,123313,1,0,0:0:0:0:
256,192,123313,1,0,0:0:0:0:
182,192,123406,1,0,0:0:0:0:
36,192,123406,1,0,0:0:0:0:
329,192,123406,1,0,0:0:0:0:
475,192,123406,1,0,0:0:0:0:
402,192,123499,1,0,0:0:0:0:
109,192,123499,1,0,0:0:0:0:
329,192,123592,1,0,0:0:0:0:
256,192,123592,1,0,0:0:0:0:
182,192,123592,1,0,0:0:0:0:
402,192,123685,1,0,0:0:0:0:
109,192,123685,1,0,0:0:0:0:
329,192,123779,1,0,0:0:0:0:
256,192,123779,1,0,0:0:0:0:
36,192,123779,1,0,0:0:0:0:
475,192,123779,1,0,0:0:0:0:
182,192,123965,1,0,0:0:0:0:
109,192,123965,1,0,0:0:0:0:
329,192,123965,1,0,0:0:0:0:
402,192,123965,1,0,0:0:0:0:
402,192,124151,1,0,0:0:0:0:
256,192,124151,1,0,0:0:0:0:
109,192,124151,1,0,0:0:0:0:
475,192,124151,1,0,0:0:0:0:
36,192,124151,1,0,0:0:0:0:
36,192,124524,1,0,0:0:0:0:
329,192,124524,1,0,0:0:0:0:
182,192,124524,1,0,0:0:0:0:
109,192,124617,1,0,0:0:0:0:
256,192,124617,1,0,0:0:0:0:
402,192,124617,1,0,0:0:0:0:
182,192,124710,1,0,0:0:0:0:
329,192,124710,1,0,0:0:0:0:
475,192,124710,1,0,0:0:0:0:
256,192,124803,1,0,0:0:0:0:
402,192,124803,1,0,0:0:0:0:
109,192,124803,1,0,0:0:0:0:
182,192,124897,1,0,0:0:0:0:
329,192,124897,1,0,0:0:0:0:
475,192,124897,1,0,0:0:0:0:
36,192,124897,1,0,0:0:0:0:
36,192,125083,1,0,0:0:0:0:
109,192,125083,1,0,0:0:0:0:
256,192,125083,1,0,0:0:0:0:
402,192,125083,1,0,0:0:0:0:
475,192,125269,1,0,0:0:0:0:
329,192,125269,1,0,0:0:0:0:
109,192,125269,1,0,0:0:0:0:
182,192,125269,1,0,0:0:0:0:
36,192,125456,1,0,0:0:0:0:
256,192,125456,1,0,0:0:0:0:
475,192,125456,1,0,0:0:0:0:
109,192,125456,1,0,0:0:0:0:
402,192,125456,1,0,0:0:0:0:
329,192,125828,1,0,0:0:0:0:
475,192,125828,1,0,0:0:0:0:
109,192,125828,1,0,0:0:0:0:
402,192,125921,1,0,0:0:0:0:
256,192,125921,1,0,0:0:0:0:
329,192,126015,1,0,0:0:0:0:
182,192,126015,1,0,0:0:0:0:
36,192,126015,1,0,0:0:0:0:
475,192,126015,1,0,0:0:0:0:
402,192,126201,1,0,0:0:0:0:
256,192,126201,1,0,0:0:0:0:
36,192,126201,1,0,0:0:0:0:
329,192,126294,1,0,0:0:0:0:
182,192,126294,1,0,0:0:0:0:
256,192,126387,1,0,0:0:0:0:
109,192,126387,1,0,0:0:0:0:
36,192,126387,1,0,0:0:0:0:
475,192,126387,1,0,0:0:0:0:
182,192,126574,1,0,0:0:0:0:
36,192,126574,1,0,0:0:0:0:
402,192,126574,1,0,0:0:0:0:
109,192,126667,1,0,0:0:0:0:
256,192,126667,1,0,0:0:0:0:
475,192,126760,1,0,0:0:0:0:
329,192,126760,1,0,0:0:0:0:
182,192,126760,1,0,0:0:0:0:
36,192,126760,1,0,0:0:0:0:
109,192,126946,1,0,0:0:0:0:
256,192,126946,1,0,0:0:0:0:
402,192,126946,1,0,0:0:0:0:
182,192,127039,1,0,0:0:0:0:
329,192,127039,1,0,0:0:0:0:
36,192,127133,1,0,0:0:0:0:
256,192,127133,1,0,0:0:0:0:
475,192,127133,1,0,0:0:0:0:
402,192,127133,1,0,0:0:0:0:
109,192,127133,1,0,0:0:0:0:
475,192,127505,1,0,0:0:0:0:
182,192,127505,1,0,0:0:0:0:
329,192,127505,1,0,0:0:0:0:
329,192,127692,1,0,0:0:0:0:
182,192,127692,1,0,0:0:0:0:
36,192,127692,1,0,0:0:0:0:
256,192,127785,1,0,0:0:0:0:
109,192,127785,1,0,0:0:0:0:
402,192,127785,1,0,0:0:0:0:
329,192,127878,1,0,0:0:0:0:
182,192,127878,1,0,0:0:0:0:
36,192,127878,1,0,0:0:0:0:
475,192,127878,1,0,0:0:0:0:
475,192,128064,1,0,0:0:0:0:
402,192,128064,1,0,0:0:0:0:
256,192,128064,1,0,0:0:0:0:
109,192,128064,1,0,0:0:0:0:
36,192,128251,1,0,0:0:0:0:
182,192,128251,1,0,0:0:0:0:
402,192,128251,1,0,0:0:0:0:
329,192,128251,1,0,0:0:0:0:
475,192,128437,1,0,0:0:0:0:
256,192,128437,1,0,0:0:0:0:
36,192,128437,1,0,0:0:0:0:
402,192,128437,1,0,0:0:0:0:
109,192,128437,1,0,0:0:0:0:
182,192,128810,1,0,0:0:0:0:
36,192,128810,1,0,0:0:0:0:
402,192,128810,1,0,0:0:0:0:
109,192,128903,1,0,0:0:0:0:
256,192,128903,1,0,0:0:0:0:
182,192,128996,1,0,0:0:0:0:
329,192,128996,1,0,0:0:0:0:
475,192,128996,1,0,0:0:0:0:
36,192,128996,1,0,0:0:0:0:
109,192,129182,1,0,0:0:0:0:
256,192,129182,1,0,0:0:0:0:
402,192,129182,1,0,0:0:0:0:
182,192,129275,1,0,0:0:0:0:
329,192,129275,1,0,0:0:0:0:
256,192,129369,1,0,0:0:0:0:
402,192,129369,1,0,0:0:0:0:
475,192,129369,1,0,0:0:0:0:
36,192,129369,1,0,0:0:0:0:
109,192,129369,1,0,0:0:0:0:
182,192,129462,1,0,0:0:0:0:
329,192,129462,1,0,0:0:0:0:
256,192,129555,1,0,0:0:0:0:
36,192,129555,1,0,0:0:0:0:
475,192,129555,1,0,0:0:0:0:
109,192,129648,1,0,0:0:0:0:
402,192,129648,1,0,0:0:0:0:
36,192,129741,1,0,0:0:0:0:
475,192,129741,1,0,0:0:0:0:
256,192,129741,1,0,0:0:0:0:
182,192,129741,1,0,0:0:0:0:
329,192,129741,1,0,0:0:0:0:
109,192,129834,1,0,0:0:0:0:
402,192,129834,1,0,0:0:0:0:
182,192,129928,1,0,0:0:0:0:
329,192,129928,1,0,0:0:0:0:
256,192,129928,1,0,0:0:0:0:
402,192,130021,1,0,0:0:0:0:
109,192,130021,1,0,0:0:0:0:
256,192,130114,1,0,0:0:0:0:
182,192,130114,1,0,0:0:0:0:
329,192,130114,1,0,0:0:0:0:
475,192,130114,1,0,0:0:0:0:
36,192,130114,1,0,0:0:0:0:
109,192,130300,1,0,0:0:0:0:
475,192,130300,1,0,0:0:0:0:
256,192,130300,1,0,0:0:0:0:
402,192,130393,1,0,0:0:0:0:
182,192,130393,1,0,0:0:0:0:
36,192,130487,1,0,0:0:0:0:
475,192,130487,1,0,0:0:0:0:
329,192,130487,1,0,0:0:0:0:
109,192,130487,1,0,0:0:0:0:
36,192,130673,1,0,0:0:0:0:
402,192,130673,1,0,0:0:0:0:
182,192,130673,1,0,0:0:0:0:
109,192,130766,1,0,0:0:0:0:
329,192,130766,1,0,0:0:0:0:
475,192,130859,1,0,0:0:0:0:
402,192,130859,1,0,0:0:0:0:
36,192,130859,1,0,0:0:0:0:
256,192,130859,1,0,0:0:0:0:
109,192,131046,1,0,0:0:0:0:
36,192,131046,1,0,0:0:0:0:
256,192,131046,1,0,0:0:0:0:
475,192,131046,1,0,0:0:0:0:
329,192,131139,1,0,0:0:0:0:
402,192,131139,1,0,0:0:0:0:
182,192,131139,1,0,0:0:0:0:
475,192,131232,1,0,0:0:0:0:
256,192,131232,1,0,0:0:0:0:
36,192,131232,1,0,0:0:0:0:
109,192,131232,1,0,0:0:0:0:
475,192,131418,1,0,0:0:0:0:
109,192,131418,1,0,0:0:0:0:
329,192,131418,1,0,0:0:0:0:
402,192,131511,1,0,0:0:0:0:
182,192,131511,1,0,0:0:0:0:
36,192,131605,1,0,0:0:0:0:
256,192,131605,1,0,0:0:0:0:
109,192,131605,1,0,0:0:0:0:
475,192,131605,1,0,0:0:0:0:
402,192,131791,1,0,0:0:0:0:
182,192,131791,1,0,0:0:0:0:
36,192,131791,1,0,0:0:0:0:
256,192,131884,1,0,0:0:0:0:
109,192,131884,1,0,0:0:0:0:
329,192,131977,1,0,0:0:0:0:
36,192,131977,1,0,0:0:0:0:
182,192,131977,1,0,0:0:0:0:
475,192,131977,1,0,0:0:0:0:
475,192,132164,1,0,0:0:0:0:
109,192,132164,1,0,0:0:0:0:
256,192,132164,1,0,0:0:0:0:
329,192,132257,1,0,0:0:0:0:
182,192,132257,1,0,0:0:0:0:
36,192,132350,1,0,0:0:0:0:
109,192,132350,1,0,0:0:0:0:
256,192,132350,1,0,0:0:0:0:
402,192,132350,1,0,0:0:0:0:
182,192,132536,1,0,0:0:0:0:
475,192,132536,1,0,0:0:0:0:
36,192,132536,1,0,0:0:0:0:
402,192,132536,1,0,0:0:0:0:
329,192,132629,1,0,0:0:0:0:
109,192,132629,1,0,0:0:0:0:
256,192,132629,1,0,0:0:0:0:
182,192,132723,1,0,0:0:0:0:
402,192,132723,1,0,0:0:0:0:
475,192,132723,1,0,0:0:0:0:
36,192,132723,1,0,0:0:0:0:
256,192,132909,1,0,0:0:0:0:
36,192,132909,1,0,0:0:0:0:
402,192,132909,1,0,0:0:0:0:
329,192,133002,1,0,0:0:0:0:
182,192,133002,1,0,0:0:0:0:
402,192,133095,1,0,0:0:0:0:
256,192,133095,1,0,0:0:0:0:
475,192,133095,1,0,0:0:0:0:
109,192,133095,1,0,0:0:0:0:
329,192,133282,1,0,0:0:0:0:
402,192,133282,1,0,0:0:0:0:
36,192,133282,1,0,0:0:0:0:
182,192,133282,1,0,0:0:0:0:
329,192,133468,1,0,0:0:0:0:
475,192,133468,1,0,0:0:0:0:
109,192,133468,1,0,0:0:0:0:
256,192,133468,1,0,0:0:0:0:
256,192,133654,1,0,0:0:0:0:
402,192,133654,1,0,0:0:0:0:
36,192,133654,1,0,0:0:0:0:
182,192,133654,1,0,0:0:0:0:
475,192,133841,1,0,0:0:0:0:
182,192,133841,1,0,0:0:0:0:
109,192,133841,1,0,0:0:0:0:
329,192,133841,1,0,0:0:0:0:
182,192,134027,1,0,0:0:0:0:
256,192,134027,1,0,0:0:0:0:
36,192,134027,1,0,0:0:0:0:
402,192,134027,1,0,0:0:0:0:
329,192,134213,1,0,0:0:0:0:
109,192,134213,1,0,0:0:0:0:
475,192,134213,1,0,0:0:0:0:
256,192,134213,1,0,0:0:0:0:
402,192,134400,1,0,0:0:0:0:
182,192,134400,1,0,0:0:0:0:
329,192,134400,1,0,0:0:0:0:
36,192,134400,1,0,0:0:0:0:
475,192,134586,1,0,0:0:0:0:
182,192,134586,1,0,0:0:0:0:
36,192,134586,1,0,0:0:0:0:
402,192,134586,1,0,0:0:0:0:
256,192,134679,1,0,0:0:0:0:
109,192,134772,1,0,0:0:0:0:
329,192,134772,1,0,0:0:0:0:
475,192,134772,1,0,0:0:0:0:
36,192,134772,1,0,0:0:0:0:
256,192,134865,1,0,0:0:0:0:
402,192,134959,1,0,0:0:0:0:
475,192,134959,1,0,0:0:0:0:
36,192,134959,1,0,0:0:0:0:
182,192,134959,1,0,0:0:0:0:
256,192,135052,1,0,0:0:0:0:
109,192,135145,1,0,0:0:0:0:
36,192,135145,1,0,0:0:0:0:
329,192,135145,1,0,0:0:0:0:
475,192,135145,1,0,0:0:0:0:
256,192,135238,1,0,0:0:0:0:
402,192,135331,1,0,0:0:0:0:
475,192,135331,1,0,0:0:0:0:
182,192,135331,1,0,0:0:0:0:
36,192,135331,1,0,0:0:0:0:
256,192,135424,1,0,0:0:0:0:
329,192,135424,1,0,0:0:0:0:
36,192,135518,1,0,0:0:0:0:
109,192,135518,1,0,0:0:0:0:
402,192,135518,1,0,0:0:0:0:
475,192,135518,1,0,0:0:0:0:
256,192,135611,1,0,0:0:0:0:
182,192,135611,1,0,0:0:0:0:
402,192,135704,1,0,0:0:0:0:
475,192,135704,1,0,0:0:0:0:
36,192,135704,1,0,0:0:0:0:
109,192,135704,1,0,0:0:0:0:
256,192,135797,1,0,0:0:0:0:
329,192,135797,1,0,0:0:0:0:
109,192,135890,1,0,0:0:0:0:
36,192,135890,1,0,0:0:0:0:
402,192,135890,1,0,0:0:0:0:
475,192,135890,1,0,0:0:0:0:
256,192,135984,1,0,0:0:0:0:
182,192,135984,1,0,0:0:0:0:
109,192,136077,1,0,0:0:0:0:
329,192,136077,1,0,0:0:0:0:
475,192,136077,1,0,0:0:0:0:
36,192,136077,1,0,0:0:0:0:
402,192,136170,1,0,0:0:0:0:
182,192,136170,1,0,0:0:0:0:
36,192,136263,1,0,0:0:0:0:
475,192,136263,1,0,0:0:0:0:
256,192,136263,1,0,0:0:0:0:
329,192,136356,1,0,0:0:0:0:
109,192,136356,1,0,0:0:0:0:
475,192,136449,1,0,0:0:0:0:
402,192,136449,1,0,0:0:0:0:
182,192,136449,1,0,0:0:0:0:
256,192,136543,1,0,0:0:0:0:
36,192,136543,1,0,0:0:0:0:
329,192,136636,1,0,0:0:0:0:
109,192,136636,1,0,0:0:0:0:
402,192,136729,1,0,0:0:0:0:
182,192,136729,1,0,0:0:0:0:
36,192,136822,1,0,0:0:0:0:
475,192,136822,1,0,0:0:0:0:
256,192,136822,1,0,0:0:0:0:
402,192,136915,1,0,0:0:0:0:
109,192,136915,1,0,0:0:0:0:
256,192,137008,1,0,0:0:0:0:
36,192,137008,1,0,0:0:0:0:
475,192,137008,1,0,0:0:0:0:
329,192,137102,1,0,0:0:0:0:
182,192,137102,1,0,0:0:0:0:
256,192,137195,1,0,0:0:0:0:
475,192,137195,1,0,0:0:0:0:
402,192,137195,1,0,0:0:0:0:
36,192,137195,1,0,0:0:0:0:
109,192,137195,1,0,0:0:0:0:
329,192,137288,1,0,0:0:0:0:
182,192,137288,1,0,0:0:0:0:
475,192,137381,1,0,0:0:0:0:
36,192,137381,1,0,0:0:0:0:
256,192,137381,1,0,0:0:0:0:
109,192,137474,1,0,0:0:0:0:
402,192,137474,1,0,0:0:0:0:
36,192,137567,1,0,0:0:0:0:
475,192,137567,1,0,0:0:0:0:
256,192,137567,1,0,0:0:0:0:
182,192,137567,1,0,0:0:0:0:
329,192,137567,1,0,0:0:0:0:
402,192,137661,1,0,0:0:0:0:
109,192,137661,1,0,0:0:0:0:
256,192,137754,1,0,0:0:0:0:
475,192,137754,1,0,0:0:0:0:
36,192,137754,1,0,0:0:0:0:
182,192,137754,1,0,0:0:0:0:
329,192,137847,1,0,0:0:0:0:
109,192,137847,1,0,0:0:0:0:
475,192,137940,1,0,0:0:0:0:
402,192,137940,1,0,0:0:0:0:
36,192,137940,1,0,0:0:0:0:
182,192,137940,1,0,0:0:0:0:
109,192,138033,1,0,0:0:0:0:
256,192,138033,1,0,0:0:0:0:
329,192,138126,1,0,0:0:0:0:
475,192,138126,1,0,0:0:0:0:
36,192,138126,1,0,0:0:0:0:
182,192,138126,1,0,0:0:0:0:
402,192,138220,1,0,0:0:0:0:
256,192,138313,1,0,0:0:0:0:
109,192,138313,1,0,0:0:0:0:
475,192,138313,1,0,0:0:0:0:
36,192,138406,1,0,0:0:0:0:
329,192,138499,1,0,0:0:0:0:
182,192,138499,1,0,0:0:0:0:
475,192,138499,1,0,0:0:0:0:
109,192,138592,1,0,0:0:0:0:
256,192,138685,1,0,0:0:0:0:
36,192,138685,1,0,0:0:0:0:
402,192,138685,1,0,0:0:0:0:
475,192,138779,1,0,0:0:0:0:
109,192,138872,1,0,0:0:0:0:
36,192,138872,1,0,0:0:0:0:
329,192,138872,1,0,0:0:0:0:
182,192,138965,1,0,0:0:0:0:
402,192,138965,1,0,0:0:0:0:
36,192,139058,1,0,0:0:0:0:
109,192,139058,1,0,0:0:0:0:
475,192,139058,1,0,0:0:0:0:
256,192,139058,1,0,0:0:0:0:
402,192,139151,1,0,0:0:0:0:
182,192,139151,1,0,0:0:0:0:
329,192,139244,1,0,0:0:0:0:
256,192,139244,1,0,0:0:0:0:
109,192,139244,1,0,0:0:0:0:
36,192,139244,1,0,0:0:0:0:
475,192,139338,1,0,0:0:0:0:
182,192,139338,1,0,0:0:0:0:
402,192,139431,1,0,0:0:0:0:
256,192,139431,1,0,0:0:0:0:
109,192,139431,1,0,0:0:0:0:
36,192,139431,1,0,0:0:0:0:
329,192,139524,1,0,0:0:0:0:
182,192,139524,1,0,0:0:0:0:
256,192,139617,1,0,0:0:0:0:
475,192,139617,1,0,0:0:0:0:
109,192,139617,1,0,0:0:0:0:
36,192,139617,1,0,0:0:0:0:
402,192,139710,1,0,0:0:0:0:
475,192,139803,1,0,0:0:0:0:
329,192,139803,1,0,0:0:0:0:
109,192,139803,1,0,0:0:0:0:
182,192,139897,1,0,0:0:0:0:
402,192,139990,1,0,0:0:0:0:
256,192,139990,1,0,0:0:0:0:
36,192,139990,1,0,0:0:0:0:
109,192,140083,1,0,0:0:0:0:
402,192,140176,1,0,0:0:0:0:
182,192,140176,1,0,0:0:0:0:
329,192,140269,1,0,0:0:0:0:
36,192,140362,1,0,0:0:0:0:
256,192,140362,1,0,0:0:0:0:
475,192,140362,1,0,0:0:0:0:
109,192,140456,1,0,0:0:0:0:
402,192,140456,1,0,0:0:0:0:
36,192,140549,1,0,0:0:0:0:
256,192,140549,1,0,0:0:0:0:
329,192,140549,1,0,0:0:0:0:
182,192,140549,1,0,0:0:0:0:
402,192,140642,1,0,0:0:0:0:
109,192,140642,1,0,0:0:0:0:
475,192,140735,1,0,0:0:0:0:
256,192,140735,1,0,0:0:0:0:
36,192,140735,1,0,0:0:0:0:
182,192,140735,1,0,0:0:0:0:
329,192,140828,1,0,0:0:0:0:
109,192,140828,1,0,0:0:0:0:
402,192,140921,1,0,0:0:0:0:
475,192,140921,1,0,0:0:0:0:
36,192,140921,1,0,0:0:0:0:
182,192,140921,1,0,0:0:0:0:
256,192,141015,1,0,0:0:0:0:
109,192,141015,1,0,0:0:0:0:
329,192,141108,1,0,0:0:0:0:
475,192,141108,1,0,0:0:0:0:
36,192,141108,1,0,0:0:0:0:
182,192,141108,1,0,0:0:0:0:
402,192,141201,1,0,0:0:0:0:
475,192,141294,1,0,0:0:0:0:
109,192,141294,1,0,0:0:0:0:
256,192,141294,1,0,0:0:0:0:
36,192,141387,1,0,0:0:0:0:
182,192,141480,1,0,0:0:0:0:
475,192,141480,1,0,0:0:0:0:
402,192,141480,1,0,0:0:0:0:
109,192,141574,1,0,0:0:0:0:
329,192,141574,1,0,0:0:0:0:
402,192,141667,1,0,0:0:0:0:
256,192,141667,1,0,0:0:0:0:
36,192,141667,1,0,0:0:0:0:
475,192,141760,1,0,0:0:0:0:
109,192,141853,1,0,0:0:0:0:
329,192,141853,1,0,0:0:0:0:
36,192,141853,1,0,0:0:0:0:
402,192,141946,1,0,0:0:0:0:
182,192,141946,1,0,0:0:0:0:
109,192,142039,1,0,0:0:0:0:
329,192,142039,1,0,0:0:0:0:
36,192,142039,1,0,0:0:0:0:
256,192,142039,1,0,0:0:0:0:
475,192,142039,1,0,0:0:0:0:
402,192,142133,1,0,0:0:0:0:
182,192,142133,1,0,0:0:0:0:
36,192,142226,1,0,0:0:0:0:
256,192,142226,1,0,0:0:0:0:
329,192,142319,1,0,0:0:0:0:
109,192,142319,1,0,0:0:0:0:
402,192,142412,1,0,0:0:0:0:
475,192,142412,1,0,0:0:0:0:
256,192,142412,1,0,0:0:0:0:
36,192,142412,1,0,0:0:0:0:
182,192,142412,1,0,0:0:0:0:
329,192,142505,1,0,0:0:0:0:
109,192,142505,1,0,0:0:0:0:
256,192,142598,1,0,0:0:0:0:
475,192,142598,1,0,0:0:0:0:
182,192,142692,1,0,0:0:0:0:
402,192,142692,1,0,0:0:0:0:
256,192,142785,1,0,0:0:0:0:
475,192,142785,1,0,0:0:0:0:
329,192,142785,1,0,0:0:0:0:
109,192,142785,1,0,0:0:0:0:
36,192,142785,1,0,0:0:0:0:
402,192,142878,1,0,0:0:0:0:
182,192,142878,1,0,0:0:0:0:
256,192,142971,1,0,0:0:0:0:
36,192,142971,1,0,0:0:0:0:
329,192,143064,1,0,0:0:0:0:
109,192,143064,1,0,0:0:0:0:
36,192,143157,1,0,0:0:0:0:
256,192,143157,1,0,0:0:0:0:
182,192,143157,1,0,0:0:0:0:
402,192,143157,1,0,0:0:0:0:
475,192,143157,1,0,0:0:0:0:
329,192,143251,1,0,0:0:0:0:
109,192,143251,1,0,0:0:0:0:
256,192,143344,1,0,0:0:0:0:
475,192,143344,1,0,0:0:0:0:
36,192,143344,1,0,0:0:0:0:
402,192,143437,1,0,0:0:0:0:
182,192,143437,1,0,0:0:0:0:
329,192,143530,1,0,0:0:0:0:
475,192,143530,1,0,0:0:0:0:
256,192,143530,1,0,0:0:0:0:
36,192,143530,1,0,0:0:0:0:
109,192,143530,1,0,0:0:0:0:
402,192,143623,1,0,0:0:0:0:
182,192,143623,1,0,0:0:0:0:
329,192,143716,1,0,0:0:0:0:
256,192,143716,1,0,0:0:0:0:
109,192,143716,1,0,0:0:0:0:
36,192,143716,1,0,0:0:0:0:
475,192,143810,1,0,0:0:0:0:
182,192,143810,1,0,0:0:0:0:
402,192,143903,1,0,0:0:0:0:
256,192,143903,1,0,0:0:0:0:
109,192,143903,1,0,0:0:0:0:
36,192,143903,1,0,0:0:0:0:
329,192,143996,1,0,0:0:0:0:
182,192,143996,1,0,0:0:0:0:
475,192,144089,1,0,0:0:0:0:
256,192,144089,1,0,0:0:0:0:
109,192,144089,1,0,0:0:0:0:
36,192,144089,1,0,0:0:0:0:
402,192,144182,1,0,0:0:0:0:
256,192,144275,1,0,0:0:0:0:
109,192,144275,1,0,0:0:0:0:
475,192,144275,1,0,0:0:0:0:
36,192,144369,1,0,0:0:0:0:
329,192,144462,1,0,0:0:0:0:
182,192,144462,1,0,0:0:0:0:
475,192,144462,1,0,0:0:0:0:
109,192,144555,1,0,0:0:0:0:
256,192,144648,1,0,0:0:0:0:
36,192,144648,1,0,0:0:0:0:
402,192,144648,1,0,0:0:0:0:
475,192,144741,1,0,0:0:0:0:
182,192,144834,1,0,0:0:0:0:
36,192,144834,1,0,0:0:0:0:
329,192,144834,1,0,0:0:0:0:
109,192,144928,1,0,0:0:0:0:
402,192,144928,1,0,0:0:0:0:
182,192,145021,1,0,0:0:0:0:
256,192,145021,1,0,0:0:0:0:
475,192,145021,1,0,0:0:0:0:
36,192,145021,1,0,0:0:0:0:
329,192,145114,1,0,0:0:0:0:
109,192,145114,1,0,0:0:0:0:
402,192,145207,1,0,0:0:0:0:
475,192,145207,1,0,0:0:0:0:
36,192,145207,1,0,0:0:0:0:
182,192,145207,1,0,0:0:0:0:
256,192,145300,1,0,0:0:0:0:
109,192,145300,1,0,0:0:0:0:
329,192,145393,1,0,0:0:0:0:
475,192,145393,1,0,0:0:0:0:
36,192,145393,1,0,0:0:0:0:
182,192,145393,1,0,0:0:0:0:
402,192,145487,1,0,0:0:0:0:
109,192,145487,1,0,0:0:0:0:
256,192,145580,1,0,0:0:0:0:
475,192,145580,1,0,0:0:0:0:
36,192,145580,1,0,0:0:0:0:
182,192,145580,1,0,0:0:0:0:
402,192,145673,1,0,0:0:0:0:
109,192,145766,1,0,0:0:0:0:
329,192,145766,1,0,0:0:0:0:
475,192,145766,1,0,0:0:0:0:
182,192,145859,1,0,0:0:0:0:
36,192,145952,1,0,0:0:0:0:
256,192,145952,1,0,0:0:0:0:
402,192,145952,1,0,0:0:0:0:
109,192,146046,1,0,0:0:0:0:
182,192,146139,1,0,0:0:0:0:
402,192,146139,1,0,0:0:0:0:
329,192,146232,1,0,0:0:0:0:
475,192,146325,1,0,0:0:0:0:
256,192,146325,1,0,0:0:0:0:
36,192,146325,1,0,0:0:0:0:
182,192,146325,1,0,0:0:0:0:
402,192,146418,1,0,0:0:0:0:
109,192,146418,1,0,0:0:0:0:
329,192,146511,1,0,0:0:0:0:
36,192,146511,1,0,0:0:0:0:
475,192,146511,1,0,0:0:0:0:
182,192,146605,1,0,0:0:0:0:
36,192,146698,1,0,0:0:0:0:
475,192,146698,1,0,0:0:0:0:
256,192,146698,1,0,0:0:0:0:
329,192,146698,1,0,0:0:0:0:
109,192,146791,1,0,0:0:0:0:
402,192,146791,1,0,0:0:0:0:
36,192,146884,1,0,0:0:0:0:
475,192,146884,1,0,0:0:0:0:
182,192,146884,1,0,0:0:0:0:
256,192,146977,1,0,0:0:0:0:
109,192,146977,1,0,0:0:0:0:
475,192,147070,1,0,0:0:0:0:
402,192,147070,1,0,0:0:0:0:
182,192,147070,1,0,0:0:0:0:
329,192,147070,1,0,0:0:0:0:
256,192,147164,1,0,0:0:0:0:
109,192,147164,1,0,0:0:0:0:
402,192,147257,1,0,0:0:0:0:
475,192,147257,1,0,0:0:0:0:
36,192,147257,1,0,0:0:0:0:
182,192,147257,1,0,0:0:0:0:
256,192,147350,1,0,0:0:0:0:
402,192,147443,1,0,0:0:0:0:
109,192,147443,1,0,0:0:0:0:
36,192,147443,1,0,0:0:0:0:
329,192,147443,1,0,0:0:0:0:
182,192,147536,1,0,0:0:0:0:
36,192,147629,1,0,0:0:0:0:
475,192,147629,1,0,0:0:0:0:
329,192,147629,1,0,0:0:0:0:
256,192,147629,1,0,0:0:0:0:
109,192,147723,1,0,0:0:0:0:
36,192,147816,1,0,0:0:0:0:
475,192,147816,1,0,0:0:0:0:
402,192,147816,1,0,0:0:0:0:
182,192,147816,1,0,0:0:0:0:
256,192,147816,1,0,0:0:0:0:
402,192,148188,1,0,0:0:0:0:
182,192,148188,1,0,0:0:0:0:
36,192,148188,1,0,0:0:0:0:
475,192,148188,1,0,0:0:0:0:
256,192,148282,1,0,0:0:0:0:
109,192,148375,1,0,0:0:0:0:
36,192,148375,1,0,0:0:0:0:
475,192,148375,1,0,0:0:0:0:
329,192,148375,1,0,0:0:0:0:
256,192,148468,1,0,0:0:0:0:
402,192,148561,1,0,0:0:0:0:
475,192,148561,1,0,0:0:0:0:
182,192,148561,1,0,0:0:0:0:
36,192,148561,1,0,0:0:0:0:
256,192,148654,1,0,0:0:0:0:
109,192,148747,1,0,0:0:0:0:
36,192,148747,1,0,0:0:0:0:
329,192,148747,1,0,0:0:0:0:
475,192,148747,1,0,0:0:0:0:
256,192,148841,1,0,0:0:0:0:
182,192,148841,1,0,0:0:0:0:
475,192,148934,1,0,0:0:0:0:
402,192,148934,1,0,0:0:0:0:
109,192,148934,1,0,0:0:0:0:
36,192,148934,1,0,0:0:0:0:
256,192,149027,1,0,0:0:0:0:
329,192,149027,1,0,0:0:0:0:
109,192,149120,1,0,0:0:0:0:
36,192,149120,1,0,0:0:0:0:
475,192,149120,1,0,0:0:0:0:
402,192,149120,1,0,0:0:0:0:
256,192,149213,1,0,0:0:0:0:
182,192,149213,1,0,0:0:0:0:
402,192,149306,1,0,0:0:0:0:
475,192,149306,1,0,0:0:0:0:
109,192,149306,1,0,0:0:0:0:
36,192,149306,1,0,0:0:0:0:
256,192,149400,1,0,0:0:0:0:
329,192,149400,1,0,0:0:0:0:
402,192,149493,1,0,0:0:0:0:
36,192,149493,1,0,0:0:0:0:
475,192,149493,1,0,0:0:0:0:
109,192,149493,1,0,0:0:0:0:
182,192,149586,1,0,0:0:0:0:
329,192,149586,1,0,0:0:0:0:
36,192,149679,1,0,0:0:0:0:
109,192,149679,1,0,0:0:0:0:
475,192,149679,1,0,0:0:0:0:
402,192,149679,1,0,0:0:0:0:
182,192,149772,1,0,0:0:0:0:
256,192,149772,1,0,0:0:0:0:
36,192,149865,1,0,0:0:0:0:
109,192,149865,1,0,0:0:0:0:
329,192,149865,1,0,0:0:0:0:
475,192,149865,1,0,0:0:0:0:
182,192,149959,1,0,0:0:0:0:
402,192,149959,1,0,0:0:0:0:
36,192,150052,1,0,0:0:0:0:
109,192,150052,1,0,0:0:0:0:
475,192,150052,1,0,0:0:0:0:
256,192,150052,1,0,0:0:0:0:
329,192,150145,1,0,0:0:0:0:
475,192,150238,1,0,0:0:0:0:
109,192,150238,1,0,0:0:0:0:
402,192,150238,1,0,0:0:0:0:
36,192,150331,1,0,0:0:0:0:
475,192,150424,1,0,0:0:0:0:
182,192,150424,1,0,0:0:0:0:
329,192,150424,1,0,0:0:0:0:
109,192,150518,1,0,0:0:0:0:
402,192,150611,1,0,0:0:0:0:
36,192,150611,1,0,0:0:0:0:
256,192,150611,1,0,0:0:0:0:
475,192,150704,1,0,0:0:0:0:
329,192,150797,1,0,0:0:0:0:
36,192,150797,1,0,0:0:0:0:
182,192,150797,1,0,0:0:0:0:
402,192,150890,1,0,0:0:0:0:
109,192,150890,1,0,0:0:0:0:
475,192,150984,1,0,0:0:0:0:
256,192,150984,1,0,0:0:0:0:
36,192,150984,1,0,0:0:0:0:
182,192,150984,1,0,0:0:0:0:
109,192,151077,1,0,0:0:0:0:
402,192,151077,1,0,0:0:0:0:
182,192,151170,1,0,0:0:0:0:
36,192,151170,1,0,0:0:0:0:
329,192,151170,1,0,0:0:0:0:
256,192,151170,1,0,0:0:0:0:
109,192,151263,1,0,0:0:0:0:
475,192,151263,1,0,0:0:0:0:
182,192,151356,1,0,0:0:0:0:
36,192,151356,1,0,0:0:0:0:
402,192,151356,1,0,0:0:0:0:
256,192,151356,1,0,0:0:0:0:
109,192,151449,1,0,0:0:0:0:
329,192,151449,1,0,0:0:0:0:
182,192,151543,1,0,0:0:0:0:
36,192,151543,1,0,0:0:0:0:
256,192,151543,1,0,0:0:0:0:
475,192,151543,1,0,0:0:0:0:
402,192,151636,1,0,0:0:0:0:
109,192,151729,1,0,0:0:0:0:
329,192,151729,1,0,0:0:0:0:
475,192,151729,1,0,0:0:0:0:
182,192,151822,1,0,0:0:0:0:
36,192,151915,1,0,0:0:0:0:
256,192,151915,1,0,0:0:0:0:
402,192,151915,1,0,0:0:0:0:
109,192,152008,1,0,0:0:0:0:
182,192,152102,1,0,0:0:0:0:
402,192,152102,1,0,0:0:0:0:
329,192,152195,1,0,0:0:0:0:
475,192,152288,1,0,0:0:0:0:
36,192,152288,1,0,0:0:0:0:
256,192,152288,1,0,0:0:0:0:
402,192,152381,1,0,0:0:0:0:
182,192,152381,1,0,0:0:0:0:
329,192,152474,1,0,0:0:0:0:
36,192,152474,1,0,0:0:0:0:
109,192,152474,1,0,0:0:0:0:
256,192,152474,1,0,0:0:0:0:
182,192,152567,1,0,0:0:0:0:
402,192,152567,1,0,0:0:0:0:
109,192,152661,1,0,0:0:0:0:
36,192,152661,1,0,0:0:0:0:
475,192,152661,1,0,0:0:0:0:
256,192,152661,1,0,0:0:0:0:
182,192,152754,1,0,0:0:0:0:
329,192,152754,1,0,0:0:0:0:
109,192,152847,1,0,0:0:0:0:
36,192,152847,1,0,0:0:0:0:
402,192,152847,1,0,0:0:0:0:
475,192,152847,1,0,0:0:0:0:
182,192,152940,1,0,0:0:0:0:
256,192,152940,1,0,0:0:0:0:
109,192,153033,1,0,0:0:0:0:
36,192,153033,1,0,0:0:0:0:
329,192,153033,1,0,0:0:0:0:
475,192,153033,1,0,0:0:0:0:
402,192,153126,1,0,0:0:0:0:
256,192,153220,1,0,0:0:0:0:
109,192,153220,1,0,0:0:0:0:
475,192,153220,1,0,0:0:0:0:
36,192,153313,1,0,0:0:0:0:
402,192,153406,1,0,0:0:0:0:
475,192,153406,1,0,0:0:0:0:
182,192,153406,1,0,0:0:0:0:
329,192,153499,1,0,0:0:0:0:
109,192,153499,1,0,0:0:0:0:
36,192,153592,1,0,0:0:0:0:
256,192,153592,1,0,0:0:0:0:
402,192,153592,1,0,0:0:0:0:
475,192,153685,1,0,0:0:0:0:
329,192,153779,1,0,0:0:0:0:
109,192,153779,1,0,0:0:0:0:
36,192,153779,1,0,0:0:0:0:
182,192,153872,1,0,0:0:0:0:
402,192,153872,1,0,0:0:0:0:
256,192,153965,1,0,0:0:0:0:
475,192,153965,1,0,0:0:0:0:
36,192,153965,1,0,0:0:0:0:
109,192,153965,1,0,0:0:0:0:
329,192,153965,1,0,0:0:0:0:
182,192,154058,1,0,0:0:0:0:
402,192,154058,1,0,0:0:0:0:
256,192,154151,1,0,0:0:0:0:
36,192,154151,1,0,0:0:0:0:
109,192,154244,1,0,0:0:0:0:
329,192,154244,1,0,0:0:0:0:
36,192,154338,1,0,0:0:0:0:
182,192,154338,1,0,0:0:0:0:
256,192,154338,1,0,0:0:0:0:
402,192,154338,1,0,0:0:0:0:
475,192,154338,1,0,0:0:0:0:
109,192,154431,1,0,0:0:0:0:
329,192,154431,1,0,0:0:0:0:
256,192,154524,1,0,0:0:0:0:
475,192,154524,1,0,0:0:0:0:
402,192,154617,1,0,0:0:0:0:
182,192,154617,1,0,0:0:0:0:
109,192,154710,1,0,0:0:0:0:
36,192,154710,1,0,0:0:0:0:
329,192,154710,1,0,0:0:0:0:
256,192,154710,1,0,0:0:0:0:
475,192,154710,1,0,0:0:0:0:
182,192,154803,1,0,0:0:0:0:
402,192,154803,1,0,0:0:0:0:
256,192,154897,1,0,0:0:0:0:
36,192,154897,1,0,0:0:0:0:
109,192,154990,1,0,0:0:0:0:
329,192,154990,1,0,0:0:0:0:
402,192,155083,1,0,0:0:0:0:
475,192,155083,1,0,0:0:0:0:
182,192,155083,1,0,0:0:0:0:
36,192,155083,1,0,0:0:0:0:
256,192,155083,1,0,0:0:0:0:
109,192,155176,1,0,0:0:0:0:
329,192,155176,1,0,0:0:0:0:
475,192,155269,1,0,0:0:0:0:
256,192,155269,1,0,0:0:0:0:
36,192,155269,1,0,0:0:0:0:
182,192,155362,1,0,0:0:0:0:
329,192,155362,1,0,0:0:0:0:
109,192,155456,1,0,0:0:0:0:
402,192,155456,1,0,0:0:0:0:
256,192,155456,1,0,0:0:0:0:
475,192,155456,1,0,0:0:0:0:
36,192,155456,1,0,0:0:0:0:
182,192,155642,1,0,0:0:0:0:
109,192,155642,1,0,0:0:0:0:
402,192,155642,1,0,0:0:0:0:
329,192,155642,1,0,0:0:0:0:
475,192,155642,1,0,0:0:0:0:
36,192,155828,1,0,0:0:0:0:
329,192,155828,1,0,0:0:0:0:
475,192,155828,1,0,0:0:0:0:
402,192,155921,1,0,0:0:0:0:
256,192,155921,1,0,0:0:0:0:
109,192,155921,1,0,0:0:0:0:
475,192,156015,1,0,0:0:0:0:
329,192,156015,1,0,0:0:0:0:
36,192,156015,1,0,0:0:0:0:
182,192,156015,1,0,0:0:0:0:
182,192,156387,1,0,0:0:0:0:
109,192,156387,1,0,0:0:0:0:
329,192,156387,1,0,0:0:0:0:
475,192,156387,1,0,0:0:0:0:
402,192,156387,1,0,0:0:0:0:
329,192,156574,1,0,0:0:0:0:
256,192,156574,1,0,0:0:0:0:
402,192,156574,1,0,0:0:0:0:
36,192,156574,1,0,0:0:0:0:
109,192,156574,1,0,0:0:0:0:
256,192,156760,1,0,0:0:0:0:
329,192,156760,1,0,0:0:0:0:
182,192,156760,1,0,0:0:0:0:
36,192,156760,1,0,0:0:0:0:
475,192,156760,1,0,0:0:0:0:
402,192,156853,1,0,0:0:0:0:
109,192,156853,1,0,0:0:0:0:
182,192,156946,1,0,0:0:0:0:
329,192,156946,1,0,0:0:0:0:
256,192,156946,1,0,0:0:0:0:
475,192,156946,1,0,0:0:0:0:
36,192,156946,1,0,0:0:0:0:
329,192,157133,1,0,0:0:0:0:
402,192,157133,1,0,0:0:0:0:
109,192,157133,1,0,0:0:0:0:
182,192,157133,1,0,0:0:0:0:
36,192,157133,1,0,0:0:0:0:
475,192,157319,1,0,0:0:0:0:
182,192,157319,1,0,0:0:0:0:
36,192,157319,1,0,0:0:0:0:
109,192,157412,1,0,0:0:0:0:
256,192,157412,1,0,0:0:0:0:
402,192,157412,1,0,0:0:0:0:
36,192,157505,1,0,0:0:0:0:
182,192,157505,1,0,0:0:0:0:
475,192,157505,1,0,0:0:0:0:
329,192,157505,1,0,0:0:0:0:
329,192,157878,1,0,0:0:0:0:
402,192,157878,1,0,0:0:0:0:
182,192,157878,1,0,0:0:0:0:
36,192,157878,1,0,0:0:0:0:
109,192,157878,1,0,0:0:0:0:
256,192,158064,1,0,0:0:0:0:
402,192,158064,1,0,0:0:0:0:
36,192,158064,1,0,0:0:0:0:
109,192,158064,1,0,0:0:0:0:
475,192,158064,1,0,0:0:0:0:
329,192,158157,1,0,0:0:0:0:
182,192,158157,1,0,0:0:0:0:
256,192,158251,1,0,0:0:0:0:
475,192,158251,1,0,0:0:0:0:
36,192,158251,1,0,0:0:0:0:
402,192,158344,1,0,0:0:0:0:
109,192,158344,1,0,0:0:0:0:
329,192,158437,1,0,0:0:0:0:
475,192,158437,1,0,0:0:0:0:
256,192,158437,1,0,0:0:0:0:
36,192,158437,1,0,0:0:0:0:
182,192,158437,1,0,0:0:0:0:
329,192,158716,1,0,0:0:0:0:
182,192,158716,1,0,0:0:0:0:
109,192,158810,1,0,0:0:0:0:
256,192,158810,1,0,0:0:0:0:
36,192,158810,1,0,0:0:0:0:
475,192,158810,1,0,0:0:0:0:
402,192,158810,1,0,0:0:0:0:
402,192,159089,1,0,0:0:0:0:
109,192,159089,1,0,0:0:0:0:
182,192,159182,1,0,0:0:0:0:
256,192,159182,1,0,0:0:0:0:
329,192,159182,1,0,0:0:0:0:
36,192,159182,1,0,0:0:0:0:
475,192,159182,1,0,0:0:0:0:
475,192,159462,1,0,0:0:0:0:
36,192,159462,1,0,0:0:0:0:
402,192,159555,1,0,0:0:0:0:
329,192,159555,1,0,0:0:0:0:
109,192,159555,1,0,0:0:0:0:
256,192,159555,1,0,0:0:0:0:
182,192,159555,1,0,0:0:0:0:
256,192,159834,1,0,0:0:0:0:
475,192,159928,1,0,0:0:0:0:
402,192,159928,1,0,0:0:0:0:
182,192,159928,1,0,0:0:0:0:
36,192,159928,1,0,0:0:0:0:
109,192,159928,1,0,0:0:0:0:
329,192,159928,1,0,0:0:0:0:
329,192,160300,128,0,161232:0:0:0:0:
402,192,160300,128,0,161232:0:0:0:0:
475,192,160300,128,0,161232:0:0:0:0:
36,192,160300,128,0,161232:0:0:0:0:
109,192,160300,128,0,161232:0:0:0:0:
182,192,160300,128,0,161232:0:0:0:0:
109,192,161325,1,0,0:0:0:0:
402,192,161325,1,0,0:0:0:0:
182,192,161372,1,0,0:0:0:0:
329,192,161372,1,0,0:0:0:0:
475,192,161418,1,0,0:0:0:0:
109,192,161418,1,0,0:0:0:0:
36,192,161418,1,0,0:0:0:0:
402,192,161418,1,0,0:0:0:0:
256,192,161418,1,0,0:0:0:0:
36,192,161605,1,0,0:0:0:0:
182,192,161605,1,0,0:0:0:0:
402,192,161605,1,0,0:0:0:0:
109,192,161698,1,0,0:0:0:0:
256,192,161698,1,0,0:0:0:0:
36,192,161791,1,0,0:0:0:0:
475,192,161791,1,0,0:0:0:0:
182,192,161791,1,0,0:0:0:0:
329,192,161791,1,0,0:0:0:0:
109,192,161977,1,0,0:0:0:0:
256,192,161977,1,0,0:0:0:0:
402,192,161977,1,0,0:0:0:0:
182,192,162070,1,0,0:0:0:0:
329,192,162070,1,0,0:0:0:0:
475,192,162070,1,0,0:0:0:0:
36,192,162164,1,0,0:0:0:0:
256,192,162164,1,0,0:0:0:0:
109,192,162164,1,0,0:0:0:0:
402,192,162164,1,0,0:0:0:0:
475,192,162350,1,0,0:0:0:0:
109,192,162350,1,0,0:0:0:0:
329,192,162350,1,0,0:0:0:0:
256,192,162443,1,0,0:0:0:0:
402,192,162443,1,0,0:0:0:0:
36,192,162536,1,0,0:0:0:0:
475,192,162536,1,0,0:0:0:0:
182,192,162536,1,0,0:0:0:0:
329,192,162536,1,0,0:0:0:0:
402,192,162723,1,0,0:0:0:0:
256,192,162723,1,0,0:0:0:0:
109,192,162723,1,0,0:0:0:0:
182,192,162816,1,0,0:0:0:0:
329,192,162816,1,0,0:0:0:0:
109,192,162909,1,0,0:0:0:0:
256,192,162909,1,0,0:0:0:0:
475,192,162909,1,0,0:0:0:0:
36,192,162909,1,0,0:0:0:0:
475,192,163095,1,0,0:0:0:0:
329,192,163095,1,0,0:0:0:0:
36,192,163095,1,0,0:0:0:0:
256,192,163188,1,0,0:0:0:0:
109,192,163188,1,0,0:0:0:0:
182,192,163282,1,0,0:0:0:0:
329,192,163282,1,0,0:0:0:0:
36,192,163282,1,0,0:0:0:0:
475,192,163282,1,0,0:0:0:0:
402,192,163468,1,0,0:0:0:0:
109,192,163468,1,0,0:0:0:0:
36,192,163468,1,0,0:0:0:0:
329,192,163561,1,0,0:0:0:0:
182,192,163561,1,0,0:0:0:0:
402,192,163654,1,0,0:0:0:0:
36,192,163654,1,0,0:0:0:0:
256,192,163654,1,0,0:0:0:0:
475,192,163654,1,0,0:0:0:0:
36,192,163841,1,0,0:0:0:0:
475,192,163841,1,0,0:0:0:0:
182,192,163841,1,0,0:0:0:0:
402,192,163934,1,0,0:0:0:0:
256,192,163934,1,0,0:0:0:0:
182,192,164027,1,0,0:0:0:0:
329,192,164027,1,0,0:0:0:0:
36,192,164027,1,0,0:0:0:0:
475,192,164027,1,0,0:0:0:0:
475,192,164213,1,0,0:0:0:0:
109,192,164213,1,0,0:0:0:0:
402,192,164213,1,0,0:0:0:0:
329,192,164306,1,0,0:0:0:0:
182,192,164306,1,0,0:0:0:0:
475,192,164400,1,0,0:0:0:0:
36,192,164400,1,0,0:0:0:0:
109,192,164400,1,0,0:0:0:0:
256,192,164400,1,0,0:0:0:0:
36,192,164586,1,0,0:0:0:0:
256,192,164586,1,0,0:0:0:0:
475,192,164586,1,0,0:0:0:0:
109,192,164679,1,0,0:0:0:0:
329,192,164679,1,0,0:0:0:0:
36,192,164772,1,0,0:0:0:0:
182,192,164772,1,0,0:0:0:0:
402,192,164772,1,0,0:0:0:0:
475,192,164772,1,0,0:0:0:0:
109,192,164959,1,0,0:0:0:0:
329,192,164959,1,0,0:0:0:0:
475,192,164959,1,0,0:0:0:0:
182,192,165052,1,0,0:0:0:0:
402,192,165052,1,0,0:0:0:0:
36,192,165052,1,0,0:0:0:0:
256,192,165145,1,0,0:0:0:0:
475,192,165145,1,0,0:0:0:0:
109,192,165145,1,0,0:0:0:0:
329,192,165145,1,0,0:0:0:0:
36,192,165331,1,0,0:0:0:0:
256,192,165331,1,0,0:0:0:0:
475,192,165331,1,0,0:0:0:0:
182,192,165424,1,0,0:0:0:0:
402,192,165424,1,0,0:0:0:0:
36,192,165518,1,0,0:0:0:0:
109,192,165518,1,0,0:0:0:0:
475,192,165518,1,0,0:0:0:0:
329,192,165518,1,0,0:0:0:0:
36,192,165704,1,0,0:0:0:0:
182,192,165704,1,0,0:0:0:0:
329,192,165704,1,0,0:0:0:0:
256,192,165704,1,0,0:0:0:0:
109,192,165704,1,0,0:0:0:0:
36,192,166077,1,0,0:0:0:0:
182,192,166077,1,0,0:0:0:0:
329,192,166077,1,0,0:0:0:0:
256,192,166077,1,0,0:0:0:0:
109,192,166077,1,0,0:0:0:0:
109,192,166449,1,0,0:0:0:0:
182,192,166449,1,0,0:0:0:0:
256,192,166449,1,0,0:0:0:0:
402,192,166449,1,0,0:0:0:0:
329,192,166449,1,0,0:0:0:0:
182,192,166822,1,0,0:0:0:0:
256,192,166822,1,0,0:0:0:0:
329,192,166822,1,0,0:0:0:0:
402,192,166822,1,0,0:0:0:0:
475,192,166822,1,0,0:0:0:0:
256,192,167008,1,0,0:0:0:0:
109,192,167008,1,0,0:0:0:0:
402,192,167008,1,0,0:0:0:0:
182,192,167102,1,0,0:0:0:0:
329,192,167102,1,0,0:0:0:0:
256,192,167195,1,0,0:0:0:0:
36,192,167195,1,0,0:0:0:0:
475,192,167195,1,0,0:0:0:0:
402,192,167288,1,0,0:0:0:0:
109,192,167288,1,0,0:0:0:0:
182,192,167381,1,0,0:0:0:0:
256,192,167381,1,0,0:0:0:0:
329,192,167381,1,0,0:0:0:0:
475,192,167381,1,0,0:0:0:0:
36,192,167381,1,0,0:0:0:0:
109,192,167567,1,0,0:0:0:0:
182,192,167567,1,0,0:0:0:0:
256,192,167567,1,0,0:0:0:0:
402,192,167567,1,0,0:0:0:0:
36,192,167754,1,0,0:0:0:0:
109,192,167754,1,0,0:0:0:0:
329,192,167754,1,0,0:0:0:0:
182,192,167754,1,0,0:0:0:0:
256,192,167940,1,0,0:0:0:0:
36,192,167940,1,0,0:0:0:0:
109,192,167940,1,0,0:0:0:0:
475,192,167940,1,0,0:0:0:0:
402,192,167940,1,0,0:0:0:0:
256,192,168126,1,0,0:0:0:0:
475,192,168126,1,0,0:0:0:0:
109,192,168126,1,0,0:0:0:0:
402,192,168220,1,0,0:0:0:0:
182,192,168220,1,0,0:0:0:0:
109,192,168313,1,0,0:0:0:0:
36,192,168313,1,0,0:0:0:0:
329,192,168313,1,0,0:0:0:0:
475,192,168313,1,0,0:0:0:0:
256,192,168313,1,0,0:0:0:0:
402,192,168499,1,0,0:0:0:0:
182,192,168499,1,0,0:0:0:0:
36,192,168499,1,0,0:0:0:0:
109,192,168592,1,0,0:0:0:0:
329,192,168592,1,0,0:0:0:0:
36,192,168685,1,0,0:0:0:0:
182,192,168685,1,0,0:0:0:0:
256,192,168685,1,0,0:0:0:0:
402,192,168685,1,0,0:0:0:0:
475,192,168685,1,0,0:0:0:0:
329,192,168872,1,0,0:0:0:0:
475,192,168872,1,0,0:0:0:0:
109,192,168872,1,0,0:0:0:0:
402,192,168965,1,0,0:0:0:0:
256,192,168965,1,0,0:0:0:0:
329,192,169058,1,0,0:0:0:0:
182,192,169058,1,0,0:0:0:0:
36,192,169058,1,0,0:0:0:0:
109,192,169058,1,0,0:0:0:0:
475,192,169058,1,0,0:0:0:0:
256,192,169244,1,0,0:0:0:0:
402,192,169244,1,0,0:0:0:0:
36,192,169244,1,0,0:0:0:0:
329,192,169338,1,0,0:0:0:0:
182,192,169338,1,0,0:0:0:0:
256,192,169431,1,0,0:0:0:0:
109,192,169431,1,0,0:0:0:0:
36,192,169431,1,0,0:0:0:0:
402,192,169431,1,0,0:0:0:0:
475,192,169431,1,0,0:0:0:0:
182,192,169617,1,0,0:0:0:0:
329,192,169617,1,0,0:0:0:0:
109,192,169710,1,0,0:0:0:0:
256,192,169710,1,0,0:0:0:0:
402,192,169710,1,0,0:0:0:0:
36,192,169803,1,0,0:0:0:0:
182,192,169803,1,0,0:0:0:0:
475,192,169803,1,0,0:0:0:0:
329,192,169803,1,0,0:0:0:0:
109,192,169897,1,0,0:0:0:0:
402,192,169897,1,0,0:0:0:0:
182,192,169990,1,0,0:0:0:0:
256,192,169990,1,0,0:0:0:0:
329,192,169990,1,0,0:0:0:0:
109,192,170083,1,0,0:0:0:0:
402,192,170083,1,0,0:0:0:0:
182,192,170176,1,0,0:0:0:0:
329,192,170176,1,0,0:0:0:0:
256,192,170176,1,0,0:0:0:0:
36,192,170176,1,0,0:0:0:0:
475,192,170176,1,0,0:0:0:0:
36,192,170549,1,0,0:0:0:0:
256,192,170549,1,0,0:0:0:0:
475,192,170549,1,0,0:0:0:0:
109,192,170642,1,0,0:0:0:0:
329,192,170642,1,0,0:0:0:0:
182,192,170735,1,0,0:0:0:0:
402,192,170735,1,0,0:0:0:0:
475,192,170735,1,0,0:0:0:0:
36,192,170828,1,0,0:0:0:0:
256,192,170828,1,0,0:0:0:0:
109,192,170921,1,0,0:0:0:0:
329,192,170921,1,0,0:0:0:0:
182,192,171015,1,0,0:0:0:0:
402,192,171015,1,0,0:0:0:0:
256,192,171108,1,0,0:0:0:0:
475,192,171108,1,0,0:0:0:0:
36,192,171108,1,0,0:0:0:0:
109,192,171201,1,0,0:0:0:0:
329,192,171201,1,0,0:0:0:0:
182,192,171294,1,0,0:0:0:0:
402,192,171294,1,0,0:0:0:0:
475,192,171294,1,0,0:0:0:0:
36,192,171387,1,0,0:0:0:0:
256,192,171387,1,0,0:0:0:0:
109,192,171480,1,0,0:0:0:0:
475,192,171480,1,0,0:0:0:0:
329,192,171480,1,0,0:0:0:0:
256,192,171574,1,0,0:0:0:0:
402,192,171574,1,0,0:0:0:0:
182,192,171667,1,0,0:0:0:0:
329,192,171667,1,0,0:0:0:0:
36,192,171667,1,0,0:0:0:0:
109,192,171760,1,0,0:0:0:0:
256,192,171760,1,0,0:0:0:0:
36,192,171853,1,0,0:0:0:0:
182,192,171853,1,0,0:0:0:0:
402,192,171853,1,0,0:0:0:0:
475,192,171853,1,0,0:0:0:0:
329,192,171853,1,0,0:0:0:0:
182,192,172039,1,0,0:0:0:0:
109,192,172039,1,0,0:0:0:0:
475,192,172039,1,0,0:0:0:0:
329,192,172039,1,0,0:0:0:0:
182,192,172226,1,0,0:0:0:0:
36,192,172226,1,0,0:0:0:0:
402,192,172226,1,0,0:0:0:0:
256,192,172226,1,0,0:0:0:0:
256,192,172412,1,0,0:0:0:0:
109,192,172412,1,0,0:0:0:0:
475,192,172412,1,0,0:0:0:0:
329,192,172412,1,0,0:0:0:0:
36,192,172598,1,0,0:0:0:0:
329,192,172598,1,0,0:0:0:0:
402,192,172598,1,0,0:0:0:0:
182,192,172598,1,0,0:0:0:0:
329,192,172785,1,0,0:0:0:0:
256,192,172785,1,0,0:0:0:0:
475,192,172785,1,0,0:0:0:0:
109,192,172785,1,0,0:0:0:0:
182,192,172971,1,0,0:0:0:0:
402,192,172971,1,0,0:0:0:0:
36,192,172971,1,0,0:0:0:0:
256,192,172971,1,0,0:0:0:0:
109,192,173157,1,0,0:0:0:0:
329,192,173157,1,0,0:0:0:0:
182,192,173157,1,0,0:0:0:0:
475,192,173157,1,0,0:0:0:0:
36,192,173344,1,0,0:0:0:0:
109,192,173344,1,0,0:0:0:0:
256,192,173344,1,0,0:0:0:0:
402,192,173344,1,0,0:0:0:0:
36,192,173530,1,0,0:0:0:0:
109,192,173716,1,0,0:0:0:0:
256,192,173716,1,0,0:0:0:0:
329,192,173716,1,0,0:0:0:0:
36,192,173903,1,0,0:0:0:0:
182,192,174089,1,0,0:0:0:0:
329,192,174089,1,0,0:0:0:0:
402,192,174089,1,0,0:0:0:0:
36,192,174275,1,0,0:0:0:0:
109,192,174462,1,0,0:0:0:0:
475,192,174462,1,0,0:0:0:0:
402,192,174462,1,0,0:0:0:0:
36,192,174648,1,0,0:0:0:0:
182,192,174834,1,0,0:0:0:0:
475,192,174834,1,0,0:0:0:0:
329,192,174834,1,0,0:0:0:0:
256,192,174834,1,0,0:0:0:0:
36,192,175021,1,0,0:0:0:0:
109,192,175207,1,0,0:0:0:0:
36,192,175393,1,0,0:0:0:0:
402,192,175393,1,0,0:0:0:0:
475,192,175393,1,0,0:0:0:0:
182,192,175580,1,0,0:0:0:0:
329,192,175580,1,0,0:0:0:0:
402,192,175580,1,0,0:0:0:0:
36,192,175766,1,0,0:0:0:0:
109,192,175952,1,0,0:0:0:0:
36,192,176139,1,0,0:0:0:0:
182,192,176325,1,0,0:0:0:0:
329,192,176325,1,0,0:0:0:0:
475,192,176511,1,0,0:0:0:0:
402,192,176698,1,0,0:0:0:0:
256,192,176698,1,0,0:0:0:0:
182,192,176698,1,0,0:0:0:0:
475,192,176884,1,0,0:0:0:0:
329,192,177070,1,0,0:0:0:0:
182,192,177070,1,0,0:0:0:0:
109,192,177070,1,0,0:0:0:0:
475,192,177257,1,0,0:0:0:0:
402,192,177443,1,0,0:0:0:0:
109,192,177443,1,0,0:0:0:0:
36,192,177443,1,0,0:0:0:0:
475,192,177629,1,0,0:0:0:0:
329,192,177816,1,0,0:0:0:0:
182,192,177816,1,0,0:0:0:0:
36,192,177816,1,0,0:0:0:0:
256,192,177816,1,0,0:0:0:0:
475,192,178002,1,0,0:0:0:0:
402,192,178188,1,0,0:0:0:0:
475,192,178375,1,0,0:0:0:0:
36,192,178375,1,0,0:0:0:0:
109,192,178375,1,0,0:0:0:0:
329,192,178561,1,0,0:0:0:0:
109,192,178561,1,0,0:0:0:0:
182,192,178561,1,0,0:0:0:0:
475,192,178747,1,0,0:0:0:0:
402,192,178934,1,0,0:0:0:0:
475,192,179120,1,0,0:0:0:0:
36,192,179306,1,0,0:0:0:0:
182,192,179306,1,0,0:0:0:0:
36,192,179679,1,0,0:0:0:0:
182,192,179679,1,0,0:0:0:0:
256,192,179679,1,0,0:0:0:0:
329,192,179679,1,0,0:0:0:0:
36,192,180052,1,0,0:0:0:0:
182,192,180052,1,0,0:0:0:0:
329,192,180052,1,0,0:0:0:0:
402,192,180052,1,0,0:0:0:0:
36,192,180424,1,0,0:0:0:0:
182,192,180424,1,0,0:0:0:0:
402,192,180424,1,0,0:0:0:0:
475,192,180424,1,0,0:0:0:0:
36,192,180797,1,0,0:0:0:0:
182,192,180797,1,0,0:0:0:0:
256,192,180797,1,0,0:0:0:0:
475,192,180797,1,0,0:0:0:0:
36,192,181170,1,0,0:0:0:0:
182,192,181170,1,0,0:0:0:0:
402,192,181356,1,0,0:0:0:0:
475,192,181356,1,0,0:0:0:0:
36,192,181543,1,0,0:0:0:0:
182,192,181543,1,0,0:0:0:0:
329,192,181543,1,0,0:0:0:0:
402,192,181543,1,0,0:0:0:0:
475,192,181729,1,0,0:0:0:0:
329,192,181822,1,0,0:0:0:0:
36,192,181915,1,0,0:0:0:0:
182,192,181915,1,0,0:0:0:0:
182,192,182102,1,0,0:0:0:0:
329,192,182102,1,0,0:0:0:0:
109,192,182195,1,0,0:0:0:0:
402,192,182195,1,0,0:0:0:0:
475,192,182288,1,0,0:0:0:0:
36,192,182288,1,0,0:0:0:0:
182,192,182288,1,0,0:0:0:0:
329,192,182288,1,0,0:0:0:0:
256,192,182288,1,0,0:0:0:0:
109,192,182381,1,0,0:0:0:0:
329,192,182474,1,0,0:0:0:0:
402,192,182474,1,0,0:0:0:0:
475,192,182474,1,0,0:0:0:0:
182,192,182474,1,0,0:0:0:0:
36,192,182567,1,0,0:0:0:0:
109,192,182661,1,0,0:0:0:0:
256,192,182661,1,0,0:0:0:0:
329,192,182661,1,0,0:0:0:0:
402,192,182661,1,0,0:0:0:0:
475,192,182754,1,0,0:0:0:0:
182,192,182847,1,0,0:0:0:0:
256,192,182847,1,0,0:0:0:0:
329,192,182847,1,0,0:0:0:0:
36,192,182847,1,0,0:0:0:0:
36,192,183220,1,0,0:0:0:0:
109,192,183220,1,0,0:0:0:0:
329,192,183220,1,0,0:0:0:0:
475,192,183220,1,0,0:0:0:0:
256,192,183313,1,0,0:0:0:0:
36,192,183406,1,0,0:0:0:0:
402,192,183406,1,0,0:0:0:0:
475,192,183406,1,0,0:0:0:0:
182,192,183406,1,0,0:0:0:0:
256,192,183499,1,0,0:0:0:0:
329,192,183592,1,0,0:0:0:0:
109,192,183592,1,0,0:0:0:0:
475,192,183592,1,0,0:0:0:0:
36,192,183592,1,0,0:0:0:0:
182,192,183965,1,0,0:0:0:0:
475,192,183965,1,0,0:0:0:0:
402,192,183965,1,0,0:0:0:0:
36,192,183965,1,0,0:0:0:0:
256,192,184058,1,0,0:0:0:0:
36,192,184151,1,0,0:0:0:0:
109,192,184151,1,0,0:0:0:0:
329,192,184151,1,0,0:0:0:0:
475,192,184151,1,0,0:0:0:0:
256,192,184244,1,0,0:0:0:0:
36,192,184338,1,0,0:0:0:0:
182,192,184338,1,0,0:0:0:0:
402,192,184338,1,0,0:0:0:0:
475,192,184338,1,0,0:0:0:0:
256,192,184431,1,0,0:0:0:0:
329,192,184524,1,0,0:0:0:0:
109,192,184524,1,0,0:0:0:0:
475,192,184524,1,0,0:0:0:0:
36,192,184524,1,0,0:0:0:0:
256,192,184617,1,0,0:0:0:0:
182,192,184710,1,0,0:0:0:0:
36,192,184710,1,0,0:0:0:0:
402,192,184710,1,0,0:0:0:0:
475,192,184710,1,0,0:0:0:0:
329,192,184803,1,0,0:0:0:0:
109,192,184803,1,0,0:0:0:0:
36,192,184897,1,0,0:0:0:0:
475,192,184897,1,0,0:0:0:0:
256,192,184897,1,0,0:0:0:0:
402,192,184990,1,0,0:0:0:0:
109,192,184990,1,0,0:0:0:0:
329,192,185083,1,0,0:0:0:0:
182,192,185083,1,0,0:0:0:0:
256,192,185083,1,0,0:0:0:0:
475,192,185176,1,0,0:0:0:0:
36,192,185176,1,0,0:0:0:0:
182,192,185269,1,0,0:0:0:0:
256,192,185269,1,0,0:0:0:0:
329,192,185269,1,0,0:0:0:0:
109,192,185269,1,0,0:0:0:0:
402,192,185269,1,0,0:0:0:0:
329,192,185642,1,0,0:0:0:0:
475,192,185642,1,0,0:0:0:0:
109,192,185642,1,0,0:0:0:0:
36,192,185642,1,0,0:0:0:0:
256,192,185735,1,0,0:0:0:0:
402,192,185828,1,0,0:0:0:0:
475,192,185828,1,0,0:0:0:0:
182,192,185828,1,0,0:0:0:0:
36,192,185828,1,0,0:0:0:0:
329,192,185921,1,0,0:0:0:0:
36,192,186015,1,0,0:0:0:0:
109,192,186015,1,0,0:0:0:0:
256,192,186015,1,0,0:0:0:0:
475,192,186015,1,0,0:0:0:0:
329,192,186108,1,0,0:0:0:0:
402,192,186201,1,0,0:0:0:0:
182,192,186201,1,0,0:0:0:0:
36,192,186201,1,0,0:0:0:0:
475,192,186201,1,0,0:0:0:0:
256,192,186294,1,0,0:0:0:0:
329,192,186387,1,0,0:0:0:0:
475,192,186387,1,0,0:0:0:0:
36,192,186387,1,0,0:0:0:0:
109,192,186387,1,0,0:0:0:0:
182,192,186480,1,0,0:0:0:0:
402,192,186480,1,0,0:0:0:0:
36,192,186574,1,0,0:0:0:0:
475,192,186574,1,0,0:0:0:0:
256,192,186574,1,0,0:0:0:0:
402,192,186667,1,0,0:0:0:0:
109,192,186667,1,0,0:0:0:0:
36,192,186760,1,0,0:0:0:0:
329,192,186760,1,0,0:0:0:0:
475,192,186760,1,0,0:0:0:0:
182,192,186760,1,0,0:0:0:0:
109,192,186853,1,0,0:0:0:0:
402,192,186853,1,0,0:0:0:0:
182,192,186946,1,0,0:0:0:0:
329,192,186946,1,0,0:0:0:0:
256,192,186946,1,0,0:0:0:0:
109,192,187039,1,0,0:0:0:0:
402,192,187039,1,0,0:0:0:0:
36,192,187133,1,0,0:0:0:0:
475,192,187133,1,0,0:0:0:0:
256,192,187133,1,0,0:0:0:0:
182,192,187226,1,0,0:0:0:0:
329,192,187226,1,0,0:0:0:0:
109,192,187319,1,0,0:0:0:0:
36,192,187319,1,0,0:0:0:0:
402,192,187319,1,0,0:0:0:0:
475,192,187319,1,0,0:0:0:0:
182,192,187412,1,0,0:0:0:0:
329,192,187412,1,0,0:0:0:0:
256,192,187505,1,0,0:0:0:0:
36,192,187505,1,0,0:0:0:0:
475,192,187505,1,0,0:0:0:0:
109,192,187598,1,0,0:0:0:0:
329,192,187598,1,0,0:0:0:0:
182,192,187692,1,0,0:0:0:0:
402,192,187692,1,0,0:0:0:0:
475,192,187692,1,0,0:0:0:0:
109,192,187785,1,0,0:0:0:0:
329,192,187785,1,0,0:0:0:0:
36,192,187878,1,0,0:0:0:0:
475,192,187878,1,0,0:0:0:0:
256,192,187878,1,0,0:0:0:0:
182,192,187971,1,0,0:0:0:0:
402,192,187971,1,0,0:0:0:0:
109,192,188064,1,0,0:0:0:0:
36,192,188064,1,0,0:0:0:0:
329,192,188064,1,0,0:0:0:0:
182,192,188157,1,0,0:0:0:0:
402,192,188157,1,0,0:0:0:0:
475,192,188251,1,0,0:0:0:0:
36,192,188251,1,0,0:0:0:0:
256,192,188251,1,0,0:0:0:0:
329,192,188251,1,0,0:0:0:0:
475,192,188437,1,0,0:0:0:0:
256,192,188437,1,0,0:0:0:0:
109,192,188437,1,0,0:0:0:0:
329,192,188530,1,0,0:0:0:0:
402,192,188530,1,0,0:0:0:0:
182,192,188530,1,0,0:0:0:0:
475,192,188623,1,0,0:0:0:0:
256,192,188623,1,0,0:0:0:0:
36,192,188623,1,0,0:0:0:0:
109,192,188623,1,0,0:0:0:0:
475,192,188810,1,0,0:0:0:0:
36,192,188810,1,0,0:0:0:0:
402,192,188810,1,0,0:0:0:0:
182,192,188810,1,0,0:0:0:0:
256,192,188903,1,0,0:0:0:0:
329,192,188903,1,0,0:0:0:0:
475,192,188996,1,0,0:0:0:0:
36,192,188996,1,0,0:0:0:0:
109,192,188996,1,0,0:0:0:0:
402,192,188996,1,0,0:0:0:0:
402,192,189182,1,0,0:0:0:0:
256,192,189182,1,0,0:0:0:0:
36,192,189182,1,0,0:0:0:0:
109,192,189275,1,0,0:0:0:0:
329,192,189275,1,0,0:0:0:0:
182,192,189275,1,0,0:0:0:0:
256,192,189369,1,0,0:0:0:0:
475,192,189369,1,0,0:0:0:0:
36,192,189369,1,0,0:0:0:0:
402,192,189369,1,0,0:0:0:0:
329,192,189555,1,0,0:0:0:0:
36,192,189555,1,0,0:0:0:0:
475,192,189555,1,0,0:0:0:0:
109,192,189555,1,0,0:0:0:0:
182,192,189648,1,0,0:0:0:0:
256,192,189648,1,0,0:0:0:0:
402,192,189741,1,0,0:0:0:0:
475,192,189741,1,0,0:0:0:0:
109,192,189741,1,0,0:0:0:0:
36,192,189741,1,0,0:0:0:0:
329,192,189834,1,0,0:0:0:0:
109,192,189928,1,0,0:0:0:0:
36,192,189928,1,0,0:0:0:0:
256,192,189928,1,0,0:0:0:0:
182,192,190021,1,0,0:0:0:0:
329,192,190021,1,0,0:0:0:0:
475,192,190114,1,0,0:0:0:0:
36,192,190114,1,0,0:0:0:0:
402,192,190114,1,0,0:0:0:0:
256,192,190114,1,0,0:0:0:0:
182,192,190207,1,0,0:0:0:0:
329,192,190207,1,0,0:0:0:0:
109,192,190300,1,0,0:0:0:0:
475,192,190300,1,0,0:0:0:0:
36,192,190300,1,0,0:0:0:0:
256,192,190300,1,0,0:0:0:0:
402,192,190347,1,0,0:0:0:0:
329,192,190393,1,0,0:0:0:0:
256,192,190440,1,0,0:0:0:0:
36,192,190487,1,0,0:0:0:0:
109,192,190487,1,0,0:0:0:0:
475,192,190487,1,0,0:0:0:0:
402,192,190487,1,0,0:0:0:0:
182,192,190487,1,0,0:0:0:0:
36,192,190673,1,0,0:0:0:0:
109,192,190673,1,0,0:0:0:0:
182,192,190673,1,0,0:0:0:0:
475,192,190673,1,0,0:0:0:0:
402,192,190673,1,0,0:0:0:0:
109,192,191046,1,0,0:0:0:0:
256,192,191046,1,0,0:0:0:0:
36,192,191046,1,0,0:0:0:0:
475,192,191046,1,0,0:0:0:0:
329,192,191139,1,0,0:0:0:0:
402,192,191139,1,0,0:0:0:0:
182,192,191139,1,0,0:0:0:0:
36,192,191232,1,0,0:0:0:0:
256,192,191232,1,0,0:0:0:0:
475,192,191232,1,0,0:0:0:0:
109,192,191232,1,0,0:0:0:0:
36,192,191418,1,0,0:0:0:0:
182,192,191418,1,0,0:0:0:0:
329,192,191418,1,0,0:0:0:0:
109,192,191605,1,0,0:0:0:0:
256,192,191605,1,0,0:0:0:0:
402,192,191605,1,0,0:0:0:0:
475,192,191791,1,0,0:0:0:0:
182,192,191791,1,0,0:0:0:0:
329,192,191791,1,0,0:0:0:0:
256,192,192164,1,0,0:0:0:0:
402,192,192164,1,0,0:0:0:0:
109,192,192164,1,0,0:0:0:0:
475,192,192257,1,0,0:0:0:0:
182,192,192350,1,0,0:0:0:0:
329,192,192350,1,0,0:0:0:0:
36,192,192350,1,0,0:0:0:0:
402,192,192443,1,0,0:0:0:0:
182,192,192536,1,0,0:0:0:0:
36,192,192536,1,0,0:0:0:0:
109,192,192536,1,0,0:0:0:0:
475,192,192536,1,0,0:0:0:0:
256,192,192629,1,0,0:0:0:0:
329,192,192629,1,0,0:0:0:0:
109,192,192723,1,0,0:0:0:0:
36,192,192723,1,0,0:0:0:0:
475,192,192723,1,0,0:0:0:0:
182,192,192723,1,0,0:0:0:0:
402,192,192723,1,0,0:0:0:0:
402,192,192909,1,0,0:0:0:0:
109,192,192909,1,0,0:0:0:0:
36,192,192909,1,0,0:0:0:0:
182,192,192909,1,0,0:0:0:0:
475,192,192909,1,0,0:0:0:0:
109,192,193095,1,0,0:0:0:0:
256,192,193095,1,0,0:0:0:0:
402,192,193095,1,0,0:0:0:0:
182,192,193282,1,0,0:0:0:0:
329,192,193282,1,0,0:0:0:0:
475,192,193282,1,0,0:0:0:0:
109,192,193654,1,0,0:0:0:0:
256,192,193654,1,0,0:0:0:0:
402,192,193654,1,0,0:0:0:0:
36,192,193654,1,0,0:0:0:0:
475,192,193654,1,0,0:0:0:0:
109,192,194027,1,0,0:0:0:0:
182,192,194027,1,0,0:0:0:0:
329,192,194027,1,0,0:0:0:0:
402,192,194027,1,0,0:0:0:0:
329,192,194213,1,0,0:0:0:0:
182,192,194213,1,0,0:0:0:0:
36,192,194213,1,0,0:0:0:0:
256,192,194213,1,0,0:0:0:0:
475,192,194213,1,0,0:0:0:0:
109,192,194306,1,0,0:0:0:0:
402,192,194306,1,0,0:0:0:0:
36,192,194400,1,0,0:0:0:0:
182,192,194400,1,0,0:0:0:0:
475,192,194400,1,0,0:0:0:0:
256,192,194400,1,0,0:0:0:0:
109,192,194493,1,0,0:0:0:0:
329,192,194493,1,0,0:0:0:0:
36,192,194586,1,0,0:0:0:0:
182,192,194586,1,0,0:0:0:0:
402,192,194586,1,0,0:0:0:0:
475,192,194586,1,0,0:0:0:0:
109,192,194679,1,0,0:0:0:0:
256,192,194679,1,0,0:0:0:0:
36,192,194772,1,0,0:0:0:0:
182,192,194772,1,0,0:0:0:0:
329,192,194772,1,0,0:0:0:0:
475,192,194772,1,0,0:0:0:0:
402,192,194865,1,0,0:0:0:0:
256,192,194959,1,0,0:0:0:0:
36,192,194959,1,0,0:0:0:0:
475,192,194959,1,0,0:0:0:0:
109,192,195052,1,0,0:0:0:0:
402,192,195145,1,0,0:0:0:0:
475,192,195145,1,0,0:0:0:0:
182,192,195145,1,0,0:0:0:0:
329,192,195238,1,0,0:0:0:0:
109,192,195238,1,0,0:0:0:0:
36,192,195331,1,0,0:0:0:0:
256,192,195331,1,0,0:0:0:0:
475,192,195331,1,0,0:0:0:0:
402,192,195424,1,0,0:0:0:0:
329,192,195518,1,0,0:0:0:0:
109,192,195518,1,0,0:0:0:0:
36,192,195518,1,0,0:0:0:0:
182,192,195611,1,0,0:0:0:0:
402,192,195611,1,0,0:0:0:0:
256,192,195704,1,0,0:0:0:0:
475,192,195704,1,0,0:0:0:0:
36,192,195704,1,0,0:0:0:0:
109,192,195704,1,0,0:0:0:0:
402,192,195751,1,0,0:0:0:0:
329,192,195797,1,0,0:0:0:0:
256,192,195844,1,0,0:0:0:0:
182,192,195890,1,0,0:0:0:0:
36,192,195890,1,0,0:0:0:0:
256,192,195937,1,0,0:0:0:0:
329,192,195984,1,0,0:0:0:0:
402,192,196030,1,0,0:0:0:0:
475,192,196077,1,0,0:0:0:0:
109,192,196077,1,0,0:0:0:0:
182,192,196123,1,0,0:0:0:0:
256,192,196170,1,0,0:0:0:0:
329,192,196216,1,0,0:0:0:0:
36,192,196263,1,0,0:0:0:0:
402,192,196263,1,0,0:0:0:0:
109,192,196310,1,0,0:0:0:0:
182,192,196356,1,0,0:0:0:0:
256,192,196403,1,0,0:0:0:0:
329,192,196449,1,0,0:0:0:0:
475,192,196449,1,0,0:0:0:0:
256,192,196496,1,0,0:0:0:0:
182,192,196543,1,0,0:0:0:0:
109,192,196589,1,0,0:0:0:0:
36,192,196636,1,0,0:0:0:0:
402,192,196636,1,0,0:0:0:0:
329,192,196682,1,0,0:0:0:0:
256,192,196729,1,0,0:0:0:0:
182,192,196775,1,0,0:0:0:0:
109,192,196822,1,0,0:0:0:0:
475,192,196822,1,0,0:0:0:0:
402,192,196869,1,0,0:0:0:0:
329,192,196915,1,0,0:0:0:0:
256,192,196962,1,0,0:0:0:0:
182,192,197008,1,0,0:0:0:0:
36,192,197008,1,0,0:0:0:0:
256,192,197055,1,0,0:0:0:0:
329,192,197102,1,0,0:0:0:0:
402,192,197148,1,0,0:0:0:0:
36,192,197195,1,0,0:0:0:0:
109,192,197195,1,0,0:0:0:0:
256,192,197195,1,0,0:0:0:0:
475,192,197195,1,0,0:0:0:0:
182,192,197288,1,0,0:0:0:0:
402,192,197288,1,0,0:0:0:0:
109,192,197381,1,0,0:0:0:0:
36,192,197381,1,0,0:0:0:0:
329,192,197381,1,0,0:0:0:0:
256,192,197381,1,0,0:0:0:0:
182,192,197474,1,0,0:0:0:0:
475,192,197474,1,0,0:0:0:0:
109,192,197567,1,0,0:0:0:0:
36,192,197567,1,0,0:0:0:0:
402,192,197567,1,0,0:0:0:0:
256,192,197567,1,0,0:0:0:0:
182,192,197661,1,0,0:0:0:0:
329,192,197661,1,0,0:0:0:0:
109,192,197754,1,0,0:0:0:0:
36,192,197754,1,0,0:0:0:0:
475,192,197754,1,0,0:0:0:0:
256,192,197754,1,0,0:0:0:0:
402,192,197847,1,0,0:0:0:0:
475,192,197940,1,0,0:0:0:0:
36,192,197940,1,0,0:0:0:0:
256,192,197940,1,0,0:0:0:0:
109,192,198033,1,0,0:0:0:0:
475,192,198126,1,0,0:0:0:0:
182,192,198126,1,0,0:0:0:0:
329,192,198126,1,0,0:0:0:0:
109,192,198220,1,0,0:0:0:0:
36,192,198313,1,0,0:0:0:0:
256,192,198313,1,0,0:0:0:0:
475,192,198313,1,0,0:0:0:0:
402,192,198406,1,0,0:0:0:0:
329,192,198499,1,0,0:0:0:0:
36,192,198499,1,0,0:0:0:0:
182,192,198499,1,0,0:0:0:0:
402,192,198592,1,0,0:0:0:0:
109,192,198592,1,0,0:0:0:0:
475,192,198685,1,0,0:0:0:0:
36,192,198685,1,0,0:0:0:0:
182,192,198685,1,0,0:0:0:0:
256,192,198685,1,0,0:0:0:0:
109,192,198779,1,0,0:0:0:0:
329,192,198779,1,0,0:0:0:0:
36,192,198872,1,0,0:0:0:0:
182,192,198872,1,0,0:0:0:0:
402,192,198872,1,0,0:0:0:0:
475,192,198872,1,0,0:0:0:0:
109,192,198965,1,0,0:0:0:0:
256,192,198965,1,0,0:0:0:0:
36,192,199058,1,0,0:0:0:0:
182,192,199058,1,0,0:0:0:0:
329,192,199058,1,0,0:0:0:0:
475,192,199058,1,0,0:0:0:0:
109,192,199151,1,0,0:0:0:0:
402,192,199151,1,0,0:0:0:0:
36,192,199244,1,0,0:0:0:0:
182,192,199244,1,0,0:0:0:0:
256,192,199244,1,0,0:0:0:0:
475,192,199244,1,0,0:0:0:0:
402,192,199338,1,0,0:0:0:0:
475,192,199431,1,0,0:0:0:0:
329,192,199431,1,0,0:0:0:0:
109,192,199431,1,0,0:0:0:0:
182,192,199524,1,0,0:0:0:0:
402,192,199617,1,0,0:0:0:0:
256,192,199617,1,0,0:0:0:0:
36,192,199617,1,0,0:0:0:0:
109,192,199710,1,0,0:0:0:0:
402,192,199803,1,0,0:0:0:0:
182,192,199803,1,0,0:0:0:0:
329,192,199897,1,0,0:0:0:0:
36,192,199990,1,0,0:0:0:0:
182,192,199990,1,0,0:0:0:0:
475,192,199990,1,0,0:0:0:0:
256,192,199990,1,0,0:0:0:0:
109,192,200083,1,0,0:0:0:0:
402,192,200083,1,0,0:0:0:0:
475,192,200176,1,0,0:0:0:0:
36,192,200176,1,0,0:0:0:0:
329,192,200176,1,0,0:0:0:0:
182,192,200269,1,0,0:0:0:0:
256,192,200362,1,0,0:0:0:0:
329,192,200362,1,0,0:0:0:0:
36,192,200362,1,0,0:0:0:0:
475,192,200362,1,0,0:0:0:0:
402,192,200456,1,0,0:0:0:0:
109,192,200456,1,0,0:0:0:0:
182,192,200549,1,0,0:0:0:0:
475,192,200549,1,0,0:0:0:0:
36,192,200549,1,0,0:0:0:0:
109,192,200642,1,0,0:0:0:0:
256,192,200642,1,0,0:0:0:0:
182,192,200735,1,0,0:0:0:0:
329,192,200735,1,0,0:0:0:0:
475,192,200735,1,0,0:0:0:0:
402,192,200735,1,0,0:0:0:0:
109,192,200828,1,0,0:0:0:0:
256,192,200828,1,0,0:0:0:0:
36,192,200921,1,0,0:0:0:0:
182,192,200921,1,0,0:0:0:0:
402,192,200921,1,0,0:0:0:0:
475,192,200921,1,0,0:0:0:0:
256,192,201015,1,0,0:0:0:0:
36,192,201108,1,0,0:0:0:0:
329,192,201108,1,0,0:0:0:0:
402,192,201108,1,0,0:0:0:0:
109,192,201108,1,0,0:0:0:0:
182,192,201201,1,0,0:0:0:0:
329,192,201294,1,0,0:0:0:0:
256,192,201294,1,0,0:0:0:0:
36,192,201294,1,0,0:0:0:0:
475,192,201294,1,0,0:0:0:0:
109,192,201387,1,0,0:0:0:0:
182,192,201480,1,0,0:0:0:0:
256,192,201480,1,0,0:0:0:0:
402,192,201480,1,0,0:0:0:0:
36,192,201480,1,0,0:0:0:0:
475,192,201480,1,0,0:0:0:0:
109,192,201853,1,0,0:0:0:0:
36,192,201853,1,0,0:0:0:0:
402,192,201853,1,0,0:0:0:0:
475,192,201853,1,0,0:0:0:0:
329,192,201946,1,0,0:0:0:0:
182,192,201946,1,0,0:0:0:0:
402,192,202039,1,0,0:0:0:0:
36,192,202039,1,0,0:0:0:0:
475,192,202039,1,0,0:0:0:0:
109,192,202039,1,0,0:0:0:0:
256,192,202133,1,0,0:0:0:0:
36,192,202226,1,0,0:0:0:0:
402,192,202226,1,0,0:0:0:0:
475,192,202226,1,0,0:0:0:0:
109,192,202226,1,0,0:0:0:0:
182,192,202319,1,0,0:0:0:0:
329,192,202319,1,0,0:0:0:0:
475,192,202412,1,0,0:0:0:0:
36,192,202412,1,0,0:0:0:0:
402,192,202412,1,0,0:0:0:0:
109,192,202412,1,0,0:0:0:0:
256,192,202505,1,0,0:0:0:0:
109,192,202598,1,0,0:0:0:0:
475,192,202598,1,0,0:0:0:0:
36,192,202598,1,0,0:0:0:0:
402,192,202598,1,0,0:0:0:0:
182,192,202692,1,0,0:0:0:0:
329,192,202692,1,0,0:0:0:0:
402,192,202785,1,0,0:0:0:0:
475,192,202785,1,0,0:0:0:0:
36,192,202785,1,0,0:0:0:0:
109,192,202785,1,0,0:0:0:0:
256,192,202878,1,0,0:0:0:0:
36,192,202971,1,0,0:0:0:0:
402,192,202971,1,0,0:0:0:0:
475,192,202971,1,0,0:0:0:0:
109,192,202971,1,0,0:0:0:0:
182,192,203064,1,0,0:0:0:0:
329,192,203064,1,0,0:0:0:0:
36,192,203157,1,0,0:0:0:0:
475,192,203157,1,0,0:0:0:0:
402,192,203157,1,0,0:0:0:0:
109,192,203157,1,0,0:0:0:0:
256,192,203157,1,0,0:0:0:0:
182,192,203251,1,0,0:0:0:0:
329,192,203251,1,0,0:0:0:0:
475,192,203344,1,0,0:0:0:0:
402,192,203344,1,0,0:0:0:0:
36,192,203344,1,0,0:0:0:0:
109,192,203344,1,0,0:0:0:0:
256,192,203437,1,0,0:0:0:0:
182,192,203437,1,0,0:0:0:0:
329,192,203530,1,0,0:0:0:0:
475,192,203530,1,0,0:0:0:0:
36,192,203530,1,0,0:0:0:0:
109,192,203530,1,0,0:0:0:0:
402,192,203623,1,0,0:0:0:0:
182,192,203623,1,0,0:0:0:0:
475,192,203716,1,0,0:0:0:0:
256,192,203716,1,0,0:0:0:0:
36,192,203716,1,0,0:0:0:0:
109,192,203716,1,0,0:0:0:0:
329,192,203810,1,0,0:0:0:0:
402,192,203903,1,0,0:0:0:0:
475,192,203903,1,0,0:0:0:0:
36,192,203903,1,0,0:0:0:0:
109,192,203996,1,0,0:0:0:0:
329,192,204089,1,0,0:0:0:0:
182,192,204089,1,0,0:0:0:0:
475,192,204089,1,0,0:0:0:0:
109,192,204182,1,0,0:0:0:0:
256,192,204275,1,0,0:0:0:0:
36,192,204275,1,0,0:0:0:0:
475,192,204275,1,0,0:0:0:0:
402,192,204369,1,0,0:0:0:0:
182,192,204462,1,0,0:0:0:0:
36,192,204462,1,0,0:0:0:0:
329,192,204462,1,0,0:0:0:0:
109,192,204555,1,0,0:0:0:0:
402,192,204555,1,0,0:0:0:0:
36,192,204648,1,0,0:0:0:0:
182,192,204648,1,0,0:0:0:0:
475,192,204648,1,0,0:0:0:0:
256,192,204648,1,0,0:0:0:0:
402,192,204741,1,0,0:0:0:0:
109,192,204741,1,0,0:0:0:0:
329,192,204834,1,0,0:0:0:0:
256,192,204834,1,0,0:0:0:0:
182,192,204834,1,0,0:0:0:0:
36,192,204834,1,0,0:0:0:0:
475,192,204928,1,0,0:0:0:0:
109,192,204928,1,0,0:0:0:0:
402,192,205021,1,0,0:0:0:0:
256,192,205021,1,0,0:0:0:0:
182,192,205021,1,0,0:0:0:0:
36,192,205021,1,0,0:0:0:0:
329,192,205114,1,0,0:0:0:0:
109,192,205114,1,0,0:0:0:0:
256,192,205207,1,0,0:0:0:0:
475,192,205207,1,0,0:0:0:0:
182,192,205207,1,0,0:0:0:0:
36,192,205207,1,0,0:0:0:0:
402,192,205300,1,0,0:0:0:0:
475,192,205393,1,0,0:0:0:0:
329,192,205393,1,0,0:0:0:0:
182,192,205393,1,0,0:0:0:0:
109,192,205487,1,0,0:0:0:0:
402,192,205580,1,0,0:0:0:0:
256,192,205580,1,0,0:0:0:0:
36,192,205580,1,0,0:0:0:0:
109,192,205673,1,0,0:0:0:0:
182,192,205766,1,0,0:0:0:0:
329,192,205766,1,0,0:0:0:0:
402,192,205859,1,0,0:0:0:0:
475,192,205952,1,0,0:0:0:0:
109,192,205952,1,0,0:0:0:0:
36,192,205952,1,0,0:0:0:0:
182,192,206046,1,0,0:0:0:0:
402,192,206046,1,0,0:0:0:0:
109,192,206139,1,0,0:0:0:0:
256,192,206139,1,0,0:0:0:0:
329,192,206139,1,0,0:0:0:0:
36,192,206139,1,0,0:0:0:0:
402,192,206232,1,0,0:0:0:0:
182,192,206232,1,0,0:0:0:0:
475,192,206325,1,0,0:0:0:0:
256,192,206325,1,0,0:0:0:0:
109,192,206325,1,0,0:0:0:0:
36,192,206325,1,0,0:0:0:0:
329,192,206418,1,0,0:0:0:0:
182,192,206418,1,0,0:0:0:0:
402,192,206511,1,0,0:0:0:0:
475,192,206511,1,0,0:0:0:0:
109,192,206511,1,0,0:0:0:0:
36,192,206511,1,0,0:0:0:0:
256,192,206605,1,0,0:0:0:0:
182,192,206605,1,0,0:0:0:0:
329,192,206698,1,0,0:0:0:0:
475,192,206698,1,0,0:0:0:0:
109,192,206698,1,0,0:0:0:0:
36,192,206698,1,0,0:0:0:0:
402,192,206791,1,0,0:0:0:0:
475,192,206884,1,0,0:0:0:0:
109,192,206884,1,0,0:0:0:0:
256,192,206884,1,0,0:0:0:0:
36,192,206977,1,0,0:0:0:0:
182,192,207070,1,0,0:0:0:0:
475,192,207070,1,0,0:0:0:0:
402,192,207070,1,0,0:0:0:0:
109,192,207164,1,0,0:0:0:0:
329,192,207164,1,0,0:0:0:0:
402,192,207257,1,0,0:0:0:0:
256,192,207257,1,0,0:0:0:0:
36,192,207257,1,0,0:0:0:0:
475,192,207350,1,0,0:0:0:0:
109,192,207443,1,0,0:0:0:0:
329,192,207443,1,0,0:0:0:0:
36,192,207443,1,0,0:0:0:0:
402,192,207536,1,0,0:0:0:0:
182,192,207536,1,0,0:0:0:0:
109,192,207629,1,0,0:0:0:0:
329,192,207629,1,0,0:0:0:0:
36,192,207629,1,0,0:0:0:0:
256,192,207629,1,0,0:0:0:0:
475,192,207629,1,0,0:0:0:0:
402,192,207723,1,0,0:0:0:0:
182,192,207723,1,0,0:0:0:0:
256,192,207816,1,0,0:0:0:0:
475,192,207816,1,0,0:0:0:0:
329,192,207909,1,0,0:0:0:0:
109,192,207909,1,0,0:0:0:0:
402,192,208002,1,0,0:0:0:0:
475,192,208002,1,0,0:0:0:0:
256,192,208002,1,0,0:0:0:0:
36,192,208002,1,0,0:0:0:0:
182,192,208002,1,0,0:0:0:0:
329,192,208095,1,0,0:0:0:0:
109,192,208095,1,0,0:0:0:0:
36,192,208188,1,0,0:0:0:0:
256,192,208188,1,0,0:0:0:0:
182,192,208282,1,0,0:0:0:0:
402,192,208282,1,0,0:0:0:0:
256,192,208375,1,0,0:0:0:0:
475,192,208375,1,0,0:0:0:0:
329,192,208375,1,0,0:0:0:0:
109,192,208375,1,0,0:0:0:0:
36,192,208375,1,0,0:0:0:0:
402,192,208468,1,0,0:0:0:0:
182,192,208468,1,0,0:0:0:0:
475,192,208561,1,0,0:0:0:0:
256,192,208561,1,0,0:0:0:0:
329,192,208654,1,0,0:0:0:0:
109,192,208654,1,0,0:0:0:0:
36,192,208747,1,0,0:0:0:0:
256,192,208747,1,0,0:0:0:0:
182,192,208747,1,0,0:0:0:0:
402,192,208747,1,0,0:0:0:0:
475,192,208747,1,0,0:0:0:0:
329,192,208841,1,0,0:0:0:0:
109,192,208841,1,0,0:0:0:0:
36,192,208934,1,0,0:0:0:0:
256,192,208934,1,0,0:0:0:0:
475,192,208934,1,0,0:0:0:0:
329,192,209027,1,0,0:0:0:0:
182,192,209027,1,0,0:0:0:0:
475,192,209120,1,0,0:0:0:0:
36,192,209120,1,0,0:0:0:0:
256,192,209120,1,0,0:0:0:0:
109,192,209120,1,0,0:0:0:0:
402,192,209120,1,0,0:0:0:0:
329,192,209306,1,0,0:0:0:0:
475,192,209306,1,0,0:0:0:0:
402,192,209306,1,0,0:0:0:0:
182,192,209306,1,0,0:0:0:0:
109,192,209306,1,0,0:0:0:0:
475,192,209493,1,0,0:0:0:0:
329,192,209493,1,0,0:0:0:0:
36,192,209493,1,0,0:0:0:0:
109,192,209586,1,0,0:0:0:0:
256,192,209586,1,0,0:0:0:0:
402,192,209586,1,0,0:0:0:0:
36,192,209679,1,0,0:0:0:0:
182,192,209679,1,0,0:0:0:0:
475,192,209679,1,0,0:0:0:0:
329,192,209679,1,0,0:0:0:0:
475,192,210052,1,0,0:0:0:0:
402,192,210052,1,0,0:0:0:0:
329,192,210052,1,0,0:0:0:0:
182,192,210052,1,0,0:0:0:0:
109,192,210052,1,0,0:0:0:0:
36,192,210238,1,0,0:0:0:0:
109,192,210238,1,0,0:0:0:0:
402,192,210238,1,0,0:0:0:0:
329,192,210238,1,0,0:0:0:0:
256,192,210238,1,0,0:0:0:0:
36,192,210424,1,0,0:0:0:0:
475,192,210424,1,0,0:0:0:0:
182,192,210424,1,0,0:0:0:0:
256,192,210424,1,0,0:0:0:0:
329,192,210424,1,0,0:0:0:0:
109,192,210518,1,0,0:0:0:0:
402,192,210518,1,0,0:0:0:0:
475,192,210611,1,0,0:0:0:0:
36,192,210611,1,0,0:0:0:0:
256,192,210611,1,0,0:0:0:0:
182,192,210611,1,0,0:0:0:0:
329,192,210611,1,0,0:0:0:0:
182,192,210797,1,0,0:0:0:0:
36,192,210797,1,0,0:0:0:0:
109,192,210797,1,0,0:0:0:0:
329,192,210797,1,0,0:0:0:0:
402,192,210797,1,0,0:0:0:0:
36,192,210984,1,0,0:0:0:0:
182,192,210984,1,0,0:0:0:0:
475,192,210984,1,0,0:0:0:0:
402,192,211077,1,0,0:0:0:0:
256,192,211077,1,0,0:0:0:0:
109,192,211077,1,0,0:0:0:0:
475,192,211170,1,0,0:0:0:0:
329,192,211170,1,0,0:0:0:0:
36,192,211170,1,0,0:0:0:0:
182,192,211170,1,0,0:0:0:0:
36,192,211543,1,0,0:0:0:0:
109,192,211543,1,0,0:0:0:0:
182,192,211543,1,0,0:0:0:0:
329,192,211543,1,0,0:0:0:0:
402,192,211543,1,0,0:0:0:0:
109,192,211729,1,0,0:0:0:0:
475,192,211729,1,0,0:0:0:0:
36,192,211729,1,0,0:0:0:0:
256,192,211729,1,0,0:0:0:0:
402,192,211729,1,0,0:0:0:0:
182,192,211822,1,0,0:0:0:0:
329,192,211822,1,0,0:0:0:0:
36,192,211915,1,0,0:0:0:0:
475,192,211915,1,0,0:0:0:0:
256,192,211915,1,0,0:0:0:0:
109,192,212008,1,0,0:0:0:0:
402,192,212008,1,0,0:0:0:0:
36,192,212102,1,0,0:0:0:0:
182,192,212102,1,0,0:0:0:0:
256,192,212102,1,0,0:0:0:0:
329,192,212102,1,0,0:0:0:0:
475,192,212102,1,0,0:0:0:0:
182,192,212381,1,0,0:0:0:0:
329,192,212381,1,0,0:0:0:0:
475,192,212474,1,0,0:0:0:0:
402,192,212474,1,0,0:0:0:0:
36,192,212474,1,0,0:0:0:0:
109,192,212474,1,0,0:0:0:0:
256,192,212474,1,0,0:0:0:0:
109,192,212754,1,0,0:0:0:0:
402,192,212754,1,0,0:0:0:0:
36,192,212847,1,0,0:0:0:0:
475,192,212847,1,0,0:0:0:0:
329,192,212847,1,0,0:0:0:0:
182,192,212847,1,0,0:0:0:0:
256,192,212847,1,0,0:0:0:0:
36,192,213126,1,0,0:0:0:0:
475,192,213126,1,0,0:0:0:0:
256,192,213220,1,0,0:0:0:0:
182,192,213220,1,0,0:0:0:0:
109,192,213220,1,0,0:0:0:0:
402,192,213220,1,0,0:0:0:0:
329,192,213220,1,0,0:0:0:0:
256,192,213499,1,0,0:0:0:0:
182,192,213592,1,0,0:0:0:0:
109,192,213592,1,0,0:0:0:0:
36,192,213592,1,0,0:0:0:0:
329,192,213592,1,0,0:0:0:0:
475,192,213592,1,0,0:0:0:0:
402,192,213592,1,0,0:0:0:0:
36,192,213965,1,0,0:0:0:0:
109,192,213965,1,0,0:0:0:0:
182,192,213965,1,0,0:0:0:0:
329,192,213965,1,0,0:0:0:0:
402,192,213965,1,0,0:0:0:0:
475,192,213965,1,0,0:0:0:0:
256,192,214338,1,0,0:0:0:0:
475,192,214338,1,0,0:0:0:0:
36,192,214338,1,0,0:0:0:0:
402,192,214431,1,0,0:0:0:0:
109,192,214431,1,0,0:0:0:0:
329,192,214524,1,0,0:0:0:0:
182,192,214524,1,0,0:0:0:0:
109,192,214617,1,0,0:0:0:0:
402,192,214617,1,0,0:0:0:0:
36,192,214710,1,0,0:0:0:0:
475,192,214710,1,0,0:0:0:0:
256,192,214710,1,0,0:0:0:0:
182,192,214803,1,0,0:0:0:0:
329,192,214803,1,0,0:0:0:0:
109,192,214897,1,0,0:0:0:0:
402,192,214897,1,0,0:0:0:0:
36,192,214897,1,0,0:0:0:0:
475,192,214897,1,0,0:0:0:0:
182,192,214990,1,0,0:0:0:0:
329,192,214990,1,0,0:0:0:0:
36,192,215083,1,0,0:0:0:0:
256,192,215083,1,0,0:0:0:0:
402,192,215083,1,0,0:0:0:0:
475,192,215083,1,0,0:0:0:0:
109,192,215083,1,0,0:0:0:0:
329,192,215269,1,0,0:0:0:0:
402,192,215269,1,0,0:0:0:0:
36,192,215269,1,0,0:0:0:0:
182,192,215269,1,0,0:0:0:0:
329,192,215456,1,0,0:0:0:0:
475,192,215456,1,0,0:0:0:0:
109,192,215456,1,0,0:0:0:0:
256,192,215456,1,0,0:0:0:0:
256,192,215642,1,0,0:0:0:0:
402,192,215642,1,0,0:0:0:0:
36,192,215642,1,0,0:0:0:0:
182,192,215642,1,0,0:0:0:0:
475,192,215828,1,0,0:0:0:0:
182,192,215828,1,0,0:0:0:0:
109,192,215828,1,0,0:0:0:0:
329,192,215828,1,0,0:0:0:0:
182,192,216015,1,0,0:0:0:0:
256,192,216015,1,0,0:0:0:0:
36,192,216015,1,0,0:0:0:0:
402,192,216015,1,0,0:0:0:0:
329,192,216201,1,0,0:0:0:0:
109,192,216201,1,0,0:0:0:0:
475,192,216201,1,0,0:0:0:0:
256,192,216201,1,0,0:0:0:0:
402,192,216387,1,0,0:0:0:0:
182,192,216387,1,0,0:0:0:0:
329,192,216387,1,0,0:0:0:0:
36,192,216387,1,0,0:0:0:0:
475,192,216574,1,0,0:0:0:0:
329,192,216574,1,0,0:0:0:0:
182,192,216574,1,0,0:0:0:0:
109,192,216574,1,0,0:0:0:0:
402,192,216760,1,0,0:0:0:0:
256,192,216760,1,0,0:0:0:0:
182,192,216760,1,0,0:0:0:0:
36,192,216760,1,0,0:0:0:0:
475,192,216946,1,0,0:0:0:0:
329,192,216946,1,0,0:0:0:0:
256,192,216946,1,0,0:0:0:0:
109,192,216946,1,0,0:0:0:0:
402,192,217133,1,0,0:0:0:0:
182,192,217133,1,0,0:0:0:0:
36,192,217133,1,0,0:0:0:0:
329,192,217133,1,0,0:0:0:0:
475,192,217319,1,0,0:0:0:0:
36,192,217319,1,0,0:0:0:0:
402,192,217319,1,0,0:0:0:0:
109,192,217319,1,0,0:0:0:0:
182,192,217412,1,0,0:0:0:0:
329,192,217412,1,0,0:0:0:0:
256,192,217505,1,0,0:0:0:0:
36,192,217505,1,0,0:0:0:0:
475,192,217505,1,0,0:0:0:0:
402,192,217598,1,0,0:0:0:0:
109,192,217598,1,0,0:0:0:0:
182,192,217692,1,0,0:0:0:0:
256,192,217692,1,0,0:0:0:0:
329,192,217692,1,0,0:0:0:0:
109,192,217785,1,0,0:0:0:0:
402,192,217785,1,0,0:0:0:0:
36,192,217878,1,0,0:0:0:0:
475,192,217878,1,0,0:0:0:0:
256,192,217878,1,0,0:0:0:0:
182,192,217971,1,0,0:0:0:0:
329,192,217971,1,0,0:0:0:0:
109,192,218064,1,0,0:0:0:0:
36,192,218064,1,0,0:0:0:0:
256,192,218064,1,0,0:0:0:0:
402,192,218064,1,0,0:0:0:0:
475,192,218064,1,0,0:0:0:0:
475,192,218251,1,0,0:0:0:0:
256,192,218251,1,0,0:0:0:0:
36,192,218251,1,0,0:0:0:0:
329,192,218344,1,0,0:0:0:0:
109,192,218344,1,0,0:0:0:0:
402,192,218437,1,0,0:0:0:0:
36,192,218437,1,0,0:0:0:0:
182,192,218437,1,0,0:0:0:0:
475,192,218437,1,0,0:0:0:0:
329,192,218530,1,0,0:0:0:0:
475,192,218623,1,0,0:0:0:0:
256,192,218623,1,0,0:0:0:0:
36,192,218623,1,0,0:0:0:0:
182,192,218716,1,0,0:0:0:0:
402,192,218716,1,0,0:0:0:0:
36,192,218810,1,0,0:0:0:0:
329,192,218810,1,0,0:0:0:0:
475,192,218810,1,0,0:0:0:0:
109,192,218810,1,0,0:0:0:0:
256,192,218903,1,0,0:0:0:0:
402,192,218996,1,0,0:0:0:0:
475,192,218996,1,0,0:0:0:0:
182,192,218996,1,0,0:0:0:0:
109,192,218996,1,0,0:0:0:0:
329,192,219089,1,0,0:0:0:0:
182,192,219182,1,0,0:0:0:0:
36,192,219182,1,0,0:0:0:0:
475,192,219182,1,0,0:0:0:0:
256,192,219182,1,0,0:0:0:0:
402,192,219275,1,0,0:0:0:0:
109,192,219369,1,0,0:0:0:0:
36,192,219369,1,0,0:0:0:0:
256,192,219369,1,0,0:0:0:0:
475,192,219369,1,0,0:0:0:0:
329,192,219369,1,0,0:0:0:0:
256,192,219555,1,0,0:0:0:0:
36,192,219555,1,0,0:0:0:0:
109,192,219555,1,0,0:0:0:0:
182,192,219648,1,0,0:0:0:0:
329,192,219648,1,0,0:0:0:0:
402,192,219741,1,0,0:0:0:0:
36,192,219741,1,0,0:0:0:0:
256,192,219741,1,0,0:0:0:0:
475,192,219741,1,0,0:0:0:0:
329,192,219834,1,0,0:0:0:0:
109,192,219834,1,0,0:0:0:0:
182,192,219928,1,0,0:0:0:0:
402,192,219928,1,0,0:0:0:0:
36,192,219928,1,0,0:0:0:0:
475,192,219928,1,0,0:0:0:0:
402,192,220114,1,0,0:0:0:0:
256,192,220114,1,0,0:0:0:0:
475,192,220114,1,0,0:0:0:0:
329,192,220207,1,0,0:0:0:0:
182,192,220207,1,0,0:0:0:0:
109,192,220300,1,0,0:0:0:0:
256,192,220300,1,0,0:0:0:0:
36,192,220300,1,0,0:0:0:0:
475,192,220300,1,0,0:0:0:0:
182,192,220487,1,0,0:0:0:0:
329,192,220487,1,0,0:0:0:0:
402,192,220487,1,0,0:0:0:0:
109,192,220580,1,0,0:0:0:0:
256,192,220580,1,0,0:0:0:0:
182,192,220673,1,0,0:0:0:0:
402,192,220673,1,0,0:0:0:0:
475,192,220673,1,0,0:0:0:0:
36,192,220673,1,0,0:0:0:0:
182,192,220859,1,0,0:0:0:0:
36,192,220859,1,0,0:0:0:0:
256,192,220952,1,0,0:0:0:0:
109,192,220952,1,0,0:0:0:0:
329,192,221046,1,0,0:0:0:0:
182,192,221046,1,0,0:0:0:0:
475,192,221046,1,0,0:0:0:0:
36,192,221046,1,0,0:0:0:0:
402,192,221139,1,0,0:0:0:0:
109,192,221232,1,0,0:0:0:0:
329,192,221232,1,0,0:0:0:0:
36,192,221232,1,0,0:0:0:0:
182,192,221325,1,0,0:0:0:0:
402,192,221325,1,0,0:0:0:0:
475,192,221418,1,0,0:0:0:0:
329,192,221418,1,0,0:0:0:0:
256,192,221418,1,0,0:0:0:0:
36,192,221418,1,0,0:0:0:0:
109,192,221511,1,0,0:0:0:0:
402,192,221605,1,0,0:0:0:0:
182,192,221605,1,0,0:0:0:0:
329,192,221698,1,0,0:0:0:0:
109,192,221698,1,0,0:0:0:0:
256,192,221791,1,0,0:0:0:0:
182,192,221791,1,0,0:0:0:0:
475,192,221791,1,0,0:0:0:0:
36,192,221791,1,0,0:0:0:0:
402,192,221884,1,0,0:0:0:0:
109,192,221977,1,0,0:0:0:0:
36,192,221977,1,0,0:0:0:0:
329,192,221977,1,0,0:0:0:0:
256,192,221977,1,0,0:0:0:0:
475,192,222070,1,0,0:0:0:0:
182,192,222164,1,0,0:0:0:0:
109,192,222164,1,0,0:0:0:0:
402,192,222164,1,0,0:0:0:0:
329,192,222164,1,0,0:0:0:0:
36,192,222257,1,0,0:0:0:0:
256,192,222350,1,0,0:0:0:0:
402,192,222350,1,0,0:0:0:0:
475,192,222350,1,0,0:0:0:0:
182,192,222350,1,0,0:0:0:0:
329,192,222536,1,0,0:0:0:0:
109,192,222536,1,0,0:0:0:0:
36,192,222536,1,0,0:0:0:0:
402,192,222629,1,0,0:0:0:0:
182,192,222629,1,0,0:0:0:0:
36,192,222723,1,0,0:0:0:0:
256,192,222723,1,0,0:0:0:0:
475,192,222723,1,0,0:0:0:0:
329,192,222816,1,0,0:0:0:0:
109,192,222816,1,0,0:0:0:0:
402,192,222909,1,0,0:0:0:0:
182,192,222909,1,0,0:0:0:0:
475,192,222909,1,0,0:0:0:0:
36,192,222909,1,0,0:0:0:0:
329,192,223002,1,0,0:0:0:0:
256,192,223002,1,0,0:0:0:0:
109,192,223002,1,0,0:0:0:0:
182,192,223095,1,0,0:0:0:0:
402,192,223095,1,0,0:0:0:0:
475,192,223095,1,0,0:0:0:0:
36,192,223095,1,0,0:0:0:0:
402,192,223282,1,0,0:0:0:0:
109,192,223282,1,0,0:0:0:0:
256,192,223282,1,0,0:0:0:0:
182,192,223375,1,0,0:0:0:0:
329,192,223375,1,0,0:0:0:0:
475,192,223468,1,0,0:0:0:0:
36,192,223468,1,0,0:0:0:0:
256,192,223468,1,0,0:0:0:0:
329,192,223561,1,0,0:0:0:0:
182,192,223561,1,0,0:0:0:0:
36,192,223654,1,0,0:0:0:0:
475,192,223654,1,0,0:0:0:0:
256,192,223654,1,0,0:0:0:0:
402,192,223747,1,0,0:0:0:0:
109,192,223747,1,0,0:0:0:0:
329,192,223841,1,0,0:0:0:0:
256,192,223841,1,0,0:0:0:0:
182,192,223841,1,0,0:0:0:0:
402,192,223934,1,0,0:0:0:0:
109,192,223934,1,0,0:0:0:0:
329,192,224027,1,0,0:0:0:0:
256,192,224027,1,0,0:0:0:0:
182,192,224027,1,0,0:0:0:0:
475,192,224027,1,0,0:0:0:0:
36,192,224027,1,0,0:0:0:0:
109,192,224120,1,0,0:0:0:0:
475,192,224213,1,0,0:0:0:0:
182,192,224213,1,0,0:0:0:0:
329,192,224213,1,0,0:0:0:0:
402,192,224213,1,0,0:0:0:0:
36,192,224306,1,0,0:0:0:0:
329,192,224400,1,0,0:0:0:0:
402,192,224400,1,0,0:0:0:0:
109,192,224400,1,0,0:0:0:0:
256,192,224400,1,0,0:0:0:0:
475,192,224493,1,0,0:0:0:0:
329,192,224586,1,0,0:0:0:0:
36,192,224586,1,0,0:0:0:0:
182,192,224586,1,0,0:0:0:0:
256,192,224586,1,0,0:0:0:0:
329,192,224959,1,0,0:0:0:0:
475,192,224959,1,0,0:0:0:0:
36,192,224959,1,0,0:0:0:0:
109,192,224959,1,0,0:0:0:0:
256,192,225052,1,0,0:0:0:0:
475,192,225145,1,0,0:0:0:0:
182,192,225145,1,0,0:0:0:0:
36,192,225145,1,0,0:0:0:0:
402,192,225145,1,0,0:0:0:0:
256,192,225238,1,0,0:0:0:0:
475,192,225331,1,0,0:0:0:0:
36,192,225331,1,0,0:0:0:0:
329,192,225331,1,0,0:0:0:0:
109,192,225331,1,0,0:0:0:0:
402,192,225704,1,0,0:0:0:0:
36,192,225704,1,0,0:0:0:0:
182,192,225704,1,0,0:0:0:0:
475,192,225704,1,0,0:0:0:0:
256,192,225797,1,0,0:0:0:0:
329,192,225890,1,0,0:0:0:0:
475,192,225890,1,0,0:0:0:0:
36,192,225890,1,0,0:0:0:0:
109,192,225890,1,0,0:0:0:0:
256,192,225984,1,0,0:0:0:0:
402,192,226077,1,0,0:0:0:0:
475,192,226077,1,0,0:0:0:0:
36,192,226077,1,0,0:0:0:0:
182,192,226077,1,0,0:0:0:0:
182,192,226449,1,0,0:0:0:0:
329,192,226449,1,0,0:0:0:0:
475,192,226449,1,0,0:0:0:0:
36,192,226449,1,0,0:0:0:0:
402,192,226543,1,0,0:0:0:0:
256,192,226543,1,0,0:0:0:0:
109,192,226543,1,0,0:0:0:0:
182,192,226636,1,0,0:0:0:0:
329,192,226636,1,0,0:0:0:0:
475,192,226636,1,0,0:0:0:0:
36,192,226636,1,0,0:0:0:0:
402,192,226729,1,0,0:0:0:0:
109,192,226729,1,0,0:0:0:0:
256,192,226822,1,0,0:0:0:0:
329,192,226822,1,0,0:0:0:0:
182,192,226822,1,0,0:0:0:0:
109,192,226915,1,0,0:0:0:0:
402,192,226915,1,0,0:0:0:0:
329,192,227008,1,0,0:0:0:0:
256,192,227008,1,0,0:0:0:0:
182,192,227008,1,0,0:0:0:0:
475,192,227008,1,0,0:0:0:0:
36,192,227008,1,0,0:0:0:0:
109,192,227102,1,0,0:0:0:0:
402,192,227195,1,0,0:0:0:0:
475,192,227195,1,0,0:0:0:0:
182,192,227195,1,0,0:0:0:0:
329,192,227288,1,0,0:0:0:0:
109,192,227288,1,0,0:0:0:0:
256,192,227381,1,0,0:0:0:0:
36,192,227381,1,0,0:0:0:0:
475,192,227381,1,0,0:0:0:0:
182,192,227474,1,0,0:0:0:0:
36,192,227567,1,0,0:0:0:0:
475,192,227567,1,0,0:0:0:0:
329,192,227567,1,0,0:0:0:0:
256,192,227661,1,0,0:0:0:0:
402,192,227661,1,0,0:0:0:0:
109,192,227661,1,0,0:0:0:0:
475,192,227754,1,0,0:0:0:0:
329,192,227754,1,0,0:0:0:0:
182,192,227754,1,0,0:0:0:0:
36,192,227754,1,0,0:0:0:0:
256,192,227940,1,0,0:0:0:0:
36,192,227940,1,0,0:0:0:0:
402,192,227940,1,0,0:0:0:0:
182,192,227940,1,0,0:0:0:0:
329,192,228126,1,0,0:0:0:0:
475,192,228126,1,0,0:0:0:0:
182,192,228126,1,0,0:0:0:0:
109,192,228126,1,0,0:0:0:0:
402,192,228313,1,0,0:0:0:0:
475,192,228313,1,0,0:0:0:0:
36,192,228313,1,0,0:0:0:0:
256,192,228313,1,0,0:0:0:0:
109,192,228313,1,0,0:0:0:0:
402,192,229058,1,0,0:0:0:0:
256,192,229058,1,0,0:0:0:0:
475,192,229058,1,0,0:0:0:0:
182,192,229431,1,0,0:0:0:0:
329,192,229431,1,0,0:0:0:0:
256,192,229617,1,0,0:0:0:0:
109,192,229617,1,0,0:0:0:0:
36,192,229803,1,0,0:0:0:0:
182,192,229803,1,0,0:0:0:0:
36,192,229990,1,0,0:0:0:0:
475,192,229990,1,0,0:0:0:0:
256,192,229990,1,0,0:0:0:0:
109,192,230176,1,0,0:0:0:0:
182,192,230362,1,0,0:0:0:0:
256,192,230549,1,0,0:0:0:0:
109,192,230921,1,0,0:0:0:0:
182,192,231108,1,0,0:0:0:0:
256,192,231294,1,0,0:0:0:0:
109,192,231667,1,0,0:0:0:0:
182,192,231853,1,0,0:0:0:0:
256,192,232039,1,0,0:0:0:0:
109,192,232412,1,0,0:0:0:0:
182,192,232598,1,0,0:0:0:0:
256,192,232785,1,0,0:0:0:0:
109,192,233157,1,0,0:0:0:0:
182,192,233344,1,0,0:0:0:0:
256,192,233530,1,0,0:0:0:0:
109,192,233903,1,0,0:0:0:0:
182,192,234089,1,0,0:0:0:0:
256,192,234275,1,0,0:0:0:0:
109,192,234648,1,0,0:0:0:0:
182,192,234858,1,0,0:0:0:0:
256,192,235067,1,0,0:0:0:0:
109,192,235440,1,0,0:0:0:0:
182,192,235650,1,0,0:0:0:0:
256,192,235859,1,0,0:0:0:0:
