osu file format v14

[General]
AudioFilename: Yanaginagi - Landscape140.mp3
AudioLeadIn: 0
PreviewTime: 45949
Countdown: 0
SampleSet: None
StackLeniency: 0.7
Mode: 3
LetterboxInBreaks: 0
SpecialStyle: 0
WidescreenStoryboard: 0

[Editor]
Bookmarks: 85392
DistanceSpacing: 1.6
BeatDivisor: 4
GridSize: 4
TimelineZoom: 2.7

[Metadata]
Title:Landscape
TitleUnicode:Landscape
Artist:Yanaginagi
ArtistUnicode:Yanaginagi
Creator:Applequestria
Version:For Kawawa [1.4x Rate]
Source:
Tags:
BeatmapID:4536947
BeatmapSetID:677745

[Difficulty]
HPDrainRate:8
CircleSize:7
OverallDifficulty:8
ApproachRate:5
SliderMultiplier:1.4
SliderTickRate:1

[Events]
//Background and Video events
0,0,"Yanaginagi - Landscape.jpg",0,0
//Break Periods
//Storyboard Layer 0 (Background)
//Storyboard Layer 1 (Fail)
//Storyboard Layer 2 (Pass)
//Storyboard Layer 3 (Foreground)
//Storyboard Layer 4 (Overlay)
//Storyboard Sound Samples

[TimingPoints]
344,266.193433895297,4,2,0,10,1,0
46129,-100,4,2,0,10,0,1
63165,-100,4,2,0,10,0,0
98302,-100,4,2,0,10,0,1
115339,-100,4,2,0,10,0,0
138764,-100,4,2,0,10,0,1
155800,-100,4,2,0,10,0,0

[HitObjects]
36,192,344,5,0,0:0:0:0:
475,192,344,5,0,0:0:0:0:
109,192,344,1,0,0:0:0:0:
256,192,344,1,0,0:0:0:0:
402,192,344,1,0,0:0:0:0:
402,192,743,1,0,0:0:0:0:
475,192,743,1,0,0:0:0:0:
256,192,743,1,0,0:0:0:0:
329,192,1009,1,0,0:0:0:0:
475,192,1009,1,0,0:0:0:0:
256,192,1142,1,0,0:0:0:0:
402,192,1142,1,0,0:0:0:0:
182,192,1275,1,0,0:0:0:0:
329,192,1275,1,0,0:0:0:0:
36,192,1408,1,0,0:0:0:0:
109,192,1408,1,0,0:0:0:0:
256,192,1408,1,0,0:0:0:0:
329,192,1941,1,0,0:0:0:0:
182,192,1941,1,0,0:0:0:0:
256,192,2473,1,0,0:0:0:0:
402,192,2473,1,0,0:0:0:0:
475,192,2473,1,0,0:0:0:0:
182,192,2473,1,0,0:0:0:0:
36,192,2473,1,0,0:0:0:0:
329,192,2606,1,0,0:0:0:0:
109,192,2606,1,0,0:0:0:0:
182,192,2739,1,0,0:0:0:0:
36,192,2739,1,0,0:0:0:0:
475,192,2872,1,0,0:0:0:0:
402,192,2872,1,0,0:0:0:0:
256,192,2872,1,0,0:0:0:0:
182,192,3005,1,0,0:0:0:0:
36,192,3005,1,0,0:0:0:0:
109,192,3139,1,0,0:0:0:0:
475,192,3139,1,0,0:0:0:0:
329,192,3139,1,0,0:0:0:0:
256,192,3271,1,0,0:0:0:0:
402,192,3271,1,0,0:0:0:0:
182,192,3404,1,0,0:0:0:0:
329,192,3404,1,0,0:0:0:0:
256,192,3538,1,0,0:0:0:0:
402,192,3538,1,0,0:0:0:0:
475,192,3538,1,0,0:0:0:0:
109,192,3538,1,0,0:0:0:0:
36,192,3538,1,0,0:0:0:0:
475,192,3804,128,0,4070:0:0:0:0:
329,192,3804,128,0,4070:0:0:0:0:
182,192,3804,1,0,0:0:0:0:
402,192,4070,128,0,4336:0:0:0:0:
256,192,4070,128,0,4336:0:0:0:0:
109,192,4070,1,0,0:0:0:0:
36,192,4336,1,0,0:0:0:0:
329,192,4336,128,0,4602:0:0:0:0:
182,192,4336,128,0,4602:0:0:0:0:
402,192,4602,1,0,0:0:0:0:
475,192,4602,1,0,0:0:0:0:
36,192,4602,1,0,0:0:0:0:
109,192,4602,1,0,0:0:0:0:
256,192,4602,1,0,0:0:0:0:
329,192,4736,1,0,0:0:0:0:
182,192,4736,1,0,0:0:0:0:
36,192,4869,1,0,0:0:0:0:
109,192,4869,1,0,0:0:0:0:
402,192,5001,1,0,0:0:0:0:
475,192,5001,1,0,0:0:0:0:
256,192,5001,1,0,0:0:0:0:
36,192,5135,1,0,0:0:0:0:
109,192,5135,1,0,0:0:0:0:
329,192,5268,1,0,0:0:0:0:
475,192,5268,1,0,0:0:0:0:
182,192,5268,1,0,0:0:0:0:
256,192,5401,1,0,0:0:0:0:
402,192,5401,1,0,0:0:0:0:
182,192,5534,1,0,0:0:0:0:
329,192,5534,1,0,0:0:0:0:
36,192,5667,128,0,6133:0:0:0:0:
109,192,5667,128,0,6133:0:0:0:0:
256,192,5667,128,0,6133:0:0:0:0:
402,192,5667,128,0,6133:0:0:0:0:
475,192,5667,128,0,6133:0:0:0:0:
36,192,6199,128,0,6665:0:0:0:0:
109,192,6199,128,0,6665:0:0:0:0:
256,192,6199,128,0,6665:0:0:0:0:
329,192,6199,128,0,6665:0:0:0:0:
402,192,6199,128,0,6665:0:0:0:0:
109,192,6732,128,0,7730:0:0:0:0:
182,192,6732,128,0,7730:0:0:0:0:
329,192,6732,128,0,7730:0:0:0:0:
402,192,6732,128,0,7730:0:0:0:0:
475,192,6732,128,0,7730:0:0:0:0:
36,192,7796,128,0,8795:0:0:0:0:
109,192,7796,128,0,8795:0:0:0:0:
256,192,7796,128,0,8795:0:0:0:0:
475,192,7796,128,0,8795:0:0:0:0:
402,192,7796,128,0,8795:0:0:0:0:
36,192,8861,1,0,0:0:0:0:
109,192,8861,1,0,0:0:0:0:
256,192,8861,1,0,0:0:0:0:
402,192,8861,1,0,0:0:0:0:
475,192,8861,1,0,0:0:0:0:
182,192,9039,1,0,0:0:0:0:
329,192,9039,1,0,0:0:0:0:
256,192,9216,1,0,0:0:0:0:
109,192,9216,1,0,0:0:0:0:
36,192,9216,1,0,0:0:0:0:
182,192,9394,128,0,10459:0:0:0:0:
329,192,9793,128,0,10459:0:0:0:0:
36,192,10459,1,0,0:0:0:0:
475,192,10459,1,0,0:0:0:0:
109,192,10459,1,0,0:0:0:0:
402,192,10459,1,0,0:0:0:0:
256,192,10459,1,0,0:0:0:0:
475,192,10591,1,0,0:0:0:0:
36,192,10591,1,0,0:0:0:0:
182,192,10591,1,0,0:0:0:0:
329,192,10591,1,0,0:0:0:0:
402,192,10658,1,0,0:0:0:0:
109,192,10658,1,0,0:0:0:0:
36,192,10725,1,0,0:0:0:0:
475,192,10725,1,0,0:0:0:0:
256,192,10725,1,0,0:0:0:0:
182,192,10725,1,0,0:0:0:0:
329,192,10725,1,0,0:0:0:0:
109,192,10858,1,0,0:0:0:0:
402,192,10858,1,0,0:0:0:0:
36,192,10858,1,0,0:0:0:0:
475,192,10858,1,0,0:0:0:0:
182,192,10924,1,0,0:0:0:0:
329,192,10924,1,0,0:0:0:0:
36,192,10991,1,0,0:0:0:0:
475,192,10991,1,0,0:0:0:0:
256,192,10991,1,0,0:0:0:0:
109,192,10991,1,0,0:0:0:0:
402,192,10991,1,0,0:0:0:0:
36,192,11124,1,0,0:0:0:0:
256,192,11124,1,0,0:0:0:0:
475,192,11124,1,0,0:0:0:0:
109,192,11191,1,0,0:0:0:0:
329,192,11191,1,0,0:0:0:0:
182,192,11257,1,0,0:0:0:0:
475,192,11257,1,0,0:0:0:0:
402,192,11257,1,0,0:0:0:0:
36,192,11257,1,0,0:0:0:0:
329,192,11324,1,0,0:0:0:0:
36,192,11390,1,0,0:0:0:0:
256,192,11390,1,0,0:0:0:0:
475,192,11390,1,0,0:0:0:0:
402,192,11457,1,0,0:0:0:0:
182,192,11457,1,0,0:0:0:0:
475,192,11524,1,0,0:0:0:0:
109,192,11524,1,0,0:0:0:0:
36,192,11524,1,0,0:0:0:0:
329,192,11524,1,0,0:0:0:0:
256,192,11590,1,0,0:0:0:0:
182,192,11656,1,0,0:0:0:0:
109,192,11656,1,0,0:0:0:0:
402,192,11656,1,0,0:0:0:0:
475,192,11656,1,0,0:0:0:0:
329,192,11723,1,0,0:0:0:0:
475,192,11789,1,0,0:0:0:0:
256,192,11789,1,0,0:0:0:0:
182,192,11789,1,0,0:0:0:0:
36,192,11789,1,0,0:0:0:0:
402,192,11856,1,0,0:0:0:0:
475,192,11923,1,0,0:0:0:0:
329,192,11923,1,0,0:0:0:0:
256,192,11923,1,0,0:0:0:0:
109,192,11923,1,0,0:0:0:0:
36,192,11923,1,0,0:0:0:0:
109,192,12056,1,0,0:0:0:0:
36,192,12056,1,0,0:0:0:0:
256,192,12056,1,0,0:0:0:0:
329,192,12122,1,0,0:0:0:0:
182,192,12122,1,0,0:0:0:0:
256,192,12189,1,0,0:0:0:0:
475,192,12189,1,0,0:0:0:0:
402,192,12189,1,0,0:0:0:0:
36,192,12189,1,0,0:0:0:0:
109,192,12256,1,0,0:0:0:0:
329,192,12256,1,0,0:0:0:0:
36,192,12322,1,0,0:0:0:0:
475,192,12322,1,0,0:0:0:0:
182,192,12322,1,0,0:0:0:0:
402,192,12322,1,0,0:0:0:0:
475,192,12455,1,0,0:0:0:0:
256,192,12455,1,0,0:0:0:0:
402,192,12455,1,0,0:0:0:0:
182,192,12521,1,0,0:0:0:0:
329,192,12521,1,0,0:0:0:0:
36,192,12588,1,0,0:0:0:0:
475,192,12588,1,0,0:0:0:0:
109,192,12588,1,0,0:0:0:0:
256,192,12588,1,0,0:0:0:0:
402,192,12721,1,0,0:0:0:0:
329,192,12721,1,0,0:0:0:0:
182,192,12721,1,0,0:0:0:0:
256,192,12788,1,0,0:0:0:0:
109,192,12788,1,0,0:0:0:0:
475,192,12854,1,0,0:0:0:0:
36,192,12854,1,0,0:0:0:0:
182,192,12854,1,0,0:0:0:0:
402,192,12854,1,0,0:0:0:0:
36,192,12987,1,0,0:0:0:0:
182,192,12987,1,0,0:0:0:0:
109,192,13054,1,0,0:0:0:0:
256,192,13054,1,0,0:0:0:0:
475,192,13121,1,0,0:0:0:0:
36,192,13121,1,0,0:0:0:0:
329,192,13121,1,0,0:0:0:0:
182,192,13121,1,0,0:0:0:0:
402,192,13187,1,0,0:0:0:0:
36,192,13254,1,0,0:0:0:0:
329,192,13254,1,0,0:0:0:0:
109,192,13254,1,0,0:0:0:0:
402,192,13320,1,0,0:0:0:0:
182,192,13320,1,0,0:0:0:0:
256,192,13386,1,0,0:0:0:0:
36,192,13386,1,0,0:0:0:0:
475,192,13386,1,0,0:0:0:0:
329,192,13386,1,0,0:0:0:0:
109,192,13454,1,0,0:0:0:0:
182,192,13520,1,0,0:0:0:0:
402,192,13520,1,0,0:0:0:0:
109,192,13586,1,0,0:0:0:0:
329,192,13586,1,0,0:0:0:0:
475,192,13653,1,0,0:0:0:0:
36,192,13653,1,0,0:0:0:0:
256,192,13653,1,0,0:0:0:0:
182,192,13653,1,0,0:0:0:0:
402,192,13719,1,0,0:0:0:0:
329,192,13786,1,0,0:0:0:0:
256,192,13786,1,0,0:0:0:0:
109,192,13786,1,0,0:0:0:0:
36,192,13786,1,0,0:0:0:0:
475,192,13853,1,0,0:0:0:0:
402,192,13919,1,0,0:0:0:0:
329,192,13919,1,0,0:0:0:0:
182,192,13919,1,0,0:0:0:0:
109,192,13919,1,0,0:0:0:0:
36,192,13986,1,0,0:0:0:0:
475,192,14052,1,0,0:0:0:0:
182,192,14052,1,0,0:0:0:0:
256,192,14052,1,0,0:0:0:0:
402,192,14052,1,0,0:0:0:0:
36,192,14185,1,0,0:0:0:0:
109,192,14185,1,0,0:0:0:0:
329,192,14185,1,0,0:0:0:0:
182,192,14252,1,0,0:0:0:0:
402,192,14252,1,0,0:0:0:0:
475,192,14319,1,0,0:0:0:0:
256,192,14319,1,0,0:0:0:0:
36,192,14319,1,0,0:0:0:0:
109,192,14385,1,0,0:0:0:0:
329,192,14385,1,0,0:0:0:0:
475,192,14451,1,0,0:0:0:0:
36,192,14451,1,0,0:0:0:0:
402,192,14451,1,0,0:0:0:0:
182,192,14451,1,0,0:0:0:0:
109,192,14518,1,0,0:0:0:0:
256,192,14518,1,0,0:0:0:0:
329,192,14518,1,0,0:0:0:0:
475,192,14584,1,0,0:0:0:0:
36,192,14584,1,0,0:0:0:0:
182,192,14584,1,0,0:0:0:0:
402,192,14584,1,0,0:0:0:0:
256,192,14718,1,0,0:0:0:0:
109,192,14718,1,0,0:0:0:0:
402,192,14718,1,0,0:0:0:0:
329,192,14784,1,0,0:0:0:0:
182,192,14784,1,0,0:0:0:0:
256,192,14851,1,0,0:0:0:0:
36,192,14851,1,0,0:0:0:0:
475,192,14851,1,0,0:0:0:0:
182,192,14917,1,0,0:0:0:0:
329,192,14917,1,0,0:0:0:0:
256,192,14984,1,0,0:0:0:0:
475,192,14984,1,0,0:0:0:0:
36,192,14984,1,0,0:0:0:0:
109,192,15051,1,0,0:0:0:0:
402,192,15051,1,0,0:0:0:0:
182,192,15117,1,0,0:0:0:0:
256,192,15117,1,0,0:0:0:0:
329,192,15117,1,0,0:0:0:0:
109,192,15184,1,0,0:0:0:0:
402,192,15184,1,0,0:0:0:0:
475,192,15250,1,0,0:0:0:0:
36,192,15250,1,0,0:0:0:0:
182,192,15250,1,0,0:0:0:0:
329,192,15250,1,0,0:0:0:0:
256,192,15250,1,0,0:0:0:0:
109,192,15316,1,0,0:0:0:0:
329,192,15383,1,0,0:0:0:0:
402,192,15383,1,0,0:0:0:0:
475,192,15383,1,0,0:0:0:0:
182,192,15383,1,0,0:0:0:0:
36,192,15450,1,0,0:0:0:0:
109,192,15516,1,0,0:0:0:0:
256,192,15516,1,0,0:0:0:0:
329,192,15516,1,0,0:0:0:0:
402,192,15516,1,0,0:0:0:0:
475,192,15583,1,0,0:0:0:0:
182,192,15649,1,0,0:0:0:0:
256,192,15649,1,0,0:0:0:0:
329,192,15649,1,0,0:0:0:0:
36,192,15649,1,0,0:0:0:0:
36,192,15916,1,0,0:0:0:0:
109,192,15916,1,0,0:0:0:0:
329,192,15916,1,0,0:0:0:0:
475,192,15916,1,0,0:0:0:0:
256,192,15982,1,0,0:0:0:0:
36,192,16049,1,0,0:0:0:0:
402,192,16049,1,0,0:0:0:0:
475,192,16049,1,0,0:0:0:0:
182,192,16049,1,0,0:0:0:0:
256,192,16115,1,0,0:0:0:0:
329,192,16181,1,0,0:0:0:0:
109,192,16181,1,0,0:0:0:0:
475,192,16181,1,0,0:0:0:0:
36,192,16181,1,0,0:0:0:0:
182,192,16448,1,0,0:0:0:0:
475,192,16448,1,0,0:0:0:0:
402,192,16448,1,0,0:0:0:0:
36,192,16448,1,0,0:0:0:0:
256,192,16514,1,0,0:0:0:0:
36,192,16581,1,0,0:0:0:0:
109,192,16581,1,0,0:0:0:0:
329,192,16581,1,0,0:0:0:0:
475,192,16581,1,0,0:0:0:0:
256,192,16648,1,0,0:0:0:0:
36,192,16714,1,0,0:0:0:0:
182,192,16714,1,0,0:0:0:0:
402,192,16714,1,0,0:0:0:0:
475,192,16714,1,0,0:0:0:0:
475,192,16980,1,0,0:0:0:0:
36,192,16980,1,0,0:0:0:0:
182,192,16980,1,0,0:0:0:0:
329,192,16980,1,0,0:0:0:0:
109,192,17047,1,0,0:0:0:0:
256,192,17047,1,0,0:0:0:0:
402,192,17047,1,0,0:0:0:0:
475,192,17114,1,0,0:0:0:0:
36,192,17114,1,0,0:0:0:0:
182,192,17114,1,0,0:0:0:0:
329,192,17114,1,0,0:0:0:0:
109,192,17180,1,0,0:0:0:0:
402,192,17180,1,0,0:0:0:0:
182,192,17246,1,0,0:0:0:0:
329,192,17246,1,0,0:0:0:0:
256,192,17246,1,0,0:0:0:0:
402,192,17313,1,0,0:0:0:0:
109,192,17313,1,0,0:0:0:0:
475,192,17379,1,0,0:0:0:0:
36,192,17379,1,0,0:0:0:0:
182,192,17379,1,0,0:0:0:0:
329,192,17379,1,0,0:0:0:0:
256,192,17379,1,0,0:0:0:0:
109,192,17446,1,0,0:0:0:0:
182,192,17513,1,0,0:0:0:0:
475,192,17513,1,0,0:0:0:0:
402,192,17513,1,0,0:0:0:0:
109,192,17579,1,0,0:0:0:0:
329,192,17579,1,0,0:0:0:0:
475,192,17646,1,0,0:0:0:0:
36,192,17646,1,0,0:0:0:0:
256,192,17646,1,0,0:0:0:0:
182,192,17712,1,0,0:0:0:0:
329,192,17779,1,0,0:0:0:0:
475,192,17779,1,0,0:0:0:0:
36,192,17779,1,0,0:0:0:0:
109,192,17846,1,0,0:0:0:0:
402,192,17846,1,0,0:0:0:0:
256,192,17846,1,0,0:0:0:0:
182,192,17912,1,0,0:0:0:0:
36,192,17912,1,0,0:0:0:0:
475,192,17912,1,0,0:0:0:0:
329,192,17912,1,0,0:0:0:0:
402,192,18045,1,0,0:0:0:0:
182,192,18045,1,0,0:0:0:0:
256,192,18045,1,0,0:0:0:0:
36,192,18045,1,0,0:0:0:0:
182,192,18178,1,0,0:0:0:0:
109,192,18178,1,0,0:0:0:0:
329,192,18178,1,0,0:0:0:0:
475,192,18178,1,0,0:0:0:0:
256,192,18311,1,0,0:0:0:0:
109,192,18311,1,0,0:0:0:0:
36,192,18311,1,0,0:0:0:0:
402,192,18311,1,0,0:0:0:0:
475,192,18311,1,0,0:0:0:0:
475,192,18844,1,0,0:0:0:0:
256,192,18844,1,0,0:0:0:0:
402,192,18844,1,0,0:0:0:0:
36,192,18976,1,0,0:0:0:0:
109,192,19010,1,0,0:0:0:0:
182,192,19044,1,0,0:0:0:0:
256,192,19076,1,0,0:0:0:0:
329,192,19110,1,0,0:0:0:0:
475,192,19110,1,0,0:0:0:0:
256,192,19143,1,0,0:0:0:0:
182,192,19176,1,0,0:0:0:0:
109,192,19210,1,0,0:0:0:0:
402,192,19243,1,0,0:0:0:0:
36,192,19243,1,0,0:0:0:0:
329,192,19276,1,0,0:0:0:0:
256,192,19309,1,0,0:0:0:0:
182,192,19343,1,0,0:0:0:0:
475,192,19376,1,0,0:0:0:0:
109,192,19376,1,0,0:0:0:0:
402,192,19409,1,0,0:0:0:0:
329,192,19443,1,0,0:0:0:0:
256,192,19476,1,0,0:0:0:0:
475,192,19509,1,0,0:0:0:0:
36,192,19509,1,0,0:0:0:0:
182,192,19509,1,0,0:0:0:0:
109,192,19642,1,0,0:0:0:0:
182,192,19775,1,0,0:0:0:0:
402,192,19775,1,0,0:0:0:0:
475,192,19775,1,0,0:0:0:0:
256,192,19909,1,0,0:0:0:0:
402,192,19909,1,0,0:0:0:0:
329,192,19909,1,0,0:0:0:0:
109,192,20174,1,0,0:0:0:0:
402,192,20174,1,0,0:0:0:0:
475,192,20174,1,0,0:0:0:0:
182,192,20308,1,0,0:0:0:0:
256,192,20441,1,0,0:0:0:0:
402,192,20441,1,0,0:0:0:0:
329,192,20441,1,0,0:0:0:0:
36,192,20574,1,0,0:0:0:0:
182,192,20574,1,0,0:0:0:0:
109,192,20707,1,0,0:0:0:0:
182,192,20840,1,0,0:0:0:0:
402,192,20840,1,0,0:0:0:0:
475,192,20840,1,0,0:0:0:0:
256,192,20973,1,0,0:0:0:0:
402,192,20973,1,0,0:0:0:0:
329,192,20973,1,0,0:0:0:0:
109,192,21239,1,0,0:0:0:0:
402,192,21239,1,0,0:0:0:0:
475,192,21239,1,0,0:0:0:0:
182,192,21372,1,0,0:0:0:0:
256,192,21506,1,0,0:0:0:0:
329,192,21506,1,0,0:0:0:0:
402,192,21506,1,0,0:0:0:0:
36,192,21639,1,0,0:0:0:0:
182,192,21639,1,0,0:0:0:0:
402,192,21639,1,0,0:0:0:0:
475,192,21639,1,0,0:0:0:0:
109,192,21771,1,0,0:0:0:0:
182,192,21905,1,0,0:0:0:0:
256,192,22038,1,0,0:0:0:0:
402,192,22038,1,0,0:0:0:0:
475,192,22038,1,0,0:0:0:0:
402,192,22171,1,0,0:0:0:0:
329,192,22171,1,0,0:0:0:0:
109,192,22304,1,0,0:0:0:0:
182,192,22437,1,0,0:0:0:0:
256,192,22571,1,0,0:0:0:0:
36,192,22704,1,0,0:0:0:0:
182,192,22704,1,0,0:0:0:0:
109,192,22836,1,0,0:0:0:0:
182,192,22970,1,0,0:0:0:0:
256,192,23103,1,0,0:0:0:0:
109,192,23369,1,0,0:0:0:0:
182,192,23502,1,0,0:0:0:0:
256,192,23635,1,0,0:0:0:0:
475,192,23769,1,0,0:0:0:0:
329,192,23769,1,0,0:0:0:0:
402,192,23901,1,0,0:0:0:0:
329,192,24034,1,0,0:0:0:0:
109,192,24034,1,0,0:0:0:0:
182,192,24034,1,0,0:0:0:0:
256,192,24168,1,0,0:0:0:0:
109,192,24168,1,0,0:0:0:0:
36,192,24168,1,0,0:0:0:0:
402,192,24434,1,0,0:0:0:0:
109,192,24434,1,0,0:0:0:0:
182,192,24434,1,0,0:0:0:0:
329,192,24567,1,0,0:0:0:0:
256,192,24700,1,0,0:0:0:0:
109,192,24700,1,0,0:0:0:0:
36,192,24700,1,0,0:0:0:0:
475,192,24833,1,0,0:0:0:0:
329,192,24833,1,0,0:0:0:0:
402,192,24966,1,0,0:0:0:0:
329,192,25099,1,0,0:0:0:0:
109,192,25099,1,0,0:0:0:0:
182,192,25099,1,0,0:0:0:0:
256,192,25232,1,0,0:0:0:0:
109,192,25232,1,0,0:0:0:0:
36,192,25232,1,0,0:0:0:0:
402,192,25499,1,0,0:0:0:0:
109,192,25499,1,0,0:0:0:0:
182,192,25499,1,0,0:0:0:0:
329,192,25631,1,0,0:0:0:0:
256,192,25765,1,0,0:0:0:0:
109,192,25765,1,0,0:0:0:0:
36,192,25765,1,0,0:0:0:0:
475,192,25898,1,0,0:0:0:0:
329,192,25898,1,0,0:0:0:0:
402,192,26031,1,0,0:0:0:0:
329,192,26164,1,0,0:0:0:0:
109,192,26164,1,0,0:0:0:0:
182,192,26164,1,0,0:0:0:0:
256,192,26297,1,0,0:0:0:0:
109,192,26297,1,0,0:0:0:0:
36,192,26297,1,0,0:0:0:0:
402,192,26564,1,0,0:0:0:0:
109,192,26564,1,0,0:0:0:0:
182,192,26564,1,0,0:0:0:0:
329,192,26696,1,0,0:0:0:0:
256,192,26829,1,0,0:0:0:0:
109,192,26829,1,0,0:0:0:0:
36,192,26829,1,0,0:0:0:0:
329,192,26963,128,0,27429:0:0:0:0:
475,192,26963,128,0,27429:0:0:0:0:
182,192,27362,128,0,27429:0:0:0:0:
36,192,27362,128,0,27429:0:0:0:0:
36,192,27495,1,0,0:0:0:0:
182,192,27495,1,0,0:0:0:0:
329,192,27495,1,0,0:0:0:0:
475,192,27495,1,0,0:0:0:0:
109,192,27561,1,0,0:0:0:0:
402,192,27561,1,0,0:0:0:0:
182,192,27628,1,0,0:0:0:0:
329,192,27628,1,0,0:0:0:0:
256,192,27628,1,0,0:0:0:0:
109,192,27694,1,0,0:0:0:0:
402,192,27694,1,0,0:0:0:0:
36,192,27761,1,0,0:0:0:0:
475,192,27761,1,0,0:0:0:0:
182,192,27761,1,0,0:0:0:0:
329,192,27761,1,0,0:0:0:0:
109,192,27894,1,0,0:0:0:0:
182,192,27894,1,0,0:0:0:0:
329,192,27894,1,0,0:0:0:0:
402,192,27894,1,0,0:0:0:0:
36,192,28027,1,0,0:0:0:0:
182,192,28027,1,0,0:0:0:0:
256,192,28027,1,0,0:0:0:0:
329,192,28027,1,0,0:0:0:0:
475,192,28027,1,0,0:0:0:0:
109,192,28094,1,0,0:0:0:0:
182,192,28161,1,0,0:0:0:0:
329,192,28161,1,0,0:0:0:0:
475,192,28161,1,0,0:0:0:0:
109,192,28227,1,0,0:0:0:0:
256,192,28227,1,0,0:0:0:0:
36,192,28294,1,0,0:0:0:0:
475,192,28294,1,0,0:0:0:0:
182,192,28294,1,0,0:0:0:0:
402,192,28294,1,0,0:0:0:0:
256,192,28360,1,0,0:0:0:0:
329,192,28426,1,0,0:0:0:0:
109,192,28426,1,0,0:0:0:0:
36,192,28426,1,0,0:0:0:0:
475,192,28426,1,0,0:0:0:0:
182,192,28493,1,0,0:0:0:0:
256,192,28493,1,0,0:0:0:0:
475,192,28560,1,0,0:0:0:0:
36,192,28560,1,0,0:0:0:0:
402,192,28560,1,0,0:0:0:0:
329,192,28560,1,0,0:0:0:0:
256,192,28626,1,0,0:0:0:0:
182,192,28693,1,0,0:0:0:0:
36,192,28693,1,0,0:0:0:0:
402,192,28693,1,0,0:0:0:0:
475,192,28693,1,0,0:0:0:0:
329,192,28759,1,0,0:0:0:0:
109,192,28759,1,0,0:0:0:0:
256,192,28826,1,0,0:0:0:0:
475,192,28826,1,0,0:0:0:0:
36,192,28826,1,0,0:0:0:0:
402,192,28892,1,0,0:0:0:0:
182,192,28892,1,0,0:0:0:0:
329,192,28959,1,0,0:0:0:0:
109,192,28959,1,0,0:0:0:0:
36,192,28959,1,0,0:0:0:0:
475,192,28959,1,0,0:0:0:0:
182,192,29026,1,0,0:0:0:0:
256,192,29026,1,0,0:0:0:0:
36,192,29092,1,0,0:0:0:0:
109,192,29092,1,0,0:0:0:0:
475,192,29092,1,0,0:0:0:0:
329,192,29092,1,0,0:0:0:0:
402,192,29159,1,0,0:0:0:0:
329,192,29225,1,0,0:0:0:0:
182,192,29225,1,0,0:0:0:0:
36,192,29225,1,0,0:0:0:0:
402,192,29291,1,0,0:0:0:0:
256,192,29291,1,0,0:0:0:0:
475,192,29359,1,0,0:0:0:0:
36,192,29359,1,0,0:0:0:0:
329,192,29359,1,0,0:0:0:0:
109,192,29359,1,0,0:0:0:0:
256,192,29425,1,0,0:0:0:0:
182,192,29491,1,0,0:0:0:0:
402,192,29491,1,0,0:0:0:0:
475,192,29491,1,0,0:0:0:0:
36,192,29491,1,0,0:0:0:0:
329,192,29558,1,0,0:0:0:0:
256,192,29558,1,0,0:0:0:0:
36,192,29624,1,0,0:0:0:0:
475,192,29624,1,0,0:0:0:0:
109,192,29624,1,0,0:0:0:0:
182,192,29624,1,0,0:0:0:0:
256,192,29691,1,0,0:0:0:0:
329,192,29758,1,0,0:0:0:0:
475,192,29758,1,0,0:0:0:0:
109,192,29758,1,0,0:0:0:0:
36,192,29758,1,0,0:0:0:0:
182,192,29824,1,0,0:0:0:0:
402,192,29824,1,0,0:0:0:0:
256,192,29891,1,0,0:0:0:0:
36,192,29891,1,0,0:0:0:0:
475,192,29891,1,0,0:0:0:0:
109,192,29957,1,0,0:0:0:0:
329,192,29957,1,0,0:0:0:0:
182,192,30024,1,0,0:0:0:0:
402,192,30024,1,0,0:0:0:0:
475,192,30024,1,0,0:0:0:0:
36,192,30024,1,0,0:0:0:0:
329,192,30090,1,0,0:0:0:0:
256,192,30090,1,0,0:0:0:0:
475,192,30157,1,0,0:0:0:0:
402,192,30157,1,0,0:0:0:0:
36,192,30157,1,0,0:0:0:0:
109,192,30157,1,0,0:0:0:0:
329,192,30224,1,0,0:0:0:0:
256,192,30290,1,0,0:0:0:0:
109,192,30290,1,0,0:0:0:0:
36,192,30290,1,0,0:0:0:0:
182,192,30356,1,0,0:0:0:0:
329,192,30356,1,0,0:0:0:0:
402,192,30423,1,0,0:0:0:0:
475,192,30423,1,0,0:0:0:0:
256,192,30423,1,0,0:0:0:0:
36,192,30423,1,0,0:0:0:0:
182,192,30489,1,0,0:0:0:0:
109,192,30556,1,0,0:0:0:0:
36,192,30556,1,0,0:0:0:0:
329,192,30556,1,0,0:0:0:0:
402,192,30556,1,0,0:0:0:0:
256,192,30623,1,0,0:0:0:0:
109,192,30689,1,0,0:0:0:0:
182,192,30689,1,0,0:0:0:0:
475,192,30689,1,0,0:0:0:0:
402,192,30689,1,0,0:0:0:0:
329,192,30756,1,0,0:0:0:0:
256,192,30822,1,0,0:0:0:0:
36,192,30822,1,0,0:0:0:0:
109,192,30822,1,0,0:0:0:0:
475,192,30822,1,0,0:0:0:0:
182,192,30889,1,0,0:0:0:0:
329,192,30889,1,0,0:0:0:0:
256,192,30956,1,0,0:0:0:0:
402,192,30956,1,0,0:0:0:0:
475,192,30956,1,0,0:0:0:0:
36,192,30956,1,0,0:0:0:0:
109,192,30956,1,0,0:0:0:0:
182,192,31022,1,0,0:0:0:0:
329,192,31022,1,0,0:0:0:0:
256,192,31089,1,0,0:0:0:0:
475,192,31089,1,0,0:0:0:0:
36,192,31089,1,0,0:0:0:0:
402,192,31155,1,0,0:0:0:0:
109,192,31155,1,0,0:0:0:0:
36,192,31221,1,0,0:0:0:0:
475,192,31221,1,0,0:0:0:0:
256,192,31221,1,0,0:0:0:0:
329,192,31221,1,0,0:0:0:0:
182,192,31221,1,0,0:0:0:0:
402,192,31288,1,0,0:0:0:0:
329,192,31355,1,0,0:0:0:0:
109,192,31355,1,0,0:0:0:0:
36,192,31355,1,0,0:0:0:0:
402,192,31421,1,0,0:0:0:0:
182,192,31421,1,0,0:0:0:0:
475,192,31488,1,0,0:0:0:0:
36,192,31488,1,0,0:0:0:0:
256,192,31488,1,0,0:0:0:0:
329,192,31488,1,0,0:0:0:0:
109,192,31554,1,0,0:0:0:0:
182,192,31621,1,0,0:0:0:0:
475,192,31621,1,0,0:0:0:0:
329,192,31621,1,0,0:0:0:0:
256,192,31687,1,0,0:0:0:0:
109,192,31687,1,0,0:0:0:0:
402,192,31687,1,0,0:0:0:0:
475,192,31754,1,0,0:0:0:0:
182,192,31754,1,0,0:0:0:0:
36,192,31754,1,0,0:0:0:0:
329,192,31754,1,0,0:0:0:0:
402,192,31821,1,0,0:0:0:0:
329,192,31887,1,0,0:0:0:0:
109,192,31887,1,0,0:0:0:0:
36,192,31887,1,0,0:0:0:0:
402,192,31954,1,0,0:0:0:0:
182,192,31954,1,0,0:0:0:0:
475,192,32020,1,0,0:0:0:0:
256,192,32020,1,0,0:0:0:0:
36,192,32020,1,0,0:0:0:0:
329,192,32020,1,0,0:0:0:0:
182,192,32086,1,0,0:0:0:0:
402,192,32086,1,0,0:0:0:0:
109,192,32154,1,0,0:0:0:0:
329,192,32154,1,0,0:0:0:0:
475,192,32154,1,0,0:0:0:0:
36,192,32220,1,0,0:0:0:0:
256,192,32220,1,0,0:0:0:0:
182,192,32286,1,0,0:0:0:0:
402,192,32286,1,0,0:0:0:0:
475,192,32286,1,0,0:0:0:0:
329,192,32286,1,0,0:0:0:0:
109,192,32353,1,0,0:0:0:0:
36,192,32419,1,0,0:0:0:0:
256,192,32419,1,0,0:0:0:0:
475,192,32419,1,0,0:0:0:0:
182,192,32486,1,0,0:0:0:0:
402,192,32486,1,0,0:0:0:0:
109,192,32553,1,0,0:0:0:0:
329,192,32553,1,0,0:0:0:0:
36,192,32553,1,0,0:0:0:0:
256,192,32619,1,0,0:0:0:0:
36,192,32686,1,0,0:0:0:0:
182,192,32686,1,0,0:0:0:0:
475,192,32686,1,0,0:0:0:0:
402,192,32686,1,0,0:0:0:0:
256,192,32752,1,0,0:0:0:0:
109,192,32752,1,0,0:0:0:0:
329,192,32819,1,0,0:0:0:0:
182,192,32819,1,0,0:0:0:0:
475,192,32819,1,0,0:0:0:0:
109,192,32886,1,0,0:0:0:0:
36,192,32952,1,0,0:0:0:0:
475,192,32952,1,0,0:0:0:0:
256,192,32952,1,0,0:0:0:0:
402,192,32952,1,0,0:0:0:0:
182,192,33019,1,0,0:0:0:0:
329,192,33019,1,0,0:0:0:0:
109,192,33085,1,0,0:0:0:0:
36,192,33085,1,0,0:0:0:0:
256,192,33085,1,0,0:0:0:0:
475,192,33085,1,0,0:0:0:0:
402,192,33085,1,0,0:0:0:0:
182,192,33151,1,0,0:0:0:0:
329,192,33151,1,0,0:0:0:0:
256,192,33218,1,0,0:0:0:0:
36,192,33218,1,0,0:0:0:0:
475,192,33218,1,0,0:0:0:0:
109,192,33285,1,0,0:0:0:0:
402,192,33285,1,0,0:0:0:0:
36,192,33351,1,0,0:0:0:0:
256,192,33351,1,0,0:0:0:0:
182,192,33351,1,0,0:0:0:0:
329,192,33351,1,0,0:0:0:0:
475,192,33351,1,0,0:0:0:0:
109,192,33418,1,0,0:0:0:0:
36,192,33484,1,0,0:0:0:0:
256,192,33484,1,0,0:0:0:0:
475,192,33484,1,0,0:0:0:0:
182,192,33551,1,0,0:0:0:0:
402,192,33551,1,0,0:0:0:0:
109,192,33617,1,0,0:0:0:0:
329,192,33617,1,0,0:0:0:0:
36,192,33617,1,0,0:0:0:0:
475,192,33617,1,0,0:0:0:0:
256,192,33684,1,0,0:0:0:0:
36,192,33751,1,0,0:0:0:0:
182,192,33751,1,0,0:0:0:0:
475,192,33751,1,0,0:0:0:0:
402,192,33751,1,0,0:0:0:0:
256,192,33817,1,0,0:0:0:0:
109,192,33817,1,0,0:0:0:0:
182,192,33884,1,0,0:0:0:0:
329,192,33884,1,0,0:0:0:0:
475,192,33884,1,0,0:0:0:0:
109,192,33950,1,0,0:0:0:0:
36,192,34016,1,0,0:0:0:0:
475,192,34016,1,0,0:0:0:0:
402,192,34016,1,0,0:0:0:0:
256,192,34016,1,0,0:0:0:0:
182,192,34084,1,0,0:0:0:0:
329,192,34084,1,0,0:0:0:0:
109,192,34150,1,0,0:0:0:0:
36,192,34150,1,0,0:0:0:0:
256,192,34150,1,0,0:0:0:0:
475,192,34150,1,0,0:0:0:0:
402,192,34150,1,0,0:0:0:0:
182,192,34216,1,0,0:0:0:0:
329,192,34216,1,0,0:0:0:0:
256,192,34283,1,0,0:0:0:0:
109,192,34283,1,0,0:0:0:0:
402,192,34283,1,0,0:0:0:0:
329,192,34349,1,0,0:0:0:0:
182,192,34349,1,0,0:0:0:0:
36,192,34416,1,0,0:0:0:0:
475,192,34416,1,0,0:0:0:0:
109,192,34416,1,0,0:0:0:0:
256,192,34416,1,0,0:0:0:0:
402,192,34416,1,0,0:0:0:0:
182,192,34483,1,0,0:0:0:0:
36,192,34549,1,0,0:0:0:0:
109,192,34549,1,0,0:0:0:0:
329,192,34549,1,0,0:0:0:0:
402,192,34549,1,0,0:0:0:0:
256,192,34616,1,0,0:0:0:0:
182,192,34682,1,0,0:0:0:0:
109,192,34682,1,0,0:0:0:0:
402,192,34682,1,0,0:0:0:0:
475,192,34682,1,0,0:0:0:0:
329,192,34749,1,0,0:0:0:0:
256,192,34815,1,0,0:0:0:0:
182,192,34815,1,0,0:0:0:0:
475,192,34815,1,0,0:0:0:0:
36,192,34815,1,0,0:0:0:0:
109,192,34882,1,0,0:0:0:0:
329,192,34882,1,0,0:0:0:0:
402,192,34882,1,0,0:0:0:0:
36,192,34949,1,0,0:0:0:0:
256,192,34949,1,0,0:0:0:0:
475,192,34949,1,0,0:0:0:0:
182,192,35015,1,0,0:0:0:0:
109,192,35081,1,0,0:0:0:0:
36,192,35081,1,0,0:0:0:0:
475,192,35081,1,0,0:0:0:0:
329,192,35081,1,0,0:0:0:0:
256,192,35148,1,0,0:0:0:0:
182,192,35214,1,0,0:0:0:0:
109,192,35214,1,0,0:0:0:0:
402,192,35214,1,0,0:0:0:0:
475,192,35214,1,0,0:0:0:0:
329,192,35281,1,0,0:0:0:0:
256,192,35348,1,0,0:0:0:0:
182,192,35348,1,0,0:0:0:0:
475,192,35348,1,0,0:0:0:0:
36,192,35348,1,0,0:0:0:0:
402,192,35414,1,0,0:0:0:0:
36,192,35481,1,0,0:0:0:0:
475,192,35481,1,0,0:0:0:0:
329,192,35481,1,0,0:0:0:0:
256,192,35481,1,0,0:0:0:0:
402,192,35547,1,0,0:0:0:0:
109,192,35547,1,0,0:0:0:0:
329,192,35614,1,0,0:0:0:0:
182,192,35614,1,0,0:0:0:0:
256,192,35614,1,0,0:0:0:0:
109,192,35681,1,0,0:0:0:0:
402,192,35681,1,0,0:0:0:0:
36,192,35747,1,0,0:0:0:0:
182,192,35747,1,0,0:0:0:0:
475,192,35747,1,0,0:0:0:0:
329,192,35747,1,0,0:0:0:0:
402,192,35814,1,0,0:0:0:0:
256,192,35814,1,0,0:0:0:0:
36,192,35880,1,0,0:0:0:0:
109,192,35880,1,0,0:0:0:0:
475,192,35880,1,0,0:0:0:0:
329,192,35880,1,0,0:0:0:0:
402,192,35946,1,0,0:0:0:0:
256,192,35946,1,0,0:0:0:0:
475,192,36013,1,0,0:0:0:0:
182,192,36013,1,0,0:0:0:0:
36,192,36013,1,0,0:0:0:0:
329,192,36013,1,0,0:0:0:0:
109,192,36080,1,0,0:0:0:0:
402,192,36080,1,0,0:0:0:0:
182,192,36146,1,0,0:0:0:0:
256,192,36146,1,0,0:0:0:0:
329,192,36146,1,0,0:0:0:0:
109,192,36213,1,0,0:0:0:0:
402,192,36213,1,0,0:0:0:0:
36,192,36279,1,0,0:0:0:0:
475,192,36279,1,0,0:0:0:0:
329,192,36279,1,0,0:0:0:0:
256,192,36279,1,0,0:0:0:0:
329,192,36412,1,0,0:0:0:0:
402,192,36412,1,0,0:0:0:0:
182,192,36412,1,0,0:0:0:0:
109,192,36412,1,0,0:0:0:0:
475,192,36546,1,0,0:0:0:0:
36,192,36546,1,0,0:0:0:0:
109,192,36546,1,0,0:0:0:0:
402,192,36546,1,0,0:0:0:0:
256,192,36546,1,0,0:0:0:0:
329,192,36811,1,0,0:0:0:0:
475,192,36811,1,0,0:0:0:0:
182,192,36811,1,0,0:0:0:0:
402,192,37078,1,0,0:0:0:0:
256,192,37078,1,0,0:0:0:0:
475,192,37078,1,0,0:0:0:0:
329,192,37211,1,0,0:0:0:0:
182,192,37211,1,0,0:0:0:0:
109,192,37344,1,0,0:0:0:0:
36,192,37344,1,0,0:0:0:0:
256,192,37344,1,0,0:0:0:0:
182,192,37477,1,0,0:0:0:0:
329,192,37477,1,0,0:0:0:0:
256,192,37610,1,0,0:0:0:0:
475,192,37610,1,0,0:0:0:0:
36,192,37610,1,0,0:0:0:0:
402,192,37610,1,0,0:0:0:0:
36,192,37876,1,0,0:0:0:0:
256,192,37876,1,0,0:0:0:0:
475,192,37876,1,0,0:0:0:0:
402,192,38009,1,0,0:0:0:0:
329,192,38009,1,0,0:0:0:0:
109,192,38143,1,0,0:0:0:0:
182,192,38143,1,0,0:0:0:0:
36,192,38143,1,0,0:0:0:0:
329,192,38276,1,0,0:0:0:0:
402,192,38276,1,0,0:0:0:0:
36,192,38409,1,0,0:0:0:0:
256,192,38409,1,0,0:0:0:0:
475,192,38409,1,0,0:0:0:0:
109,192,38542,1,0,0:0:0:0:
182,192,38542,1,0,0:0:0:0:
329,192,38542,1,0,0:0:0:0:
36,192,38675,1,0,0:0:0:0:
256,192,38675,1,0,0:0:0:0:
402,192,38675,1,0,0:0:0:0:
475,192,38675,1,0,0:0:0:0:
256,192,38941,1,0,0:0:0:0:
402,192,38941,1,0,0:0:0:0:
475,192,38941,1,0,0:0:0:0:
182,192,39074,1,0,0:0:0:0:
329,192,39074,1,0,0:0:0:0:
36,192,39207,1,0,0:0:0:0:
256,192,39207,1,0,0:0:0:0:
109,192,39207,1,0,0:0:0:0:
329,192,39341,1,0,0:0:0:0:
182,192,39341,1,0,0:0:0:0:
256,192,39474,1,0,0:0:0:0:
475,192,39474,1,0,0:0:0:0:
402,192,39474,1,0,0:0:0:0:
182,192,39606,1,0,0:0:0:0:
329,192,39606,1,0,0:0:0:0:
475,192,39740,1,0,0:0:0:0:
109,192,39740,1,0,0:0:0:0:
256,192,39740,1,0,0:0:0:0:
36,192,39740,1,0,0:0:0:0:
36,192,40006,1,0,0:0:0:0:
256,192,40006,1,0,0:0:0:0:
475,192,40006,1,0,0:0:0:0:
182,192,40139,1,0,0:0:0:0:
109,192,40139,1,0,0:0:0:0:
402,192,40272,1,0,0:0:0:0:
475,192,40272,1,0,0:0:0:0:
329,192,40272,1,0,0:0:0:0:
36,192,40405,1,0,0:0:0:0:
256,192,40405,1,0,0:0:0:0:
475,192,40405,1,0,0:0:0:0:
109,192,40472,1,0,0:0:0:0:
329,192,40472,1,0,0:0:0:0:
475,192,40539,1,0,0:0:0:0:
402,192,40539,1,0,0:0:0:0:
182,192,40539,1,0,0:0:0:0:
36,192,40539,1,0,0:0:0:0:
109,192,40671,1,0,0:0:0:0:
402,192,40671,1,0,0:0:0:0:
329,192,40671,1,0,0:0:0:0:
36,192,40804,1,0,0:0:0:0:
475,192,40804,1,0,0:0:0:0:
256,192,40804,1,0,0:0:0:0:
329,192,40804,1,0,0:0:0:0:
182,192,40804,1,0,0:0:0:0:
256,192,40938,1,0,0:0:0:0:
475,192,40938,1,0,0:0:0:0:
109,192,40938,1,0,0:0:0:0:
182,192,41004,1,0,0:0:0:0:
402,192,41004,1,0,0:0:0:0:
329,192,41071,1,0,0:0:0:0:
109,192,41071,1,0,0:0:0:0:
36,192,41071,1,0,0:0:0:0:
475,192,41071,1,0,0:0:0:0:
182,192,41204,1,0,0:0:0:0:
402,192,41204,1,0,0:0:0:0:
36,192,41204,1,0,0:0:0:0:
329,192,41271,1,0,0:0:0:0:
109,192,41271,1,0,0:0:0:0:
36,192,41337,1,0,0:0:0:0:
256,192,41337,1,0,0:0:0:0:
475,192,41337,1,0,0:0:0:0:
402,192,41337,1,0,0:0:0:0:
256,192,41470,1,0,0:0:0:0:
475,192,41470,1,0,0:0:0:0:
109,192,41470,1,0,0:0:0:0:
36,192,41470,1,0,0:0:0:0:
182,192,41536,1,0,0:0:0:0:
402,192,41536,1,0,0:0:0:0:
329,192,41536,1,0,0:0:0:0:
36,192,41603,1,0,0:0:0:0:
109,192,41603,1,0,0:0:0:0:
475,192,41603,1,0,0:0:0:0:
256,192,41603,1,0,0:0:0:0:
329,192,41736,1,0,0:0:0:0:
109,192,41736,1,0,0:0:0:0:
475,192,41736,1,0,0:0:0:0:
182,192,41803,1,0,0:0:0:0:
402,192,41803,1,0,0:0:0:0:
109,192,41869,1,0,0:0:0:0:
475,192,41869,1,0,0:0:0:0:
36,192,41869,1,0,0:0:0:0:
256,192,41869,1,0,0:0:0:0:
36,192,42002,1,0,0:0:0:0:
182,192,42002,1,0,0:0:0:0:
402,192,42002,1,0,0:0:0:0:
109,192,42069,1,0,0:0:0:0:
256,192,42069,1,0,0:0:0:0:
182,192,42136,1,0,0:0:0:0:
475,192,42136,1,0,0:0:0:0:
329,192,42136,1,0,0:0:0:0:
36,192,42136,1,0,0:0:0:0:
256,192,42269,1,0,0:0:0:0:
109,192,42269,1,0,0:0:0:0:
475,192,42269,1,0,0:0:0:0:
182,192,42335,1,0,0:0:0:0:
329,192,42335,1,0,0:0:0:0:
256,192,42401,1,0,0:0:0:0:
402,192,42401,1,0,0:0:0:0:
36,192,42401,1,0,0:0:0:0:
109,192,42401,1,0,0:0:0:0:
36,192,42535,1,0,0:0:0:0:
402,192,42535,1,0,0:0:0:0:
182,192,42535,1,0,0:0:0:0:
475,192,42535,1,0,0:0:0:0:
256,192,42601,1,0,0:0:0:0:
109,192,42601,1,0,0:0:0:0:
329,192,42601,1,0,0:0:0:0:
475,192,42668,1,0,0:0:0:0:
36,192,42668,1,0,0:0:0:0:
182,192,42668,1,0,0:0:0:0:
402,192,42668,1,0,0:0:0:0:
402,192,42801,1,0,0:0:0:0:
36,192,42801,1,0,0:0:0:0:
256,192,42801,1,0,0:0:0:0:
182,192,42868,1,0,0:0:0:0:
329,192,42868,1,0,0:0:0:0:
475,192,42934,1,0,0:0:0:0:
109,192,42934,1,0,0:0:0:0:
402,192,42934,1,0,0:0:0:0:
256,192,42934,1,0,0:0:0:0:
36,192,43067,1,0,0:0:0:0:
182,192,43067,1,0,0:0:0:0:
329,192,43067,1,0,0:0:0:0:
402,192,43067,1,0,0:0:0:0:
109,192,43200,1,0,0:0:0:0:
256,192,43200,1,0,0:0:0:0:
329,192,43200,1,0,0:0:0:0:
475,192,43200,1,0,0:0:0:0:
36,192,43334,1,0,0:0:0:0:
182,192,43334,1,0,0:0:0:0:
256,192,43334,1,0,0:0:0:0:
402,192,43334,1,0,0:0:0:0:
109,192,43466,1,0,0:0:0:0:
329,192,43466,1,0,0:0:0:0:
475,192,43466,1,0,0:0:0:0:
182,192,43466,1,0,0:0:0:0:
36,192,43600,1,0,0:0:0:0:
402,192,43600,1,0,0:0:0:0:
182,192,43600,1,0,0:0:0:0:
256,192,43600,1,0,0:0:0:0:
475,192,43733,1,0,0:0:0:0:
256,192,43733,1,0,0:0:0:0:
329,192,43733,1,0,0:0:0:0:
109,192,43733,1,0,0:0:0:0:
329,192,43866,1,0,0:0:0:0:
36,192,43866,1,0,0:0:0:0:
402,192,43866,1,0,0:0:0:0:
182,192,43866,1,0,0:0:0:0:
36,192,43999,1,0,0:0:0:0:
402,192,43999,1,0,0:0:0:0:
475,192,43999,1,0,0:0:0:0:
182,192,43999,1,0,0:0:0:0:
256,192,44066,1,0,0:0:0:0:
475,192,44132,1,0,0:0:0:0:
36,192,44132,1,0,0:0:0:0:
109,192,44132,1,0,0:0:0:0:
329,192,44132,1,0,0:0:0:0:
256,192,44199,1,0,0:0:0:0:
36,192,44265,1,0,0:0:0:0:
182,192,44265,1,0,0:0:0:0:
402,192,44265,1,0,0:0:0:0:
475,192,44265,1,0,0:0:0:0:
256,192,44331,1,0,0:0:0:0:
329,192,44399,1,0,0:0:0:0:
475,192,44399,1,0,0:0:0:0:
109,192,44399,1,0,0:0:0:0:
36,192,44399,1,0,0:0:0:0:
256,192,44465,1,0,0:0:0:0:
182,192,44531,1,0,0:0:0:0:
36,192,44531,1,0,0:0:0:0:
402,192,44531,1,0,0:0:0:0:
475,192,44531,1,0,0:0:0:0:
329,192,44598,1,0,0:0:0:0:
256,192,44598,1,0,0:0:0:0:
402,192,44664,1,0,0:0:0:0:
475,192,44664,1,0,0:0:0:0:
36,192,44664,1,0,0:0:0:0:
109,192,44664,1,0,0:0:0:0:
182,192,44731,1,0,0:0:0:0:
256,192,44731,1,0,0:0:0:0:
36,192,44798,1,0,0:0:0:0:
109,192,44798,1,0,0:0:0:0:
402,192,44798,1,0,0:0:0:0:
475,192,44798,1,0,0:0:0:0:
329,192,44864,1,0,0:0:0:0:
256,192,44864,1,0,0:0:0:0:
402,192,44931,1,0,0:0:0:0:
475,192,44931,1,0,0:0:0:0:
109,192,44931,1,0,0:0:0:0:
36,192,44931,1,0,0:0:0:0:
182,192,44997,1,0,0:0:0:0:
256,192,44997,1,0,0:0:0:0:
475,192,45064,1,0,0:0:0:0:
36,192,45064,1,0,0:0:0:0:
109,192,45064,1,0,0:0:0:0:
329,192,45064,1,0,0:0:0:0:
182,192,45130,1,0,0:0:0:0:
402,192,45130,1,0,0:0:0:0:
256,192,45197,1,0,0:0:0:0:
475,192,45197,1,0,0:0:0:0:
36,192,45197,1,0,0:0:0:0:
109,192,45264,1,0,0:0:0:0:
329,192,45264,1,0,0:0:0:0:
182,192,45330,1,0,0:0:0:0:
402,192,45330,1,0,0:0:0:0:
475,192,45330,1,0,0:0:0:0:
36,192,45396,1,0,0:0:0:0:
256,192,45396,1,0,0:0:0:0:
109,192,45463,1,0,0:0:0:0:
329,192,45463,1,0,0:0:0:0:
182,192,45529,1,0,0:0:0:0:
402,192,45529,1,0,0:0:0:0:
256,192,45596,1,0,0:0:0:0:
475,192,45596,1,0,0:0:0:0:
36,192,45596,1,0,0:0:0:0:
109,192,45663,1,0,0:0:0:0:
402,192,45663,1,0,0:0:0:0:
475,192,45729,1,0,0:0:0:0:
36,192,45729,1,0,0:0:0:0:
256,192,45729,1,0,0:0:0:0:
182,192,45796,1,0,0:0:0:0:
329,192,45796,1,0,0:0:0:0:
36,192,45862,1,0,0:0:0:0:
109,192,45862,1,0,0:0:0:0:
475,192,45862,1,0,0:0:0:0:
402,192,45862,1,0,0:0:0:0:
182,192,45929,1,0,0:0:0:0:
329,192,45929,1,0,0:0:0:0:
256,192,45996,1,0,0:0:0:0:
36,192,45996,1,0,0:0:0:0:
475,192,45996,1,0,0:0:0:0:
402,192,46062,1,0,0:0:0:0:
109,192,46062,1,0,0:0:0:0:
182,192,46129,1,0,0:0:0:0:
329,192,46129,1,0,0:0:0:0:
256,192,46129,1,0,0:0:0:0:
36,192,46129,1,0,0:0:0:0:
475,192,46129,1,0,0:0:0:0:
109,192,46195,1,0,0:0:0:0:
402,192,46195,1,0,0:0:0:0:
36,192,46261,1,0,0:0:0:0:
182,192,46261,1,0,0:0:0:0:
256,192,46261,1,0,0:0:0:0:
475,192,46261,1,0,0:0:0:0:
109,192,46328,1,0,0:0:0:0:
329,192,46328,1,0,0:0:0:0:
36,192,46395,1,0,0:0:0:0:
182,192,46395,1,0,0:0:0:0:
475,192,46395,1,0,0:0:0:0:
402,192,46395,1,0,0:0:0:0:
256,192,46461,1,0,0:0:0:0:
109,192,46461,1,0,0:0:0:0:
36,192,46528,1,0,0:0:0:0:
182,192,46528,1,0,0:0:0:0:
329,192,46528,1,0,0:0:0:0:
475,192,46528,1,0,0:0:0:0:
402,192,46594,1,0,0:0:0:0:
475,192,46661,1,0,0:0:0:0:
36,192,46661,1,0,0:0:0:0:
256,192,46661,1,0,0:0:0:0:
109,192,46727,1,0,0:0:0:0:
475,192,46794,1,0,0:0:0:0:
182,192,46794,1,0,0:0:0:0:
329,192,46794,1,0,0:0:0:0:
109,192,46861,1,0,0:0:0:0:
475,192,46927,1,0,0:0:0:0:
36,192,46927,1,0,0:0:0:0:
256,192,46927,1,0,0:0:0:0:
402,192,46994,1,0,0:0:0:0:
329,192,47060,1,0,0:0:0:0:
36,192,47060,1,0,0:0:0:0:
109,192,47060,1,0,0:0:0:0:
402,192,47126,1,0,0:0:0:0:
182,192,47126,1,0,0:0:0:0:
475,192,47194,1,0,0:0:0:0:
256,192,47194,1,0,0:0:0:0:
36,192,47194,1,0,0:0:0:0:
109,192,47194,1,0,0:0:0:0:
182,192,47260,1,0,0:0:0:0:
402,192,47260,1,0,0:0:0:0:
109,192,47326,1,0,0:0:0:0:
36,192,47326,1,0,0:0:0:0:
329,192,47326,1,0,0:0:0:0:
256,192,47326,1,0,0:0:0:0:
182,192,47393,1,0,0:0:0:0:
475,192,47393,1,0,0:0:0:0:
109,192,47459,1,0,0:0:0:0:
36,192,47459,1,0,0:0:0:0:
402,192,47459,1,0,0:0:0:0:
256,192,47459,1,0,0:0:0:0:
182,192,47526,1,0,0:0:0:0:
329,192,47526,1,0,0:0:0:0:
109,192,47593,1,0,0:0:0:0:
36,192,47593,1,0,0:0:0:0:
256,192,47593,1,0,0:0:0:0:
475,192,47593,1,0,0:0:0:0:
402,192,47659,1,0,0:0:0:0:
182,192,47726,1,0,0:0:0:0:
329,192,47726,1,0,0:0:0:0:
475,192,47726,1,0,0:0:0:0:
109,192,47792,1,0,0:0:0:0:
36,192,47859,1,0,0:0:0:0:
256,192,47859,1,0,0:0:0:0:
402,192,47859,1,0,0:0:0:0:
109,192,47925,1,0,0:0:0:0:
182,192,47992,1,0,0:0:0:0:
329,192,47992,1,0,0:0:0:0:
402,192,48059,1,0,0:0:0:0:
475,192,48125,1,0,0:0:0:0:
182,192,48125,1,0,0:0:0:0:
36,192,48125,1,0,0:0:0:0:
402,192,48191,1,0,0:0:0:0:
109,192,48191,1,0,0:0:0:0:
329,192,48258,1,0,0:0:0:0:
182,192,48258,1,0,0:0:0:0:
36,192,48258,1,0,0:0:0:0:
256,192,48258,1,0,0:0:0:0:
109,192,48324,1,0,0:0:0:0:
402,192,48324,1,0,0:0:0:0:
36,192,48391,1,0,0:0:0:0:
182,192,48391,1,0,0:0:0:0:
475,192,48391,1,0,0:0:0:0:
256,192,48391,1,0,0:0:0:0:
109,192,48458,1,0,0:0:0:0:
329,192,48458,1,0,0:0:0:0:
36,192,48524,1,0,0:0:0:0:
182,192,48524,1,0,0:0:0:0:
402,192,48524,1,0,0:0:0:0:
475,192,48524,1,0,0:0:0:0:
109,192,48591,1,0,0:0:0:0:
256,192,48591,1,0,0:0:0:0:
36,192,48657,1,0,0:0:0:0:
182,192,48657,1,0,0:0:0:0:
329,192,48657,1,0,0:0:0:0:
475,192,48657,1,0,0:0:0:0:
402,192,48724,1,0,0:0:0:0:
256,192,48791,1,0,0:0:0:0:
36,192,48791,1,0,0:0:0:0:
475,192,48791,1,0,0:0:0:0:
109,192,48857,1,0,0:0:0:0:
402,192,48924,1,0,0:0:0:0:
475,192,48924,1,0,0:0:0:0:
182,192,48924,1,0,0:0:0:0:
329,192,48990,1,0,0:0:0:0:
109,192,48990,1,0,0:0:0:0:
36,192,49056,1,0,0:0:0:0:
256,192,49056,1,0,0:0:0:0:
475,192,49056,1,0,0:0:0:0:
402,192,49123,1,0,0:0:0:0:
329,192,49190,1,0,0:0:0:0:
109,192,49190,1,0,0:0:0:0:
36,192,49190,1,0,0:0:0:0:
182,192,49256,1,0,0:0:0:0:
402,192,49256,1,0,0:0:0:0:
256,192,49323,1,0,0:0:0:0:
475,192,49323,1,0,0:0:0:0:
36,192,49323,1,0,0:0:0:0:
109,192,49323,1,0,0:0:0:0:
329,192,49323,1,0,0:0:0:0:
182,192,49389,1,0,0:0:0:0:
402,192,49389,1,0,0:0:0:0:
475,192,49456,1,0,0:0:0:0:
256,192,49456,1,0,0:0:0:0:
109,192,49522,1,0,0:0:0:0:
329,192,49522,1,0,0:0:0:0:
36,192,49589,1,0,0:0:0:0:
182,192,49589,1,0,0:0:0:0:
256,192,49589,1,0,0:0:0:0:
402,192,49589,1,0,0:0:0:0:
475,192,49589,1,0,0:0:0:0:
109,192,49656,1,0,0:0:0:0:
329,192,49656,1,0,0:0:0:0:
256,192,49722,1,0,0:0:0:0:
36,192,49722,1,0,0:0:0:0:
402,192,49789,1,0,0:0:0:0:
182,192,49789,1,0,0:0:0:0:
109,192,49855,1,0,0:0:0:0:
36,192,49855,1,0,0:0:0:0:
329,192,49855,1,0,0:0:0:0:
256,192,49855,1,0,0:0:0:0:
475,192,49855,1,0,0:0:0:0:
182,192,49921,1,0,0:0:0:0:
402,192,49921,1,0,0:0:0:0:
256,192,49989,1,0,0:0:0:0:
475,192,49989,1,0,0:0:0:0:
109,192,50055,1,0,0:0:0:0:
329,192,50055,1,0,0:0:0:0:
402,192,50121,1,0,0:0:0:0:
475,192,50121,1,0,0:0:0:0:
182,192,50121,1,0,0:0:0:0:
36,192,50121,1,0,0:0:0:0:
256,192,50121,1,0,0:0:0:0:
109,192,50188,1,0,0:0:0:0:
329,192,50188,1,0,0:0:0:0:
256,192,50254,1,0,0:0:0:0:
36,192,50254,1,0,0:0:0:0:
475,192,50254,1,0,0:0:0:0:
182,192,50321,1,0,0:0:0:0:
402,192,50321,1,0,0:0:0:0:
36,192,50388,1,0,0:0:0:0:
109,192,50388,1,0,0:0:0:0:
256,192,50388,1,0,0:0:0:0:
329,192,50388,1,0,0:0:0:0:
475,192,50388,1,0,0:0:0:0:
182,192,50454,1,0,0:0:0:0:
402,192,50454,1,0,0:0:0:0:
109,192,50521,1,0,0:0:0:0:
36,192,50521,1,0,0:0:0:0:
329,192,50521,1,0,0:0:0:0:
256,192,50521,1,0,0:0:0:0:
182,192,50587,1,0,0:0:0:0:
475,192,50587,1,0,0:0:0:0:
109,192,50654,1,0,0:0:0:0:
36,192,50654,1,0,0:0:0:0:
402,192,50654,1,0,0:0:0:0:
256,192,50654,1,0,0:0:0:0:
182,192,50720,1,0,0:0:0:0:
329,192,50720,1,0,0:0:0:0:
109,192,50787,1,0,0:0:0:0:
36,192,50787,1,0,0:0:0:0:
475,192,50787,1,0,0:0:0:0:
256,192,50787,1,0,0:0:0:0:
402,192,50854,1,0,0:0:0:0:
475,192,50920,1,0,0:0:0:0:
36,192,50920,1,0,0:0:0:0:
256,192,50920,1,0,0:0:0:0:
109,192,50986,1,0,0:0:0:0:
475,192,51053,1,0,0:0:0:0:
182,192,51053,1,0,0:0:0:0:
329,192,51053,1,0,0:0:0:0:
109,192,51119,1,0,0:0:0:0:
475,192,51186,1,0,0:0:0:0:
36,192,51186,1,0,0:0:0:0:
256,192,51186,1,0,0:0:0:0:
402,192,51253,1,0,0:0:0:0:
329,192,51319,1,0,0:0:0:0:
36,192,51319,1,0,0:0:0:0:
182,192,51319,1,0,0:0:0:0:
402,192,51386,1,0,0:0:0:0:
109,192,51386,1,0,0:0:0:0:
475,192,51452,1,0,0:0:0:0:
36,192,51452,1,0,0:0:0:0:
182,192,51452,1,0,0:0:0:0:
256,192,51452,1,0,0:0:0:0:
109,192,51519,1,0,0:0:0:0:
329,192,51519,1,0,0:0:0:0:
36,192,51586,1,0,0:0:0:0:
182,192,51586,1,0,0:0:0:0:
402,192,51586,1,0,0:0:0:0:
475,192,51586,1,0,0:0:0:0:
109,192,51652,1,0,0:0:0:0:
256,192,51652,1,0,0:0:0:0:
36,192,51719,1,0,0:0:0:0:
182,192,51719,1,0,0:0:0:0:
329,192,51719,1,0,0:0:0:0:
475,192,51719,1,0,0:0:0:0:
109,192,51785,1,0,0:0:0:0:
402,192,51785,1,0,0:0:0:0:
36,192,51851,1,0,0:0:0:0:
182,192,51851,1,0,0:0:0:0:
256,192,51851,1,0,0:0:0:0:
475,192,51851,1,0,0:0:0:0:
402,192,51918,1,0,0:0:0:0:
475,192,51985,1,0,0:0:0:0:
329,192,51985,1,0,0:0:0:0:
182,192,51985,1,0,0:0:0:0:
109,192,52051,1,0,0:0:0:0:
402,192,52118,1,0,0:0:0:0:
256,192,52118,1,0,0:0:0:0:
36,192,52118,1,0,0:0:0:0:
109,192,52184,1,0,0:0:0:0:
329,192,52251,1,0,0:0:0:0:
182,192,52251,1,0,0:0:0:0:
402,192,52317,1,0,0:0:0:0:
36,192,52384,1,0,0:0:0:0:
182,192,52384,1,0,0:0:0:0:
475,192,52384,1,0,0:0:0:0:
256,192,52384,1,0,0:0:0:0:
109,192,52451,1,0,0:0:0:0:
402,192,52451,1,0,0:0:0:0:
475,192,52517,1,0,0:0:0:0:
36,192,52517,1,0,0:0:0:0:
329,192,52517,1,0,0:0:0:0:
182,192,52584,1,0,0:0:0:0:
256,192,52650,1,0,0:0:0:0:
329,192,52650,1,0,0:0:0:0:
36,192,52650,1,0,0:0:0:0:
475,192,52650,1,0,0:0:0:0:
402,192,52716,1,0,0:0:0:0:
109,192,52716,1,0,0:0:0:0:
182,192,52784,1,0,0:0:0:0:
475,192,52784,1,0,0:0:0:0:
36,192,52784,1,0,0:0:0:0:
109,192,52850,1,0,0:0:0:0:
256,192,52850,1,0,0:0:0:0:
182,192,52916,1,0,0:0:0:0:
329,192,52916,1,0,0:0:0:0:
475,192,52916,1,0,0:0:0:0:
402,192,52916,1,0,0:0:0:0:
109,192,52983,1,0,0:0:0:0:
256,192,52983,1,0,0:0:0:0:
36,192,53049,1,0,0:0:0:0:
182,192,53049,1,0,0:0:0:0:
402,192,53049,1,0,0:0:0:0:
475,192,53049,1,0,0:0:0:0:
256,192,53116,1,0,0:0:0:0:
36,192,53183,1,0,0:0:0:0:
329,192,53183,1,0,0:0:0:0:
402,192,53183,1,0,0:0:0:0:
109,192,53183,1,0,0:0:0:0:
182,192,53249,1,0,0:0:0:0:
329,192,53316,1,0,0:0:0:0:
256,192,53316,1,0,0:0:0:0:
36,192,53316,1,0,0:0:0:0:
475,192,53316,1,0,0:0:0:0:
109,192,53382,1,0,0:0:0:0:
182,192,53449,1,0,0:0:0:0:
256,192,53449,1,0,0:0:0:0:
402,192,53449,1,0,0:0:0:0:
36,192,53449,1,0,0:0:0:0:
475,192,53449,1,0,0:0:0:0:
36,192,53715,1,0,0:0:0:0:
475,192,53715,1,0,0:0:0:0:
402,192,53715,1,0,0:0:0:0:
182,192,53715,1,0,0:0:0:0:
256,192,53781,1,0,0:0:0:0:
329,192,53848,1,0,0:0:0:0:
475,192,53848,1,0,0:0:0:0:
109,192,53848,1,0,0:0:0:0:
36,192,53848,1,0,0:0:0:0:
256,192,53914,1,0,0:0:0:0:
182,192,53981,1,0,0:0:0:0:
36,192,53981,1,0,0:0:0:0:
402,192,53981,1,0,0:0:0:0:
475,192,53981,1,0,0:0:0:0:
256,192,54048,1,0,0:0:0:0:
475,192,54114,1,0,0:0:0:0:
329,192,54114,1,0,0:0:0:0:
109,192,54114,1,0,0:0:0:0:
36,192,54114,1,0,0:0:0:0:
182,192,54181,1,0,0:0:0:0:
256,192,54181,1,0,0:0:0:0:
109,192,54247,1,0,0:0:0:0:
36,192,54247,1,0,0:0:0:0:
402,192,54247,1,0,0:0:0:0:
475,192,54247,1,0,0:0:0:0:
256,192,54314,1,0,0:0:0:0:
329,192,54314,1,0,0:0:0:0:
36,192,54381,1,0,0:0:0:0:
109,192,54381,1,0,0:0:0:0:
475,192,54381,1,0,0:0:0:0:
402,192,54381,1,0,0:0:0:0:
182,192,54447,1,0,0:0:0:0:
256,192,54447,1,0,0:0:0:0:
109,192,54514,1,0,0:0:0:0:
36,192,54514,1,0,0:0:0:0:
402,192,54514,1,0,0:0:0:0:
475,192,54514,1,0,0:0:0:0:
329,192,54580,1,0,0:0:0:0:
256,192,54580,1,0,0:0:0:0:
36,192,54646,1,0,0:0:0:0:
475,192,54646,1,0,0:0:0:0:
109,192,54646,1,0,0:0:0:0:
402,192,54646,1,0,0:0:0:0:
256,192,54714,1,0,0:0:0:0:
182,192,54714,1,0,0:0:0:0:
329,192,54780,1,0,0:0:0:0:
475,192,54780,1,0,0:0:0:0:
36,192,54780,1,0,0:0:0:0:
109,192,54780,1,0,0:0:0:0:
402,192,54846,1,0,0:0:0:0:
182,192,54846,1,0,0:0:0:0:
475,192,54913,1,0,0:0:0:0:
256,192,54913,1,0,0:0:0:0:
36,192,54913,1,0,0:0:0:0:
109,192,54913,1,0,0:0:0:0:
182,192,54979,1,0,0:0:0:0:
329,192,54979,1,0,0:0:0:0:
402,192,55046,1,0,0:0:0:0:
475,192,55046,1,0,0:0:0:0:
36,192,55046,1,0,0:0:0:0:
109,192,55046,1,0,0:0:0:0:
329,192,55113,1,0,0:0:0:0:
256,192,55179,1,0,0:0:0:0:
36,192,55179,1,0,0:0:0:0:
475,192,55179,1,0,0:0:0:0:
109,192,55246,1,0,0:0:0:0:
329,192,55312,1,0,0:0:0:0:
182,192,55312,1,0,0:0:0:0:
475,192,55312,1,0,0:0:0:0:
109,192,55379,1,0,0:0:0:0:
256,192,55445,1,0,0:0:0:0:
36,192,55445,1,0,0:0:0:0:
475,192,55445,1,0,0:0:0:0:
402,192,55512,1,0,0:0:0:0:
182,192,55579,1,0,0:0:0:0:
36,192,55579,1,0,0:0:0:0:
329,192,55579,1,0,0:0:0:0:
109,192,55645,1,0,0:0:0:0:
402,192,55645,1,0,0:0:0:0:
36,192,55711,1,0,0:0:0:0:
182,192,55711,1,0,0:0:0:0:
475,192,55711,1,0,0:0:0:0:
256,192,55711,1,0,0:0:0:0:
402,192,55778,1,0,0:0:0:0:
109,192,55778,1,0,0:0:0:0:
329,192,55844,1,0,0:0:0:0:
256,192,55844,1,0,0:0:0:0:
182,192,55844,1,0,0:0:0:0:
36,192,55844,1,0,0:0:0:0:
475,192,55911,1,0,0:0:0:0:
109,192,55911,1,0,0:0:0:0:
402,192,55978,1,0,0:0:0:0:
256,192,55978,1,0,0:0:0:0:
182,192,55978,1,0,0:0:0:0:
36,192,55978,1,0,0:0:0:0:
329,192,56044,1,0,0:0:0:0:
109,192,56044,1,0,0:0:0:0:
256,192,56111,1,0,0:0:0:0:
475,192,56111,1,0,0:0:0:0:
182,192,56111,1,0,0:0:0:0:
36,192,56111,1,0,0:0:0:0:
402,192,56177,1,0,0:0:0:0:
475,192,56244,1,0,0:0:0:0:
329,192,56244,1,0,0:0:0:0:
182,192,56244,1,0,0:0:0:0:
109,192,56311,1,0,0:0:0:0:
402,192,56377,1,0,0:0:0:0:
256,192,56377,1,0,0:0:0:0:
36,192,56377,1,0,0:0:0:0:
109,192,56444,1,0,0:0:0:0:
329,192,56510,1,0,0:0:0:0:
182,192,56510,1,0,0:0:0:0:
402,192,56576,1,0,0:0:0:0:
475,192,56643,1,0,0:0:0:0:
36,192,56643,1,0,0:0:0:0:
109,192,56643,1,0,0:0:0:0:
182,192,56710,1,0,0:0:0:0:
402,192,56710,1,0,0:0:0:0:
109,192,56776,1,0,0:0:0:0:
256,192,56776,1,0,0:0:0:0:
329,192,56776,1,0,0:0:0:0:
36,192,56776,1,0,0:0:0:0:
402,192,56843,1,0,0:0:0:0:
182,192,56843,1,0,0:0:0:0:
475,192,56909,1,0,0:0:0:0:
256,192,56909,1,0,0:0:0:0:
109,192,56909,1,0,0:0:0:0:
36,192,56909,1,0,0:0:0:0:
329,192,56976,1,0,0:0:0:0:
182,192,56976,1,0,0:0:0:0:
402,192,57042,1,0,0:0:0:0:
475,192,57042,1,0,0:0:0:0:
109,192,57042,1,0,0:0:0:0:
36,192,57042,1,0,0:0:0:0:
256,192,57109,1,0,0:0:0:0:
182,192,57109,1,0,0:0:0:0:
329,192,57176,1,0,0:0:0:0:
475,192,57176,1,0,0:0:0:0:
109,192,57176,1,0,0:0:0:0:
36,192,57176,1,0,0:0:0:0:
402,192,57242,1,0,0:0:0:0:
475,192,57309,1,0,0:0:0:0:
36,192,57309,1,0,0:0:0:0:
256,192,57309,1,0,0:0:0:0:
109,192,57375,1,0,0:0:0:0:
182,192,57441,1,0,0:0:0:0:
475,192,57441,1,0,0:0:0:0:
402,192,57441,1,0,0:0:0:0:
109,192,57509,1,0,0:0:0:0:
329,192,57509,1,0,0:0:0:0:
475,192,57575,1,0,0:0:0:0:
256,192,57575,1,0,0:0:0:0:
36,192,57575,1,0,0:0:0:0:
402,192,57641,1,0,0:0:0:0:
109,192,57708,1,0,0:0:0:0:
329,192,57708,1,0,0:0:0:0:
36,192,57708,1,0,0:0:0:0:
402,192,57774,1,0,0:0:0:0:
182,192,57774,1,0,0:0:0:0:
109,192,57841,1,0,0:0:0:0:
329,192,57841,1,0,0:0:0:0:
36,192,57841,1,0,0:0:0:0:
256,192,57841,1,0,0:0:0:0:
475,192,57841,1,0,0:0:0:0:
402,192,57908,1,0,0:0:0:0:
182,192,57908,1,0,0:0:0:0:
256,192,57974,1,0,0:0:0:0:
475,192,57974,1,0,0:0:0:0:
329,192,58041,1,0,0:0:0:0:
109,192,58041,1,0,0:0:0:0:
402,192,58107,1,0,0:0:0:0:
475,192,58107,1,0,0:0:0:0:
256,192,58107,1,0,0:0:0:0:
36,192,58107,1,0,0:0:0:0:
182,192,58107,1,0,0:0:0:0:
329,192,58174,1,0,0:0:0:0:
109,192,58174,1,0,0:0:0:0:
36,192,58240,1,0,0:0:0:0:
256,192,58240,1,0,0:0:0:0:
182,192,58307,1,0,0:0:0:0:
402,192,58307,1,0,0:0:0:0:
256,192,58374,1,0,0:0:0:0:
475,192,58374,1,0,0:0:0:0:
329,192,58374,1,0,0:0:0:0:
109,192,58374,1,0,0:0:0:0:
36,192,58374,1,0,0:0:0:0:
402,192,58440,1,0,0:0:0:0:
182,192,58440,1,0,0:0:0:0:
475,192,58506,1,0,0:0:0:0:
256,192,58506,1,0,0:0:0:0:
329,192,58573,1,0,0:0:0:0:
109,192,58573,1,0,0:0:0:0:
36,192,58639,1,0,0:0:0:0:
256,192,58639,1,0,0:0:0:0:
182,192,58639,1,0,0:0:0:0:
402,192,58639,1,0,0:0:0:0:
475,192,58639,1,0,0:0:0:0:
329,192,58706,1,0,0:0:0:0:
109,192,58706,1,0,0:0:0:0:
36,192,58773,1,0,0:0:0:0:
256,192,58773,1,0,0:0:0:0:
475,192,58773,1,0,0:0:0:0:
329,192,58839,1,0,0:0:0:0:
182,192,58839,1,0,0:0:0:0:
475,192,58906,1,0,0:0:0:0:
36,192,58906,1,0,0:0:0:0:
256,192,58906,1,0,0:0:0:0:
109,192,58906,1,0,0:0:0:0:
402,192,58906,1,0,0:0:0:0:
329,192,59039,1,0,0:0:0:0:
475,192,59039,1,0,0:0:0:0:
402,192,59039,1,0,0:0:0:0:
182,192,59039,1,0,0:0:0:0:
109,192,59039,1,0,0:0:0:0:
475,192,59172,1,0,0:0:0:0:
329,192,59172,1,0,0:0:0:0:
182,192,59172,1,0,0:0:0:0:
109,192,59239,1,0,0:0:0:0:
256,192,59239,1,0,0:0:0:0:
402,192,59239,1,0,0:0:0:0:
36,192,59305,1,0,0:0:0:0:
182,192,59305,1,0,0:0:0:0:
475,192,59305,1,0,0:0:0:0:
329,192,59305,1,0,0:0:0:0:
475,192,59571,1,0,0:0:0:0:
402,192,59571,1,0,0:0:0:0:
329,192,59571,1,0,0:0:0:0:
182,192,59571,1,0,0:0:0:0:
109,192,59571,1,0,0:0:0:0:
36,192,59704,1,0,0:0:0:0:
109,192,59704,1,0,0:0:0:0:
402,192,59704,1,0,0:0:0:0:
329,192,59704,1,0,0:0:0:0:
256,192,59704,1,0,0:0:0:0:
36,192,59837,1,0,0:0:0:0:
475,192,59837,1,0,0:0:0:0:
182,192,59837,1,0,0:0:0:0:
256,192,59837,1,0,0:0:0:0:
329,192,59837,1,0,0:0:0:0:
109,192,59904,1,0,0:0:0:0:
402,192,59904,1,0,0:0:0:0:
475,192,59971,1,0,0:0:0:0:
36,192,59971,1,0,0:0:0:0:
256,192,59971,1,0,0:0:0:0:
182,192,59971,1,0,0:0:0:0:
329,192,59971,1,0,0:0:0:0:
182,192,60104,1,0,0:0:0:0:
36,192,60104,1,0,0:0:0:0:
109,192,60104,1,0,0:0:0:0:
329,192,60104,1,0,0:0:0:0:
402,192,60104,1,0,0:0:0:0:
36,192,60236,1,0,0:0:0:0:
182,192,60236,1,0,0:0:0:0:
329,192,60236,1,0,0:0:0:0:
402,192,60304,1,0,0:0:0:0:
256,192,60304,1,0,0:0:0:0:
109,192,60304,1,0,0:0:0:0:
475,192,60370,1,0,0:0:0:0:
329,192,60370,1,0,0:0:0:0:
36,192,60370,1,0,0:0:0:0:
182,192,60370,1,0,0:0:0:0:
36,192,60636,1,0,0:0:0:0:
109,192,60636,1,0,0:0:0:0:
182,192,60636,1,0,0:0:0:0:
329,192,60636,1,0,0:0:0:0:
402,192,60636,1,0,0:0:0:0:
182,192,60769,1,0,0:0:0:0:
475,192,60769,1,0,0:0:0:0:
36,192,60769,1,0,0:0:0:0:
256,192,60769,1,0,0:0:0:0:
329,192,60769,1,0,0:0:0:0:
109,192,60836,1,0,0:0:0:0:
402,192,60836,1,0,0:0:0:0:
182,192,60902,1,0,0:0:0:0:
329,192,60902,1,0,0:0:0:0:
256,192,60902,1,0,0:0:0:0:
36,192,60969,1,0,0:0:0:0:
475,192,60969,1,0,0:0:0:0:
109,192,61035,1,0,0:0:0:0:
182,192,61035,1,0,0:0:0:0:
256,192,61035,1,0,0:0:0:0:
329,192,61035,1,0,0:0:0:0:
402,192,61035,1,0,0:0:0:0:
182,192,61235,1,0,0:0:0:0:
329,192,61235,1,0,0:0:0:0:
475,192,61301,1,0,0:0:0:0:
402,192,61301,1,0,0:0:0:0:
36,192,61301,1,0,0:0:0:0:
109,192,61301,1,0,0:0:0:0:
256,192,61301,1,0,0:0:0:0:
109,192,61501,1,0,0:0:0:0:
402,192,61501,1,0,0:0:0:0:
36,192,61568,1,0,0:0:0:0:
475,192,61568,1,0,0:0:0:0:
329,192,61568,1,0,0:0:0:0:
182,192,61568,1,0,0:0:0:0:
256,192,61568,1,0,0:0:0:0:
36,192,61767,1,0,0:0:0:0:
475,192,61767,1,0,0:0:0:0:
256,192,61834,1,0,0:0:0:0:
182,192,61834,1,0,0:0:0:0:
109,192,61834,1,0,0:0:0:0:
402,192,61834,1,0,0:0:0:0:
329,192,61834,1,0,0:0:0:0:
256,192,62034,1,0,0:0:0:0:
36,192,62100,1,0,0:0:0:0:
109,192,62100,1,0,0:0:0:0:
329,192,62100,1,0,0:0:0:0:
475,192,62100,1,0,0:0:0:0:
402,192,62100,1,0,0:0:0:0:
182,192,62100,1,0,0:0:0:0:
36,192,62366,128,0,63099:0:0:0:0:
109,192,62366,128,0,63099:0:0:0:0:
182,192,62366,128,0,63099:0:0:0:0:
329,192,62366,128,0,63099:0:0:0:0:
402,192,62366,128,0,63099:0:0:0:0:
475,192,62366,128,0,63099:0:0:0:0:
36,192,63165,1,0,0:0:0:0:
402,192,63165,1,0,0:0:0:0:
475,192,63165,1,0,0:0:0:0:
109,192,63165,1,0,0:0:0:0:
256,192,63165,1,0,0:0:0:0:
182,192,63298,1,0,0:0:0:0:
329,192,63298,1,0,0:0:0:0:
256,192,63431,1,0,0:0:0:0:
402,192,63431,1,0,0:0:0:0:
36,192,63564,1,0,0:0:0:0:
109,192,63564,1,0,0:0:0:0:
329,192,63564,1,0,0:0:0:0:
475,192,63564,1,0,0:0:0:0:
36,192,64229,1,0,0:0:0:0:
182,192,64229,1,0,0:0:0:0:
402,192,64229,1,0,0:0:0:0:
475,192,64229,1,0,0:0:0:0:
109,192,64363,1,0,0:0:0:0:
256,192,64363,1,0,0:0:0:0:
182,192,64496,1,0,0:0:0:0:
329,192,64496,1,0,0:0:0:0:
256,192,64629,1,0,0:0:0:0:
402,192,64629,1,0,0:0:0:0:
109,192,64629,1,0,0:0:0:0:
36,192,64629,1,0,0:0:0:0:
36,192,64895,1,0,0:0:0:0:
109,192,65029,1,0,0:0:0:0:
182,192,65161,1,0,0:0:0:0:
109,192,65294,1,0,0:0:0:0:
36,192,65294,1,0,0:0:0:0:
256,192,65294,1,0,0:0:0:0:
402,192,65294,1,0,0:0:0:0:
329,192,65428,1,0,0:0:0:0:
182,192,65428,1,0,0:0:0:0:
256,192,65561,1,0,0:0:0:0:
109,192,65561,1,0,0:0:0:0:
182,192,65694,1,0,0:0:0:0:
36,192,65694,1,0,0:0:0:0:
402,192,65694,1,0,0:0:0:0:
475,192,65694,1,0,0:0:0:0:
402,192,65960,1,0,0:0:0:0:
329,192,66093,1,0,0:0:0:0:
256,192,66226,1,0,0:0:0:0:
36,192,66293,1,0,0:0:0:0:
182,192,66326,1,0,0:0:0:0:
329,192,66359,1,0,0:0:0:0:
475,192,66392,1,0,0:0:0:0:
256,192,66492,1,0,0:0:0:0:
402,192,66492,1,0,0:0:0:0:
329,192,66626,1,0,0:0:0:0:
182,192,66626,1,0,0:0:0:0:
109,192,66759,1,0,0:0:0:0:
256,192,66759,1,0,0:0:0:0:
402,192,66759,1,0,0:0:0:0:
475,192,66759,1,0,0:0:0:0:
182,192,67025,1,0,0:0:0:0:
36,192,67025,1,0,0:0:0:0:
109,192,67424,1,0,0:0:0:0:
256,192,67424,1,0,0:0:0:0:
475,192,67424,1,0,0:0:0:0:
36,192,67424,1,0,0:0:0:0:
402,192,67424,1,0,0:0:0:0:
329,192,67824,1,0,0:0:0:0:
475,192,67824,1,0,0:0:0:0:
36,192,67824,1,0,0:0:0:0:
109,192,67824,1,0,0:0:0:0:
402,192,68089,1,0,0:0:0:0:
329,192,68223,1,0,0:0:0:0:
256,192,68356,1,0,0:0:0:0:
402,192,68489,1,0,0:0:0:0:
475,192,68489,1,0,0:0:0:0:
36,192,68489,1,0,0:0:0:0:
182,192,68489,1,0,0:0:0:0:
329,192,68755,1,0,0:0:0:0:
182,192,68755,1,0,0:0:0:0:
109,192,68888,1,0,0:0:0:0:
36,192,68888,1,0,0:0:0:0:
256,192,68888,1,0,0:0:0:0:
402,192,68888,1,0,0:0:0:0:
36,192,69154,1,0,0:0:0:0:
109,192,69287,1,0,0:0:0:0:
182,192,69421,1,0,0:0:0:0:
109,192,69554,1,0,0:0:0:0:
36,192,69554,1,0,0:0:0:0:
256,192,69554,1,0,0:0:0:0:
475,192,69554,128,0,69586:0:0:0:0:
329,192,69686,128,0,69720:0:0:0:0:
182,192,69820,128,0,69853:0:0:0:0:
402,192,69953,1,0,0:0:0:0:
475,192,69953,1,0,0:0:0:0:
36,192,69953,128,0,69986:0:0:0:0:
475,192,70219,128,0,70252:0:0:0:0:
109,192,70352,1,0,0:0:0:0:
36,192,70352,1,0,0:0:0:0:
256,192,70352,128,0,70386:0:0:0:0:
36,192,71151,1,0,0:0:0:0:
109,192,71151,1,0,0:0:0:0:
256,192,71151,1,0,0:0:0:0:
475,192,71151,1,0,0:0:0:0:
402,192,71284,1,0,0:0:0:0:
329,192,71417,1,0,0:0:0:0:
475,192,71683,1,0,0:0:0:0:
402,192,71683,1,0,0:0:0:0:
36,192,71683,1,0,0:0:0:0:
109,192,71683,1,0,0:0:0:0:
182,192,71683,1,0,0:0:0:0:
329,192,71749,1,0,0:0:0:0:
256,192,71816,1,0,0:0:0:0:
36,192,71816,1,0,0:0:0:0:
329,192,71883,1,0,0:0:0:0:
109,192,71883,1,0,0:0:0:0:
402,192,71949,1,0,0:0:0:0:
475,192,71949,1,0,0:0:0:0:
182,192,71949,1,0,0:0:0:0:
36,192,71949,1,0,0:0:0:0:
256,192,72016,1,0,0:0:0:0:
475,192,72082,1,0,0:0:0:0:
329,192,72082,1,0,0:0:0:0:
109,192,72082,1,0,0:0:0:0:
36,192,72082,1,0,0:0:0:0:
182,192,72149,1,0,0:0:0:0:
256,192,72149,1,0,0:0:0:0:
329,192,72216,1,0,0:0:0:0:
402,192,72216,1,0,0:0:0:0:
475,192,72216,1,0,0:0:0:0:
36,192,72216,1,0,0:0:0:0:
109,192,72282,1,0,0:0:0:0:
36,192,72349,1,0,0:0:0:0:
402,192,72349,1,0,0:0:0:0:
475,192,72349,1,0,0:0:0:0:
182,192,72349,1,0,0:0:0:0:
329,192,72415,1,0,0:0:0:0:
109,192,72415,1,0,0:0:0:0:
36,192,72481,1,0,0:0:0:0:
256,192,72481,1,0,0:0:0:0:
475,192,72481,1,0,0:0:0:0:
182,192,72548,1,0,0:0:0:0:
402,192,72548,1,0,0:0:0:0:
109,192,72615,1,0,0:0:0:0:
36,192,72615,1,0,0:0:0:0:
329,192,72615,1,0,0:0:0:0:
475,192,72615,1,0,0:0:0:0:
256,192,72681,1,0,0:0:0:0:
182,192,72681,1,0,0:0:0:0:
36,192,72748,1,0,0:0:0:0:
109,192,72748,1,0,0:0:0:0:
475,192,72748,1,0,0:0:0:0:
402,192,72748,1,0,0:0:0:0:
182,192,72814,1,0,0:0:0:0:
256,192,72881,1,0,0:0:0:0:
475,192,72881,1,0,0:0:0:0:
182,192,72947,1,0,0:0:0:0:
402,192,72947,1,0,0:0:0:0:
109,192,73014,1,0,0:0:0:0:
36,192,73014,1,0,0:0:0:0:
329,192,73014,1,0,0:0:0:0:
475,192,73014,1,0,0:0:0:0:
256,192,73081,1,0,0:0:0:0:
36,192,73147,1,0,0:0:0:0:
182,192,73147,1,0,0:0:0:0:
402,192,73147,1,0,0:0:0:0:
475,192,73147,1,0,0:0:0:0:
329,192,73214,1,0,0:0:0:0:
256,192,73214,1,0,0:0:0:0:
182,192,73280,1,0,0:0:0:0:
109,192,73280,1,0,0:0:0:0:
36,192,73280,1,0,0:0:0:0:
475,192,73280,1,0,0:0:0:0:
402,192,73346,1,0,0:0:0:0:
475,192,73414,1,0,0:0:0:0:
109,192,73414,1,0,0:0:0:0:
36,192,73414,1,0,0:0:0:0:
329,192,73414,1,0,0:0:0:0:
182,192,73480,1,0,0:0:0:0:
402,192,73480,1,0,0:0:0:0:
475,192,73546,1,0,0:0:0:0:
256,192,73546,1,0,0:0:0:0:
36,192,73546,1,0,0:0:0:0:
329,192,73613,1,0,0:0:0:0:
109,192,73613,1,0,0:0:0:0:
402,192,73679,1,0,0:0:0:0:
475,192,73679,1,0,0:0:0:0:
182,192,73679,1,0,0:0:0:0:
36,192,73679,1,0,0:0:0:0:
256,192,73746,1,0,0:0:0:0:
329,192,73746,1,0,0:0:0:0:
475,192,73813,1,0,0:0:0:0:
402,192,73813,1,0,0:0:0:0:
36,192,73813,1,0,0:0:0:0:
109,192,73813,1,0,0:0:0:0:
182,192,73879,1,0,0:0:0:0:
256,192,73946,1,0,0:0:0:0:
329,192,73946,1,0,0:0:0:0:
475,192,73946,1,0,0:0:0:0:
402,192,74012,1,0,0:0:0:0:
182,192,74012,1,0,0:0:0:0:
36,192,74079,1,0,0:0:0:0:
256,192,74079,1,0,0:0:0:0:
109,192,74079,1,0,0:0:0:0:
329,192,74079,1,0,0:0:0:0:
402,192,74145,1,0,0:0:0:0:
182,192,74212,1,0,0:0:0:0:
475,192,74212,1,0,0:0:0:0:
256,192,74212,1,0,0:0:0:0:
36,192,74212,1,0,0:0:0:0:
329,192,74279,1,0,0:0:0:0:
109,192,74345,1,0,0:0:0:0:
182,192,74345,1,0,0:0:0:0:
402,192,74345,1,0,0:0:0:0:
475,192,74345,1,0,0:0:0:0:
256,192,74411,1,0,0:0:0:0:
329,192,74478,1,0,0:0:0:0:
475,192,74478,1,0,0:0:0:0:
36,192,74478,1,0,0:0:0:0:
109,192,74478,1,0,0:0:0:0:
182,192,74544,1,0,0:0:0:0:
402,192,74544,1,0,0:0:0:0:
36,192,74611,1,0,0:0:0:0:
475,192,74611,1,0,0:0:0:0:
109,192,74611,1,0,0:0:0:0:
256,192,74611,1,0,0:0:0:0:
182,192,74678,1,0,0:0:0:0:
329,192,74678,1,0,0:0:0:0:
256,192,74744,1,0,0:0:0:0:
36,192,74744,1,0,0:0:0:0:
475,192,74744,1,0,0:0:0:0:
109,192,74811,1,0,0:0:0:0:
402,192,74811,1,0,0:0:0:0:
36,192,74877,1,0,0:0:0:0:
182,192,74877,1,0,0:0:0:0:
256,192,74877,1,0,0:0:0:0:
329,192,74877,1,0,0:0:0:0:
475,192,74877,1,0,0:0:0:0:
256,192,75011,1,0,0:0:0:0:
475,192,75011,1,0,0:0:0:0:
109,192,75011,1,0,0:0:0:0:
182,192,75077,1,0,0:0:0:0:
402,192,75077,1,0,0:0:0:0:
109,192,75144,1,0,0:0:0:0:
329,192,75144,1,0,0:0:0:0:
36,192,75144,1,0,0:0:0:0:
475,192,75144,1,0,0:0:0:0:
36,192,75276,1,0,0:0:0:0:
182,192,75276,1,0,0:0:0:0:
402,192,75276,1,0,0:0:0:0:
109,192,75343,1,0,0:0:0:0:
329,192,75343,1,0,0:0:0:0:
36,192,75410,1,0,0:0:0:0:
256,192,75410,1,0,0:0:0:0:
475,192,75410,1,0,0:0:0:0:
402,192,75410,1,0,0:0:0:0:
36,192,75543,1,0,0:0:0:0:
475,192,75543,1,0,0:0:0:0:
256,192,75543,1,0,0:0:0:0:
402,192,75609,1,0,0:0:0:0:
109,192,75609,1,0,0:0:0:0:
329,192,75643,1,0,0:0:0:0:
182,192,75643,1,0,0:0:0:0:
36,192,75676,1,0,0:0:0:0:
256,192,75676,1,0,0:0:0:0:
475,192,75676,1,0,0:0:0:0:
475,192,75809,1,0,0:0:0:0:
329,192,75809,1,0,0:0:0:0:
182,192,75809,1,0,0:0:0:0:
256,192,75876,1,0,0:0:0:0:
402,192,75876,1,0,0:0:0:0:
36,192,75942,1,0,0:0:0:0:
329,192,75942,1,0,0:0:0:0:
109,192,75942,1,0,0:0:0:0:
475,192,75942,1,0,0:0:0:0:
182,192,76009,1,0,0:0:0:0:
475,192,76075,1,0,0:0:0:0:
256,192,76075,1,0,0:0:0:0:
402,192,76142,1,0,0:0:0:0:
182,192,76142,1,0,0:0:0:0:
329,192,76209,1,0,0:0:0:0:
475,192,76209,1,0,0:0:0:0:
109,192,76209,1,0,0:0:0:0:
36,192,76209,1,0,0:0:0:0:
256,192,76275,1,0,0:0:0:0:
402,192,76341,1,0,0:0:0:0:
475,192,76341,1,0,0:0:0:0:
36,192,76341,1,0,0:0:0:0:
182,192,76341,1,0,0:0:0:0:
256,192,76408,1,0,0:0:0:0:
329,192,76408,1,0,0:0:0:0:
36,192,76474,1,0,0:0:0:0:
475,192,76474,1,0,0:0:0:0:
182,192,76474,1,0,0:0:0:0:
109,192,76474,1,0,0:0:0:0:
402,192,76541,1,0,0:0:0:0:
36,192,76608,1,0,0:0:0:0:
329,192,76608,1,0,0:0:0:0:
475,192,76608,1,0,0:0:0:0:
109,192,76608,1,0,0:0:0:0:
402,192,76674,1,0,0:0:0:0:
182,192,76674,1,0,0:0:0:0:
36,192,76741,1,0,0:0:0:0:
256,192,76741,1,0,0:0:0:0:
475,192,76741,1,0,0:0:0:0:
109,192,76807,1,0,0:0:0:0:
329,192,76807,1,0,0:0:0:0:
182,192,76874,1,0,0:0:0:0:
36,192,76874,1,0,0:0:0:0:
402,192,76874,1,0,0:0:0:0:
475,192,76874,1,0,0:0:0:0:
329,192,76941,1,0,0:0:0:0:
256,192,76941,1,0,0:0:0:0:
36,192,77007,1,0,0:0:0:0:
109,192,77007,1,0,0:0:0:0:
475,192,77007,1,0,0:0:0:0:
402,192,77007,1,0,0:0:0:0:
329,192,77074,1,0,0:0:0:0:
36,192,77140,1,0,0:0:0:0:
256,192,77140,1,0,0:0:0:0:
109,192,77206,1,0,0:0:0:0:
329,192,77206,1,0,0:0:0:0:
182,192,77273,1,0,0:0:0:0:
36,192,77273,1,0,0:0:0:0:
402,192,77273,1,0,0:0:0:0:
475,192,77273,1,0,0:0:0:0:
256,192,77340,1,0,0:0:0:0:
109,192,77406,1,0,0:0:0:0:
36,192,77406,1,0,0:0:0:0:
475,192,77406,1,0,0:0:0:0:
329,192,77406,1,0,0:0:0:0:
256,192,77473,1,0,0:0:0:0:
182,192,77473,1,0,0:0:0:0:
475,192,77539,1,0,0:0:0:0:
36,192,77539,1,0,0:0:0:0:
329,192,77539,1,0,0:0:0:0:
402,192,77539,1,0,0:0:0:0:
109,192,77606,1,0,0:0:0:0:
475,192,77672,1,0,0:0:0:0:
182,192,77672,1,0,0:0:0:0:
36,192,77672,1,0,0:0:0:0:
402,192,77672,1,0,0:0:0:0:
109,192,77739,1,0,0:0:0:0:
329,192,77739,1,0,0:0:0:0:
475,192,77806,1,0,0:0:0:0:
256,192,77806,1,0,0:0:0:0:
36,192,77806,1,0,0:0:0:0:
402,192,77872,1,0,0:0:0:0:
182,192,77872,1,0,0:0:0:0:
329,192,77939,1,0,0:0:0:0:
475,192,77939,1,0,0:0:0:0:
109,192,77939,1,0,0:0:0:0:
36,192,77939,1,0,0:0:0:0:
182,192,78005,1,0,0:0:0:0:
256,192,78005,1,0,0:0:0:0:
475,192,78071,1,0,0:0:0:0:
402,192,78071,1,0,0:0:0:0:
36,192,78071,1,0,0:0:0:0:
109,192,78071,1,0,0:0:0:0:
329,192,78139,1,0,0:0:0:0:
256,192,78205,1,0,0:0:0:0:
475,192,78205,1,0,0:0:0:0:
36,192,78205,1,0,0:0:0:0:
182,192,78271,1,0,0:0:0:0:
402,192,78271,1,0,0:0:0:0:
109,192,78338,1,0,0:0:0:0:
329,192,78338,1,0,0:0:0:0:
36,192,78338,1,0,0:0:0:0:
475,192,78338,1,0,0:0:0:0:
256,192,78404,1,0,0:0:0:0:
182,192,78471,1,0,0:0:0:0:
36,192,78471,1,0,0:0:0:0:
402,192,78471,1,0,0:0:0:0:
475,192,78471,1,0,0:0:0:0:
329,192,78538,1,0,0:0:0:0:
256,192,78604,1,0,0:0:0:0:
109,192,78604,1,0,0:0:0:0:
475,192,78604,1,0,0:0:0:0:
182,192,78671,1,0,0:0:0:0:
402,192,78671,1,0,0:0:0:0:
329,192,78737,1,0,0:0:0:0:
36,192,78737,1,0,0:0:0:0:
109,192,78737,1,0,0:0:0:0:
475,192,78737,1,0,0:0:0:0:
256,192,78804,1,0,0:0:0:0:
182,192,78870,1,0,0:0:0:0:
402,192,78870,1,0,0:0:0:0:
36,192,78870,1,0,0:0:0:0:
475,192,78870,1,0,0:0:0:0:
109,192,78937,1,0,0:0:0:0:
329,192,78937,1,0,0:0:0:0:
36,192,79004,1,0,0:0:0:0:
256,192,79004,1,0,0:0:0:0:
402,192,79004,1,0,0:0:0:0:
475,192,79004,1,0,0:0:0:0:
182,192,79070,1,0,0:0:0:0:
329,192,79070,1,0,0:0:0:0:
36,192,79136,1,0,0:0:0:0:
109,192,79136,1,0,0:0:0:0:
256,192,79136,1,0,0:0:0:0:
402,192,79136,1,0,0:0:0:0:
475,192,79136,1,0,0:0:0:0:
182,192,79203,1,0,0:0:0:0:
109,192,79269,1,0,0:0:0:0:
36,192,79269,1,0,0:0:0:0:
329,192,79269,1,0,0:0:0:0:
475,192,79269,1,0,0:0:0:0:
256,192,79336,1,0,0:0:0:0:
182,192,79403,1,0,0:0:0:0:
36,192,79403,1,0,0:0:0:0:
475,192,79403,1,0,0:0:0:0:
402,192,79403,1,0,0:0:0:0:
329,192,79469,1,0,0:0:0:0:
256,192,79536,1,0,0:0:0:0:
475,192,79536,1,0,0:0:0:0:
109,192,79536,1,0,0:0:0:0:
36,192,79536,1,0,0:0:0:0:
182,192,79602,1,0,0:0:0:0:
329,192,79602,1,0,0:0:0:0:
36,192,79669,1,0,0:0:0:0:
475,192,79669,1,0,0:0:0:0:
109,192,79669,1,0,0:0:0:0:
402,192,79669,1,0,0:0:0:0:
182,192,79736,1,0,0:0:0:0:
36,192,79802,1,0,0:0:0:0:
256,192,79802,1,0,0:0:0:0:
475,192,79802,1,0,0:0:0:0:
402,192,79802,1,0,0:0:0:0:
182,192,79869,1,0,0:0:0:0:
329,192,79869,1,0,0:0:0:0:
256,192,79935,1,0,0:0:0:0:
109,192,79935,1,0,0:0:0:0:
36,192,79935,1,0,0:0:0:0:
475,192,79935,1,0,0:0:0:0:
329,192,80001,1,0,0:0:0:0:
182,192,80001,1,0,0:0:0:0:
36,192,80068,1,0,0:0:0:0:
256,192,80068,1,0,0:0:0:0:
402,192,80068,1,0,0:0:0:0:
475,192,80068,1,0,0:0:0:0:
109,192,80135,1,0,0:0:0:0:
182,192,80201,1,0,0:0:0:0:
475,192,80201,1,0,0:0:0:0:
36,192,80201,1,0,0:0:0:0:
256,192,80201,1,0,0:0:0:0:
329,192,80201,1,0,0:0:0:0:
109,192,80268,1,0,0:0:0:0:
475,192,80334,1,0,0:0:0:0:
329,192,80334,1,0,0:0:0:0:
182,192,80334,1,0,0:0:0:0:
256,192,80401,1,0,0:0:0:0:
109,192,80401,1,0,0:0:0:0:
182,192,80467,1,0,0:0:0:0:
402,192,80467,1,0,0:0:0:0:
36,192,80467,1,0,0:0:0:0:
475,192,80467,1,0,0:0:0:0:
256,192,80534,1,0,0:0:0:0:
36,192,80601,1,0,0:0:0:0:
475,192,80601,1,0,0:0:0:0:
329,192,80601,1,0,0:0:0:0:
109,192,80601,1,0,0:0:0:0:
256,192,80667,1,0,0:0:0:0:
182,192,80667,1,0,0:0:0:0:
402,192,80734,1,0,0:0:0:0:
329,192,80734,1,0,0:0:0:0:
475,192,80734,1,0,0:0:0:0:
36,192,80734,1,0,0:0:0:0:
256,192,80800,1,0,0:0:0:0:
402,192,80866,1,0,0:0:0:0:
475,192,80866,1,0,0:0:0:0:
182,192,80866,1,0,0:0:0:0:
36,192,80866,1,0,0:0:0:0:
109,192,80934,1,0,0:0:0:0:
329,192,80934,1,0,0:0:0:0:
36,192,81000,1,0,0:0:0:0:
475,192,81000,1,0,0:0:0:0:
256,192,81000,1,0,0:0:0:0:
182,192,81066,1,0,0:0:0:0:
402,192,81066,1,0,0:0:0:0:
36,192,81133,1,0,0:0:0:0:
475,192,81133,1,0,0:0:0:0:
329,192,81133,1,0,0:0:0:0:
109,192,81133,1,0,0:0:0:0:
256,192,81199,1,0,0:0:0:0:
182,192,81199,1,0,0:0:0:0:
475,192,81266,1,0,0:0:0:0:
329,192,81266,1,0,0:0:0:0:
36,192,81266,1,0,0:0:0:0:
109,192,81266,1,0,0:0:0:0:
402,192,81333,1,0,0:0:0:0:
36,192,81399,1,0,0:0:0:0:
182,192,81399,1,0,0:0:0:0:
329,192,81399,1,0,0:0:0:0:
256,192,81466,1,0,0:0:0:0:
402,192,81466,1,0,0:0:0:0:
329,192,81532,1,0,0:0:0:0:
109,192,81532,1,0,0:0:0:0:
475,192,81532,1,0,0:0:0:0:
36,192,81532,1,0,0:0:0:0:
256,192,81599,1,0,0:0:0:0:
475,192,81665,1,0,0:0:0:0:
36,192,81665,1,0,0:0:0:0:
182,192,81665,1,0,0:0:0:0:
402,192,81665,1,0,0:0:0:0:
256,192,81732,1,0,0:0:0:0:
329,192,81732,1,0,0:0:0:0:
109,192,81799,1,0,0:0:0:0:
182,192,81799,1,0,0:0:0:0:
36,192,81799,1,0,0:0:0:0:
475,192,81799,1,0,0:0:0:0:
256,192,81865,1,0,0:0:0:0:
109,192,81931,1,0,0:0:0:0:
36,192,81931,1,0,0:0:0:0:
329,192,81931,1,0,0:0:0:0:
475,192,81931,1,0,0:0:0:0:
402,192,81998,1,0,0:0:0:0:
182,192,81998,1,0,0:0:0:0:
475,192,82064,1,0,0:0:0:0:
36,192,82064,1,0,0:0:0:0:
256,192,82064,1,0,0:0:0:0:
329,192,82131,1,0,0:0:0:0:
109,192,82131,1,0,0:0:0:0:
475,192,82198,1,0,0:0:0:0:
36,192,82198,1,0,0:0:0:0:
182,192,82198,1,0,0:0:0:0:
402,192,82198,1,0,0:0:0:0:
256,192,82264,1,0,0:0:0:0:
329,192,82264,1,0,0:0:0:0:
36,192,82331,1,0,0:0:0:0:
109,192,82331,1,0,0:0:0:0:
475,192,82331,1,0,0:0:0:0:
402,192,82331,1,0,0:0:0:0:
329,192,82397,1,0,0:0:0:0:
36,192,82464,1,0,0:0:0:0:
109,192,82464,1,0,0:0:0:0:
256,192,82464,1,0,0:0:0:0:
329,192,82531,1,0,0:0:0:0:
182,192,82531,1,0,0:0:0:0:
256,192,82597,1,0,0:0:0:0:
36,192,82597,1,0,0:0:0:0:
402,192,82597,1,0,0:0:0:0:
475,192,82597,1,0,0:0:0:0:
182,192,82664,1,0,0:0:0:0:
329,192,82730,1,0,0:0:0:0:
402,192,82730,1,0,0:0:0:0:
109,192,82730,1,0,0:0:0:0:
36,192,82730,1,0,0:0:0:0:
256,192,82796,1,0,0:0:0:0:
475,192,82863,1,0,0:0:0:0:
402,192,82863,1,0,0:0:0:0:
109,192,82863,1,0,0:0:0:0:
182,192,82863,1,0,0:0:0:0:
329,192,82930,1,0,0:0:0:0:
109,192,82996,1,0,0:0:0:0:
475,192,82996,1,0,0:0:0:0:
256,192,82996,1,0,0:0:0:0:
36,192,82996,1,0,0:0:0:0:
329,192,83063,1,0,0:0:0:0:
182,192,83063,1,0,0:0:0:0:
36,192,83129,1,0,0:0:0:0:
109,192,83129,1,0,0:0:0:0:
475,192,83129,1,0,0:0:0:0:
256,192,83129,1,0,0:0:0:0:
402,192,83129,1,0,0:0:0:0:
329,192,83196,1,0,0:0:0:0:
182,192,83196,1,0,0:0:0:0:
36,192,83262,1,0,0:0:0:0:
475,192,83262,1,0,0:0:0:0:
256,192,83262,1,0,0:0:0:0:
109,192,83329,1,0,0:0:0:0:
402,192,83329,1,0,0:0:0:0:
329,192,83396,1,0,0:0:0:0:
182,192,83396,1,0,0:0:0:0:
256,192,83396,1,0,0:0:0:0:
36,192,83396,1,0,0:0:0:0:
475,192,83396,1,0,0:0:0:0:
402,192,83462,1,0,0:0:0:0:
36,192,83529,1,0,0:0:0:0:
109,192,83529,1,0,0:0:0:0:
329,192,83529,1,0,0:0:0:0:
182,192,83595,1,0,0:0:0:0:
402,192,83595,1,0,0:0:0:0:
256,192,83661,1,0,0:0:0:0:
329,192,83661,1,0,0:0:0:0:
475,192,83661,1,0,0:0:0:0:
36,192,83661,1,0,0:0:0:0:
109,192,83729,1,0,0:0:0:0:
329,192,83795,1,0,0:0:0:0:
475,192,83795,1,0,0:0:0:0:
182,192,83795,1,0,0:0:0:0:
402,192,83861,1,0,0:0:0:0:
109,192,83861,1,0,0:0:0:0:
256,192,83861,1,0,0:0:0:0:
36,192,83928,1,0,0:0:0:0:
329,192,83928,1,0,0:0:0:0:
475,192,83928,1,0,0:0:0:0:
182,192,83928,1,0,0:0:0:0:
402,192,83994,1,0,0:0:0:0:
36,192,84061,1,0,0:0:0:0:
109,192,84061,1,0,0:0:0:0:
329,192,84061,1,0,0:0:0:0:
182,192,84128,1,0,0:0:0:0:
402,192,84128,1,0,0:0:0:0:
36,192,84194,1,0,0:0:0:0:
329,192,84194,1,0,0:0:0:0:
475,192,84194,1,0,0:0:0:0:
256,192,84194,1,0,0:0:0:0:
402,192,84261,1,0,0:0:0:0:
182,192,84261,1,0,0:0:0:0:
475,192,84327,1,0,0:0:0:0:
329,192,84327,1,0,0:0:0:0:
109,192,84327,1,0,0:0:0:0:
256,192,84394,1,0,0:0:0:0:
36,192,84394,1,0,0:0:0:0:
475,192,84460,1,0,0:0:0:0:
329,192,84460,1,0,0:0:0:0:
182,192,84460,1,0,0:0:0:0:
402,192,84460,1,0,0:0:0:0:
109,192,84527,1,0,0:0:0:0:
475,192,84594,1,0,0:0:0:0:
256,192,84594,1,0,0:0:0:0:
36,192,84594,1,0,0:0:0:0:
402,192,84660,1,0,0:0:0:0:
182,192,84660,1,0,0:0:0:0:
36,192,84726,1,0,0:0:0:0:
329,192,84726,1,0,0:0:0:0:
109,192,84726,1,0,0:0:0:0:
256,192,84793,1,0,0:0:0:0:
475,192,84859,1,0,0:0:0:0:
402,192,84859,1,0,0:0:0:0:
36,192,84859,1,0,0:0:0:0:
182,192,84859,1,0,0:0:0:0:
109,192,84926,1,0,0:0:0:0:
256,192,84926,1,0,0:0:0:0:
475,192,84993,1,0,0:0:0:0:
182,192,84993,1,0,0:0:0:0:
329,192,84993,1,0,0:0:0:0:
109,192,85059,1,0,0:0:0:0:
256,192,85126,1,0,0:0:0:0:
402,192,85126,1,0,0:0:0:0:
36,192,85126,1,0,0:0:0:0:
475,192,85126,1,0,0:0:0:0:
329,192,85192,1,0,0:0:0:0:
182,192,85192,1,0,0:0:0:0:
475,192,85259,1,0,0:0:0:0:
402,192,85259,1,0,0:0:0:0:
256,192,85259,1,0,0:0:0:0:
109,192,85259,1,0,0:0:0:0:
36,192,85259,1,0,0:0:0:0:
329,192,85326,1,0,0:0:0:0:
182,192,85326,1,0,0:0:0:0:
475,192,85392,1,0,0:0:0:0:
36,192,85392,1,0,0:0:0:0:
256,192,85392,1,0,0:0:0:0:
402,192,85459,1,0,0:0:0:0:
109,192,85459,1,0,0:0:0:0:
329,192,85525,1,0,0:0:0:0:
475,192,85525,1,0,0:0:0:0:
182,192,85525,1,0,0:0:0:0:
36,192,85525,1,0,0:0:0:0:
256,192,85525,1,0,0:0:0:0:
109,192,85591,1,0,0:0:0:0:
475,192,85658,1,0,0:0:0:0:
256,192,85658,1,0,0:0:0:0:
36,192,85658,1,0,0:0:0:0:
402,192,85725,1,0,0:0:0:0:
182,192,85725,1,0,0:0:0:0:
36,192,85791,1,0,0:0:0:0:
475,192,85791,1,0,0:0:0:0:
109,192,85791,1,0,0:0:0:0:
329,192,85791,1,0,0:0:0:0:
256,192,85858,1,0,0:0:0:0:
475,192,85924,1,0,0:0:0:0:
402,192,85924,1,0,0:0:0:0:
36,192,85924,1,0,0:0:0:0:
182,192,85924,1,0,0:0:0:0:
109,192,85991,1,0,0:0:0:0:
256,192,85991,1,0,0:0:0:0:
475,192,86057,1,0,0:0:0:0:
329,192,86057,1,0,0:0:0:0:
182,192,86057,1,0,0:0:0:0:
109,192,86124,1,0,0:0:0:0:
402,192,86191,1,0,0:0:0:0:
256,192,86191,1,0,0:0:0:0:
36,192,86191,1,0,0:0:0:0:
475,192,86191,1,0,0:0:0:0:
329,192,86257,1,0,0:0:0:0:
182,192,86257,1,0,0:0:0:0:
475,192,86324,1,0,0:0:0:0:
402,192,86324,1,0,0:0:0:0:
256,192,86324,1,0,0:0:0:0:
109,192,86324,1,0,0:0:0:0:
36,192,86324,1,0,0:0:0:0:
329,192,86390,1,0,0:0:0:0:
182,192,86390,1,0,0:0:0:0:
402,192,86457,1,0,0:0:0:0:
109,192,86457,1,0,0:0:0:0:
256,192,86457,1,0,0:0:0:0:
182,192,86524,1,0,0:0:0:0:
329,192,86524,1,0,0:0:0:0:
256,192,86590,1,0,0:0:0:0:
402,192,86590,1,0,0:0:0:0:
109,192,86590,1,0,0:0:0:0:
36,192,86590,1,0,0:0:0:0:
475,192,86590,1,0,0:0:0:0:
182,192,86656,1,0,0:0:0:0:
329,192,86723,1,0,0:0:0:0:
402,192,86723,1,0,0:0:0:0:
36,192,86723,1,0,0:0:0:0:
109,192,86723,1,0,0:0:0:0:
256,192,86789,1,0,0:0:0:0:
402,192,86856,1,0,0:0:0:0:
475,192,86856,1,0,0:0:0:0:
182,192,86856,1,0,0:0:0:0:
109,192,86856,1,0,0:0:0:0:
329,192,86923,1,0,0:0:0:0:
475,192,86989,1,0,0:0:0:0:
36,192,86989,1,0,0:0:0:0:
256,192,86989,1,0,0:0:0:0:
182,192,86989,1,0,0:0:0:0:
402,192,87056,1,0,0:0:0:0:
329,192,87056,1,0,0:0:0:0:
109,192,87056,1,0,0:0:0:0:
475,192,87122,1,0,0:0:0:0:
256,192,87122,1,0,0:0:0:0:
36,192,87122,1,0,0:0:0:0:
182,192,87189,1,0,0:0:0:0:
475,192,87256,1,0,0:0:0:0:
329,192,87256,1,0,0:0:0:0:
109,192,87256,1,0,0:0:0:0:
36,192,87256,1,0,0:0:0:0:
256,192,87322,1,0,0:0:0:0:
402,192,87389,1,0,0:0:0:0:
475,192,87389,1,0,0:0:0:0:
182,192,87389,1,0,0:0:0:0:
109,192,87389,1,0,0:0:0:0:
329,192,87455,1,0,0:0:0:0:
475,192,87521,1,0,0:0:0:0:
36,192,87521,1,0,0:0:0:0:
256,192,87521,1,0,0:0:0:0:
182,192,87521,1,0,0:0:0:0:
402,192,87588,1,0,0:0:0:0:
329,192,87655,1,0,0:0:0:0:
256,192,87655,1,0,0:0:0:0:
36,192,87655,1,0,0:0:0:0:
475,192,87655,1,0,0:0:0:0:
109,192,87721,1,0,0:0:0:0:
402,192,87721,1,0,0:0:0:0:
256,192,87788,1,0,0:0:0:0:
182,192,87788,1,0,0:0:0:0:
329,192,87788,1,0,0:0:0:0:
402,192,87854,1,0,0:0:0:0:
109,192,87854,1,0,0:0:0:0:
329,192,87921,1,0,0:0:0:0:
475,192,87921,1,0,0:0:0:0:
36,192,87921,1,0,0:0:0:0:
182,192,87921,1,0,0:0:0:0:
402,192,87987,1,0,0:0:0:0:
256,192,87987,1,0,0:0:0:0:
329,192,88054,1,0,0:0:0:0:
475,192,88054,1,0,0:0:0:0:
36,192,88054,1,0,0:0:0:0:
109,192,88054,1,0,0:0:0:0:
402,192,88121,1,0,0:0:0:0:
256,192,88121,1,0,0:0:0:0:
182,192,88187,1,0,0:0:0:0:
36,192,88187,1,0,0:0:0:0:
329,192,88187,1,0,0:0:0:0:
475,192,88187,1,0,0:0:0:0:
402,192,88254,1,0,0:0:0:0:
109,192,88254,1,0,0:0:0:0:
329,192,88320,1,0,0:0:0:0:
256,192,88320,1,0,0:0:0:0:
182,192,88320,1,0,0:0:0:0:
402,192,88386,1,0,0:0:0:0:
109,192,88386,1,0,0:0:0:0:
329,192,88454,1,0,0:0:0:0:
256,192,88454,1,0,0:0:0:0:
36,192,88454,1,0,0:0:0:0:
475,192,88454,1,0,0:0:0:0:
182,192,88586,1,0,0:0:0:0:
109,192,88586,1,0,0:0:0:0:
329,192,88586,1,0,0:0:0:0:
402,192,88586,1,0,0:0:0:0:
402,192,88719,1,0,0:0:0:0:
256,192,88719,1,0,0:0:0:0:
109,192,88719,1,0,0:0:0:0:
475,192,88719,1,0,0:0:0:0:
36,192,88719,1,0,0:0:0:0:
36,192,88986,1,0,0:0:0:0:
329,192,88986,1,0,0:0:0:0:
182,192,88986,1,0,0:0:0:0:
109,192,89052,1,0,0:0:0:0:
256,192,89052,1,0,0:0:0:0:
402,192,89052,1,0,0:0:0:0:
182,192,89119,1,0,0:0:0:0:
329,192,89119,1,0,0:0:0:0:
475,192,89119,1,0,0:0:0:0:
256,192,89185,1,0,0:0:0:0:
402,192,89185,1,0,0:0:0:0:
109,192,89185,1,0,0:0:0:0:
182,192,89252,1,0,0:0:0:0:
329,192,89252,1,0,0:0:0:0:
475,192,89252,1,0,0:0:0:0:
36,192,89252,1,0,0:0:0:0:
36,192,89385,1,0,0:0:0:0:
109,192,89385,1,0,0:0:0:0:
256,192,89385,1,0,0:0:0:0:
402,192,89385,1,0,0:0:0:0:
475,192,89518,1,0,0:0:0:0:
329,192,89518,1,0,0:0:0:0:
109,192,89518,1,0,0:0:0:0:
182,192,89518,1,0,0:0:0:0:
36,192,89651,1,0,0:0:0:0:
256,192,89651,1,0,0:0:0:0:
475,192,89651,1,0,0:0:0:0:
109,192,89651,1,0,0:0:0:0:
402,192,89651,1,0,0:0:0:0:
329,192,89917,1,0,0:0:0:0:
475,192,89917,1,0,0:0:0:0:
109,192,89917,1,0,0:0:0:0:
402,192,89984,1,0,0:0:0:0:
256,192,89984,1,0,0:0:0:0:
329,192,90051,1,0,0:0:0:0:
182,192,90051,1,0,0:0:0:0:
36,192,90051,1,0,0:0:0:0:
475,192,90051,1,0,0:0:0:0:
402,192,90184,1,0,0:0:0:0:
256,192,90184,1,0,0:0:0:0:
36,192,90184,1,0,0:0:0:0:
329,192,90250,1,0,0:0:0:0:
182,192,90250,1,0,0:0:0:0:
256,192,90316,1,0,0:0:0:0:
109,192,90316,1,0,0:0:0:0:
36,192,90316,1,0,0:0:0:0:
475,192,90316,1,0,0:0:0:0:
182,192,90450,1,0,0:0:0:0:
36,192,90450,1,0,0:0:0:0:
402,192,90450,1,0,0:0:0:0:
109,192,90516,1,0,0:0:0:0:
256,192,90516,1,0,0:0:0:0:
475,192,90583,1,0,0:0:0:0:
329,192,90583,1,0,0:0:0:0:
182,192,90583,1,0,0:0:0:0:
36,192,90583,1,0,0:0:0:0:
109,192,90716,1,0,0:0:0:0:
256,192,90716,1,0,0:0:0:0:
402,192,90716,1,0,0:0:0:0:
182,192,90782,1,0,0:0:0:0:
329,192,90782,1,0,0:0:0:0:
36,192,90849,1,0,0:0:0:0:
256,192,90849,1,0,0:0:0:0:
475,192,90849,1,0,0:0:0:0:
402,192,90849,1,0,0:0:0:0:
109,192,90849,1,0,0:0:0:0:
475,192,91115,1,0,0:0:0:0:
182,192,91115,1,0,0:0:0:0:
329,192,91115,1,0,0:0:0:0:
329,192,91249,1,0,0:0:0:0:
182,192,91249,1,0,0:0:0:0:
36,192,91249,1,0,0:0:0:0:
256,192,91315,1,0,0:0:0:0:
109,192,91315,1,0,0:0:0:0:
402,192,91315,1,0,0:0:0:0:
329,192,91381,1,0,0:0:0:0:
182,192,91381,1,0,0:0:0:0:
36,192,91381,1,0,0:0:0:0:
475,192,91381,1,0,0:0:0:0:
475,192,91514,1,0,0:0:0:0:
402,192,91514,1,0,0:0:0:0:
256,192,91514,1,0,0:0:0:0:
109,192,91514,1,0,0:0:0:0:
36,192,91648,1,0,0:0:0:0:
182,192,91648,1,0,0:0:0:0:
402,192,91648,1,0,0:0:0:0:
329,192,91648,1,0,0:0:0:0:
475,192,91781,1,0,0:0:0:0:
256,192,91781,1,0,0:0:0:0:
36,192,91781,1,0,0:0:0:0:
402,192,91781,1,0,0:0:0:0:
109,192,91781,1,0,0:0:0:0:
182,192,92047,1,0,0:0:0:0:
36,192,92047,1,0,0:0:0:0:
402,192,92047,1,0,0:0:0:0:
109,192,92114,1,0,0:0:0:0:
256,192,92114,1,0,0:0:0:0:
182,192,92180,1,0,0:0:0:0:
329,192,92180,1,0,0:0:0:0:
475,192,92180,1,0,0:0:0:0:
36,192,92180,1,0,0:0:0:0:
109,192,92313,1,0,0:0:0:0:
256,192,92313,1,0,0:0:0:0:
402,192,92313,1,0,0:0:0:0:
182,192,92379,1,0,0:0:0:0:
329,192,92379,1,0,0:0:0:0:
256,192,92446,1,0,0:0:0:0:
402,192,92446,1,0,0:0:0:0:
475,192,92446,1,0,0:0:0:0:
36,192,92446,1,0,0:0:0:0:
109,192,92446,1,0,0:0:0:0:
182,192,92513,1,0,0:0:0:0:
329,192,92513,1,0,0:0:0:0:
256,192,92579,1,0,0:0:0:0:
36,192,92579,1,0,0:0:0:0:
475,192,92579,1,0,0:0:0:0:
109,192,92646,1,0,0:0:0:0:
402,192,92646,1,0,0:0:0:0:
36,192,92712,1,0,0:0:0:0:
475,192,92712,1,0,0:0:0:0:
256,192,92712,1,0,0:0:0:0:
182,192,92712,1,0,0:0:0:0:
329,192,92712,1,0,0:0:0:0:
109,192,92779,1,0,0:0:0:0:
402,192,92779,1,0,0:0:0:0:
182,192,92846,1,0,0:0:0:0:
329,192,92846,1,0,0:0:0:0:
256,192,92846,1,0,0:0:0:0:
402,192,92912,1,0,0:0:0:0:
109,192,92912,1,0,0:0:0:0:
256,192,92979,1,0,0:0:0:0:
182,192,92979,1,0,0:0:0:0:
329,192,92979,1,0,0:0:0:0:
475,192,92979,1,0,0:0:0:0:
36,192,92979,1,0,0:0:0:0:
109,192,93111,1,0,0:0:0:0:
475,192,93111,1,0,0:0:0:0:
256,192,93111,1,0,0:0:0:0:
402,192,93178,1,0,0:0:0:0:
182,192,93178,1,0,0:0:0:0:
36,192,93245,1,0,0:0:0:0:
475,192,93245,1,0,0:0:0:0:
329,192,93245,1,0,0:0:0:0:
109,192,93245,1,0,0:0:0:0:
36,192,93378,1,0,0:0:0:0:
402,192,93378,1,0,0:0:0:0:
182,192,93378,1,0,0:0:0:0:
109,192,93444,1,0,0:0:0:0:
329,192,93444,1,0,0:0:0:0:
475,192,93511,1,0,0:0:0:0:
402,192,93511,1,0,0:0:0:0:
36,192,93511,1,0,0:0:0:0:
256,192,93511,1,0,0:0:0:0:
109,192,93644,1,0,0:0:0:0:
36,192,93644,1,0,0:0:0:0:
256,192,93644,1,0,0:0:0:0:
475,192,93644,1,0,0:0:0:0:
329,192,93711,1,0,0:0:0:0:
402,192,93711,1,0,0:0:0:0:
182,192,93711,1,0,0:0:0:0:
475,192,93777,1,0,0:0:0:0:
256,192,93777,1,0,0:0:0:0:
36,192,93777,1,0,0:0:0:0:
109,192,93777,1,0,0:0:0:0:
475,192,93910,1,0,0:0:0:0:
109,192,93910,1,0,0:0:0:0:
329,192,93910,1,0,0:0:0:0:
402,192,93976,1,0,0:0:0:0:
182,192,93976,1,0,0:0:0:0:
36,192,94044,1,0,0:0:0:0:
256,192,94044,1,0,0:0:0:0:
109,192,94044,1,0,0:0:0:0:
475,192,94044,1,0,0:0:0:0:
402,192,94176,1,0,0:0:0:0:
182,192,94176,1,0,0:0:0:0:
36,192,94176,1,0,0:0:0:0:
256,192,94243,1,0,0:0:0:0:
109,192,94243,1,0,0:0:0:0:
329,192,94309,1,0,0:0:0:0:
36,192,94309,1,0,0:0:0:0:
182,192,94309,1,0,0:0:0:0:
475,192,94309,1,0,0:0:0:0:
475,192,94443,1,0,0:0:0:0:
109,192,94443,1,0,0:0:0:0:
256,192,94443,1,0,0:0:0:0:
329,192,94509,1,0,0:0:0:0:
182,192,94509,1,0,0:0:0:0:
36,192,94576,1,0,0:0:0:0:
109,192,94576,1,0,0:0:0:0:
256,192,94576,1,0,0:0:0:0:
402,192,94576,1,0,0:0:0:0:
182,192,94709,1,0,0:0:0:0:
475,192,94709,1,0,0:0:0:0:
36,192,94709,1,0,0:0:0:0:
402,192,94709,1,0,0:0:0:0:
329,192,94775,1,0,0:0:0:0:
109,192,94775,1,0,0:0:0:0:
256,192,94775,1,0,0:0:0:0:
182,192,94842,1,0,0:0:0:0:
402,192,94842,1,0,0:0:0:0:
475,192,94842,1,0,0:0:0:0:
36,192,94842,1,0,0:0:0:0:
256,192,94975,1,0,0:0:0:0:
36,192,94975,1,0,0:0:0:0:
402,192,94975,1,0,0:0:0:0:
329,192,95041,1,0,0:0:0:0:
182,192,95041,1,0,0:0:0:0:
402,192,95108,1,0,0:0:0:0:
256,192,95108,1,0,0:0:0:0:
475,192,95108,1,0,0:0:0:0:
109,192,95108,1,0,0:0:0:0:
329,192,95241,1,0,0:0:0:0:
402,192,95241,1,0,0:0:0:0:
36,192,95241,1,0,0:0:0:0:
182,192,95241,1,0,0:0:0:0:
329,192,95374,1,0,0:0:0:0:
475,192,95374,1,0,0:0:0:0:
109,192,95374,1,0,0:0:0:0:
256,192,95374,1,0,0:0:0:0:
256,192,95507,1,0,0:0:0:0:
402,192,95507,1,0,0:0:0:0:
36,192,95507,1,0,0:0:0:0:
182,192,95507,1,0,0:0:0:0:
475,192,95641,1,0,0:0:0:0:
182,192,95641,1,0,0:0:0:0:
109,192,95641,1,0,0:0:0:0:
329,192,95641,1,0,0:0:0:0:
182,192,95774,1,0,0:0:0:0:
256,192,95774,1,0,0:0:0:0:
36,192,95774,1,0,0:0:0:0:
402,192,95774,1,0,0:0:0:0:
329,192,95906,1,0,0:0:0:0:
109,192,95906,1,0,0:0:0:0:
475,192,95906,1,0,0:0:0:0:
256,192,95906,1,0,0:0:0:0:
402,192,96040,1,0,0:0:0:0:
182,192,96040,1,0,0:0:0:0:
329,192,96040,1,0,0:0:0:0:
36,192,96040,1,0,0:0:0:0:
475,192,96173,1,0,0:0:0:0:
182,192,96173,1,0,0:0:0:0:
36,192,96173,1,0,0:0:0:0:
402,192,96173,1,0,0:0:0:0:
256,192,96239,1,0,0:0:0:0:
109,192,96306,1,0,0:0:0:0:
329,192,96306,1,0,0:0:0:0:
475,192,96306,1,0,0:0:0:0:
36,192,96306,1,0,0:0:0:0:
256,192,96372,1,0,0:0:0:0:
402,192,96439,1,0,0:0:0:0:
475,192,96439,1,0,0:0:0:0:
36,192,96439,1,0,0:0:0:0:
182,192,96439,1,0,0:0:0:0:
256,192,96506,1,0,0:0:0:0:
109,192,96572,1,0,0:0:0:0:
36,192,96572,1,0,0:0:0:0:
329,192,96572,1,0,0:0:0:0:
475,192,96572,1,0,0:0:0:0:
256,192,96639,1,0,0:0:0:0:
402,192,96705,1,0,0:0:0:0:
475,192,96705,1,0,0:0:0:0:
182,192,96705,1,0,0:0:0:0:
36,192,96705,1,0,0:0:0:0:
256,192,96771,1,0,0:0:0:0:
329,192,96771,1,0,0:0:0:0:
36,192,96839,1,0,0:0:0:0:
109,192,96839,1,0,0:0:0:0:
402,192,96839,1,0,0:0:0:0:
475,192,96839,1,0,0:0:0:0:
256,192,96905,1,0,0:0:0:0:
182,192,96905,1,0,0:0:0:0:
402,192,96971,1,0,0:0:0:0:
475,192,96971,1,0,0:0:0:0:
36,192,96971,1,0,0:0:0:0:
109,192,96971,1,0,0:0:0:0:
256,192,97038,1,0,0:0:0:0:
329,192,97038,1,0,0:0:0:0:
109,192,97104,1,0,0:0:0:0:
36,192,97104,1,0,0:0:0:0:
402,192,97104,1,0,0:0:0:0:
475,192,97104,1,0,0:0:0:0:
256,192,97171,1,0,0:0:0:0:
182,192,97171,1,0,0:0:0:0:
109,192,97238,1,0,0:0:0:0:
329,192,97238,1,0,0:0:0:0:
475,192,97238,1,0,0:0:0:0:
36,192,97238,1,0,0:0:0:0:
402,192,97304,1,0,0:0:0:0:
182,192,97304,1,0,0:0:0:0:
36,192,97371,1,0,0:0:0:0:
475,192,97371,1,0,0:0:0:0:
256,192,97371,1,0,0:0:0:0:
329,192,97437,1,0,0:0:0:0:
109,192,97437,1,0,0:0:0:0:
475,192,97504,1,0,0:0:0:0:
402,192,97504,1,0,0:0:0:0:
182,192,97504,1,0,0:0:0:0:
256,192,97571,1,0,0:0:0:0:
36,192,97571,1,0,0:0:0:0:
329,192,97637,1,0,0:0:0:0:
109,192,97637,1,0,0:0:0:0:
402,192,97704,1,0,0:0:0:0:
182,192,97704,1,0,0:0:0:0:
36,192,97770,1,0,0:0:0:0:
475,192,97770,1,0,0:0:0:0:
256,192,97770,1,0,0:0:0:0:
402,192,97836,1,0,0:0:0:0:
109,192,97836,1,0,0:0:0:0:
256,192,97903,1,0,0:0:0:0:
36,192,97903,1,0,0:0:0:0:
475,192,97903,1,0,0:0:0:0:
329,192,97970,1,0,0:0:0:0:
182,192,97970,1,0,0:0:0:0:
256,192,98036,1,0,0:0:0:0:
475,192,98036,1,0,0:0:0:0:
402,192,98036,1,0,0:0:0:0:
36,192,98036,1,0,0:0:0:0:
109,192,98036,1,0,0:0:0:0:
329,192,98103,1,0,0:0:0:0:
182,192,98103,1,0,0:0:0:0:
475,192,98169,1,0,0:0:0:0:
36,192,98169,1,0,0:0:0:0:
256,192,98169,1,0,0:0:0:0:
109,192,98236,1,0,0:0:0:0:
402,192,98236,1,0,0:0:0:0:
36,192,98302,1,0,0:0:0:0:
475,192,98302,1,0,0:0:0:0:
256,192,98302,1,0,0:0:0:0:
182,192,98302,1,0,0:0:0:0:
329,192,98302,1,0,0:0:0:0:
402,192,98369,1,0,0:0:0:0:
109,192,98369,1,0,0:0:0:0:
256,192,98436,1,0,0:0:0:0:
475,192,98436,1,0,0:0:0:0:
36,192,98436,1,0,0:0:0:0:
182,192,98436,1,0,0:0:0:0:
329,192,98502,1,0,0:0:0:0:
109,192,98502,1,0,0:0:0:0:
475,192,98569,1,0,0:0:0:0:
402,192,98569,1,0,0:0:0:0:
36,192,98569,1,0,0:0:0:0:
182,192,98569,1,0,0:0:0:0:
109,192,98635,1,0,0:0:0:0:
256,192,98635,1,0,0:0:0:0:
329,192,98701,1,0,0:0:0:0:
475,192,98701,1,0,0:0:0:0:
36,192,98701,1,0,0:0:0:0:
182,192,98701,1,0,0:0:0:0:
402,192,98769,1,0,0:0:0:0:
256,192,98835,1,0,0:0:0:0:
109,192,98835,1,0,0:0:0:0:
475,192,98835,1,0,0:0:0:0:
36,192,98901,1,0,0:0:0:0:
329,192,98968,1,0,0:0:0:0:
182,192,98968,1,0,0:0:0:0:
475,192,98968,1,0,0:0:0:0:
109,192,99034,1,0,0:0:0:0:
256,192,99101,1,0,0:0:0:0:
36,192,99101,1,0,0:0:0:0:
402,192,99101,1,0,0:0:0:0:
475,192,99168,1,0,0:0:0:0:
109,192,99234,1,0,0:0:0:0:
36,192,99234,1,0,0:0:0:0:
329,192,99234,1,0,0:0:0:0:
182,192,99301,1,0,0:0:0:0:
402,192,99301,1,0,0:0:0:0:
36,192,99367,1,0,0:0:0:0:
109,192,99367,1,0,0:0:0:0:
475,192,99367,1,0,0:0:0:0:
256,192,99367,1,0,0:0:0:0:
402,192,99434,1,0,0:0:0:0:
182,192,99434,1,0,0:0:0:0:
329,192,99500,1,0,0:0:0:0:
256,192,99500,1,0,0:0:0:0:
109,192,99500,1,0,0:0:0:0:
36,192,99500,1,0,0:0:0:0:
475,192,99567,1,0,0:0:0:0:
182,192,99567,1,0,0:0:0:0:
402,192,99634,1,0,0:0:0:0:
256,192,99634,1,0,0:0:0:0:
109,192,99634,1,0,0:0:0:0:
36,192,99634,1,0,0:0:0:0:
329,192,99700,1,0,0:0:0:0:
182,192,99700,1,0,0:0:0:0:
256,192,99766,1,0,0:0:0:0:
475,192,99766,1,0,0:0:0:0:
109,192,99766,1,0,0:0:0:0:
36,192,99766,1,0,0:0:0:0:
402,192,99833,1,0,0:0:0:0:
475,192,99899,1,0,0:0:0:0:
329,192,99899,1,0,0:0:0:0:
109,192,99899,1,0,0:0:0:0:
182,192,99966,1,0,0:0:0:0:
402,192,100033,1,0,0:0:0:0:
256,192,100033,1,0,0:0:0:0:
36,192,100033,1,0,0:0:0:0:
109,192,100099,1,0,0:0:0:0:
402,192,100166,1,0,0:0:0:0:
182,192,100166,1,0,0:0:0:0:
329,192,100232,1,0,0:0:0:0:
36,192,100299,1,0,0:0:0:0:
256,192,100299,1,0,0:0:0:0:
475,192,100299,1,0,0:0:0:0:
109,192,100366,1,0,0:0:0:0:
402,192,100366,1,0,0:0:0:0:
36,192,100432,1,0,0:0:0:0:
256,192,100432,1,0,0:0:0:0:
329,192,100432,1,0,0:0:0:0:
182,192,100432,1,0,0:0:0:0:
402,192,100499,1,0,0:0:0:0:
109,192,100499,1,0,0:0:0:0:
475,192,100565,1,0,0:0:0:0:
256,192,100565,1,0,0:0:0:0:
36,192,100565,1,0,0:0:0:0:
182,192,100565,1,0,0:0:0:0:
329,192,100631,1,0,0:0:0:0:
109,192,100631,1,0,0:0:0:0:
402,192,100698,1,0,0:0:0:0:
475,192,100698,1,0,0:0:0:0:
36,192,100698,1,0,0:0:0:0:
182,192,100698,1,0,0:0:0:0:
256,192,100765,1,0,0:0:0:0:
109,192,100765,1,0,0:0:0:0:
329,192,100831,1,0,0:0:0:0:
475,192,100831,1,0,0:0:0:0:
36,192,100831,1,0,0:0:0:0:
182,192,100831,1,0,0:0:0:0:
402,192,100898,1,0,0:0:0:0:
475,192,100964,1,0,0:0:0:0:
109,192,100964,1,0,0:0:0:0:
256,192,100964,1,0,0:0:0:0:
36,192,101031,1,0,0:0:0:0:
182,192,101097,1,0,0:0:0:0:
475,192,101097,1,0,0:0:0:0:
402,192,101097,1,0,0:0:0:0:
109,192,101164,1,0,0:0:0:0:
329,192,101164,1,0,0:0:0:0:
402,192,101231,1,0,0:0:0:0:
256,192,101231,1,0,0:0:0:0:
36,192,101231,1,0,0:0:0:0:
475,192,101297,1,0,0:0:0:0:
109,192,101364,1,0,0:0:0:0:
329,192,101364,1,0,0:0:0:0:
36,192,101364,1,0,0:0:0:0:
402,192,101430,1,0,0:0:0:0:
182,192,101430,1,0,0:0:0:0:
109,192,101496,1,0,0:0:0:0:
329,192,101496,1,0,0:0:0:0:
36,192,101496,1,0,0:0:0:0:
256,192,101496,1,0,0:0:0:0:
475,192,101496,1,0,0:0:0:0:
402,192,101564,1,0,0:0:0:0:
182,192,101564,1,0,0:0:0:0:
36,192,101630,1,0,0:0:0:0:
256,192,101630,1,0,0:0:0:0:
329,192,101696,1,0,0:0:0:0:
109,192,101696,1,0,0:0:0:0:
402,192,101763,1,0,0:0:0:0:
475,192,101763,1,0,0:0:0:0:
256,192,101763,1,0,0:0:0:0:
36,192,101763,1,0,0:0:0:0:
182,192,101763,1,0,0:0:0:0:
329,192,101829,1,0,0:0:0:0:
109,192,101829,1,0,0:0:0:0:
256,192,101896,1,0,0:0:0:0:
475,192,101896,1,0,0:0:0:0:
182,192,101963,1,0,0:0:0:0:
402,192,101963,1,0,0:0:0:0:
256,192,102029,1,0,0:0:0:0:
475,192,102029,1,0,0:0:0:0:
329,192,102029,1,0,0:0:0:0:
109,192,102029,1,0,0:0:0:0:
36,192,102029,1,0,0:0:0:0:
402,192,102096,1,0,0:0:0:0:
182,192,102096,1,0,0:0:0:0:
256,192,102162,1,0,0:0:0:0:
36,192,102162,1,0,0:0:0:0:
329,192,102229,1,0,0:0:0:0:
109,192,102229,1,0,0:0:0:0:
36,192,102295,1,0,0:0:0:0:
256,192,102295,1,0,0:0:0:0:
182,192,102295,1,0,0:0:0:0:
402,192,102295,1,0,0:0:0:0:
475,192,102295,1,0,0:0:0:0:
329,192,102362,1,0,0:0:0:0:
109,192,102362,1,0,0:0:0:0:
256,192,102429,1,0,0:0:0:0:
475,192,102429,1,0,0:0:0:0:
36,192,102429,1,0,0:0:0:0:
402,192,102495,1,0,0:0:0:0:
182,192,102495,1,0,0:0:0:0:
329,192,102561,1,0,0:0:0:0:
475,192,102561,1,0,0:0:0:0:
256,192,102561,1,0,0:0:0:0:
36,192,102561,1,0,0:0:0:0:
109,192,102561,1,0,0:0:0:0:
402,192,102628,1,0,0:0:0:0:
182,192,102628,1,0,0:0:0:0:
329,192,102694,1,0,0:0:0:0:
256,192,102694,1,0,0:0:0:0:
109,192,102694,1,0,0:0:0:0:
36,192,102694,1,0,0:0:0:0:
475,192,102761,1,0,0:0:0:0:
182,192,102761,1,0,0:0:0:0:
402,192,102828,1,0,0:0:0:0:
256,192,102828,1,0,0:0:0:0:
109,192,102828,1,0,0:0:0:0:
36,192,102828,1,0,0:0:0:0:
329,192,102894,1,0,0:0:0:0:
182,192,102894,1,0,0:0:0:0:
475,192,102961,1,0,0:0:0:0:
256,192,102961,1,0,0:0:0:0:
109,192,102961,1,0,0:0:0:0:
36,192,102961,1,0,0:0:0:0:
402,192,103027,1,0,0:0:0:0:
256,192,103094,1,0,0:0:0:0:
109,192,103094,1,0,0:0:0:0:
475,192,103094,1,0,0:0:0:0:
36,192,103161,1,0,0:0:0:0:
329,192,103227,1,0,0:0:0:0:
182,192,103227,1,0,0:0:0:0:
475,192,103227,1,0,0:0:0:0:
109,192,103294,1,0,0:0:0:0:
256,192,103360,1,0,0:0:0:0:
36,192,103360,1,0,0:0:0:0:
402,192,103360,1,0,0:0:0:0:
475,192,103426,1,0,0:0:0:0:
182,192,103493,1,0,0:0:0:0:
36,192,103493,1,0,0:0:0:0:
329,192,103493,1,0,0:0:0:0:
109,192,103560,1,0,0:0:0:0:
402,192,103560,1,0,0:0:0:0:
182,192,103626,1,0,0:0:0:0:
256,192,103626,1,0,0:0:0:0:
475,192,103626,1,0,0:0:0:0:
36,192,103626,1,0,0:0:0:0:
329,192,103693,1,0,0:0:0:0:
109,192,103693,1,0,0:0:0:0:
402,192,103759,1,0,0:0:0:0:
475,192,103759,1,0,0:0:0:0:
36,192,103759,1,0,0:0:0:0:
182,192,103759,1,0,0:0:0:0:
256,192,103826,1,0,0:0:0:0:
109,192,103826,1,0,0:0:0:0:
329,192,103892,1,0,0:0:0:0:
475,192,103892,1,0,0:0:0:0:
36,192,103892,1,0,0:0:0:0:
182,192,103892,1,0,0:0:0:0:
402,192,103959,1,0,0:0:0:0:
109,192,103959,1,0,0:0:0:0:
256,192,104026,1,0,0:0:0:0:
475,192,104026,1,0,0:0:0:0:
36,192,104026,1,0,0:0:0:0:
182,192,104026,1,0,0:0:0:0:
402,192,104092,1,0,0:0:0:0:
109,192,104159,1,0,0:0:0:0:
329,192,104159,1,0,0:0:0:0:
475,192,104159,1,0,0:0:0:0:
182,192,104225,1,0,0:0:0:0:
36,192,104291,1,0,0:0:0:0:
256,192,104291,1,0,0:0:0:0:
402,192,104291,1,0,0:0:0:0:
109,192,104359,1,0,0:0:0:0:
182,192,104425,1,0,0:0:0:0:
402,192,104425,1,0,0:0:0:0:
329,192,104491,1,0,0:0:0:0:
475,192,104558,1,0,0:0:0:0:
256,192,104558,1,0,0:0:0:0:
36,192,104558,1,0,0:0:0:0:
182,192,104558,1,0,0:0:0:0:
402,192,104624,1,0,0:0:0:0:
109,192,104624,1,0,0:0:0:0:
329,192,104691,1,0,0:0:0:0:
36,192,104691,1,0,0:0:0:0:
475,192,104691,1,0,0:0:0:0:
182,192,104758,1,0,0:0:0:0:
36,192,104824,1,0,0:0:0:0:
475,192,104824,1,0,0:0:0:0:
256,192,104824,1,0,0:0:0:0:
329,192,104824,1,0,0:0:0:0:
109,192,104891,1,0,0:0:0:0:
402,192,104891,1,0,0:0:0:0:
36,192,104957,1,0,0:0:0:0:
475,192,104957,1,0,0:0:0:0:
182,192,104957,1,0,0:0:0:0:
256,192,105024,1,0,0:0:0:0:
109,192,105024,1,0,0:0:0:0:
475,192,105090,1,0,0:0:0:0:
402,192,105090,1,0,0:0:0:0:
182,192,105090,1,0,0:0:0:0:
329,192,105090,1,0,0:0:0:0:
256,192,105157,1,0,0:0:0:0:
109,192,105157,1,0,0:0:0:0:
402,192,105224,1,0,0:0:0:0:
475,192,105224,1,0,0:0:0:0:
36,192,105224,1,0,0:0:0:0:
182,192,105224,1,0,0:0:0:0:
256,192,105290,1,0,0:0:0:0:
402,192,105356,1,0,0:0:0:0:
109,192,105356,1,0,0:0:0:0:
36,192,105356,1,0,0:0:0:0:
329,192,105356,1,0,0:0:0:0:
182,192,105423,1,0,0:0:0:0:
36,192,105489,1,0,0:0:0:0:
475,192,105489,1,0,0:0:0:0:
329,192,105489,1,0,0:0:0:0:
256,192,105489,1,0,0:0:0:0:
109,192,105556,1,0,0:0:0:0:
36,192,105623,1,0,0:0:0:0:
475,192,105623,1,0,0:0:0:0:
402,192,105623,1,0,0:0:0:0:
182,192,105623,1,0,0:0:0:0:
256,192,105623,1,0,0:0:0:0:
402,192,105889,1,0,0:0:0:0:
182,192,105889,1,0,0:0:0:0:
36,192,105889,1,0,0:0:0:0:
475,192,105889,1,0,0:0:0:0:
256,192,105956,1,0,0:0:0:0:
109,192,106022,1,0,0:0:0:0:
36,192,106022,1,0,0:0:0:0:
475,192,106022,1,0,0:0:0:0:
329,192,106022,1,0,0:0:0:0:
256,192,106089,1,0,0:0:0:0:
402,192,106155,1,0,0:0:0:0:
475,192,106155,1,0,0:0:0:0:
182,192,106155,1,0,0:0:0:0:
36,192,106155,1,0,0:0:0:0:
256,192,106221,1,0,0:0:0:0:
109,192,106288,1,0,0:0:0:0:
36,192,106288,1,0,0:0:0:0:
329,192,106288,1,0,0:0:0:0:
475,192,106288,1,0,0:0:0:0:
256,192,106355,1,0,0:0:0:0:
182,192,106355,1,0,0:0:0:0:
475,192,106421,1,0,0:0:0:0:
402,192,106421,1,0,0:0:0:0:
109,192,106421,1,0,0:0:0:0:
36,192,106421,1,0,0:0:0:0:
256,192,106488,1,0,0:0:0:0:
329,192,106488,1,0,0:0:0:0:
109,192,106554,1,0,0:0:0:0:
36,192,106554,1,0,0:0:0:0:
475,192,106554,1,0,0:0:0:0:
402,192,106554,1,0,0:0:0:0:
256,192,106621,1,0,0:0:0:0:
182,192,106621,1,0,0:0:0:0:
402,192,106687,1,0,0:0:0:0:
475,192,106687,1,0,0:0:0:0:
109,192,106687,1,0,0:0:0:0:
36,192,106687,1,0,0:0:0:0:
256,192,106754,1,0,0:0:0:0:
329,192,106754,1,0,0:0:0:0:
402,192,106821,1,0,0:0:0:0:
36,192,106821,1,0,0:0:0:0:
475,192,106821,1,0,0:0:0:0:
109,192,106821,1,0,0:0:0:0:
182,192,106887,1,0,0:0:0:0:
329,192,106887,1,0,0:0:0:0:
36,192,106954,1,0,0:0:0:0:
109,192,106954,1,0,0:0:0:0:
475,192,106954,1,0,0:0:0:0:
402,192,106954,1,0,0:0:0:0:
182,192,107020,1,0,0:0:0:0:
256,192,107020,1,0,0:0:0:0:
36,192,107086,1,0,0:0:0:0:
109,192,107086,1,0,0:0:0:0:
329,192,107086,1,0,0:0:0:0:
475,192,107086,1,0,0:0:0:0:
182,192,107154,1,0,0:0:0:0:
402,192,107154,1,0,0:0:0:0:
36,192,107220,1,0,0:0:0:0:
109,192,107220,1,0,0:0:0:0:
475,192,107220,1,0,0:0:0:0:
256,192,107220,1,0,0:0:0:0:
329,192,107286,1,0,0:0:0:0:
475,192,107353,1,0,0:0:0:0:
109,192,107353,1,0,0:0:0:0:
402,192,107353,1,0,0:0:0:0:
36,192,107419,1,0,0:0:0:0:
475,192,107486,1,0,0:0:0:0:
182,192,107486,1,0,0:0:0:0:
329,192,107486,1,0,0:0:0:0:
109,192,107553,1,0,0:0:0:0:
402,192,107619,1,0,0:0:0:0:
36,192,107619,1,0,0:0:0:0:
256,192,107619,1,0,0:0:0:0:
475,192,107686,1,0,0:0:0:0:
329,192,107752,1,0,0:0:0:0:
36,192,107752,1,0,0:0:0:0:
182,192,107752,1,0,0:0:0:0:
402,192,107819,1,0,0:0:0:0:
109,192,107819,1,0,0:0:0:0:
475,192,107886,1,0,0:0:0:0:
256,192,107886,1,0,0:0:0:0:
36,192,107886,1,0,0:0:0:0:
182,192,107886,1,0,0:0:0:0:
109,192,107952,1,0,0:0:0:0:
402,192,107952,1,0,0:0:0:0:
182,192,108019,1,0,0:0:0:0:
36,192,108019,1,0,0:0:0:0:
329,192,108019,1,0,0:0:0:0:
256,192,108019,1,0,0:0:0:0:
109,192,108085,1,0,0:0:0:0:
475,192,108085,1,0,0:0:0:0:
182,192,108151,1,0,0:0:0:0:
36,192,108151,1,0,0:0:0:0:
402,192,108151,1,0,0:0:0:0:
256,192,108151,1,0,0:0:0:0:
109,192,108218,1,0,0:0:0:0:
329,192,108218,1,0,0:0:0:0:
182,192,108285,1,0,0:0:0:0:
36,192,108285,1,0,0:0:0:0:
256,192,108285,1,0,0:0:0:0:
475,192,108285,1,0,0:0:0:0:
402,192,108351,1,0,0:0:0:0:
109,192,108418,1,0,0:0:0:0:
329,192,108418,1,0,0:0:0:0:
475,192,108418,1,0,0:0:0:0:
182,192,108484,1,0,0:0:0:0:
36,192,108551,1,0,0:0:0:0:
256,192,108551,1,0,0:0:0:0:
402,192,108551,1,0,0:0:0:0:
109,192,108617,1,0,0:0:0:0:
182,192,108684,1,0,0:0:0:0:
402,192,108684,1,0,0:0:0:0:
329,192,108751,1,0,0:0:0:0:
475,192,108817,1,0,0:0:0:0:
36,192,108817,1,0,0:0:0:0:
256,192,108817,1,0,0:0:0:0:
402,192,108884,1,0,0:0:0:0:
182,192,108884,1,0,0:0:0:0:
329,192,108950,1,0,0:0:0:0:
36,192,108950,1,0,0:0:0:0:
109,192,108950,1,0,0:0:0:0:
256,192,108950,1,0,0:0:0:0:
182,192,109016,1,0,0:0:0:0:
402,192,109016,1,0,0:0:0:0:
109,192,109084,1,0,0:0:0:0:
36,192,109084,1,0,0:0:0:0:
475,192,109084,1,0,0:0:0:0:
256,192,109084,1,0,0:0:0:0:
182,192,109150,1,0,0:0:0:0:
329,192,109150,1,0,0:0:0:0:
109,192,109216,1,0,0:0:0:0:
36,192,109216,1,0,0:0:0:0:
402,192,109216,1,0,0:0:0:0:
475,192,109216,1,0,0:0:0:0:
182,192,109283,1,0,0:0:0:0:
256,192,109283,1,0,0:0:0:0:
109,192,109349,1,0,0:0:0:0:
36,192,109349,1,0,0:0:0:0:
329,192,109349,1,0,0:0:0:0:
475,192,109349,1,0,0:0:0:0:
402,192,109416,1,0,0:0:0:0:
256,192,109483,1,0,0:0:0:0:
109,192,109483,1,0,0:0:0:0:
475,192,109483,1,0,0:0:0:0:
36,192,109549,1,0,0:0:0:0:
402,192,109616,1,0,0:0:0:0:
475,192,109616,1,0,0:0:0:0:
182,192,109616,1,0,0:0:0:0:
329,192,109682,1,0,0:0:0:0:
109,192,109682,1,0,0:0:0:0:
36,192,109749,1,0,0:0:0:0:
256,192,109749,1,0,0:0:0:0:
402,192,109749,1,0,0:0:0:0:
475,192,109815,1,0,0:0:0:0:
329,192,109882,1,0,0:0:0:0:
109,192,109882,1,0,0:0:0:0:
36,192,109882,1,0,0:0:0:0:
182,192,109949,1,0,0:0:0:0:
402,192,109949,1,0,0:0:0:0:
256,192,110015,1,0,0:0:0:0:
475,192,110015,1,0,0:0:0:0:
36,192,110015,1,0,0:0:0:0:
109,192,110015,1,0,0:0:0:0:
329,192,110015,1,0,0:0:0:0:
182,192,110081,1,0,0:0:0:0:
402,192,110081,1,0,0:0:0:0:
256,192,110148,1,0,0:0:0:0:
36,192,110148,1,0,0:0:0:0:
109,192,110214,1,0,0:0:0:0:
329,192,110214,1,0,0:0:0:0:
36,192,110281,1,0,0:0:0:0:
182,192,110281,1,0,0:0:0:0:
256,192,110281,1,0,0:0:0:0:
402,192,110281,1,0,0:0:0:0:
475,192,110281,1,0,0:0:0:0:
109,192,110348,1,0,0:0:0:0:
329,192,110348,1,0,0:0:0:0:
256,192,110414,1,0,0:0:0:0:
475,192,110414,1,0,0:0:0:0:
402,192,110481,1,0,0:0:0:0:
182,192,110481,1,0,0:0:0:0:
109,192,110547,1,0,0:0:0:0:
36,192,110547,1,0,0:0:0:0:
329,192,110547,1,0,0:0:0:0:
256,192,110547,1,0,0:0:0:0:
475,192,110547,1,0,0:0:0:0:
182,192,110614,1,0,0:0:0:0:
402,192,110614,1,0,0:0:0:0:
256,192,110681,1,0,0:0:0:0:
36,192,110681,1,0,0:0:0:0:
109,192,110747,1,0,0:0:0:0:
329,192,110747,1,0,0:0:0:0:
402,192,110814,1,0,0:0:0:0:
475,192,110814,1,0,0:0:0:0:
182,192,110814,1,0,0:0:0:0:
36,192,110814,1,0,0:0:0:0:
256,192,110814,1,0,0:0:0:0:
109,192,110880,1,0,0:0:0:0:
329,192,110880,1,0,0:0:0:0:
475,192,110946,1,0,0:0:0:0:
256,192,110946,1,0,0:0:0:0:
36,192,110946,1,0,0:0:0:0:
182,192,111013,1,0,0:0:0:0:
329,192,111013,1,0,0:0:0:0:
109,192,111080,1,0,0:0:0:0:
402,192,111080,1,0,0:0:0:0:
256,192,111080,1,0,0:0:0:0:
475,192,111080,1,0,0:0:0:0:
36,192,111080,1,0,0:0:0:0:
182,192,111213,1,0,0:0:0:0:
109,192,111213,1,0,0:0:0:0:
402,192,111213,1,0,0:0:0:0:
329,192,111213,1,0,0:0:0:0:
475,192,111213,1,0,0:0:0:0:
36,192,111346,1,0,0:0:0:0:
329,192,111346,1,0,0:0:0:0:
475,192,111346,1,0,0:0:0:0:
402,192,111412,1,0,0:0:0:0:
256,192,111412,1,0,0:0:0:0:
109,192,111412,1,0,0:0:0:0:
475,192,111479,1,0,0:0:0:0:
329,192,111479,1,0,0:0:0:0:
36,192,111479,1,0,0:0:0:0:
182,192,111479,1,0,0:0:0:0:
182,192,111745,1,0,0:0:0:0:
109,192,111745,1,0,0:0:0:0:
329,192,111745,1,0,0:0:0:0:
475,192,111745,1,0,0:0:0:0:
402,192,111745,1,0,0:0:0:0:
329,192,111879,1,0,0:0:0:0:
256,192,111879,1,0,0:0:0:0:
402,192,111879,1,0,0:0:0:0:
36,192,111879,1,0,0:0:0:0:
109,192,111879,1,0,0:0:0:0:
256,192,112011,1,0,0:0:0:0:
329,192,112011,1,0,0:0:0:0:
182,192,112011,1,0,0:0:0:0:
36,192,112011,1,0,0:0:0:0:
475,192,112011,1,0,0:0:0:0:
402,192,112078,1,0,0:0:0:0:
109,192,112078,1,0,0:0:0:0:
182,192,112144,1,0,0:0:0:0:
329,192,112144,1,0,0:0:0:0:
256,192,112144,1,0,0:0:0:0:
475,192,112144,1,0,0:0:0:0:
36,192,112144,1,0,0:0:0:0:
329,192,112278,1,0,0:0:0:0:
402,192,112278,1,0,0:0:0:0:
109,192,112278,1,0,0:0:0:0:
182,192,112278,1,0,0:0:0:0:
36,192,112278,1,0,0:0:0:0:
475,192,112411,1,0,0:0:0:0:
182,192,112411,1,0,0:0:0:0:
36,192,112411,1,0,0:0:0:0:
109,192,112477,1,0,0:0:0:0:
256,192,112477,1,0,0:0:0:0:
402,192,112477,1,0,0:0:0:0:
36,192,112544,1,0,0:0:0:0:
182,192,112544,1,0,0:0:0:0:
475,192,112544,1,0,0:0:0:0:
329,192,112544,1,0,0:0:0:0:
329,192,112810,1,0,0:0:0:0:
402,192,112810,1,0,0:0:0:0:
182,192,112810,1,0,0:0:0:0:
36,192,112810,1,0,0:0:0:0:
109,192,112810,1,0,0:0:0:0:
256,192,112943,1,0,0:0:0:0:
402,192,112943,1,0,0:0:0:0:
36,192,112943,1,0,0:0:0:0:
109,192,112943,1,0,0:0:0:0:
475,192,112943,1,0,0:0:0:0:
329,192,113009,1,0,0:0:0:0:
182,192,113009,1,0,0:0:0:0:
256,192,113076,1,0,0:0:0:0:
475,192,113076,1,0,0:0:0:0:
36,192,113076,1,0,0:0:0:0:
402,192,113143,1,0,0:0:0:0:
109,192,113143,1,0,0:0:0:0:
329,192,113209,1,0,0:0:0:0:
475,192,113209,1,0,0:0:0:0:
256,192,113209,1,0,0:0:0:0:
36,192,113209,1,0,0:0:0:0:
182,192,113209,1,0,0:0:0:0:
329,192,113409,1,0,0:0:0:0:
182,192,113409,1,0,0:0:0:0:
109,192,113476,1,0,0:0:0:0:
256,192,113476,1,0,0:0:0:0:
36,192,113476,1,0,0:0:0:0:
475,192,113476,1,0,0:0:0:0:
402,192,113476,1,0,0:0:0:0:
402,192,113675,1,0,0:0:0:0:
109,192,113675,1,0,0:0:0:0:
182,192,113741,1,0,0:0:0:0:
256,192,113741,1,0,0:0:0:0:
329,192,113741,1,0,0:0:0:0:
36,192,113741,1,0,0:0:0:0:
475,192,113741,1,0,0:0:0:0:
475,192,113941,1,0,0:0:0:0:
36,192,113941,1,0,0:0:0:0:
402,192,114008,1,0,0:0:0:0:
329,192,114008,1,0,0:0:0:0:
109,192,114008,1,0,0:0:0:0:
256,192,114008,1,0,0:0:0:0:
182,192,114008,1,0,0:0:0:0:
256,192,114207,1,0,0:0:0:0:
475,192,114274,1,0,0:0:0:0:
402,192,114274,1,0,0:0:0:0:
182,192,114274,1,0,0:0:0:0:
36,192,114274,1,0,0:0:0:0:
109,192,114274,1,0,0:0:0:0:
329,192,114274,1,0,0:0:0:0:
329,192,114540,128,0,115206:0:0:0:0:
402,192,114540,128,0,115206:0:0:0:0:
475,192,114540,128,0,115206:0:0:0:0:
36,192,114540,128,0,115206:0:0:0:0:
109,192,114540,128,0,115206:0:0:0:0:
182,192,114540,128,0,115206:0:0:0:0:
109,192,115272,1,0,0:0:0:0:
402,192,115272,1,0,0:0:0:0:
182,192,115306,1,0,0:0:0:0:
329,192,115306,1,0,0:0:0:0:
475,192,115339,1,0,0:0:0:0:
109,192,115339,1,0,0:0:0:0:
36,192,115339,1,0,0:0:0:0:
402,192,115339,1,0,0:0:0:0:
256,192,115339,1,0,0:0:0:0:
36,192,115472,1,0,0:0:0:0:
182,192,115472,1,0,0:0:0:0:
402,192,115472,1,0,0:0:0:0:
109,192,115539,1,0,0:0:0:0:
256,192,115539,1,0,0:0:0:0:
36,192,115605,1,0,0:0:0:0:
475,192,115605,1,0,0:0:0:0:
182,192,115605,1,0,0:0:0:0:
329,192,115605,1,0,0:0:0:0:
109,192,115738,1,0,0:0:0:0:
256,192,115738,1,0,0:0:0:0:
402,192,115738,1,0,0:0:0:0:
182,192,115804,1,0,0:0:0:0:
329,192,115804,1,0,0:0:0:0:
475,192,115804,1,0,0:0:0:0:
36,192,115871,1,0,0:0:0:0:
256,192,115871,1,0,0:0:0:0:
109,192,115871,1,0,0:0:0:0:
402,192,115871,1,0,0:0:0:0:
475,192,116004,1,0,0:0:0:0:
109,192,116004,1,0,0:0:0:0:
329,192,116004,1,0,0:0:0:0:
256,192,116071,1,0,0:0:0:0:
402,192,116071,1,0,0:0:0:0:
36,192,116137,1,0,0:0:0:0:
475,192,116137,1,0,0:0:0:0:
182,192,116137,1,0,0:0:0:0:
329,192,116137,1,0,0:0:0:0:
402,192,116271,1,0,0:0:0:0:
256,192,116271,1,0,0:0:0:0:
109,192,116271,1,0,0:0:0:0:
182,192,116337,1,0,0:0:0:0:
329,192,116337,1,0,0:0:0:0:
109,192,116404,1,0,0:0:0:0:
256,192,116404,1,0,0:0:0:0:
475,192,116404,1,0,0:0:0:0:
36,192,116404,1,0,0:0:0:0:
475,192,116536,1,0,0:0:0:0:
329,192,116536,1,0,0:0:0:0:
36,192,116536,1,0,0:0:0:0:
256,192,116603,1,0,0:0:0:0:
109,192,116603,1,0,0:0:0:0:
182,192,116670,1,0,0:0:0:0:
329,192,116670,1,0,0:0:0:0:
36,192,116670,1,0,0:0:0:0:
475,192,116670,1,0,0:0:0:0:
402,192,116803,1,0,0:0:0:0:
109,192,116803,1,0,0:0:0:0:
36,192,116803,1,0,0:0:0:0:
329,192,116869,1,0,0:0:0:0:
182,192,116869,1,0,0:0:0:0:
402,192,116936,1,0,0:0:0:0:
36,192,116936,1,0,0:0:0:0:
256,192,116936,1,0,0:0:0:0:
475,192,116936,1,0,0:0:0:0:
36,192,117069,1,0,0:0:0:0:
475,192,117069,1,0,0:0:0:0:
182,192,117069,1,0,0:0:0:0:
402,192,117136,1,0,0:0:0:0:
256,192,117136,1,0,0:0:0:0:
182,192,117202,1,0,0:0:0:0:
329,192,117202,1,0,0:0:0:0:
36,192,117202,1,0,0:0:0:0:
475,192,117202,1,0,0:0:0:0:
475,192,117335,1,0,0:0:0:0:
109,192,117335,1,0,0:0:0:0:
402,192,117335,1,0,0:0:0:0:
329,192,117401,1,0,0:0:0:0:
182,192,117401,1,0,0:0:0:0:
475,192,117469,1,0,0:0:0:0:
36,192,117469,1,0,0:0:0:0:
109,192,117469,1,0,0:0:0:0:
256,192,117469,1,0,0:0:0:0:
36,192,117601,1,0,0:0:0:0:
256,192,117601,1,0,0:0:0:0:
475,192,117601,1,0,0:0:0:0:
109,192,117668,1,0,0:0:0:0:
329,192,117668,1,0,0:0:0:0:
36,192,117734,1,0,0:0:0:0:
182,192,117734,1,0,0:0:0:0:
402,192,117734,1,0,0:0:0:0:
475,192,117734,1,0,0:0:0:0:
109,192,117868,1,0,0:0:0:0:
329,192,117868,1,0,0:0:0:0:
475,192,117868,1,0,0:0:0:0:
182,192,117934,1,0,0:0:0:0:
402,192,117934,1,0,0:0:0:0:
36,192,117934,1,0,0:0:0:0:
256,192,118001,1,0,0:0:0:0:
475,192,118001,1,0,0:0:0:0:
109,192,118001,1,0,0:0:0:0:
329,192,118001,1,0,0:0:0:0:
36,192,118134,1,0,0:0:0:0:
256,192,118134,1,0,0:0:0:0:
475,192,118134,1,0,0:0:0:0:
182,192,118200,1,0,0:0:0:0:
402,192,118200,1,0,0:0:0:0:
36,192,118267,1,0,0:0:0:0:
109,192,118267,1,0,0:0:0:0:
475,192,118267,1,0,0:0:0:0:
329,192,118267,1,0,0:0:0:0:
36,192,118400,1,0,0:0:0:0:
182,192,118400,1,0,0:0:0:0:
329,192,118400,1,0,0:0:0:0:
256,192,118400,1,0,0:0:0:0:
109,192,118400,1,0,0:0:0:0:
36,192,118666,1,0,0:0:0:0:
182,192,118666,1,0,0:0:0:0:
329,192,118666,1,0,0:0:0:0:
256,192,118666,1,0,0:0:0:0:
109,192,118666,1,0,0:0:0:0:
109,192,118932,1,0,0:0:0:0:
182,192,118932,1,0,0:0:0:0:
256,192,118932,1,0,0:0:0:0:
402,192,118932,1,0,0:0:0:0:
329,192,118932,1,0,0:0:0:0:
182,192,119199,1,0,0:0:0:0:
256,192,119199,1,0,0:0:0:0:
329,192,119199,1,0,0:0:0:0:
402,192,119199,1,0,0:0:0:0:
475,192,119199,1,0,0:0:0:0:
256,192,119331,1,0,0:0:0:0:
109,192,119331,1,0,0:0:0:0:
402,192,119331,1,0,0:0:0:0:
182,192,119399,1,0,0:0:0:0:
329,192,119399,1,0,0:0:0:0:
256,192,119465,1,0,0:0:0:0:
36,192,119465,1,0,0:0:0:0:
475,192,119465,1,0,0:0:0:0:
402,192,119531,1,0,0:0:0:0:
109,192,119531,1,0,0:0:0:0:
182,192,119598,1,0,0:0:0:0:
256,192,119598,1,0,0:0:0:0:
329,192,119598,1,0,0:0:0:0:
475,192,119598,1,0,0:0:0:0:
36,192,119598,1,0,0:0:0:0:
109,192,119731,1,0,0:0:0:0:
182,192,119731,1,0,0:0:0:0:
256,192,119731,1,0,0:0:0:0:
402,192,119731,1,0,0:0:0:0:
36,192,119864,1,0,0:0:0:0:
109,192,119864,1,0,0:0:0:0:
329,192,119864,1,0,0:0:0:0:
182,192,119864,1,0,0:0:0:0:
256,192,119997,1,0,0:0:0:0:
36,192,119997,1,0,0:0:0:0:
109,192,119997,1,0,0:0:0:0:
475,192,119997,1,0,0:0:0:0:
402,192,119997,1,0,0:0:0:0:
256,192,120130,1,0,0:0:0:0:
475,192,120130,1,0,0:0:0:0:
109,192,120130,1,0,0:0:0:0:
402,192,120197,1,0,0:0:0:0:
182,192,120197,1,0,0:0:0:0:
109,192,120264,1,0,0:0:0:0:
36,192,120264,1,0,0:0:0:0:
329,192,120264,1,0,0:0:0:0:
475,192,120264,1,0,0:0:0:0:
256,192,120264,1,0,0:0:0:0:
402,192,120396,1,0,0:0:0:0:
182,192,120396,1,0,0:0:0:0:
36,192,120396,1,0,0:0:0:0:
109,192,120463,1,0,0:0:0:0:
329,192,120463,1,0,0:0:0:0:
36,192,120529,1,0,0:0:0:0:
182,192,120529,1,0,0:0:0:0:
256,192,120529,1,0,0:0:0:0:
402,192,120529,1,0,0:0:0:0:
475,192,120529,1,0,0:0:0:0:
329,192,120663,1,0,0:0:0:0:
475,192,120663,1,0,0:0:0:0:
109,192,120663,1,0,0:0:0:0:
402,192,120729,1,0,0:0:0:0:
256,192,120729,1,0,0:0:0:0:
329,192,120796,1,0,0:0:0:0:
182,192,120796,1,0,0:0:0:0:
36,192,120796,1,0,0:0:0:0:
109,192,120796,1,0,0:0:0:0:
475,192,120796,1,0,0:0:0:0:
256,192,120929,1,0,0:0:0:0:
402,192,120929,1,0,0:0:0:0:
36,192,120929,1,0,0:0:0:0:
329,192,120996,1,0,0:0:0:0:
182,192,120996,1,0,0:0:0:0:
256,192,121062,1,0,0:0:0:0:
109,192,121062,1,0,0:0:0:0:
36,192,121062,1,0,0:0:0:0:
402,192,121062,1,0,0:0:0:0:
475,192,121062,1,0,0:0:0:0:
182,192,121195,1,0,0:0:0:0:
329,192,121195,1,0,0:0:0:0:
109,192,121261,1,0,0:0:0:0:
256,192,121261,1,0,0:0:0:0:
402,192,121261,1,0,0:0:0:0:
36,192,121328,1,0,0:0:0:0:
182,192,121328,1,0,0:0:0:0:
475,192,121328,1,0,0:0:0:0:
329,192,121328,1,0,0:0:0:0:
109,192,121395,1,0,0:0:0:0:
402,192,121395,1,0,0:0:0:0:
182,192,121461,1,0,0:0:0:0:
256,192,121461,1,0,0:0:0:0:
329,192,121461,1,0,0:0:0:0:
109,192,121528,1,0,0:0:0:0:
402,192,121528,1,0,0:0:0:0:
182,192,121594,1,0,0:0:0:0:
329,192,121594,1,0,0:0:0:0:
256,192,121594,1,0,0:0:0:0:
36,192,121594,1,0,0:0:0:0:
475,192,121594,1,0,0:0:0:0:
36,192,121861,1,0,0:0:0:0:
256,192,121861,1,0,0:0:0:0:
475,192,121861,1,0,0:0:0:0:
109,192,121927,1,0,0:0:0:0:
329,192,121927,1,0,0:0:0:0:
182,192,121994,1,0,0:0:0:0:
402,192,121994,1,0,0:0:0:0:
475,192,121994,1,0,0:0:0:0:
36,192,122060,1,0,0:0:0:0:
256,192,122060,1,0,0:0:0:0:
109,192,122126,1,0,0:0:0:0:
329,192,122126,1,0,0:0:0:0:
182,192,122194,1,0,0:0:0:0:
402,192,122194,1,0,0:0:0:0:
256,192,122260,1,0,0:0:0:0:
475,192,122260,1,0,0:0:0:0:
36,192,122260,1,0,0:0:0:0:
109,192,122326,1,0,0:0:0:0:
329,192,122326,1,0,0:0:0:0:
182,192,122393,1,0,0:0:0:0:
402,192,122393,1,0,0:0:0:0:
475,192,122393,1,0,0:0:0:0:
36,192,122459,1,0,0:0:0:0:
256,192,122459,1,0,0:0:0:0:
109,192,122526,1,0,0:0:0:0:
475,192,122526,1,0,0:0:0:0:
329,192,122526,1,0,0:0:0:0:
256,192,122593,1,0,0:0:0:0:
402,192,122593,1,0,0:0:0:0:
182,192,122659,1,0,0:0:0:0:
329,192,122659,1,0,0:0:0:0:
36,192,122659,1,0,0:0:0:0:
109,192,122726,1,0,0:0:0:0:
256,192,122726,1,0,0:0:0:0:
36,192,122792,1,0,0:0:0:0:
182,192,122792,1,0,0:0:0:0:
402,192,122792,1,0,0:0:0:0:
475,192,122792,1,0,0:0:0:0:
329,192,122792,1,0,0:0:0:0:
182,192,122925,1,0,0:0:0:0:
109,192,122925,1,0,0:0:0:0:
475,192,122925,1,0,0:0:0:0:
329,192,122925,1,0,0:0:0:0:
182,192,123059,1,0,0:0:0:0:
36,192,123059,1,0,0:0:0:0:
402,192,123059,1,0,0:0:0:0:
256,192,123059,1,0,0:0:0:0:
256,192,123191,1,0,0:0:0:0:
109,192,123191,1,0,0:0:0:0:
475,192,123191,1,0,0:0:0:0:
329,192,123191,1,0,0:0:0:0:
36,192,123324,1,0,0:0:0:0:
329,192,123324,1,0,0:0:0:0:
402,192,123324,1,0,0:0:0:0:
182,192,123324,1,0,0:0:0:0:
329,192,123458,1,0,0:0:0:0:
256,192,123458,1,0,0:0:0:0:
475,192,123458,1,0,0:0:0:0:
109,192,123458,1,0,0:0:0:0:
182,192,123591,1,0,0:0:0:0:
402,192,123591,1,0,0:0:0:0:
36,192,123591,1,0,0:0:0:0:
256,192,123591,1,0,0:0:0:0:
109,192,123724,1,0,0:0:0:0:
329,192,123724,1,0,0:0:0:0:
182,192,123724,1,0,0:0:0:0:
475,192,123724,1,0,0:0:0:0:
36,192,123857,1,0,0:0:0:0:
109,192,123857,1,0,0:0:0:0:
256,192,123857,1,0,0:0:0:0:
402,192,123857,1,0,0:0:0:0:
36,192,123990,1,0,0:0:0:0:
109,192,124123,1,0,0:0:0:0:
256,192,124123,1,0,0:0:0:0:
329,192,124123,1,0,0:0:0:0:
36,192,124256,1,0,0:0:0:0:
182,192,124389,1,0,0:0:0:0:
329,192,124389,1,0,0:0:0:0:
402,192,124389,1,0,0:0:0:0:
36,192,124522,1,0,0:0:0:0:
109,192,124656,1,0,0:0:0:0:
475,192,124656,1,0,0:0:0:0:
402,192,124656,1,0,0:0:0:0:
36,192,124789,1,0,0:0:0:0:
182,192,124921,1,0,0:0:0:0:
475,192,124921,1,0,0:0:0:0:
329,192,124921,1,0,0:0:0:0:
256,192,124921,1,0,0:0:0:0:
36,192,125055,1,0,0:0:0:0:
109,192,125188,1,0,0:0:0:0:
36,192,125321,1,0,0:0:0:0:
402,192,125321,1,0,0:0:0:0:
475,192,125321,1,0,0:0:0:0:
182,192,125454,1,0,0:0:0:0:
329,192,125454,1,0,0:0:0:0:
402,192,125454,1,0,0:0:0:0:
36,192,125587,1,0,0:0:0:0:
109,192,125720,1,0,0:0:0:0:
36,192,125854,1,0,0:0:0:0:
182,192,125986,1,0,0:0:0:0:
329,192,125986,1,0,0:0:0:0:
475,192,126119,1,0,0:0:0:0:
402,192,126253,1,0,0:0:0:0:
256,192,126253,1,0,0:0:0:0:
182,192,126253,1,0,0:0:0:0:
475,192,126386,1,0,0:0:0:0:
329,192,126519,1,0,0:0:0:0:
182,192,126519,1,0,0:0:0:0:
109,192,126519,1,0,0:0:0:0:
475,192,126652,1,0,0:0:0:0:
402,192,126785,1,0,0:0:0:0:
109,192,126785,1,0,0:0:0:0:
36,192,126785,1,0,0:0:0:0:
475,192,126918,1,0,0:0:0:0:
329,192,127051,1,0,0:0:0:0:
182,192,127051,1,0,0:0:0:0:
36,192,127051,1,0,0:0:0:0:
256,192,127051,1,0,0:0:0:0:
475,192,127184,1,0,0:0:0:0:
402,192,127317,1,0,0:0:0:0:
475,192,127451,1,0,0:0:0:0:
36,192,127451,1,0,0:0:0:0:
109,192,127451,1,0,0:0:0:0:
329,192,127584,1,0,0:0:0:0:
109,192,127584,1,0,0:0:0:0:
182,192,127584,1,0,0:0:0:0:
475,192,127716,1,0,0:0:0:0:
402,192,127850,1,0,0:0:0:0:
475,192,127983,1,0,0:0:0:0:
36,192,128116,1,0,0:0:0:0:
182,192,128116,1,0,0:0:0:0:
36,192,128382,1,0,0:0:0:0:
182,192,128382,1,0,0:0:0:0:
256,192,128382,1,0,0:0:0:0:
329,192,128382,1,0,0:0:0:0:
36,192,128649,1,0,0:0:0:0:
182,192,128649,1,0,0:0:0:0:
329,192,128649,1,0,0:0:0:0:
402,192,128649,1,0,0:0:0:0:
36,192,128914,1,0,0:0:0:0:
182,192,128914,1,0,0:0:0:0:
402,192,128914,1,0,0:0:0:0:
475,192,128914,1,0,0:0:0:0:
36,192,129181,1,0,0:0:0:0:
182,192,129181,1,0,0:0:0:0:
256,192,129181,1,0,0:0:0:0:
475,192,129181,1,0,0:0:0:0:
36,192,129447,1,0,0:0:0:0:
182,192,129447,1,0,0:0:0:0:
402,192,129580,1,0,0:0:0:0:
475,192,129580,1,0,0:0:0:0:
36,192,129714,1,0,0:0:0:0:
182,192,129714,1,0,0:0:0:0:
329,192,129714,1,0,0:0:0:0:
402,192,129714,1,0,0:0:0:0:
475,192,129846,1,0,0:0:0:0:
329,192,129913,1,0,0:0:0:0:
36,192,129979,1,0,0:0:0:0:
182,192,129979,1,0,0:0:0:0:
182,192,130113,1,0,0:0:0:0:
329,192,130113,1,0,0:0:0:0:
109,192,130179,1,0,0:0:0:0:
402,192,130179,1,0,0:0:0:0:
475,192,130246,1,0,0:0:0:0:
36,192,130246,1,0,0:0:0:0:
182,192,130246,1,0,0:0:0:0:
329,192,130246,1,0,0:0:0:0:
256,192,130246,1,0,0:0:0:0:
109,192,130312,1,0,0:0:0:0:
329,192,130379,1,0,0:0:0:0:
402,192,130379,1,0,0:0:0:0:
475,192,130379,1,0,0:0:0:0:
182,192,130379,1,0,0:0:0:0:
36,192,130445,1,0,0:0:0:0:
109,192,130512,1,0,0:0:0:0:
256,192,130512,1,0,0:0:0:0:
329,192,130512,1,0,0:0:0:0:
402,192,130512,1,0,0:0:0:0:
475,192,130579,1,0,0:0:0:0:
182,192,130645,1,0,0:0:0:0:
256,192,130645,1,0,0:0:0:0:
329,192,130645,1,0,0:0:0:0:
36,192,130645,1,0,0:0:0:0:
36,192,130911,1,0,0:0:0:0:
109,192,130911,1,0,0:0:0:0:
329,192,130911,1,0,0:0:0:0:
475,192,130911,1,0,0:0:0:0:
256,192,130978,1,0,0:0:0:0:
36,192,131044,1,0,0:0:0:0:
402,192,131044,1,0,0:0:0:0:
475,192,131044,1,0,0:0:0:0:
182,192,131044,1,0,0:0:0:0:
256,192,131111,1,0,0:0:0:0:
329,192,131177,1,0,0:0:0:0:
109,192,131177,1,0,0:0:0:0:
475,192,131177,1,0,0:0:0:0:
36,192,131177,1,0,0:0:0:0:
182,192,131444,1,0,0:0:0:0:
475,192,131444,1,0,0:0:0:0:
402,192,131444,1,0,0:0:0:0:
36,192,131444,1,0,0:0:0:0:
256,192,131510,1,0,0:0:0:0:
36,192,131576,1,0,0:0:0:0:
109,192,131576,1,0,0:0:0:0:
329,192,131576,1,0,0:0:0:0:
475,192,131576,1,0,0:0:0:0:
256,192,131643,1,0,0:0:0:0:
36,192,131710,1,0,0:0:0:0:
182,192,131710,1,0,0:0:0:0:
402,192,131710,1,0,0:0:0:0:
475,192,131710,1,0,0:0:0:0:
256,192,131776,1,0,0:0:0:0:
329,192,131843,1,0,0:0:0:0:
109,192,131843,1,0,0:0:0:0:
475,192,131843,1,0,0:0:0:0:
36,192,131843,1,0,0:0:0:0:
256,192,131909,1,0,0:0:0:0:
182,192,131976,1,0,0:0:0:0:
36,192,131976,1,0,0:0:0:0:
402,192,131976,1,0,0:0:0:0:
475,192,131976,1,0,0:0:0:0:
329,192,132042,1,0,0:0:0:0:
109,192,132042,1,0,0:0:0:0:
36,192,132109,1,0,0:0:0:0:
475,192,132109,1,0,0:0:0:0:
256,192,132109,1,0,0:0:0:0:
402,192,132176,1,0,0:0:0:0:
109,192,132176,1,0,0:0:0:0:
329,192,132242,1,0,0:0:0:0:
182,192,132242,1,0,0:0:0:0:
256,192,132242,1,0,0:0:0:0:
475,192,132309,1,0,0:0:0:0:
36,192,132309,1,0,0:0:0:0:
182,192,132375,1,0,0:0:0:0:
256,192,132375,1,0,0:0:0:0:
329,192,132375,1,0,0:0:0:0:
109,192,132375,1,0,0:0:0:0:
402,192,132375,1,0,0:0:0:0:
329,192,132641,1,0,0:0:0:0:
475,192,132641,1,0,0:0:0:0:
109,192,132641,1,0,0:0:0:0:
36,192,132641,1,0,0:0:0:0:
256,192,132708,1,0,0:0:0:0:
402,192,132774,1,0,0:0:0:0:
475,192,132774,1,0,0:0:0:0:
182,192,132774,1,0,0:0:0:0:
36,192,132774,1,0,0:0:0:0:
329,192,132841,1,0,0:0:0:0:
36,192,132908,1,0,0:0:0:0:
109,192,132908,1,0,0:0:0:0:
256,192,132908,1,0,0:0:0:0:
475,192,132908,1,0,0:0:0:0:
329,192,132974,1,0,0:0:0:0:
402,192,133041,1,0,0:0:0:0:
182,192,133041,1,0,0:0:0:0:
36,192,133041,1,0,0:0:0:0:
475,192,133041,1,0,0:0:0:0:
256,192,133107,1,0,0:0:0:0:
329,192,133174,1,0,0:0:0:0:
475,192,133174,1,0,0:0:0:0:
36,192,133174,1,0,0:0:0:0:
109,192,133174,1,0,0:0:0:0:
182,192,133240,1,0,0:0:0:0:
402,192,133240,1,0,0:0:0:0:
36,192,133307,1,0,0:0:0:0:
475,192,133307,1,0,0:0:0:0:
256,192,133307,1,0,0:0:0:0:
402,192,133374,1,0,0:0:0:0:
109,192,133374,1,0,0:0:0:0:
36,192,133440,1,0,0:0:0:0:
329,192,133440,1,0,0:0:0:0:
475,192,133440,1,0,0:0:0:0:
182,192,133440,1,0,0:0:0:0:
109,192,133506,1,0,0:0:0:0:
402,192,133506,1,0,0:0:0:0:
182,192,133573,1,0,0:0:0:0:
329,192,133573,1,0,0:0:0:0:
256,192,133573,1,0,0:0:0:0:
109,192,133639,1,0,0:0:0:0:
402,192,133639,1,0,0:0:0:0:
36,192,133706,1,0,0:0:0:0:
475,192,133706,1,0,0:0:0:0:
256,192,133706,1,0,0:0:0:0:
182,192,133773,1,0,0:0:0:0:
329,192,133773,1,0,0:0:0:0:
109,192,133839,1,0,0:0:0:0:
36,192,133839,1,0,0:0:0:0:
402,192,133839,1,0,0:0:0:0:
475,192,133839,1,0,0:0:0:0:
182,192,133906,1,0,0:0:0:0:
329,192,133906,1,0,0:0:0:0:
256,192,133972,1,0,0:0:0:0:
36,192,133972,1,0,0:0:0:0:
475,192,133972,1,0,0:0:0:0:
109,192,134039,1,0,0:0:0:0:
329,192,134039,1,0,0:0:0:0:
182,192,134106,1,0,0:0:0:0:
402,192,134106,1,0,0:0:0:0:
475,192,134106,1,0,0:0:0:0:
109,192,134172,1,0,0:0:0:0:
329,192,134172,1,0,0:0:0:0:
36,192,134239,1,0,0:0:0:0:
475,192,134239,1,0,0:0:0:0:
256,192,134239,1,0,0:0:0:0:
182,192,134305,1,0,0:0:0:0:
402,192,134305,1,0,0:0:0:0:
109,192,134371,1,0,0:0:0:0:
36,192,134371,1,0,0:0:0:0:
329,192,134371,1,0,0:0:0:0:
182,192,134438,1,0,0:0:0:0:
402,192,134438,1,0,0:0:0:0:
475,192,134505,1,0,0:0:0:0:
36,192,134505,1,0,0:0:0:0:
256,192,134505,1,0,0:0:0:0:
329,192,134505,1,0,0:0:0:0:
475,192,134638,1,0,0:0:0:0:
256,192,134638,1,0,0:0:0:0:
109,192,134638,1,0,0:0:0:0:
329,192,134704,1,0,0:0:0:0:
402,192,134704,1,0,0:0:0:0:
182,192,134704,1,0,0:0:0:0:
475,192,134771,1,0,0:0:0:0:
256,192,134771,1,0,0:0:0:0:
36,192,134771,1,0,0:0:0:0:
109,192,134771,1,0,0:0:0:0:
475,192,134904,1,0,0:0:0:0:
36,192,134904,1,0,0:0:0:0:
402,192,134904,1,0,0:0:0:0:
182,192,134904,1,0,0:0:0:0:
256,192,134971,1,0,0:0:0:0:
329,192,134971,1,0,0:0:0:0:
475,192,135037,1,0,0:0:0:0:
36,192,135037,1,0,0:0:0:0:
109,192,135037,1,0,0:0:0:0:
402,192,135037,1,0,0:0:0:0:
402,192,135170,1,0,0:0:0:0:
256,192,135170,1,0,0:0:0:0:
36,192,135170,1,0,0:0:0:0:
109,192,135236,1,0,0:0:0:0:
329,192,135236,1,0,0:0:0:0:
182,192,135236,1,0,0:0:0:0:
256,192,135304,1,0,0:0:0:0:
475,192,135304,1,0,0:0:0:0:
36,192,135304,1,0,0:0:0:0:
402,192,135304,1,0,0:0:0:0:
329,192,135436,1,0,0:0:0:0:
36,192,135436,1,0,0:0:0:0:
475,192,135436,1,0,0:0:0:0:
109,192,135436,1,0,0:0:0:0:
182,192,135503,1,0,0:0:0:0:
256,192,135503,1,0,0:0:0:0:
402,192,135569,1,0,0:0:0:0:
475,192,135569,1,0,0:0:0:0:
109,192,135569,1,0,0:0:0:0:
36,192,135569,1,0,0:0:0:0:
329,192,135636,1,0,0:0:0:0:
109,192,135703,1,0,0:0:0:0:
36,192,135703,1,0,0:0:0:0:
256,192,135703,1,0,0:0:0:0:
182,192,135769,1,0,0:0:0:0:
329,192,135769,1,0,0:0:0:0:
475,192,135836,1,0,0:0:0:0:
36,192,135836,1,0,0:0:0:0:
402,192,135836,1,0,0:0:0:0:
256,192,135836,1,0,0:0:0:0:
182,192,135902,1,0,0:0:0:0:
329,192,135902,1,0,0:0:0:0:
109,192,135969,1,0,0:0:0:0:
475,192,135969,1,0,0:0:0:0:
36,192,135969,1,0,0:0:0:0:
256,192,135969,1,0,0:0:0:0:
402,192,136002,1,0,0:0:0:0:
329,192,136035,1,0,0:0:0:0:
256,192,136069,1,0,0:0:0:0:
36,192,136102,1,0,0:0:0:0:
109,192,136102,1,0,0:0:0:0:
475,192,136102,1,0,0:0:0:0:
402,192,136102,1,0,0:0:0:0:
182,192,136102,1,0,0:0:0:0:
36,192,136235,1,0,0:0:0:0:
109,192,136235,1,0,0:0:0:0:
182,192,136235,1,0,0:0:0:0:
475,192,136235,1,0,0:0:0:0:
402,192,136235,1,0,0:0:0:0:
109,192,136501,1,0,0:0:0:0:
256,192,136501,1,0,0:0:0:0:
36,192,136501,1,0,0:0:0:0:
475,192,136501,1,0,0:0:0:0:
329,192,136568,1,0,0:0:0:0:
402,192,136568,1,0,0:0:0:0:
182,192,136568,1,0,0:0:0:0:
36,192,136634,1,0,0:0:0:0:
256,192,136634,1,0,0:0:0:0:
475,192,136634,1,0,0:0:0:0:
109,192,136634,1,0,0:0:0:0:
36,192,136767,1,0,0:0:0:0:
182,192,136767,1,0,0:0:0:0:
329,192,136767,1,0,0:0:0:0:
109,192,136901,1,0,0:0:0:0:
256,192,136901,1,0,0:0:0:0:
402,192,136901,1,0,0:0:0:0:
475,192,137034,1,0,0:0:0:0:
182,192,137034,1,0,0:0:0:0:
329,192,137034,1,0,0:0:0:0:
256,192,137300,1,0,0:0:0:0:
402,192,137300,1,0,0:0:0:0:
109,192,137300,1,0,0:0:0:0:
475,192,137366,1,0,0:0:0:0:
182,192,137433,1,0,0:0:0:0:
329,192,137433,1,0,0:0:0:0:
36,192,137433,1,0,0:0:0:0:
402,192,137499,1,0,0:0:0:0:
182,192,137566,1,0,0:0:0:0:
36,192,137566,1,0,0:0:0:0:
109,192,137566,1,0,0:0:0:0:
475,192,137566,1,0,0:0:0:0:
256,192,137632,1,0,0:0:0:0:
329,192,137632,1,0,0:0:0:0:
109,192,137699,1,0,0:0:0:0:
36,192,137699,1,0,0:0:0:0:
475,192,137699,1,0,0:0:0:0:
182,192,137699,1,0,0:0:0:0:
402,192,137699,1,0,0:0:0:0:
402,192,137832,1,0,0:0:0:0:
109,192,137832,1,0,0:0:0:0:
36,192,137832,1,0,0:0:0:0:
182,192,137832,1,0,0:0:0:0:
475,192,137832,1,0,0:0:0:0:
109,192,137965,1,0,0:0:0:0:
256,192,137965,1,0,0:0:0:0:
402,192,137965,1,0,0:0:0:0:
182,192,138099,1,0,0:0:0:0:
329,192,138099,1,0,0:0:0:0:
475,192,138099,1,0,0:0:0:0:
109,192,138364,1,0,0:0:0:0:
256,192,138364,1,0,0:0:0:0:
402,192,138364,1,0,0:0:0:0:
36,192,138364,1,0,0:0:0:0:
475,192,138364,1,0,0:0:0:0:
109,192,138631,1,0,0:0:0:0:
182,192,138631,1,0,0:0:0:0:
329,192,138631,1,0,0:0:0:0:
402,192,138631,1,0,0:0:0:0:
329,192,138764,1,0,0:0:0:0:
182,192,138764,1,0,0:0:0:0:
36,192,138764,1,0,0:0:0:0:
256,192,138764,1,0,0:0:0:0:
475,192,138764,1,0,0:0:0:0:
109,192,138830,1,0,0:0:0:0:
402,192,138830,1,0,0:0:0:0:
36,192,138897,1,0,0:0:0:0:
182,192,138897,1,0,0:0:0:0:
475,192,138897,1,0,0:0:0:0:
256,192,138897,1,0,0:0:0:0:
109,192,138964,1,0,0:0:0:0:
329,192,138964,1,0,0:0:0:0:
36,192,139030,1,0,0:0:0:0:
182,192,139030,1,0,0:0:0:0:
402,192,139030,1,0,0:0:0:0:
475,192,139030,1,0,0:0:0:0:
109,192,139096,1,0,0:0:0:0:
256,192,139096,1,0,0:0:0:0:
36,192,139163,1,0,0:0:0:0:
182,192,139163,1,0,0:0:0:0:
329,192,139163,1,0,0:0:0:0:
475,192,139163,1,0,0:0:0:0:
402,192,139229,1,0,0:0:0:0:
256,192,139296,1,0,0:0:0:0:
36,192,139296,1,0,0:0:0:0:
475,192,139296,1,0,0:0:0:0:
109,192,139363,1,0,0:0:0:0:
402,192,139429,1,0,0:0:0:0:
475,192,139429,1,0,0:0:0:0:
182,192,139429,1,0,0:0:0:0:
329,192,139496,1,0,0:0:0:0:
109,192,139496,1,0,0:0:0:0:
36,192,139562,1,0,0:0:0:0:
256,192,139562,1,0,0:0:0:0:
475,192,139562,1,0,0:0:0:0:
402,192,139629,1,0,0:0:0:0:
329,192,139696,1,0,0:0:0:0:
109,192,139696,1,0,0:0:0:0:
36,192,139696,1,0,0:0:0:0:
182,192,139762,1,0,0:0:0:0:
402,192,139762,1,0,0:0:0:0:
256,192,139829,1,0,0:0:0:0:
475,192,139829,1,0,0:0:0:0:
36,192,139829,1,0,0:0:0:0:
109,192,139829,1,0,0:0:0:0:
402,192,139862,1,0,0:0:0:0:
329,192,139895,1,0,0:0:0:0:
256,192,139929,1,0,0:0:0:0:
182,192,139961,1,0,0:0:0:0:
36,192,139961,1,0,0:0:0:0:
256,192,139995,1,0,0:0:0:0:
329,192,140029,1,0,0:0:0:0:
402,192,140061,1,0,0:0:0:0:
475,192,140095,1,0,0:0:0:0:
109,192,140095,1,0,0:0:0:0:
182,192,140128,1,0,0:0:0:0:
256,192,140161,1,0,0:0:0:0:
329,192,140194,1,0,0:0:0:0:
36,192,140228,1,0,0:0:0:0:
402,192,140228,1,0,0:0:0:0:
109,192,140261,1,0,0:0:0:0:
182,192,140294,1,0,0:0:0:0:
256,192,140328,1,0,0:0:0:0:
329,192,140361,1,0,0:0:0:0:
475,192,140361,1,0,0:0:0:0:
256,192,140394,1,0,0:0:0:0:
182,192,140428,1,0,0:0:0:0:
109,192,140461,1,0,0:0:0:0:
36,192,140494,1,0,0:0:0:0:
402,192,140494,1,0,0:0:0:0:
329,192,140527,1,0,0:0:0:0:
256,192,140561,1,0,0:0:0:0:
182,192,140594,1,0,0:0:0:0:
109,192,140627,1,0,0:0:0:0:
475,192,140627,1,0,0:0:0:0:
402,192,140661,1,0,0:0:0:0:
329,192,140694,1,0,0:0:0:0:
256,192,140727,1,0,0:0:0:0:
182,192,140760,1,0,0:0:0:0:
36,192,140760,1,0,0:0:0:0:
256,192,140794,1,0,0:0:0:0:
329,192,140827,1,0,0:0:0:0:
402,192,140860,1,0,0:0:0:0:
36,192,140894,1,0,0:0:0:0:
109,192,140894,1,0,0:0:0:0:
256,192,140894,1,0,0:0:0:0:
475,192,140894,1,0,0:0:0:0:
182,192,140960,1,0,0:0:0:0:
402,192,140960,1,0,0:0:0:0:
109,192,141026,1,0,0:0:0:0:
36,192,141026,1,0,0:0:0:0:
329,192,141026,1,0,0:0:0:0:
256,192,141026,1,0,0:0:0:0:
182,192,141093,1,0,0:0:0:0:
475,192,141093,1,0,0:0:0:0:
109,192,141159,1,0,0:0:0:0:
36,192,141159,1,0,0:0:0:0:
402,192,141159,1,0,0:0:0:0:
256,192,141159,1,0,0:0:0:0:
182,192,141226,1,0,0:0:0:0:
329,192,141226,1,0,0:0:0:0:
109,192,141293,1,0,0:0:0:0:
36,192,141293,1,0,0:0:0:0:
475,192,141293,1,0,0:0:0:0:
256,192,141293,1,0,0:0:0:0:
402,192,141359,1,0,0:0:0:0:
475,192,141426,1,0,0:0:0:0:
36,192,141426,1,0,0:0:0:0:
256,192,141426,1,0,0:0:0:0:
109,192,141492,1,0,0:0:0:0:
475,192,141559,1,0,0:0:0:0:
182,192,141559,1,0,0:0:0:0:
329,192,141559,1,0,0:0:0:0:
109,192,141626,1,0,0:0:0:0:
36,192,141692,1,0,0:0:0:0:
256,192,141692,1,0,0:0:0:0:
475,192,141692,1,0,0:0:0:0:
402,192,141759,1,0,0:0:0:0:
329,192,141825,1,0,0:0:0:0:
36,192,141825,1,0,0:0:0:0:
182,192,141825,1,0,0:0:0:0:
402,192,141891,1,0,0:0:0:0:
109,192,141891,1,0,0:0:0:0:
475,192,141958,1,0,0:0:0:0:
36,192,141958,1,0,0:0:0:0:
182,192,141958,1,0,0:0:0:0:
256,192,141958,1,0,0:0:0:0:
109,192,142025,1,0,0:0:0:0:
329,192,142025,1,0,0:0:0:0:
36,192,142091,1,0,0:0:0:0:
182,192,142091,1,0,0:0:0:0:
402,192,142091,1,0,0:0:0:0:
475,192,142091,1,0,0:0:0:0:
109,192,142158,1,0,0:0:0:0:
256,192,142158,1,0,0:0:0:0:
36,192,142224,1,0,0:0:0:0:
182,192,142224,1,0,0:0:0:0:
329,192,142224,1,0,0:0:0:0:
475,192,142224,1,0,0:0:0:0:
109,192,142291,1,0,0:0:0:0:
402,192,142291,1,0,0:0:0:0:
36,192,142357,1,0,0:0:0:0:
182,192,142357,1,0,0:0:0:0:
256,192,142357,1,0,0:0:0:0:
475,192,142357,1,0,0:0:0:0:
402,192,142424,1,0,0:0:0:0:
475,192,142491,1,0,0:0:0:0:
329,192,142491,1,0,0:0:0:0:
109,192,142491,1,0,0:0:0:0:
182,192,142557,1,0,0:0:0:0:
402,192,142624,1,0,0:0:0:0:
256,192,142624,1,0,0:0:0:0:
36,192,142624,1,0,0:0:0:0:
109,192,142690,1,0,0:0:0:0:
402,192,142756,1,0,0:0:0:0:
182,192,142756,1,0,0:0:0:0:
329,192,142824,1,0,0:0:0:0:
36,192,142890,1,0,0:0:0:0:
182,192,142890,1,0,0:0:0:0:
475,192,142890,1,0,0:0:0:0:
256,192,142890,1,0,0:0:0:0:
109,192,142956,1,0,0:0:0:0:
402,192,142956,1,0,0:0:0:0:
475,192,143023,1,0,0:0:0:0:
36,192,143023,1,0,0:0:0:0:
329,192,143023,1,0,0:0:0:0:
182,192,143089,1,0,0:0:0:0:
256,192,143156,1,0,0:0:0:0:
329,192,143156,1,0,0:0:0:0:
36,192,143156,1,0,0:0:0:0:
475,192,143156,1,0,0:0:0:0:
402,192,143223,1,0,0:0:0:0:
109,192,143223,1,0,0:0:0:0:
182,192,143289,1,0,0:0:0:0:
475,192,143289,1,0,0:0:0:0:
36,192,143289,1,0,0:0:0:0:
109,192,143356,1,0,0:0:0:0:
256,192,143356,1,0,0:0:0:0:
182,192,143422,1,0,0:0:0:0:
329,192,143422,1,0,0:0:0:0:
475,192,143422,1,0,0:0:0:0:
402,192,143422,1,0,0:0:0:0:
109,192,143489,1,0,0:0:0:0:
256,192,143489,1,0,0:0:0:0:
36,192,143555,1,0,0:0:0:0:
182,192,143555,1,0,0:0:0:0:
402,192,143555,1,0,0:0:0:0:
475,192,143555,1,0,0:0:0:0:
256,192,143622,1,0,0:0:0:0:
36,192,143689,1,0,0:0:0:0:
329,192,143689,1,0,0:0:0:0:
402,192,143689,1,0,0:0:0:0:
109,192,143689,1,0,0:0:0:0:
182,192,143755,1,0,0:0:0:0:
329,192,143821,1,0,0:0:0:0:
256,192,143821,1,0,0:0:0:0:
36,192,143821,1,0,0:0:0:0:
475,192,143821,1,0,0:0:0:0:
109,192,143888,1,0,0:0:0:0:
182,192,143954,1,0,0:0:0:0:
256,192,143954,1,0,0:0:0:0:
402,192,143954,1,0,0:0:0:0:
36,192,143954,1,0,0:0:0:0:
475,192,143954,1,0,0:0:0:0:
109,192,144221,1,0,0:0:0:0:
36,192,144221,1,0,0:0:0:0:
402,192,144221,1,0,0:0:0:0:
475,192,144221,1,0,0:0:0:0:
329,192,144287,1,0,0:0:0:0:
182,192,144287,1,0,0:0:0:0:
402,192,144354,1,0,0:0:0:0:
36,192,144354,1,0,0:0:0:0:
475,192,144354,1,0,0:0:0:0:
109,192,144354,1,0,0:0:0:0:
256,192,144421,1,0,0:0:0:0:
36,192,144487,1,0,0:0:0:0:
402,192,144487,1,0,0:0:0:0:
475,192,144487,1,0,0:0:0:0:
109,192,144487,1,0,0:0:0:0:
182,192,144554,1,0,0:0:0:0:
329,192,144554,1,0,0:0:0:0:
475,192,144620,1,0,0:0:0:0:
36,192,144620,1,0,0:0:0:0:
402,192,144620,1,0,0:0:0:0:
109,192,144620,1,0,0:0:0:0:
256,192,144686,1,0,0:0:0:0:
109,192,144753,1,0,0:0:0:0:
475,192,144753,1,0,0:0:0:0:
36,192,144753,1,0,0:0:0:0:
402,192,144753,1,0,0:0:0:0:
182,192,144820,1,0,0:0:0:0:
329,192,144820,1,0,0:0:0:0:
402,192,144886,1,0,0:0:0:0:
475,192,144886,1,0,0:0:0:0:
36,192,144886,1,0,0:0:0:0:
109,192,144886,1,0,0:0:0:0:
256,192,144953,1,0,0:0:0:0:
36,192,145019,1,0,0:0:0:0:
402,192,145019,1,0,0:0:0:0:
475,192,145019,1,0,0:0:0:0:
109,192,145019,1,0,0:0:0:0:
182,192,145086,1,0,0:0:0:0:
329,192,145086,1,0,0:0:0:0:
36,192,145152,1,0,0:0:0:0:
475,192,145152,1,0,0:0:0:0:
402,192,145152,1,0,0:0:0:0:
109,192,145152,1,0,0:0:0:0:
256,192,145152,1,0,0:0:0:0:
182,192,145219,1,0,0:0:0:0:
329,192,145219,1,0,0:0:0:0:
475,192,145286,1,0,0:0:0:0:
402,192,145286,1,0,0:0:0:0:
36,192,145286,1,0,0:0:0:0:
109,192,145286,1,0,0:0:0:0:
256,192,145352,1,0,0:0:0:0:
182,192,145352,1,0,0:0:0:0:
329,192,145419,1,0,0:0:0:0:
475,192,145419,1,0,0:0:0:0:
36,192,145419,1,0,0:0:0:0:
109,192,145419,1,0,0:0:0:0:
402,192,145485,1,0,0:0:0:0:
182,192,145485,1,0,0:0:0:0:
475,192,145551,1,0,0:0:0:0:
256,192,145551,1,0,0:0:0:0:
36,192,145551,1,0,0:0:0:0:
109,192,145551,1,0,0:0:0:0:
329,192,145619,1,0,0:0:0:0:
402,192,145685,1,0,0:0:0:0:
475,192,145685,1,0,0:0:0:0:
36,192,145685,1,0,0:0:0:0:
109,192,145751,1,0,0:0:0:0:
329,192,145818,1,0,0:0:0:0:
182,192,145818,1,0,0:0:0:0:
475,192,145818,1,0,0:0:0:0:
109,192,145884,1,0,0:0:0:0:
256,192,145951,1,0,0:0:0:0:
36,192,145951,1,0,0:0:0:0:
475,192,145951,1,0,0:0:0:0:
402,192,146018,1,0,0:0:0:0:
182,192,146084,1,0,0:0:0:0:
36,192,146084,1,0,0:0:0:0:
329,192,146084,1,0,0:0:0:0:
109,192,146151,1,0,0:0:0:0:
402,192,146151,1,0,0:0:0:0:
36,192,146217,1,0,0:0:0:0:
182,192,146217,1,0,0:0:0:0:
475,192,146217,1,0,0:0:0:0:
256,192,146217,1,0,0:0:0:0:
402,192,146284,1,0,0:0:0:0:
109,192,146284,1,0,0:0:0:0:
329,192,146350,1,0,0:0:0:0:
256,192,146350,1,0,0:0:0:0:
182,192,146350,1,0,0:0:0:0:
36,192,146350,1,0,0:0:0:0:
475,192,146417,1,0,0:0:0:0:
109,192,146417,1,0,0:0:0:0:
402,192,146484,1,0,0:0:0:0:
256,192,146484,1,0,0:0:0:0:
182,192,146484,1,0,0:0:0:0:
36,192,146484,1,0,0:0:0:0:
329,192,146550,1,0,0:0:0:0:
109,192,146550,1,0,0:0:0:0:
256,192,146616,1,0,0:0:0:0:
475,192,146616,1,0,0:0:0:0:
182,192,146616,1,0,0:0:0:0:
36,192,146616,1,0,0:0:0:0:
402,192,146683,1,0,0:0:0:0:
475,192,146749,1,0,0:0:0:0:
329,192,146749,1,0,0:0:0:0:
182,192,146749,1,0,0:0:0:0:
109,192,146816,1,0,0:0:0:0:
402,192,146883,1,0,0:0:0:0:
256,192,146883,1,0,0:0:0:0:
36,192,146883,1,0,0:0:0:0:
109,192,146949,1,0,0:0:0:0:
182,192,147016,1,0,0:0:0:0:
329,192,147016,1,0,0:0:0:0:
402,192,147082,1,0,0:0:0:0:
475,192,147149,1,0,0:0:0:0:
109,192,147149,1,0,0:0:0:0:
36,192,147149,1,0,0:0:0:0:
182,192,147216,1,0,0:0:0:0:
402,192,147216,1,0,0:0:0:0:
109,192,147282,1,0,0:0:0:0:
256,192,147282,1,0,0:0:0:0:
329,192,147282,1,0,0:0:0:0:
36,192,147282,1,0,0:0:0:0:
402,192,147349,1,0,0:0:0:0:
182,192,147349,1,0,0:0:0:0:
475,192,147415,1,0,0:0:0:0:
256,192,147415,1,0,0:0:0:0:
109,192,147415,1,0,0:0:0:0:
36,192,147415,1,0,0:0:0:0:
329,192,147481,1,0,0:0:0:0:
182,192,147481,1,0,0:0:0:0:
402,192,147548,1,0,0:0:0:0:
475,192,147548,1,0,0:0:0:0:
109,192,147548,1,0,0:0:0:0:
36,192,147548,1,0,0:0:0:0:
256,192,147615,1,0,0:0:0:0:
182,192,147615,1,0,0:0:0:0:
329,192,147681,1,0,0:0:0:0:
475,192,147681,1,0,0:0:0:0:
109,192,147681,1,0,0:0:0:0:
36,192,147681,1,0,0:0:0:0:
402,192,147748,1,0,0:0:0:0:
475,192,147814,1,0,0:0:0:0:
109,192,147814,1,0,0:0:0:0:
256,192,147814,1,0,0:0:0:0:
36,192,147881,1,0,0:0:0:0:
182,192,147947,1,0,0:0:0:0:
475,192,147947,1,0,0:0:0:0:
402,192,147947,1,0,0:0:0:0:
109,192,148014,1,0,0:0:0:0:
329,192,148014,1,0,0:0:0:0:
402,192,148081,1,0,0:0:0:0:
256,192,148081,1,0,0:0:0:0:
36,192,148081,1,0,0:0:0:0:
475,192,148147,1,0,0:0:0:0:
109,192,148214,1,0,0:0:0:0:
329,192,148214,1,0,0:0:0:0:
36,192,148214,1,0,0:0:0:0:
402,192,148280,1,0,0:0:0:0:
182,192,148280,1,0,0:0:0:0:
109,192,148346,1,0,0:0:0:0:
329,192,148346,1,0,0:0:0:0:
36,192,148346,1,0,0:0:0:0:
256,192,148346,1,0,0:0:0:0:
475,192,148346,1,0,0:0:0:0:
402,192,148414,1,0,0:0:0:0:
182,192,148414,1,0,0:0:0:0:
256,192,148480,1,0,0:0:0:0:
475,192,148480,1,0,0:0:0:0:
329,192,148546,1,0,0:0:0:0:
109,192,148546,1,0,0:0:0:0:
402,192,148613,1,0,0:0:0:0:
475,192,148613,1,0,0:0:0:0:
256,192,148613,1,0,0:0:0:0:
36,192,148613,1,0,0:0:0:0:
182,192,148613,1,0,0:0:0:0:
329,192,148679,1,0,0:0:0:0:
109,192,148679,1,0,0:0:0:0:
36,192,148746,1,0,0:0:0:0:
256,192,148746,1,0,0:0:0:0:
182,192,148813,1,0,0:0:0:0:
402,192,148813,1,0,0:0:0:0:
256,192,148879,1,0,0:0:0:0:
475,192,148879,1,0,0:0:0:0:
329,192,148879,1,0,0:0:0:0:
109,192,148879,1,0,0:0:0:0:
36,192,148879,1,0,0:0:0:0:
402,192,148946,1,0,0:0:0:0:
182,192,148946,1,0,0:0:0:0:
475,192,149012,1,0,0:0:0:0:
256,192,149012,1,0,0:0:0:0:
329,192,149079,1,0,0:0:0:0:
109,192,149079,1,0,0:0:0:0:
36,192,149145,1,0,0:0:0:0:
256,192,149145,1,0,0:0:0:0:
182,192,149145,1,0,0:0:0:0:
402,192,149145,1,0,0:0:0:0:
475,192,149145,1,0,0:0:0:0:
329,192,149212,1,0,0:0:0:0:
109,192,149212,1,0,0:0:0:0:
36,192,149279,1,0,0:0:0:0:
256,192,149279,1,0,0:0:0:0:
475,192,149279,1,0,0:0:0:0:
329,192,149345,1,0,0:0:0:0:
182,192,149345,1,0,0:0:0:0:
475,192,149411,1,0,0:0:0:0:
36,192,149411,1,0,0:0:0:0:
256,192,149411,1,0,0:0:0:0:
109,192,149411,1,0,0:0:0:0:
402,192,149411,1,0,0:0:0:0:
329,192,149544,1,0,0:0:0:0:
475,192,149544,1,0,0:0:0:0:
402,192,149544,1,0,0:0:0:0:
182,192,149544,1,0,0:0:0:0:
109,192,149544,1,0,0:0:0:0:
475,192,149678,1,0,0:0:0:0:
329,192,149678,1,0,0:0:0:0:
36,192,149678,1,0,0:0:0:0:
109,192,149744,1,0,0:0:0:0:
256,192,149744,1,0,0:0:0:0:
402,192,149744,1,0,0:0:0:0:
36,192,149811,1,0,0:0:0:0:
182,192,149811,1,0,0:0:0:0:
475,192,149811,1,0,0:0:0:0:
329,192,149811,1,0,0:0:0:0:
475,192,150077,1,0,0:0:0:0:
402,192,150077,1,0,0:0:0:0:
329,192,150077,1,0,0:0:0:0:
182,192,150077,1,0,0:0:0:0:
109,192,150077,1,0,0:0:0:0:
36,192,150210,1,0,0:0:0:0:
109,192,150210,1,0,0:0:0:0:
402,192,150210,1,0,0:0:0:0:
329,192,150210,1,0,0:0:0:0:
256,192,150210,1,0,0:0:0:0:
36,192,150343,1,0,0:0:0:0:
475,192,150343,1,0,0:0:0:0:
182,192,150343,1,0,0:0:0:0:
256,192,150343,1,0,0:0:0:0:
329,192,150343,1,0,0:0:0:0:
109,192,150410,1,0,0:0:0:0:
402,192,150410,1,0,0:0:0:0:
475,192,150476,1,0,0:0:0:0:
36,192,150476,1,0,0:0:0:0:
256,192,150476,1,0,0:0:0:0:
182,192,150476,1,0,0:0:0:0:
329,192,150476,1,0,0:0:0:0:
182,192,150609,1,0,0:0:0:0:
36,192,150609,1,0,0:0:0:0:
109,192,150609,1,0,0:0:0:0:
329,192,150609,1,0,0:0:0:0:
402,192,150609,1,0,0:0:0:0:
36,192,150743,1,0,0:0:0:0:
182,192,150743,1,0,0:0:0:0:
475,192,150743,1,0,0:0:0:0:
402,192,150809,1,0,0:0:0:0:
256,192,150809,1,0,0:0:0:0:
109,192,150809,1,0,0:0:0:0:
475,192,150876,1,0,0:0:0:0:
329,192,150876,1,0,0:0:0:0:
36,192,150876,1,0,0:0:0:0:
182,192,150876,1,0,0:0:0:0:
36,192,151142,1,0,0:0:0:0:
109,192,151142,1,0,0:0:0:0:
182,192,151142,1,0,0:0:0:0:
329,192,151142,1,0,0:0:0:0:
402,192,151142,1,0,0:0:0:0:
109,192,151275,1,0,0:0:0:0:
475,192,151275,1,0,0:0:0:0:
36,192,151275,1,0,0:0:0:0:
256,192,151275,1,0,0:0:0:0:
402,192,151275,1,0,0:0:0:0:
182,192,151341,1,0,0:0:0:0:
329,192,151341,1,0,0:0:0:0:
36,192,151408,1,0,0:0:0:0:
475,192,151408,1,0,0:0:0:0:
256,192,151408,1,0,0:0:0:0:
109,192,151474,1,0,0:0:0:0:
402,192,151474,1,0,0:0:0:0:
36,192,151541,1,0,0:0:0:0:
182,192,151541,1,0,0:0:0:0:
256,192,151541,1,0,0:0:0:0:
329,192,151541,1,0,0:0:0:0:
475,192,151541,1,0,0:0:0:0:
182,192,151741,1,0,0:0:0:0:
329,192,151741,1,0,0:0:0:0:
475,192,151807,1,0,0:0:0:0:
402,192,151807,1,0,0:0:0:0:
36,192,151807,1,0,0:0:0:0:
109,192,151807,1,0,0:0:0:0:
256,192,151807,1,0,0:0:0:0:
109,192,152007,1,0,0:0:0:0:
402,192,152007,1,0,0:0:0:0:
36,192,152074,1,0,0:0:0:0:
475,192,152074,1,0,0:0:0:0:
329,192,152074,1,0,0:0:0:0:
182,192,152074,1,0,0:0:0:0:
256,192,152074,1,0,0:0:0:0:
36,192,152273,1,0,0:0:0:0:
475,192,152273,1,0,0:0:0:0:
256,192,152340,1,0,0:0:0:0:
182,192,152340,1,0,0:0:0:0:
109,192,152340,1,0,0:0:0:0:
402,192,152340,1,0,0:0:0:0:
329,192,152340,1,0,0:0:0:0:
256,192,152539,1,0,0:0:0:0:
182,192,152606,1,0,0:0:0:0:
109,192,152606,1,0,0:0:0:0:
36,192,152606,1,0,0:0:0:0:
329,192,152606,1,0,0:0:0:0:
475,192,152606,1,0,0:0:0:0:
402,192,152606,1,0,0:0:0:0:
36,192,152872,1,0,0:0:0:0:
109,192,152872,1,0,0:0:0:0:
182,192,152872,1,0,0:0:0:0:
329,192,152872,1,0,0:0:0:0:
402,192,152872,1,0,0:0:0:0:
475,192,152872,1,0,0:0:0:0:
256,192,153139,1,0,0:0:0:0:
475,192,153139,1,0,0:0:0:0:
36,192,153139,1,0,0:0:0:0:
402,192,153205,1,0,0:0:0:0:
109,192,153205,1,0,0:0:0:0:
329,192,153271,1,0,0:0:0:0:
182,192,153271,1,0,0:0:0:0:
109,192,153338,1,0,0:0:0:0:
402,192,153338,1,0,0:0:0:0:
36,192,153404,1,0,0:0:0:0:
475,192,153404,1,0,0:0:0:0:
256,192,153404,1,0,0:0:0:0:
182,192,153471,1,0,0:0:0:0:
329,192,153471,1,0,0:0:0:0:
109,192,153538,1,0,0:0:0:0:
402,192,153538,1,0,0:0:0:0:
36,192,153538,1,0,0:0:0:0:
475,192,153538,1,0,0:0:0:0:
182,192,153604,1,0,0:0:0:0:
329,192,153604,1,0,0:0:0:0:
36,192,153671,1,0,0:0:0:0:
256,192,153671,1,0,0:0:0:0:
402,192,153671,1,0,0:0:0:0:
475,192,153671,1,0,0:0:0:0:
109,192,153671,1,0,0:0:0:0:
329,192,153804,1,0,0:0:0:0:
402,192,153804,1,0,0:0:0:0:
36,192,153804,1,0,0:0:0:0:
182,192,153804,1,0,0:0:0:0:
329,192,153937,1,0,0:0:0:0:
475,192,153937,1,0,0:0:0:0:
109,192,153937,1,0,0:0:0:0:
256,192,153937,1,0,0:0:0:0:
256,192,154070,1,0,0:0:0:0:
402,192,154070,1,0,0:0:0:0:
36,192,154070,1,0,0:0:0:0:
182,192,154070,1,0,0:0:0:0:
475,192,154203,1,0,0:0:0:0:
182,192,154203,1,0,0:0:0:0:
109,192,154203,1,0,0:0:0:0:
329,192,154203,1,0,0:0:0:0:
182,192,154336,1,0,0:0:0:0:
256,192,154336,1,0,0:0:0:0:
36,192,154336,1,0,0:0:0:0:
402,192,154336,1,0,0:0:0:0:
329,192,154469,1,0,0:0:0:0:
109,192,154469,1,0,0:0:0:0:
475,192,154469,1,0,0:0:0:0:
256,192,154469,1,0,0:0:0:0:
402,192,154602,1,0,0:0:0:0:
182,192,154602,1,0,0:0:0:0:
329,192,154602,1,0,0:0:0:0:
36,192,154602,1,0,0:0:0:0:
475,192,154736,1,0,0:0:0:0:
329,192,154736,1,0,0:0:0:0:
182,192,154736,1,0,0:0:0:0:
109,192,154736,1,0,0:0:0:0:
402,192,154869,1,0,0:0:0:0:
256,192,154869,1,0,0:0:0:0:
182,192,154869,1,0,0:0:0:0:
36,192,154869,1,0,0:0:0:0:
475,192,155001,1,0,0:0:0:0:
329,192,155001,1,0,0:0:0:0:
256,192,155001,1,0,0:0:0:0:
109,192,155001,1,0,0:0:0:0:
402,192,155135,1,0,0:0:0:0:
182,192,155135,1,0,0:0:0:0:
36,192,155135,1,0,0:0:0:0:
329,192,155135,1,0,0:0:0:0:
475,192,155268,1,0,0:0:0:0:
36,192,155268,1,0,0:0:0:0:
402,192,155268,1,0,0:0:0:0:
109,192,155268,1,0,0:0:0:0:
182,192,155334,1,0,0:0:0:0:
329,192,155334,1,0,0:0:0:0:
256,192,155401,1,0,0:0:0:0:
36,192,155401,1,0,0:0:0:0:
475,192,155401,1,0,0:0:0:0:
402,192,155467,1,0,0:0:0:0:
109,192,155467,1,0,0:0:0:0:
182,192,155534,1,0,0:0:0:0:
256,192,155534,1,0,0:0:0:0:
329,192,155534,1,0,0:0:0:0:
109,192,155601,1,0,0:0:0:0:
402,192,155601,1,0,0:0:0:0:
36,192,155667,1,0,0:0:0:0:
475,192,155667,1,0,0:0:0:0:
256,192,155667,1,0,0:0:0:0:
182,192,155734,1,0,0:0:0:0:
329,192,155734,1,0,0:0:0:0:
109,192,155800,1,0,0:0:0:0:
36,192,155800,1,0,0:0:0:0:
256,192,155800,1,0,0:0:0:0:
402,192,155800,1,0,0:0:0:0:
475,192,155800,1,0,0:0:0:0:
475,192,155934,1,0,0:0:0:0:
256,192,155934,1,0,0:0:0:0:
36,192,155934,1,0,0:0:0:0:
329,192,156000,1,0,0:0:0:0:
109,192,156000,1,0,0:0:0:0:
402,192,156066,1,0,0:0:0:0:
36,192,156066,1,0,0:0:0:0:
182,192,156066,1,0,0:0:0:0:
475,192,156066,1,0,0:0:0:0:
329,192,156133,1,0,0:0:0:0:
475,192,156199,1,0,0:0:0:0:
256,192,156199,1,0,0:0:0:0:
36,192,156199,1,0,0:0:0:0:
182,192,156266,1,0,0:0:0:0:
402,192,156266,1,0,0:0:0:0:
36,192,156333,1,0,0:0:0:0:
329,192,156333,1,0,0:0:0:0:
475,192,156333,1,0,0:0:0:0:
109,192,156333,1,0,0:0:0:0:
256,192,156399,1,0,0:0:0:0:
402,192,156466,1,0,0:0:0:0:
475,192,156466,1,0,0:0:0:0:
182,192,156466,1,0,0:0:0:0:
109,192,156466,1,0,0:0:0:0:
329,192,156532,1,0,0:0:0:0:
182,192,156599,1,0,0:0:0:0:
36,192,156599,1,0,0:0:0:0:
475,192,156599,1,0,0:0:0:0:
256,192,156599,1,0,0:0:0:0:
402,192,156665,1,0,0:0:0:0:
109,192,156732,1,0,0:0:0:0:
36,192,156732,1,0,0:0:0:0:
256,192,156732,1,0,0:0:0:0:
475,192,156732,1,0,0:0:0:0:
329,192,156732,1,0,0:0:0:0:
256,192,156865,1,0,0:0:0:0:
36,192,156865,1,0,0:0:0:0:
109,192,156865,1,0,0:0:0:0:
182,192,156931,1,0,0:0:0:0:
329,192,156931,1,0,0:0:0:0:
402,192,156998,1,0,0:0:0:0:
36,192,156998,1,0,0:0:0:0:
256,192,156998,1,0,0:0:0:0:
475,192,156998,1,0,0:0:0:0:
329,192,157064,1,0,0:0:0:0:
109,192,157064,1,0,0:0:0:0:
182,192,157131,1,0,0:0:0:0:
402,192,157131,1,0,0:0:0:0:
36,192,157131,1,0,0:0:0:0:
475,192,157131,1,0,0:0:0:0:
402,192,157264,1,0,0:0:0:0:
256,192,157264,1,0,0:0:0:0:
475,192,157264,1,0,0:0:0:0:
329,192,157331,1,0,0:0:0:0:
182,192,157331,1,0,0:0:0:0:
109,192,157397,1,0,0:0:0:0:
256,192,157397,1,0,0:0:0:0:
36,192,157397,1,0,0:0:0:0:
475,192,157397,1,0,0:0:0:0:
182,192,157531,1,0,0:0:0:0:
329,192,157531,1,0,0:0:0:0:
402,192,157531,1,0,0:0:0:0:
109,192,157597,1,0,0:0:0:0:
256,192,157597,1,0,0:0:0:0:
182,192,157664,1,0,0:0:0:0:
402,192,157664,1,0,0:0:0:0:
475,192,157664,1,0,0:0:0:0:
36,192,157664,1,0,0:0:0:0:
182,192,157796,1,0,0:0:0:0:
36,192,157796,1,0,0:0:0:0:
256,192,157863,1,0,0:0:0:0:
109,192,157863,1,0,0:0:0:0:
329,192,157930,1,0,0:0:0:0:
182,192,157930,1,0,0:0:0:0:
475,192,157930,1,0,0:0:0:0:
36,192,157930,1,0,0:0:0:0:
402,192,157996,1,0,0:0:0:0:
109,192,158063,1,0,0:0:0:0:
329,192,158063,1,0,0:0:0:0:
36,192,158063,1,0,0:0:0:0:
182,192,158129,1,0,0:0:0:0:
402,192,158129,1,0,0:0:0:0:
475,192,158196,1,0,0:0:0:0:
329,192,158196,1,0,0:0:0:0:
256,192,158196,1,0,0:0:0:0:
36,192,158196,1,0,0:0:0:0:
109,192,158262,1,0,0:0:0:0:
402,192,158329,1,0,0:0:0:0:
182,192,158329,1,0,0:0:0:0:
329,192,158396,1,0,0:0:0:0:
109,192,158396,1,0,0:0:0:0:
256,192,158462,1,0,0:0:0:0:
182,192,158462,1,0,0:0:0:0:
475,192,158462,1,0,0:0:0:0:
36,192,158462,1,0,0:0:0:0:
402,192,158529,1,0,0:0:0:0:
109,192,158595,1,0,0:0:0:0:
36,192,158595,1,0,0:0:0:0:
329,192,158595,1,0,0:0:0:0:
256,192,158595,1,0,0:0:0:0:
475,192,158661,1,0,0:0:0:0:
182,192,158729,1,0,0:0:0:0:
109,192,158729,1,0,0:0:0:0:
402,192,158729,1,0,0:0:0:0:
329,192,158729,1,0,0:0:0:0:
36,192,158795,1,0,0:0:0:0:
256,192,158861,1,0,0:0:0:0:
402,192,158861,1,0,0:0:0:0:
475,192,158861,1,0,0:0:0:0:
182,192,158861,1,0,0:0:0:0:
329,192,158994,1,0,0:0:0:0:
109,192,158994,1,0,0:0:0:0:
36,192,158994,1,0,0:0:0:0:
402,192,159061,1,0,0:0:0:0:
182,192,159061,1,0,0:0:0:0:
36,192,159128,1,0,0:0:0:0:
256,192,159128,1,0,0:0:0:0:
475,192,159128,1,0,0:0:0:0:
329,192,159194,1,0,0:0:0:0:
109,192,159194,1,0,0:0:0:0:
402,192,159261,1,0,0:0:0:0:
182,192,159261,1,0,0:0:0:0:
475,192,159261,1,0,0:0:0:0:
36,192,159261,1,0,0:0:0:0:
329,192,159327,1,0,0:0:0:0:
256,192,159327,1,0,0:0:0:0:
109,192,159327,1,0,0:0:0:0:
182,192,159394,1,0,0:0:0:0:
402,192,159394,1,0,0:0:0:0:
475,192,159394,1,0,0:0:0:0:
36,192,159394,1,0,0:0:0:0:
402,192,159527,1,0,0:0:0:0:
109,192,159527,1,0,0:0:0:0:
256,192,159527,1,0,0:0:0:0:
182,192,159594,1,0,0:0:0:0:
329,192,159594,1,0,0:0:0:0:
475,192,159660,1,0,0:0:0:0:
36,192,159660,1,0,0:0:0:0:
256,192,159660,1,0,0:0:0:0:
329,192,159726,1,0,0:0:0:0:
182,192,159726,1,0,0:0:0:0:
36,192,159793,1,0,0:0:0:0:
475,192,159793,1,0,0:0:0:0:
256,192,159793,1,0,0:0:0:0:
402,192,159859,1,0,0:0:0:0:
109,192,159859,1,0,0:0:0:0:
329,192,159926,1,0,0:0:0:0:
256,192,159926,1,0,0:0:0:0:
182,192,159926,1,0,0:0:0:0:
402,192,159993,1,0,0:0:0:0:
109,192,159993,1,0,0:0:0:0:
329,192,160059,1,0,0:0:0:0:
256,192,160059,1,0,0:0:0:0:
182,192,160059,1,0,0:0:0:0:
475,192,160059,1,0,0:0:0:0:
36,192,160059,1,0,0:0:0:0:
109,192,160126,1,0,0:0:0:0:
475,192,160192,1,0,0:0:0:0:
182,192,160192,1,0,0:0:0:0:
329,192,160192,1,0,0:0:0:0:
402,192,160192,1,0,0:0:0:0:
36,192,160259,1,0,0:0:0:0:
329,192,160326,1,0,0:0:0:0:
402,192,160326,1,0,0:0:0:0:
109,192,160326,1,0,0:0:0:0:
256,192,160326,1,0,0:0:0:0:
475,192,160392,1,0,0:0:0:0:
329,192,160459,1,0,0:0:0:0:
36,192,160459,1,0,0:0:0:0:
182,192,160459,1,0,0:0:0:0:
256,192,160459,1,0,0:0:0:0:
329,192,160725,1,0,0:0:0:0:
475,192,160725,1,0,0:0:0:0:
36,192,160725,1,0,0:0:0:0:
109,192,160725,1,0,0:0:0:0:
256,192,160791,1,0,0:0:0:0:
475,192,160858,1,0,0:0:0:0:
182,192,160858,1,0,0:0:0:0:
36,192,160858,1,0,0:0:0:0:
402,192,160858,1,0,0:0:0:0:
256,192,160924,1,0,0:0:0:0:
475,192,160991,1,0,0:0:0:0:
36,192,160991,1,0,0:0:0:0:
329,192,160991,1,0,0:0:0:0:
109,192,160991,1,0,0:0:0:0:
402,192,161257,1,0,0:0:0:0:
36,192,161257,1,0,0:0:0:0:
182,192,161257,1,0,0:0:0:0:
475,192,161257,1,0,0:0:0:0:
256,192,161324,1,0,0:0:0:0:
329,192,161390,1,0,0:0:0:0:
475,192,161390,1,0,0:0:0:0:
36,192,161390,1,0,0:0:0:0:
109,192,161390,1,0,0:0:0:0:
256,192,161457,1,0,0:0:0:0:
402,192,161524,1,0,0:0:0:0:
475,192,161524,1,0,0:0:0:0:
36,192,161524,1,0,0:0:0:0:
182,192,161524,1,0,0:0:0:0:
182,192,161789,1,0,0:0:0:0:
329,192,161789,1,0,0:0:0:0:
475,192,161789,1,0,0:0:0:0:
36,192,161789,1,0,0:0:0:0:
402,192,161856,1,0,0:0:0:0:
256,192,161856,1,0,0:0:0:0:
109,192,161856,1,0,0:0:0:0:
182,192,161923,1,0,0:0:0:0:
329,192,161923,1,0,0:0:0:0:
475,192,161923,1,0,0:0:0:0:
36,192,161923,1,0,0:0:0:0:
402,192,161989,1,0,0:0:0:0:
109,192,161989,1,0,0:0:0:0:
256,192,162056,1,0,0:0:0:0:
329,192,162056,1,0,0:0:0:0:
182,192,162056,1,0,0:0:0:0:
109,192,162122,1,0,0:0:0:0:
402,192,162122,1,0,0:0:0:0:
329,192,162189,1,0,0:0:0:0:
256,192,162189,1,0,0:0:0:0:
182,192,162189,1,0,0:0:0:0:
475,192,162189,1,0,0:0:0:0:
36,192,162189,1,0,0:0:0:0:
109,192,162256,1,0,0:0:0:0:
402,192,162322,1,0,0:0:0:0:
475,192,162322,1,0,0:0:0:0:
182,192,162322,1,0,0:0:0:0:
329,192,162389,1,0,0:0:0:0:
109,192,162389,1,0,0:0:0:0:
256,192,162455,1,0,0:0:0:0:
36,192,162455,1,0,0:0:0:0:
475,192,162455,1,0,0:0:0:0:
182,192,162521,1,0,0:0:0:0:
36,192,162588,1,0,0:0:0:0:
475,192,162588,1,0,0:0:0:0:
329,192,162588,1,0,0:0:0:0:
256,192,162655,1,0,0:0:0:0:
402,192,162655,1,0,0:0:0:0:
109,192,162655,1,0,0:0:0:0:
475,192,162721,1,0,0:0:0:0:
329,192,162721,1,0,0:0:0:0:
182,192,162721,1,0,0:0:0:0:
36,192,162721,1,0,0:0:0:0:
256,192,162854,1,0,0:0:0:0:
36,192,162854,1,0,0:0:0:0:
402,192,162854,1,0,0:0:0:0:
182,192,162854,1,0,0:0:0:0:
329,192,162987,1,0,0:0:0:0:
475,192,162987,1,0,0:0:0:0:
182,192,162987,1,0,0:0:0:0:
109,192,162987,1,0,0:0:0:0:
402,192,163121,1,0,0:0:0:0:
475,192,163121,1,0,0:0:0:0:
36,192,163121,1,0,0:0:0:0:
256,192,163121,1,0,0:0:0:0:
109,192,163121,1,0,0:0:0:0:
402,192,163653,1,0,0:0:0:0:
256,192,163653,1,0,0:0:0:0:
475,192,163653,1,0,0:0:0:0:
182,192,163919,1,0,0:0:0:0:
329,192,163919,1,0,0:0:0:0:
256,192,164052,1,0,0:0:0:0:
109,192,164052,1,0,0:0:0:0:
36,192,164185,1,0,0:0:0:0:
182,192,164185,1,0,0:0:0:0:
36,192,164319,1,0,0:0:0:0:
475,192,164319,1,0,0:0:0:0:
256,192,164319,1,0,0:0:0:0:
109,192,164451,1,0,0:0:0:0:
182,192,164584,1,0,0:0:0:0:
256,192,164718,1,0,0:0:0:0:
109,192,164984,1,0,0:0:0:0:
182,192,165117,1,0,0:0:0:0:
256,192,165250,1,0,0:0:0:0:
109,192,165516,1,0,0:0:0:0:
182,192,165649,1,0,0:0:0:0:
256,192,165782,1,0,0:0:0:0:
109,192,166049,1,0,0:0:0:0:
182,192,166181,1,0,0:0:0:0:
256,192,166315,1,0,0:0:0:0:
109,192,166581,1,0,0:0:0:0:
182,192,166714,1,0,0:0:0:0:
256,192,166847,1,0,0:0:0:0:
109,192,167114,1,0,0:0:0:0:
182,192,167246,1,0,0:0:0:0:
256,192,167379,1,0,0:0:0:0:
109,192,167646,1,0,0:0:0:0:
182,192,167796,1,0,0:0:0:0:
256,192,167945,1,0,0:0:0:0:
109,192,168211,1,0,0:0:0:0:
182,192,168361,1,0,0:0:0:0:
256,192,168511,1,0,0:0:0:0:
