osu file format v14

[General]
AudioFilename: Yanaginagi - Landscape130.mp3
AudioLeadIn: 0
PreviewTime: 49483
Countdown: 0
SampleSet: None
StackLeniency: 0.7
Mode: 3
LetterboxInBreaks: 0
SpecialStyle: 0
WidescreenStoryboard: 0

[Editor]
Bookmarks: 91958
DistanceSpacing: 1.6
BeatDivisor: 4
GridSize: 4
TimelineZoom: 2.7

[Metadata]
Title:Landscape
TitleUnicode:Landscape
Artist:Yanaginagi
ArtistUnicode:Yanaginagi
Creator:Applequestria
Version:For Kawawa [1.3x Rate]
Source:
Tags:
BeatmapID:4536946
BeatmapSetID:677745

[Difficulty]
HPDrainRate:8
CircleSize:7
OverallDifficulty:8
ApproachRate:5
SliderMultiplier:1.4
SliderTickRate:1

[Events]
//Background and Video events
0,0,"Yanaginagi - Landscape.jpg",0,0
//Break Periods
//Storyboard Layer 0 (Background)
//Storyboard Layer 1 (Fail)
//Storyboard Layer 2 (Pass)
//Storyboard Layer 3 (Foreground)
//Storyboard Layer 4 (Overlay)
//Storyboard Sound Samples

[TimingPoints]
367,286.669851887243,4,2,0,10,1,0
49674,-100,4,2,0,10,0,1
68021,-100,4,2,0,10,0,0
105861,-100,4,2,0,10,0,1
124208,-100,4,2,0,10,0,0
149435,-100,4,2,0,10,0,1
167782,-100,4,2,0,10,0,0

[HitObjects]
36,192,367,5,0,0:0:0:0:
475,192,367,5,0,0:0:0:0:
109,192,367,1,0,0:0:0:0:
256,192,367,1,0,0:0:0:0:
402,192,367,1,0,0:0:0:0:
402,192,797,1,0,0:0:0:0:
475,192,797,1,0,0:0:0:0:
256,192,797,1,0,0:0:0:0:
329,192,1083,1,0,0:0:0:0:
475,192,1083,1,0,0:0:0:0:
256,192,1227,1,0,0:0:0:0:
402,192,1227,1,0,0:0:0:0:
182,192,1370,1,0,0:0:0:0:
329,192,1370,1,0,0:0:0:0:
36,192,1513,1,0,0:0:0:0:
109,192,1513,1,0,0:0:0:0:
256,192,1513,1,0,0:0:0:0:
329,192,2087,1,0,0:0:0:0:
182,192,2087,1,0,0:0:0:0:
256,192,2660,1,0,0:0:0:0:
402,192,2660,1,0,0:0:0:0:
475,192,2660,1,0,0:0:0:0:
182,192,2660,1,0,0:0:0:0:
36,192,2660,1,0,0:0:0:0:
329,192,2803,1,0,0:0:0:0:
109,192,2803,1,0,0:0:0:0:
182,192,2947,1,0,0:0:0:0:
36,192,2947,1,0,0:0:0:0:
475,192,3090,1,0,0:0:0:0:
402,192,3090,1,0,0:0:0:0:
256,192,3090,1,0,0:0:0:0:
182,192,3233,1,0,0:0:0:0:
36,192,3233,1,0,0:0:0:0:
109,192,3377,1,0,0:0:0:0:
475,192,3377,1,0,0:0:0:0:
329,192,3377,1,0,0:0:0:0:
256,192,3520,1,0,0:0:0:0:
402,192,3520,1,0,0:0:0:0:
182,192,3663,1,0,0:0:0:0:
329,192,3663,1,0,0:0:0:0:
256,192,3807,1,0,0:0:0:0:
402,192,3807,1,0,0:0:0:0:
475,192,3807,1,0,0:0:0:0:
109,192,3807,1,0,0:0:0:0:
36,192,3807,1,0,0:0:0:0:
475,192,4093,128,0,4380:0:0:0:0:
329,192,4093,128,0,4380:0:0:0:0:
182,192,4093,1,0,0:0:0:0:
402,192,4380,128,0,4667:0:0:0:0:
256,192,4380,128,0,4667:0:0:0:0:
109,192,4380,1,0,0:0:0:0:
36,192,4667,1,0,0:0:0:0:
329,192,4667,128,0,4953:0:0:0:0:
182,192,4667,128,0,4953:0:0:0:0:
402,192,4953,1,0,0:0:0:0:
475,192,4953,1,0,0:0:0:0:
36,192,4953,1,0,0:0:0:0:
109,192,4953,1,0,0:0:0:0:
256,192,4953,1,0,0:0:0:0:
329,192,5097,1,0,0:0:0:0:
182,192,5097,1,0,0:0:0:0:
36,192,5240,1,0,0:0:0:0:
109,192,5240,1,0,0:0:0:0:
402,192,5383,1,0,0:0:0:0:
475,192,5383,1,0,0:0:0:0:
256,192,5383,1,0,0:0:0:0:
36,192,5527,1,0,0:0:0:0:
109,192,5527,1,0,0:0:0:0:
329,192,5670,1,0,0:0:0:0:
475,192,5670,1,0,0:0:0:0:
182,192,5670,1,0,0:0:0:0:
256,192,5813,1,0,0:0:0:0:
402,192,5813,1,0,0:0:0:0:
182,192,5957,1,0,0:0:0:0:
329,192,5957,1,0,0:0:0:0:
36,192,6100,128,0,6602:0:0:0:0:
109,192,6100,128,0,6602:0:0:0:0:
256,192,6100,128,0,6602:0:0:0:0:
402,192,6100,128,0,6602:0:0:0:0:
475,192,6100,128,0,6602:0:0:0:0:
36,192,6673,128,0,7175:0:0:0:0:
109,192,6673,128,0,7175:0:0:0:0:
256,192,6673,128,0,7175:0:0:0:0:
329,192,6673,128,0,7175:0:0:0:0:
402,192,6673,128,0,7175:0:0:0:0:
109,192,7247,128,0,8322:0:0:0:0:
182,192,7247,128,0,8322:0:0:0:0:
329,192,7247,128,0,8322:0:0:0:0:
402,192,7247,128,0,8322:0:0:0:0:
475,192,7247,128,0,8322:0:0:0:0:
36,192,8393,128,0,9468:0:0:0:0:
109,192,8393,128,0,9468:0:0:0:0:
256,192,8393,128,0,9468:0:0:0:0:
475,192,8393,128,0,9468:0:0:0:0:
402,192,8393,128,0,9468:0:0:0:0:
36,192,9540,1,0,0:0:0:0:
109,192,9540,1,0,0:0:0:0:
256,192,9540,1,0,0:0:0:0:
402,192,9540,1,0,0:0:0:0:
475,192,9540,1,0,0:0:0:0:
182,192,9731,1,0,0:0:0:0:
329,192,9731,1,0,0:0:0:0:
256,192,9922,1,0,0:0:0:0:
109,192,9922,1,0,0:0:0:0:
36,192,9922,1,0,0:0:0:0:
182,192,10113,128,0,11260:0:0:0:0:
329,192,10543,128,0,11260:0:0:0:0:
36,192,11260,1,0,0:0:0:0:
475,192,11260,1,0,0:0:0:0:
109,192,11260,1,0,0:0:0:0:
402,192,11260,1,0,0:0:0:0:
256,192,11260,1,0,0:0:0:0:
475,192,11403,1,0,0:0:0:0:
36,192,11403,1,0,0:0:0:0:
182,192,11403,1,0,0:0:0:0:
329,192,11403,1,0,0:0:0:0:
402,192,11475,1,0,0:0:0:0:
109,192,11475,1,0,0:0:0:0:
36,192,11547,1,0,0:0:0:0:
475,192,11547,1,0,0:0:0:0:
256,192,11547,1,0,0:0:0:0:
182,192,11547,1,0,0:0:0:0:
329,192,11547,1,0,0:0:0:0:
109,192,11690,1,0,0:0:0:0:
402,192,11690,1,0,0:0:0:0:
36,192,11690,1,0,0:0:0:0:
475,192,11690,1,0,0:0:0:0:
182,192,11762,1,0,0:0:0:0:
329,192,11762,1,0,0:0:0:0:
36,192,11833,1,0,0:0:0:0:
475,192,11833,1,0,0:0:0:0:
256,192,11833,1,0,0:0:0:0:
109,192,11833,1,0,0:0:0:0:
402,192,11833,1,0,0:0:0:0:
36,192,11977,1,0,0:0:0:0:
256,192,11977,1,0,0:0:0:0:
475,192,11977,1,0,0:0:0:0:
109,192,12048,1,0,0:0:0:0:
329,192,12048,1,0,0:0:0:0:
182,192,12120,1,0,0:0:0:0:
475,192,12120,1,0,0:0:0:0:
402,192,12120,1,0,0:0:0:0:
36,192,12120,1,0,0:0:0:0:
329,192,12192,1,0,0:0:0:0:
36,192,12263,1,0,0:0:0:0:
256,192,12263,1,0,0:0:0:0:
475,192,12263,1,0,0:0:0:0:
402,192,12335,1,0,0:0:0:0:
182,192,12335,1,0,0:0:0:0:
475,192,12407,1,0,0:0:0:0:
109,192,12407,1,0,0:0:0:0:
36,192,12407,1,0,0:0:0:0:
329,192,12407,1,0,0:0:0:0:
256,192,12478,1,0,0:0:0:0:
182,192,12550,1,0,0:0:0:0:
109,192,12550,1,0,0:0:0:0:
402,192,12550,1,0,0:0:0:0:
475,192,12550,1,0,0:0:0:0:
329,192,12622,1,0,0:0:0:0:
475,192,12693,1,0,0:0:0:0:
256,192,12693,1,0,0:0:0:0:
182,192,12693,1,0,0:0:0:0:
36,192,12693,1,0,0:0:0:0:
402,192,12765,1,0,0:0:0:0:
475,192,12837,1,0,0:0:0:0:
329,192,12837,1,0,0:0:0:0:
256,192,12837,1,0,0:0:0:0:
109,192,12837,1,0,0:0:0:0:
36,192,12837,1,0,0:0:0:0:
109,192,12980,1,0,0:0:0:0:
36,192,12980,1,0,0:0:0:0:
256,192,12980,1,0,0:0:0:0:
329,192,13052,1,0,0:0:0:0:
182,192,13052,1,0,0:0:0:0:
256,192,13123,1,0,0:0:0:0:
475,192,13123,1,0,0:0:0:0:
402,192,13123,1,0,0:0:0:0:
36,192,13123,1,0,0:0:0:0:
109,192,13195,1,0,0:0:0:0:
329,192,13195,1,0,0:0:0:0:
36,192,13267,1,0,0:0:0:0:
475,192,13267,1,0,0:0:0:0:
182,192,13267,1,0,0:0:0:0:
402,192,13267,1,0,0:0:0:0:
475,192,13410,1,0,0:0:0:0:
256,192,13410,1,0,0:0:0:0:
402,192,13410,1,0,0:0:0:0:
182,192,13482,1,0,0:0:0:0:
329,192,13482,1,0,0:0:0:0:
36,192,13553,1,0,0:0:0:0:
475,192,13553,1,0,0:0:0:0:
109,192,13553,1,0,0:0:0:0:
256,192,13553,1,0,0:0:0:0:
402,192,13697,1,0,0:0:0:0:
329,192,13697,1,0,0:0:0:0:
182,192,13697,1,0,0:0:0:0:
256,192,13768,1,0,0:0:0:0:
109,192,13768,1,0,0:0:0:0:
475,192,13840,1,0,0:0:0:0:
36,192,13840,1,0,0:0:0:0:
182,192,13840,1,0,0:0:0:0:
402,192,13840,1,0,0:0:0:0:
36,192,13983,1,0,0:0:0:0:
182,192,13983,1,0,0:0:0:0:
109,192,14055,1,0,0:0:0:0:
256,192,14055,1,0,0:0:0:0:
475,192,14127,1,0,0:0:0:0:
36,192,14127,1,0,0:0:0:0:
329,192,14127,1,0,0:0:0:0:
182,192,14127,1,0,0:0:0:0:
402,192,14198,1,0,0:0:0:0:
36,192,14270,1,0,0:0:0:0:
329,192,14270,1,0,0:0:0:0:
109,192,14270,1,0,0:0:0:0:
402,192,14342,1,0,0:0:0:0:
182,192,14342,1,0,0:0:0:0:
256,192,14413,1,0,0:0:0:0:
36,192,14413,1,0,0:0:0:0:
475,192,14413,1,0,0:0:0:0:
329,192,14413,1,0,0:0:0:0:
109,192,14485,1,0,0:0:0:0:
182,192,14557,1,0,0:0:0:0:
402,192,14557,1,0,0:0:0:0:
109,192,14628,1,0,0:0:0:0:
329,192,14628,1,0,0:0:0:0:
475,192,14700,1,0,0:0:0:0:
36,192,14700,1,0,0:0:0:0:
256,192,14700,1,0,0:0:0:0:
182,192,14700,1,0,0:0:0:0:
402,192,14772,1,0,0:0:0:0:
329,192,14843,1,0,0:0:0:0:
256,192,14843,1,0,0:0:0:0:
109,192,14843,1,0,0:0:0:0:
36,192,14843,1,0,0:0:0:0:
475,192,14915,1,0,0:0:0:0:
402,192,14987,1,0,0:0:0:0:
329,192,14987,1,0,0:0:0:0:
182,192,14987,1,0,0:0:0:0:
109,192,14987,1,0,0:0:0:0:
36,192,15058,1,0,0:0:0:0:
475,192,15130,1,0,0:0:0:0:
182,192,15130,1,0,0:0:0:0:
256,192,15130,1,0,0:0:0:0:
402,192,15130,1,0,0:0:0:0:
36,192,15273,1,0,0:0:0:0:
109,192,15273,1,0,0:0:0:0:
329,192,15273,1,0,0:0:0:0:
182,192,15345,1,0,0:0:0:0:
402,192,15345,1,0,0:0:0:0:
475,192,15417,1,0,0:0:0:0:
256,192,15417,1,0,0:0:0:0:
36,192,15417,1,0,0:0:0:0:
109,192,15488,1,0,0:0:0:0:
329,192,15488,1,0,0:0:0:0:
475,192,15560,1,0,0:0:0:0:
36,192,15560,1,0,0:0:0:0:
402,192,15560,1,0,0:0:0:0:
182,192,15560,1,0,0:0:0:0:
109,192,15632,1,0,0:0:0:0:
256,192,15632,1,0,0:0:0:0:
329,192,15632,1,0,0:0:0:0:
475,192,15703,1,0,0:0:0:0:
36,192,15703,1,0,0:0:0:0:
182,192,15703,1,0,0:0:0:0:
402,192,15703,1,0,0:0:0:0:
256,192,15847,1,0,0:0:0:0:
109,192,15847,1,0,0:0:0:0:
402,192,15847,1,0,0:0:0:0:
329,192,15918,1,0,0:0:0:0:
182,192,15918,1,0,0:0:0:0:
256,192,15990,1,0,0:0:0:0:
36,192,15990,1,0,0:0:0:0:
475,192,15990,1,0,0:0:0:0:
182,192,16062,1,0,0:0:0:0:
329,192,16062,1,0,0:0:0:0:
256,192,16133,1,0,0:0:0:0:
475,192,16133,1,0,0:0:0:0:
36,192,16133,1,0,0:0:0:0:
109,192,16205,1,0,0:0:0:0:
402,192,16205,1,0,0:0:0:0:
182,192,16277,1,0,0:0:0:0:
256,192,16277,1,0,0:0:0:0:
329,192,16277,1,0,0:0:0:0:
109,192,16348,1,0,0:0:0:0:
402,192,16348,1,0,0:0:0:0:
475,192,16420,1,0,0:0:0:0:
36,192,16420,1,0,0:0:0:0:
182,192,16420,1,0,0:0:0:0:
329,192,16420,1,0,0:0:0:0:
256,192,16420,1,0,0:0:0:0:
109,192,16492,1,0,0:0:0:0:
329,192,16563,1,0,0:0:0:0:
402,192,16563,1,0,0:0:0:0:
475,192,16563,1,0,0:0:0:0:
182,192,16563,1,0,0:0:0:0:
36,192,16635,1,0,0:0:0:0:
109,192,16707,1,0,0:0:0:0:
256,192,16707,1,0,0:0:0:0:
329,192,16707,1,0,0:0:0:0:
402,192,16707,1,0,0:0:0:0:
475,192,16778,1,0,0:0:0:0:
182,192,16850,1,0,0:0:0:0:
256,192,16850,1,0,0:0:0:0:
329,192,16850,1,0,0:0:0:0:
36,192,16850,1,0,0:0:0:0:
36,192,17137,1,0,0:0:0:0:
109,192,17137,1,0,0:0:0:0:
329,192,17137,1,0,0:0:0:0:
475,192,17137,1,0,0:0:0:0:
256,192,17208,1,0,0:0:0:0:
36,192,17280,1,0,0:0:0:0:
402,192,17280,1,0,0:0:0:0:
475,192,17280,1,0,0:0:0:0:
182,192,17280,1,0,0:0:0:0:
256,192,17352,1,0,0:0:0:0:
329,192,17423,1,0,0:0:0:0:
109,192,17423,1,0,0:0:0:0:
475,192,17423,1,0,0:0:0:0:
36,192,17423,1,0,0:0:0:0:
182,192,17710,1,0,0:0:0:0:
475,192,17710,1,0,0:0:0:0:
402,192,17710,1,0,0:0:0:0:
36,192,17710,1,0,0:0:0:0:
256,192,17782,1,0,0:0:0:0:
36,192,17853,1,0,0:0:0:0:
109,192,17853,1,0,0:0:0:0:
329,192,17853,1,0,0:0:0:0:
475,192,17853,1,0,0:0:0:0:
256,192,17925,1,0,0:0:0:0:
36,192,17997,1,0,0:0:0:0:
182,192,17997,1,0,0:0:0:0:
402,192,17997,1,0,0:0:0:0:
475,192,17997,1,0,0:0:0:0:
475,192,18283,1,0,0:0:0:0:
36,192,18283,1,0,0:0:0:0:
182,192,18283,1,0,0:0:0:0:
329,192,18283,1,0,0:0:0:0:
109,192,18355,1,0,0:0:0:0:
256,192,18355,1,0,0:0:0:0:
402,192,18355,1,0,0:0:0:0:
475,192,18427,1,0,0:0:0:0:
36,192,18427,1,0,0:0:0:0:
182,192,18427,1,0,0:0:0:0:
329,192,18427,1,0,0:0:0:0:
109,192,18498,1,0,0:0:0:0:
402,192,18498,1,0,0:0:0:0:
182,192,18570,1,0,0:0:0:0:
329,192,18570,1,0,0:0:0:0:
256,192,18570,1,0,0:0:0:0:
402,192,18642,1,0,0:0:0:0:
109,192,18642,1,0,0:0:0:0:
475,192,18713,1,0,0:0:0:0:
36,192,18713,1,0,0:0:0:0:
182,192,18713,1,0,0:0:0:0:
329,192,18713,1,0,0:0:0:0:
256,192,18713,1,0,0:0:0:0:
109,192,18785,1,0,0:0:0:0:
182,192,18857,1,0,0:0:0:0:
475,192,18857,1,0,0:0:0:0:
402,192,18857,1,0,0:0:0:0:
109,192,18928,1,0,0:0:0:0:
329,192,18928,1,0,0:0:0:0:
475,192,19000,1,0,0:0:0:0:
36,192,19000,1,0,0:0:0:0:
256,192,19000,1,0,0:0:0:0:
182,192,19072,1,0,0:0:0:0:
329,192,19143,1,0,0:0:0:0:
475,192,19143,1,0,0:0:0:0:
36,192,19143,1,0,0:0:0:0:
109,192,19215,1,0,0:0:0:0:
402,192,19215,1,0,0:0:0:0:
256,192,19215,1,0,0:0:0:0:
182,192,19287,1,0,0:0:0:0:
36,192,19287,1,0,0:0:0:0:
475,192,19287,1,0,0:0:0:0:
329,192,19287,1,0,0:0:0:0:
402,192,19430,1,0,0:0:0:0:
182,192,19430,1,0,0:0:0:0:
256,192,19430,1,0,0:0:0:0:
36,192,19430,1,0,0:0:0:0:
182,192,19573,1,0,0:0:0:0:
109,192,19573,1,0,0:0:0:0:
329,192,19573,1,0,0:0:0:0:
475,192,19573,1,0,0:0:0:0:
256,192,19717,1,0,0:0:0:0:
109,192,19717,1,0,0:0:0:0:
36,192,19717,1,0,0:0:0:0:
402,192,19717,1,0,0:0:0:0:
475,192,19717,1,0,0:0:0:0:
475,192,20290,1,0,0:0:0:0:
256,192,20290,1,0,0:0:0:0:
402,192,20290,1,0,0:0:0:0:
36,192,20433,1,0,0:0:0:0:
109,192,20469,1,0,0:0:0:0:
182,192,20505,1,0,0:0:0:0:
256,192,20541,1,0,0:0:0:0:
329,192,20577,1,0,0:0:0:0:
475,192,20577,1,0,0:0:0:0:
256,192,20612,1,0,0:0:0:0:
182,192,20648,1,0,0:0:0:0:
109,192,20685,1,0,0:0:0:0:
402,192,20720,1,0,0:0:0:0:
36,192,20720,1,0,0:0:0:0:
329,192,20756,1,0,0:0:0:0:
256,192,20792,1,0,0:0:0:0:
182,192,20828,1,0,0:0:0:0:
475,192,20863,1,0,0:0:0:0:
109,192,20863,1,0,0:0:0:0:
402,192,20899,1,0,0:0:0:0:
329,192,20935,1,0,0:0:0:0:
256,192,20971,1,0,0:0:0:0:
475,192,21007,1,0,0:0:0:0:
36,192,21007,1,0,0:0:0:0:
182,192,21007,1,0,0:0:0:0:
109,192,21150,1,0,0:0:0:0:
182,192,21293,1,0,0:0:0:0:
402,192,21293,1,0,0:0:0:0:
475,192,21293,1,0,0:0:0:0:
256,192,21437,1,0,0:0:0:0:
402,192,21437,1,0,0:0:0:0:
329,192,21437,1,0,0:0:0:0:
109,192,21723,1,0,0:0:0:0:
402,192,21723,1,0,0:0:0:0:
475,192,21723,1,0,0:0:0:0:
182,192,21867,1,0,0:0:0:0:
256,192,22010,1,0,0:0:0:0:
402,192,22010,1,0,0:0:0:0:
329,192,22010,1,0,0:0:0:0:
36,192,22153,1,0,0:0:0:0:
182,192,22153,1,0,0:0:0:0:
109,192,22297,1,0,0:0:0:0:
182,192,22440,1,0,0:0:0:0:
402,192,22440,1,0,0:0:0:0:
475,192,22440,1,0,0:0:0:0:
256,192,22583,1,0,0:0:0:0:
402,192,22583,1,0,0:0:0:0:
329,192,22583,1,0,0:0:0:0:
109,192,22870,1,0,0:0:0:0:
402,192,22870,1,0,0:0:0:0:
475,192,22870,1,0,0:0:0:0:
182,192,23013,1,0,0:0:0:0:
256,192,23157,1,0,0:0:0:0:
329,192,23157,1,0,0:0:0:0:
402,192,23157,1,0,0:0:0:0:
36,192,23300,1,0,0:0:0:0:
182,192,23300,1,0,0:0:0:0:
402,192,23300,1,0,0:0:0:0:
475,192,23300,1,0,0:0:0:0:
109,192,23443,1,0,0:0:0:0:
182,192,23587,1,0,0:0:0:0:
256,192,23730,1,0,0:0:0:0:
402,192,23730,1,0,0:0:0:0:
475,192,23730,1,0,0:0:0:0:
402,192,23874,1,0,0:0:0:0:
329,192,23874,1,0,0:0:0:0:
109,192,24017,1,0,0:0:0:0:
182,192,24160,1,0,0:0:0:0:
256,192,24304,1,0,0:0:0:0:
36,192,24447,1,0,0:0:0:0:
182,192,24447,1,0,0:0:0:0:
109,192,24590,1,0,0:0:0:0:
182,192,24734,1,0,0:0:0:0:
256,192,24877,1,0,0:0:0:0:
109,192,25164,1,0,0:0:0:0:
182,192,25307,1,0,0:0:0:0:
256,192,25450,1,0,0:0:0:0:
475,192,25594,1,0,0:0:0:0:
329,192,25594,1,0,0:0:0:0:
402,192,25737,1,0,0:0:0:0:
329,192,25880,1,0,0:0:0:0:
109,192,25880,1,0,0:0:0:0:
182,192,25880,1,0,0:0:0:0:
256,192,26024,1,0,0:0:0:0:
109,192,26024,1,0,0:0:0:0:
36,192,26024,1,0,0:0:0:0:
402,192,26310,1,0,0:0:0:0:
109,192,26310,1,0,0:0:0:0:
182,192,26310,1,0,0:0:0:0:
329,192,26454,1,0,0:0:0:0:
256,192,26597,1,0,0:0:0:0:
109,192,26597,1,0,0:0:0:0:
36,192,26597,1,0,0:0:0:0:
475,192,26740,1,0,0:0:0:0:
329,192,26740,1,0,0:0:0:0:
402,192,26884,1,0,0:0:0:0:
329,192,27027,1,0,0:0:0:0:
109,192,27027,1,0,0:0:0:0:
182,192,27027,1,0,0:0:0:0:
256,192,27170,1,0,0:0:0:0:
109,192,27170,1,0,0:0:0:0:
36,192,27170,1,0,0:0:0:0:
402,192,27457,1,0,0:0:0:0:
109,192,27457,1,0,0:0:0:0:
182,192,27457,1,0,0:0:0:0:
329,192,27600,1,0,0:0:0:0:
256,192,27744,1,0,0:0:0:0:
109,192,27744,1,0,0:0:0:0:
36,192,27744,1,0,0:0:0:0:
475,192,27887,1,0,0:0:0:0:
329,192,27887,1,0,0:0:0:0:
402,192,28030,1,0,0:0:0:0:
329,192,28174,1,0,0:0:0:0:
109,192,28174,1,0,0:0:0:0:
182,192,28174,1,0,0:0:0:0:
256,192,28317,1,0,0:0:0:0:
109,192,28317,1,0,0:0:0:0:
36,192,28317,1,0,0:0:0:0:
402,192,28604,1,0,0:0:0:0:
109,192,28604,1,0,0:0:0:0:
182,192,28604,1,0,0:0:0:0:
329,192,28747,1,0,0:0:0:0:
256,192,28890,1,0,0:0:0:0:
109,192,28890,1,0,0:0:0:0:
36,192,28890,1,0,0:0:0:0:
329,192,29034,128,0,29535:0:0:0:0:
475,192,29034,128,0,29535:0:0:0:0:
182,192,29464,128,0,29535:0:0:0:0:
36,192,29464,128,0,29535:0:0:0:0:
36,192,29607,1,0,0:0:0:0:
182,192,29607,1,0,0:0:0:0:
329,192,29607,1,0,0:0:0:0:
475,192,29607,1,0,0:0:0:0:
109,192,29678,1,0,0:0:0:0:
402,192,29678,1,0,0:0:0:0:
182,192,29750,1,0,0:0:0:0:
329,192,29750,1,0,0:0:0:0:
256,192,29750,1,0,0:0:0:0:
109,192,29822,1,0,0:0:0:0:
402,192,29822,1,0,0:0:0:0:
36,192,29894,1,0,0:0:0:0:
475,192,29894,1,0,0:0:0:0:
182,192,29894,1,0,0:0:0:0:
329,192,29894,1,0,0:0:0:0:
109,192,30037,1,0,0:0:0:0:
182,192,30037,1,0,0:0:0:0:
329,192,30037,1,0,0:0:0:0:
402,192,30037,1,0,0:0:0:0:
36,192,30180,1,0,0:0:0:0:
182,192,30180,1,0,0:0:0:0:
256,192,30180,1,0,0:0:0:0:
329,192,30180,1,0,0:0:0:0:
475,192,30180,1,0,0:0:0:0:
109,192,30252,1,0,0:0:0:0:
182,192,30324,1,0,0:0:0:0:
329,192,30324,1,0,0:0:0:0:
475,192,30324,1,0,0:0:0:0:
109,192,30395,1,0,0:0:0:0:
256,192,30395,1,0,0:0:0:0:
36,192,30467,1,0,0:0:0:0:
475,192,30467,1,0,0:0:0:0:
182,192,30467,1,0,0:0:0:0:
402,192,30467,1,0,0:0:0:0:
256,192,30538,1,0,0:0:0:0:
329,192,30610,1,0,0:0:0:0:
109,192,30610,1,0,0:0:0:0:
36,192,30610,1,0,0:0:0:0:
475,192,30610,1,0,0:0:0:0:
182,192,30682,1,0,0:0:0:0:
256,192,30682,1,0,0:0:0:0:
475,192,30754,1,0,0:0:0:0:
36,192,30754,1,0,0:0:0:0:
402,192,30754,1,0,0:0:0:0:
329,192,30754,1,0,0:0:0:0:
256,192,30825,1,0,0:0:0:0:
182,192,30897,1,0,0:0:0:0:
36,192,30897,1,0,0:0:0:0:
402,192,30897,1,0,0:0:0:0:
475,192,30897,1,0,0:0:0:0:
329,192,30968,1,0,0:0:0:0:
109,192,30968,1,0,0:0:0:0:
256,192,31040,1,0,0:0:0:0:
475,192,31040,1,0,0:0:0:0:
36,192,31040,1,0,0:0:0:0:
402,192,31112,1,0,0:0:0:0:
182,192,31112,1,0,0:0:0:0:
329,192,31184,1,0,0:0:0:0:
109,192,31184,1,0,0:0:0:0:
36,192,31184,1,0,0:0:0:0:
475,192,31184,1,0,0:0:0:0:
182,192,31255,1,0,0:0:0:0:
256,192,31255,1,0,0:0:0:0:
36,192,31327,1,0,0:0:0:0:
109,192,31327,1,0,0:0:0:0:
475,192,31327,1,0,0:0:0:0:
329,192,31327,1,0,0:0:0:0:
402,192,31398,1,0,0:0:0:0:
329,192,31470,1,0,0:0:0:0:
182,192,31470,1,0,0:0:0:0:
36,192,31470,1,0,0:0:0:0:
402,192,31542,1,0,0:0:0:0:
256,192,31542,1,0,0:0:0:0:
475,192,31614,1,0,0:0:0:0:
36,192,31614,1,0,0:0:0:0:
329,192,31614,1,0,0:0:0:0:
109,192,31614,1,0,0:0:0:0:
256,192,31685,1,0,0:0:0:0:
182,192,31757,1,0,0:0:0:0:
402,192,31757,1,0,0:0:0:0:
475,192,31757,1,0,0:0:0:0:
36,192,31757,1,0,0:0:0:0:
329,192,31828,1,0,0:0:0:0:
256,192,31828,1,0,0:0:0:0:
36,192,31900,1,0,0:0:0:0:
475,192,31900,1,0,0:0:0:0:
109,192,31900,1,0,0:0:0:0:
182,192,31900,1,0,0:0:0:0:
256,192,31972,1,0,0:0:0:0:
329,192,32044,1,0,0:0:0:0:
475,192,32044,1,0,0:0:0:0:
109,192,32044,1,0,0:0:0:0:
36,192,32044,1,0,0:0:0:0:
182,192,32115,1,0,0:0:0:0:
402,192,32115,1,0,0:0:0:0:
256,192,32187,1,0,0:0:0:0:
36,192,32187,1,0,0:0:0:0:
475,192,32187,1,0,0:0:0:0:
109,192,32258,1,0,0:0:0:0:
329,192,32258,1,0,0:0:0:0:
182,192,32330,1,0,0:0:0:0:
402,192,32330,1,0,0:0:0:0:
475,192,32330,1,0,0:0:0:0:
36,192,32330,1,0,0:0:0:0:
329,192,32402,1,0,0:0:0:0:
256,192,32402,1,0,0:0:0:0:
475,192,32474,1,0,0:0:0:0:
402,192,32474,1,0,0:0:0:0:
36,192,32474,1,0,0:0:0:0:
109,192,32474,1,0,0:0:0:0:
329,192,32545,1,0,0:0:0:0:
256,192,32617,1,0,0:0:0:0:
109,192,32617,1,0,0:0:0:0:
36,192,32617,1,0,0:0:0:0:
182,192,32688,1,0,0:0:0:0:
329,192,32688,1,0,0:0:0:0:
402,192,32760,1,0,0:0:0:0:
475,192,32760,1,0,0:0:0:0:
256,192,32760,1,0,0:0:0:0:
36,192,32760,1,0,0:0:0:0:
182,192,32832,1,0,0:0:0:0:
109,192,32904,1,0,0:0:0:0:
36,192,32904,1,0,0:0:0:0:
329,192,32904,1,0,0:0:0:0:
402,192,32904,1,0,0:0:0:0:
256,192,32975,1,0,0:0:0:0:
109,192,33047,1,0,0:0:0:0:
182,192,33047,1,0,0:0:0:0:
475,192,33047,1,0,0:0:0:0:
402,192,33047,1,0,0:0:0:0:
329,192,33118,1,0,0:0:0:0:
256,192,33190,1,0,0:0:0:0:
36,192,33190,1,0,0:0:0:0:
109,192,33190,1,0,0:0:0:0:
475,192,33190,1,0,0:0:0:0:
182,192,33262,1,0,0:0:0:0:
329,192,33262,1,0,0:0:0:0:
256,192,33334,1,0,0:0:0:0:
402,192,33334,1,0,0:0:0:0:
475,192,33334,1,0,0:0:0:0:
36,192,33334,1,0,0:0:0:0:
109,192,33334,1,0,0:0:0:0:
182,192,33405,1,0,0:0:0:0:
329,192,33405,1,0,0:0:0:0:
256,192,33477,1,0,0:0:0:0:
475,192,33477,1,0,0:0:0:0:
36,192,33477,1,0,0:0:0:0:
402,192,33548,1,0,0:0:0:0:
109,192,33548,1,0,0:0:0:0:
36,192,33620,1,0,0:0:0:0:
475,192,33620,1,0,0:0:0:0:
256,192,33620,1,0,0:0:0:0:
329,192,33620,1,0,0:0:0:0:
182,192,33620,1,0,0:0:0:0:
402,192,33692,1,0,0:0:0:0:
329,192,33764,1,0,0:0:0:0:
109,192,33764,1,0,0:0:0:0:
36,192,33764,1,0,0:0:0:0:
402,192,33835,1,0,0:0:0:0:
182,192,33835,1,0,0:0:0:0:
475,192,33907,1,0,0:0:0:0:
36,192,33907,1,0,0:0:0:0:
256,192,33907,1,0,0:0:0:0:
329,192,33907,1,0,0:0:0:0:
109,192,33978,1,0,0:0:0:0:
182,192,34050,1,0,0:0:0:0:
475,192,34050,1,0,0:0:0:0:
329,192,34050,1,0,0:0:0:0:
256,192,34122,1,0,0:0:0:0:
109,192,34122,1,0,0:0:0:0:
402,192,34122,1,0,0:0:0:0:
475,192,34194,1,0,0:0:0:0:
182,192,34194,1,0,0:0:0:0:
36,192,34194,1,0,0:0:0:0:
329,192,34194,1,0,0:0:0:0:
402,192,34265,1,0,0:0:0:0:
329,192,34337,1,0,0:0:0:0:
109,192,34337,1,0,0:0:0:0:
36,192,34337,1,0,0:0:0:0:
402,192,34408,1,0,0:0:0:0:
182,192,34408,1,0,0:0:0:0:
475,192,34480,1,0,0:0:0:0:
256,192,34480,1,0,0:0:0:0:
36,192,34480,1,0,0:0:0:0:
329,192,34480,1,0,0:0:0:0:
182,192,34552,1,0,0:0:0:0:
402,192,34552,1,0,0:0:0:0:
109,192,34624,1,0,0:0:0:0:
329,192,34624,1,0,0:0:0:0:
475,192,34624,1,0,0:0:0:0:
36,192,34695,1,0,0:0:0:0:
256,192,34695,1,0,0:0:0:0:
182,192,34767,1,0,0:0:0:0:
402,192,34767,1,0,0:0:0:0:
475,192,34767,1,0,0:0:0:0:
329,192,34767,1,0,0:0:0:0:
109,192,34838,1,0,0:0:0:0:
36,192,34910,1,0,0:0:0:0:
256,192,34910,1,0,0:0:0:0:
475,192,34910,1,0,0:0:0:0:
182,192,34982,1,0,0:0:0:0:
402,192,34982,1,0,0:0:0:0:
109,192,35054,1,0,0:0:0:0:
329,192,35054,1,0,0:0:0:0:
36,192,35054,1,0,0:0:0:0:
256,192,35125,1,0,0:0:0:0:
36,192,35197,1,0,0:0:0:0:
182,192,35197,1,0,0:0:0:0:
475,192,35197,1,0,0:0:0:0:
402,192,35197,1,0,0:0:0:0:
256,192,35268,1,0,0:0:0:0:
109,192,35268,1,0,0:0:0:0:
329,192,35340,1,0,0:0:0:0:
182,192,35340,1,0,0:0:0:0:
475,192,35340,1,0,0:0:0:0:
109,192,35412,1,0,0:0:0:0:
36,192,35484,1,0,0:0:0:0:
475,192,35484,1,0,0:0:0:0:
256,192,35484,1,0,0:0:0:0:
402,192,35484,1,0,0:0:0:0:
182,192,35555,1,0,0:0:0:0:
329,192,35555,1,0,0:0:0:0:
109,192,35627,1,0,0:0:0:0:
36,192,35627,1,0,0:0:0:0:
256,192,35627,1,0,0:0:0:0:
475,192,35627,1,0,0:0:0:0:
402,192,35627,1,0,0:0:0:0:
182,192,35698,1,0,0:0:0:0:
329,192,35698,1,0,0:0:0:0:
256,192,35770,1,0,0:0:0:0:
36,192,35770,1,0,0:0:0:0:
475,192,35770,1,0,0:0:0:0:
109,192,35842,1,0,0:0:0:0:
402,192,35842,1,0,0:0:0:0:
36,192,35914,1,0,0:0:0:0:
256,192,35914,1,0,0:0:0:0:
182,192,35914,1,0,0:0:0:0:
329,192,35914,1,0,0:0:0:0:
475,192,35914,1,0,0:0:0:0:
109,192,35985,1,0,0:0:0:0:
36,192,36057,1,0,0:0:0:0:
256,192,36057,1,0,0:0:0:0:
475,192,36057,1,0,0:0:0:0:
182,192,36128,1,0,0:0:0:0:
402,192,36128,1,0,0:0:0:0:
109,192,36200,1,0,0:0:0:0:
329,192,36200,1,0,0:0:0:0:
36,192,36200,1,0,0:0:0:0:
475,192,36200,1,0,0:0:0:0:
256,192,36272,1,0,0:0:0:0:
36,192,36344,1,0,0:0:0:0:
182,192,36344,1,0,0:0:0:0:
475,192,36344,1,0,0:0:0:0:
402,192,36344,1,0,0:0:0:0:
256,192,36415,1,0,0:0:0:0:
109,192,36415,1,0,0:0:0:0:
182,192,36487,1,0,0:0:0:0:
329,192,36487,1,0,0:0:0:0:
475,192,36487,1,0,0:0:0:0:
109,192,36558,1,0,0:0:0:0:
36,192,36630,1,0,0:0:0:0:
475,192,36630,1,0,0:0:0:0:
402,192,36630,1,0,0:0:0:0:
256,192,36630,1,0,0:0:0:0:
182,192,36702,1,0,0:0:0:0:
329,192,36702,1,0,0:0:0:0:
109,192,36774,1,0,0:0:0:0:
36,192,36774,1,0,0:0:0:0:
256,192,36774,1,0,0:0:0:0:
475,192,36774,1,0,0:0:0:0:
402,192,36774,1,0,0:0:0:0:
182,192,36845,1,0,0:0:0:0:
329,192,36845,1,0,0:0:0:0:
256,192,36917,1,0,0:0:0:0:
109,192,36917,1,0,0:0:0:0:
402,192,36917,1,0,0:0:0:0:
329,192,36988,1,0,0:0:0:0:
182,192,36988,1,0,0:0:0:0:
36,192,37060,1,0,0:0:0:0:
475,192,37060,1,0,0:0:0:0:
109,192,37060,1,0,0:0:0:0:
256,192,37060,1,0,0:0:0:0:
402,192,37060,1,0,0:0:0:0:
182,192,37132,1,0,0:0:0:0:
36,192,37204,1,0,0:0:0:0:
109,192,37204,1,0,0:0:0:0:
329,192,37204,1,0,0:0:0:0:
402,192,37204,1,0,0:0:0:0:
256,192,37275,1,0,0:0:0:0:
182,192,37347,1,0,0:0:0:0:
109,192,37347,1,0,0:0:0:0:
402,192,37347,1,0,0:0:0:0:
475,192,37347,1,0,0:0:0:0:
329,192,37418,1,0,0:0:0:0:
256,192,37490,1,0,0:0:0:0:
182,192,37490,1,0,0:0:0:0:
475,192,37490,1,0,0:0:0:0:
36,192,37490,1,0,0:0:0:0:
109,192,37562,1,0,0:0:0:0:
329,192,37562,1,0,0:0:0:0:
402,192,37562,1,0,0:0:0:0:
36,192,37634,1,0,0:0:0:0:
256,192,37634,1,0,0:0:0:0:
475,192,37634,1,0,0:0:0:0:
182,192,37705,1,0,0:0:0:0:
109,192,37777,1,0,0:0:0:0:
36,192,37777,1,0,0:0:0:0:
475,192,37777,1,0,0:0:0:0:
329,192,37777,1,0,0:0:0:0:
256,192,37848,1,0,0:0:0:0:
182,192,37920,1,0,0:0:0:0:
109,192,37920,1,0,0:0:0:0:
402,192,37920,1,0,0:0:0:0:
475,192,37920,1,0,0:0:0:0:
329,192,37992,1,0,0:0:0:0:
256,192,38064,1,0,0:0:0:0:
182,192,38064,1,0,0:0:0:0:
475,192,38064,1,0,0:0:0:0:
36,192,38064,1,0,0:0:0:0:
402,192,38135,1,0,0:0:0:0:
36,192,38207,1,0,0:0:0:0:
475,192,38207,1,0,0:0:0:0:
329,192,38207,1,0,0:0:0:0:
256,192,38207,1,0,0:0:0:0:
402,192,38278,1,0,0:0:0:0:
109,192,38278,1,0,0:0:0:0:
329,192,38350,1,0,0:0:0:0:
182,192,38350,1,0,0:0:0:0:
256,192,38350,1,0,0:0:0:0:
109,192,38422,1,0,0:0:0:0:
402,192,38422,1,0,0:0:0:0:
36,192,38494,1,0,0:0:0:0:
182,192,38494,1,0,0:0:0:0:
475,192,38494,1,0,0:0:0:0:
329,192,38494,1,0,0:0:0:0:
402,192,38565,1,0,0:0:0:0:
256,192,38565,1,0,0:0:0:0:
36,192,38637,1,0,0:0:0:0:
109,192,38637,1,0,0:0:0:0:
475,192,38637,1,0,0:0:0:0:
329,192,38637,1,0,0:0:0:0:
402,192,38708,1,0,0:0:0:0:
256,192,38708,1,0,0:0:0:0:
475,192,38780,1,0,0:0:0:0:
182,192,38780,1,0,0:0:0:0:
36,192,38780,1,0,0:0:0:0:
329,192,38780,1,0,0:0:0:0:
109,192,38852,1,0,0:0:0:0:
402,192,38852,1,0,0:0:0:0:
182,192,38924,1,0,0:0:0:0:
256,192,38924,1,0,0:0:0:0:
329,192,38924,1,0,0:0:0:0:
109,192,38995,1,0,0:0:0:0:
402,192,38995,1,0,0:0:0:0:
36,192,39067,1,0,0:0:0:0:
475,192,39067,1,0,0:0:0:0:
329,192,39067,1,0,0:0:0:0:
256,192,39067,1,0,0:0:0:0:
329,192,39210,1,0,0:0:0:0:
402,192,39210,1,0,0:0:0:0:
182,192,39210,1,0,0:0:0:0:
109,192,39210,1,0,0:0:0:0:
475,192,39354,1,0,0:0:0:0:
36,192,39354,1,0,0:0:0:0:
109,192,39354,1,0,0:0:0:0:
402,192,39354,1,0,0:0:0:0:
256,192,39354,1,0,0:0:0:0:
329,192,39640,1,0,0:0:0:0:
475,192,39640,1,0,0:0:0:0:
182,192,39640,1,0,0:0:0:0:
402,192,39927,1,0,0:0:0:0:
256,192,39927,1,0,0:0:0:0:
475,192,39927,1,0,0:0:0:0:
329,192,40070,1,0,0:0:0:0:
182,192,40070,1,0,0:0:0:0:
109,192,40214,1,0,0:0:0:0:
36,192,40214,1,0,0:0:0:0:
256,192,40214,1,0,0:0:0:0:
182,192,40357,1,0,0:0:0:0:
329,192,40357,1,0,0:0:0:0:
256,192,40500,1,0,0:0:0:0:
475,192,40500,1,0,0:0:0:0:
36,192,40500,1,0,0:0:0:0:
402,192,40500,1,0,0:0:0:0:
36,192,40787,1,0,0:0:0:0:
256,192,40787,1,0,0:0:0:0:
475,192,40787,1,0,0:0:0:0:
402,192,40930,1,0,0:0:0:0:
329,192,40930,1,0,0:0:0:0:
109,192,41074,1,0,0:0:0:0:
182,192,41074,1,0,0:0:0:0:
36,192,41074,1,0,0:0:0:0:
329,192,41217,1,0,0:0:0:0:
402,192,41217,1,0,0:0:0:0:
36,192,41360,1,0,0:0:0:0:
256,192,41360,1,0,0:0:0:0:
475,192,41360,1,0,0:0:0:0:
109,192,41504,1,0,0:0:0:0:
182,192,41504,1,0,0:0:0:0:
329,192,41504,1,0,0:0:0:0:
36,192,41647,1,0,0:0:0:0:
256,192,41647,1,0,0:0:0:0:
402,192,41647,1,0,0:0:0:0:
475,192,41647,1,0,0:0:0:0:
256,192,41934,1,0,0:0:0:0:
402,192,41934,1,0,0:0:0:0:
475,192,41934,1,0,0:0:0:0:
182,192,42077,1,0,0:0:0:0:
329,192,42077,1,0,0:0:0:0:
36,192,42220,1,0,0:0:0:0:
256,192,42220,1,0,0:0:0:0:
109,192,42220,1,0,0:0:0:0:
329,192,42364,1,0,0:0:0:0:
182,192,42364,1,0,0:0:0:0:
256,192,42507,1,0,0:0:0:0:
475,192,42507,1,0,0:0:0:0:
402,192,42507,1,0,0:0:0:0:
182,192,42650,1,0,0:0:0:0:
329,192,42650,1,0,0:0:0:0:
475,192,42794,1,0,0:0:0:0:
109,192,42794,1,0,0:0:0:0:
256,192,42794,1,0,0:0:0:0:
36,192,42794,1,0,0:0:0:0:
36,192,43080,1,0,0:0:0:0:
256,192,43080,1,0,0:0:0:0:
475,192,43080,1,0,0:0:0:0:
182,192,43224,1,0,0:0:0:0:
109,192,43224,1,0,0:0:0:0:
402,192,43367,1,0,0:0:0:0:
475,192,43367,1,0,0:0:0:0:
329,192,43367,1,0,0:0:0:0:
36,192,43510,1,0,0:0:0:0:
256,192,43510,1,0,0:0:0:0:
475,192,43510,1,0,0:0:0:0:
109,192,43582,1,0,0:0:0:0:
329,192,43582,1,0,0:0:0:0:
475,192,43654,1,0,0:0:0:0:
402,192,43654,1,0,0:0:0:0:
182,192,43654,1,0,0:0:0:0:
36,192,43654,1,0,0:0:0:0:
109,192,43797,1,0,0:0:0:0:
402,192,43797,1,0,0:0:0:0:
329,192,43797,1,0,0:0:0:0:
36,192,43940,1,0,0:0:0:0:
475,192,43940,1,0,0:0:0:0:
256,192,43940,1,0,0:0:0:0:
329,192,43940,1,0,0:0:0:0:
182,192,43940,1,0,0:0:0:0:
256,192,44084,1,0,0:0:0:0:
475,192,44084,1,0,0:0:0:0:
109,192,44084,1,0,0:0:0:0:
182,192,44155,1,0,0:0:0:0:
402,192,44155,1,0,0:0:0:0:
329,192,44227,1,0,0:0:0:0:
109,192,44227,1,0,0:0:0:0:
36,192,44227,1,0,0:0:0:0:
475,192,44227,1,0,0:0:0:0:
182,192,44370,1,0,0:0:0:0:
402,192,44370,1,0,0:0:0:0:
36,192,44370,1,0,0:0:0:0:
329,192,44442,1,0,0:0:0:0:
109,192,44442,1,0,0:0:0:0:
36,192,44514,1,0,0:0:0:0:
256,192,44514,1,0,0:0:0:0:
475,192,44514,1,0,0:0:0:0:
402,192,44514,1,0,0:0:0:0:
256,192,44657,1,0,0:0:0:0:
475,192,44657,1,0,0:0:0:0:
109,192,44657,1,0,0:0:0:0:
36,192,44657,1,0,0:0:0:0:
182,192,44728,1,0,0:0:0:0:
402,192,44728,1,0,0:0:0:0:
329,192,44728,1,0,0:0:0:0:
36,192,44800,1,0,0:0:0:0:
109,192,44800,1,0,0:0:0:0:
475,192,44800,1,0,0:0:0:0:
256,192,44800,1,0,0:0:0:0:
329,192,44944,1,0,0:0:0:0:
109,192,44944,1,0,0:0:0:0:
475,192,44944,1,0,0:0:0:0:
182,192,45015,1,0,0:0:0:0:
402,192,45015,1,0,0:0:0:0:
109,192,45087,1,0,0:0:0:0:
475,192,45087,1,0,0:0:0:0:
36,192,45087,1,0,0:0:0:0:
256,192,45087,1,0,0:0:0:0:
36,192,45230,1,0,0:0:0:0:
182,192,45230,1,0,0:0:0:0:
402,192,45230,1,0,0:0:0:0:
109,192,45302,1,0,0:0:0:0:
256,192,45302,1,0,0:0:0:0:
182,192,45374,1,0,0:0:0:0:
475,192,45374,1,0,0:0:0:0:
329,192,45374,1,0,0:0:0:0:
36,192,45374,1,0,0:0:0:0:
256,192,45517,1,0,0:0:0:0:
109,192,45517,1,0,0:0:0:0:
475,192,45517,1,0,0:0:0:0:
182,192,45588,1,0,0:0:0:0:
329,192,45588,1,0,0:0:0:0:
256,192,45660,1,0,0:0:0:0:
402,192,45660,1,0,0:0:0:0:
36,192,45660,1,0,0:0:0:0:
109,192,45660,1,0,0:0:0:0:
36,192,45804,1,0,0:0:0:0:
402,192,45804,1,0,0:0:0:0:
182,192,45804,1,0,0:0:0:0:
475,192,45804,1,0,0:0:0:0:
256,192,45875,1,0,0:0:0:0:
109,192,45875,1,0,0:0:0:0:
329,192,45875,1,0,0:0:0:0:
475,192,45947,1,0,0:0:0:0:
36,192,45947,1,0,0:0:0:0:
182,192,45947,1,0,0:0:0:0:
402,192,45947,1,0,0:0:0:0:
402,192,46090,1,0,0:0:0:0:
36,192,46090,1,0,0:0:0:0:
256,192,46090,1,0,0:0:0:0:
182,192,46162,1,0,0:0:0:0:
329,192,46162,1,0,0:0:0:0:
475,192,46234,1,0,0:0:0:0:
109,192,46234,1,0,0:0:0:0:
402,192,46234,1,0,0:0:0:0:
256,192,46234,1,0,0:0:0:0:
36,192,46377,1,0,0:0:0:0:
182,192,46377,1,0,0:0:0:0:
329,192,46377,1,0,0:0:0:0:
402,192,46377,1,0,0:0:0:0:
109,192,46520,1,0,0:0:0:0:
256,192,46520,1,0,0:0:0:0:
329,192,46520,1,0,0:0:0:0:
475,192,46520,1,0,0:0:0:0:
36,192,46664,1,0,0:0:0:0:
182,192,46664,1,0,0:0:0:0:
256,192,46664,1,0,0:0:0:0:
402,192,46664,1,0,0:0:0:0:
109,192,46807,1,0,0:0:0:0:
329,192,46807,1,0,0:0:0:0:
475,192,46807,1,0,0:0:0:0:
182,192,46807,1,0,0:0:0:0:
36,192,46951,1,0,0:0:0:0:
402,192,46951,1,0,0:0:0:0:
182,192,46951,1,0,0:0:0:0:
256,192,46951,1,0,0:0:0:0:
475,192,47094,1,0,0:0:0:0:
256,192,47094,1,0,0:0:0:0:
329,192,47094,1,0,0:0:0:0:
109,192,47094,1,0,0:0:0:0:
329,192,47237,1,0,0:0:0:0:
36,192,47237,1,0,0:0:0:0:
402,192,47237,1,0,0:0:0:0:
182,192,47237,1,0,0:0:0:0:
36,192,47381,1,0,0:0:0:0:
402,192,47381,1,0,0:0:0:0:
475,192,47381,1,0,0:0:0:0:
182,192,47381,1,0,0:0:0:0:
256,192,47452,1,0,0:0:0:0:
475,192,47524,1,0,0:0:0:0:
36,192,47524,1,0,0:0:0:0:
109,192,47524,1,0,0:0:0:0:
329,192,47524,1,0,0:0:0:0:
256,192,47595,1,0,0:0:0:0:
36,192,47667,1,0,0:0:0:0:
182,192,47667,1,0,0:0:0:0:
402,192,47667,1,0,0:0:0:0:
475,192,47667,1,0,0:0:0:0:
256,192,47738,1,0,0:0:0:0:
329,192,47811,1,0,0:0:0:0:
475,192,47811,1,0,0:0:0:0:
109,192,47811,1,0,0:0:0:0:
36,192,47811,1,0,0:0:0:0:
256,192,47882,1,0,0:0:0:0:
182,192,47954,1,0,0:0:0:0:
36,192,47954,1,0,0:0:0:0:
402,192,47954,1,0,0:0:0:0:
475,192,47954,1,0,0:0:0:0:
329,192,48025,1,0,0:0:0:0:
256,192,48025,1,0,0:0:0:0:
402,192,48097,1,0,0:0:0:0:
475,192,48097,1,0,0:0:0:0:
36,192,48097,1,0,0:0:0:0:
109,192,48097,1,0,0:0:0:0:
182,192,48168,1,0,0:0:0:0:
256,192,48168,1,0,0:0:0:0:
36,192,48241,1,0,0:0:0:0:
109,192,48241,1,0,0:0:0:0:
402,192,48241,1,0,0:0:0:0:
475,192,48241,1,0,0:0:0:0:
329,192,48312,1,0,0:0:0:0:
256,192,48312,1,0,0:0:0:0:
402,192,48384,1,0,0:0:0:0:
475,192,48384,1,0,0:0:0:0:
109,192,48384,1,0,0:0:0:0:
36,192,48384,1,0,0:0:0:0:
182,192,48455,1,0,0:0:0:0:
256,192,48455,1,0,0:0:0:0:
475,192,48527,1,0,0:0:0:0:
36,192,48527,1,0,0:0:0:0:
109,192,48527,1,0,0:0:0:0:
329,192,48527,1,0,0:0:0:0:
182,192,48598,1,0,0:0:0:0:
402,192,48598,1,0,0:0:0:0:
256,192,48671,1,0,0:0:0:0:
475,192,48671,1,0,0:0:0:0:
36,192,48671,1,0,0:0:0:0:
109,192,48742,1,0,0:0:0:0:
329,192,48742,1,0,0:0:0:0:
182,192,48814,1,0,0:0:0:0:
402,192,48814,1,0,0:0:0:0:
475,192,48814,1,0,0:0:0:0:
36,192,48885,1,0,0:0:0:0:
256,192,48885,1,0,0:0:0:0:
109,192,48957,1,0,0:0:0:0:
329,192,48957,1,0,0:0:0:0:
182,192,49028,1,0,0:0:0:0:
402,192,49028,1,0,0:0:0:0:
256,192,49101,1,0,0:0:0:0:
475,192,49101,1,0,0:0:0:0:
36,192,49101,1,0,0:0:0:0:
109,192,49172,1,0,0:0:0:0:
402,192,49172,1,0,0:0:0:0:
475,192,49244,1,0,0:0:0:0:
36,192,49244,1,0,0:0:0:0:
256,192,49244,1,0,0:0:0:0:
182,192,49315,1,0,0:0:0:0:
329,192,49315,1,0,0:0:0:0:
36,192,49387,1,0,0:0:0:0:
109,192,49387,1,0,0:0:0:0:
475,192,49387,1,0,0:0:0:0:
402,192,49387,1,0,0:0:0:0:
182,192,49458,1,0,0:0:0:0:
329,192,49458,1,0,0:0:0:0:
256,192,49531,1,0,0:0:0:0:
36,192,49531,1,0,0:0:0:0:
475,192,49531,1,0,0:0:0:0:
402,192,49602,1,0,0:0:0:0:
109,192,49602,1,0,0:0:0:0:
182,192,49674,1,0,0:0:0:0:
329,192,49674,1,0,0:0:0:0:
256,192,49674,1,0,0:0:0:0:
36,192,49674,1,0,0:0:0:0:
475,192,49674,1,0,0:0:0:0:
109,192,49745,1,0,0:0:0:0:
402,192,49745,1,0,0:0:0:0:
36,192,49817,1,0,0:0:0:0:
182,192,49817,1,0,0:0:0:0:
256,192,49817,1,0,0:0:0:0:
475,192,49817,1,0,0:0:0:0:
109,192,49888,1,0,0:0:0:0:
329,192,49888,1,0,0:0:0:0:
36,192,49961,1,0,0:0:0:0:
182,192,49961,1,0,0:0:0:0:
475,192,49961,1,0,0:0:0:0:
402,192,49961,1,0,0:0:0:0:
256,192,50032,1,0,0:0:0:0:
109,192,50032,1,0,0:0:0:0:
36,192,50104,1,0,0:0:0:0:
182,192,50104,1,0,0:0:0:0:
329,192,50104,1,0,0:0:0:0:
475,192,50104,1,0,0:0:0:0:
402,192,50175,1,0,0:0:0:0:
475,192,50247,1,0,0:0:0:0:
36,192,50247,1,0,0:0:0:0:
256,192,50247,1,0,0:0:0:0:
109,192,50318,1,0,0:0:0:0:
475,192,50391,1,0,0:0:0:0:
182,192,50391,1,0,0:0:0:0:
329,192,50391,1,0,0:0:0:0:
109,192,50462,1,0,0:0:0:0:
475,192,50534,1,0,0:0:0:0:
36,192,50534,1,0,0:0:0:0:
256,192,50534,1,0,0:0:0:0:
402,192,50605,1,0,0:0:0:0:
329,192,50677,1,0,0:0:0:0:
36,192,50677,1,0,0:0:0:0:
109,192,50677,1,0,0:0:0:0:
402,192,50748,1,0,0:0:0:0:
182,192,50748,1,0,0:0:0:0:
475,192,50821,1,0,0:0:0:0:
256,192,50821,1,0,0:0:0:0:
36,192,50821,1,0,0:0:0:0:
109,192,50821,1,0,0:0:0:0:
182,192,50892,1,0,0:0:0:0:
402,192,50892,1,0,0:0:0:0:
109,192,50964,1,0,0:0:0:0:
36,192,50964,1,0,0:0:0:0:
329,192,50964,1,0,0:0:0:0:
256,192,50964,1,0,0:0:0:0:
182,192,51035,1,0,0:0:0:0:
475,192,51035,1,0,0:0:0:0:
109,192,51107,1,0,0:0:0:0:
36,192,51107,1,0,0:0:0:0:
402,192,51107,1,0,0:0:0:0:
256,192,51107,1,0,0:0:0:0:
182,192,51178,1,0,0:0:0:0:
329,192,51178,1,0,0:0:0:0:
109,192,51251,1,0,0:0:0:0:
36,192,51251,1,0,0:0:0:0:
256,192,51251,1,0,0:0:0:0:
475,192,51251,1,0,0:0:0:0:
402,192,51322,1,0,0:0:0:0:
182,192,51394,1,0,0:0:0:0:
329,192,51394,1,0,0:0:0:0:
475,192,51394,1,0,0:0:0:0:
109,192,51465,1,0,0:0:0:0:
36,192,51537,1,0,0:0:0:0:
256,192,51537,1,0,0:0:0:0:
402,192,51537,1,0,0:0:0:0:
109,192,51608,1,0,0:0:0:0:
182,192,51681,1,0,0:0:0:0:
329,192,51681,1,0,0:0:0:0:
402,192,51752,1,0,0:0:0:0:
475,192,51824,1,0,0:0:0:0:
182,192,51824,1,0,0:0:0:0:
36,192,51824,1,0,0:0:0:0:
402,192,51895,1,0,0:0:0:0:
109,192,51895,1,0,0:0:0:0:
329,192,51967,1,0,0:0:0:0:
182,192,51967,1,0,0:0:0:0:
36,192,51967,1,0,0:0:0:0:
256,192,51967,1,0,0:0:0:0:
109,192,52038,1,0,0:0:0:0:
402,192,52038,1,0,0:0:0:0:
36,192,52111,1,0,0:0:0:0:
182,192,52111,1,0,0:0:0:0:
475,192,52111,1,0,0:0:0:0:
256,192,52111,1,0,0:0:0:0:
109,192,52182,1,0,0:0:0:0:
329,192,52182,1,0,0:0:0:0:
36,192,52254,1,0,0:0:0:0:
182,192,52254,1,0,0:0:0:0:
402,192,52254,1,0,0:0:0:0:
475,192,52254,1,0,0:0:0:0:
109,192,52325,1,0,0:0:0:0:
256,192,52325,1,0,0:0:0:0:
36,192,52397,1,0,0:0:0:0:
182,192,52397,1,0,0:0:0:0:
329,192,52397,1,0,0:0:0:0:
475,192,52397,1,0,0:0:0:0:
402,192,52468,1,0,0:0:0:0:
256,192,52541,1,0,0:0:0:0:
36,192,52541,1,0,0:0:0:0:
475,192,52541,1,0,0:0:0:0:
109,192,52612,1,0,0:0:0:0:
402,192,52684,1,0,0:0:0:0:
475,192,52684,1,0,0:0:0:0:
182,192,52684,1,0,0:0:0:0:
329,192,52755,1,0,0:0:0:0:
109,192,52755,1,0,0:0:0:0:
36,192,52827,1,0,0:0:0:0:
256,192,52827,1,0,0:0:0:0:
475,192,52827,1,0,0:0:0:0:
402,192,52898,1,0,0:0:0:0:
329,192,52971,1,0,0:0:0:0:
109,192,52971,1,0,0:0:0:0:
36,192,52971,1,0,0:0:0:0:
182,192,53042,1,0,0:0:0:0:
402,192,53042,1,0,0:0:0:0:
256,192,53114,1,0,0:0:0:0:
475,192,53114,1,0,0:0:0:0:
36,192,53114,1,0,0:0:0:0:
109,192,53114,1,0,0:0:0:0:
329,192,53114,1,0,0:0:0:0:
182,192,53185,1,0,0:0:0:0:
402,192,53185,1,0,0:0:0:0:
475,192,53257,1,0,0:0:0:0:
256,192,53257,1,0,0:0:0:0:
109,192,53328,1,0,0:0:0:0:
329,192,53328,1,0,0:0:0:0:
36,192,53401,1,0,0:0:0:0:
182,192,53401,1,0,0:0:0:0:
256,192,53401,1,0,0:0:0:0:
402,192,53401,1,0,0:0:0:0:
475,192,53401,1,0,0:0:0:0:
109,192,53472,1,0,0:0:0:0:
329,192,53472,1,0,0:0:0:0:
256,192,53544,1,0,0:0:0:0:
36,192,53544,1,0,0:0:0:0:
402,192,53615,1,0,0:0:0:0:
182,192,53615,1,0,0:0:0:0:
109,192,53687,1,0,0:0:0:0:
36,192,53687,1,0,0:0:0:0:
329,192,53687,1,0,0:0:0:0:
256,192,53687,1,0,0:0:0:0:
475,192,53687,1,0,0:0:0:0:
182,192,53758,1,0,0:0:0:0:
402,192,53758,1,0,0:0:0:0:
256,192,53831,1,0,0:0:0:0:
475,192,53831,1,0,0:0:0:0:
109,192,53902,1,0,0:0:0:0:
329,192,53902,1,0,0:0:0:0:
402,192,53974,1,0,0:0:0:0:
475,192,53974,1,0,0:0:0:0:
182,192,53974,1,0,0:0:0:0:
36,192,53974,1,0,0:0:0:0:
256,192,53974,1,0,0:0:0:0:
109,192,54045,1,0,0:0:0:0:
329,192,54045,1,0,0:0:0:0:
256,192,54117,1,0,0:0:0:0:
36,192,54117,1,0,0:0:0:0:
475,192,54117,1,0,0:0:0:0:
182,192,54188,1,0,0:0:0:0:
402,192,54188,1,0,0:0:0:0:
36,192,54261,1,0,0:0:0:0:
109,192,54261,1,0,0:0:0:0:
256,192,54261,1,0,0:0:0:0:
329,192,54261,1,0,0:0:0:0:
475,192,54261,1,0,0:0:0:0:
182,192,54332,1,0,0:0:0:0:
402,192,54332,1,0,0:0:0:0:
109,192,54404,1,0,0:0:0:0:
36,192,54404,1,0,0:0:0:0:
329,192,54404,1,0,0:0:0:0:
256,192,54404,1,0,0:0:0:0:
182,192,54475,1,0,0:0:0:0:
475,192,54475,1,0,0:0:0:0:
109,192,54547,1,0,0:0:0:0:
36,192,54547,1,0,0:0:0:0:
402,192,54547,1,0,0:0:0:0:
256,192,54547,1,0,0:0:0:0:
182,192,54618,1,0,0:0:0:0:
329,192,54618,1,0,0:0:0:0:
109,192,54691,1,0,0:0:0:0:
36,192,54691,1,0,0:0:0:0:
475,192,54691,1,0,0:0:0:0:
256,192,54691,1,0,0:0:0:0:
402,192,54762,1,0,0:0:0:0:
475,192,54834,1,0,0:0:0:0:
36,192,54834,1,0,0:0:0:0:
256,192,54834,1,0,0:0:0:0:
109,192,54905,1,0,0:0:0:0:
475,192,54977,1,0,0:0:0:0:
182,192,54977,1,0,0:0:0:0:
329,192,54977,1,0,0:0:0:0:
109,192,55048,1,0,0:0:0:0:
475,192,55121,1,0,0:0:0:0:
36,192,55121,1,0,0:0:0:0:
256,192,55121,1,0,0:0:0:0:
402,192,55192,1,0,0:0:0:0:
329,192,55264,1,0,0:0:0:0:
36,192,55264,1,0,0:0:0:0:
182,192,55264,1,0,0:0:0:0:
402,192,55335,1,0,0:0:0:0:
109,192,55335,1,0,0:0:0:0:
475,192,55407,1,0,0:0:0:0:
36,192,55407,1,0,0:0:0:0:
182,192,55407,1,0,0:0:0:0:
256,192,55407,1,0,0:0:0:0:
109,192,55478,1,0,0:0:0:0:
329,192,55478,1,0,0:0:0:0:
36,192,55551,1,0,0:0:0:0:
182,192,55551,1,0,0:0:0:0:
402,192,55551,1,0,0:0:0:0:
475,192,55551,1,0,0:0:0:0:
109,192,55622,1,0,0:0:0:0:
256,192,55622,1,0,0:0:0:0:
36,192,55694,1,0,0:0:0:0:
182,192,55694,1,0,0:0:0:0:
329,192,55694,1,0,0:0:0:0:
475,192,55694,1,0,0:0:0:0:
109,192,55765,1,0,0:0:0:0:
402,192,55765,1,0,0:0:0:0:
36,192,55837,1,0,0:0:0:0:
182,192,55837,1,0,0:0:0:0:
256,192,55837,1,0,0:0:0:0:
475,192,55837,1,0,0:0:0:0:
402,192,55908,1,0,0:0:0:0:
475,192,55981,1,0,0:0:0:0:
329,192,55981,1,0,0:0:0:0:
182,192,55981,1,0,0:0:0:0:
109,192,56052,1,0,0:0:0:0:
402,192,56124,1,0,0:0:0:0:
256,192,56124,1,0,0:0:0:0:
36,192,56124,1,0,0:0:0:0:
109,192,56195,1,0,0:0:0:0:
329,192,56267,1,0,0:0:0:0:
182,192,56267,1,0,0:0:0:0:
402,192,56338,1,0,0:0:0:0:
36,192,56411,1,0,0:0:0:0:
182,192,56411,1,0,0:0:0:0:
475,192,56411,1,0,0:0:0:0:
256,192,56411,1,0,0:0:0:0:
109,192,56482,1,0,0:0:0:0:
402,192,56482,1,0,0:0:0:0:
475,192,56554,1,0,0:0:0:0:
36,192,56554,1,0,0:0:0:0:
329,192,56554,1,0,0:0:0:0:
182,192,56625,1,0,0:0:0:0:
256,192,56697,1,0,0:0:0:0:
329,192,56697,1,0,0:0:0:0:
36,192,56697,1,0,0:0:0:0:
475,192,56697,1,0,0:0:0:0:
402,192,56768,1,0,0:0:0:0:
109,192,56768,1,0,0:0:0:0:
182,192,56841,1,0,0:0:0:0:
475,192,56841,1,0,0:0:0:0:
36,192,56841,1,0,0:0:0:0:
109,192,56912,1,0,0:0:0:0:
256,192,56912,1,0,0:0:0:0:
182,192,56984,1,0,0:0:0:0:
329,192,56984,1,0,0:0:0:0:
475,192,56984,1,0,0:0:0:0:
402,192,56984,1,0,0:0:0:0:
109,192,57055,1,0,0:0:0:0:
256,192,57055,1,0,0:0:0:0:
36,192,57127,1,0,0:0:0:0:
182,192,57127,1,0,0:0:0:0:
402,192,57127,1,0,0:0:0:0:
475,192,57127,1,0,0:0:0:0:
256,192,57198,1,0,0:0:0:0:
36,192,57271,1,0,0:0:0:0:
329,192,57271,1,0,0:0:0:0:
402,192,57271,1,0,0:0:0:0:
109,192,57271,1,0,0:0:0:0:
182,192,57342,1,0,0:0:0:0:
329,192,57414,1,0,0:0:0:0:
256,192,57414,1,0,0:0:0:0:
36,192,57414,1,0,0:0:0:0:
475,192,57414,1,0,0:0:0:0:
109,192,57485,1,0,0:0:0:0:
182,192,57557,1,0,0:0:0:0:
256,192,57557,1,0,0:0:0:0:
402,192,57557,1,0,0:0:0:0:
36,192,57557,1,0,0:0:0:0:
475,192,57557,1,0,0:0:0:0:
36,192,57844,1,0,0:0:0:0:
475,192,57844,1,0,0:0:0:0:
402,192,57844,1,0,0:0:0:0:
182,192,57844,1,0,0:0:0:0:
256,192,57915,1,0,0:0:0:0:
329,192,57987,1,0,0:0:0:0:
475,192,57987,1,0,0:0:0:0:
109,192,57987,1,0,0:0:0:0:
36,192,57987,1,0,0:0:0:0:
256,192,58058,1,0,0:0:0:0:
182,192,58131,1,0,0:0:0:0:
36,192,58131,1,0,0:0:0:0:
402,192,58131,1,0,0:0:0:0:
475,192,58131,1,0,0:0:0:0:
256,192,58202,1,0,0:0:0:0:
475,192,58274,1,0,0:0:0:0:
329,192,58274,1,0,0:0:0:0:
109,192,58274,1,0,0:0:0:0:
36,192,58274,1,0,0:0:0:0:
182,192,58345,1,0,0:0:0:0:
256,192,58345,1,0,0:0:0:0:
109,192,58417,1,0,0:0:0:0:
36,192,58417,1,0,0:0:0:0:
402,192,58417,1,0,0:0:0:0:
475,192,58417,1,0,0:0:0:0:
256,192,58489,1,0,0:0:0:0:
329,192,58489,1,0,0:0:0:0:
36,192,58561,1,0,0:0:0:0:
109,192,58561,1,0,0:0:0:0:
475,192,58561,1,0,0:0:0:0:
402,192,58561,1,0,0:0:0:0:
182,192,58632,1,0,0:0:0:0:
256,192,58632,1,0,0:0:0:0:
109,192,58704,1,0,0:0:0:0:
36,192,58704,1,0,0:0:0:0:
402,192,58704,1,0,0:0:0:0:
475,192,58704,1,0,0:0:0:0:
329,192,58775,1,0,0:0:0:0:
256,192,58775,1,0,0:0:0:0:
36,192,58847,1,0,0:0:0:0:
475,192,58847,1,0,0:0:0:0:
109,192,58847,1,0,0:0:0:0:
402,192,58847,1,0,0:0:0:0:
256,192,58919,1,0,0:0:0:0:
182,192,58919,1,0,0:0:0:0:
329,192,58991,1,0,0:0:0:0:
475,192,58991,1,0,0:0:0:0:
36,192,58991,1,0,0:0:0:0:
109,192,58991,1,0,0:0:0:0:
402,192,59062,1,0,0:0:0:0:
182,192,59062,1,0,0:0:0:0:
475,192,59134,1,0,0:0:0:0:
256,192,59134,1,0,0:0:0:0:
36,192,59134,1,0,0:0:0:0:
109,192,59134,1,0,0:0:0:0:
182,192,59205,1,0,0:0:0:0:
329,192,59205,1,0,0:0:0:0:
402,192,59277,1,0,0:0:0:0:
475,192,59277,1,0,0:0:0:0:
36,192,59277,1,0,0:0:0:0:
109,192,59277,1,0,0:0:0:0:
329,192,59349,1,0,0:0:0:0:
256,192,59421,1,0,0:0:0:0:
36,192,59421,1,0,0:0:0:0:
475,192,59421,1,0,0:0:0:0:
109,192,59492,1,0,0:0:0:0:
329,192,59564,1,0,0:0:0:0:
182,192,59564,1,0,0:0:0:0:
475,192,59564,1,0,0:0:0:0:
109,192,59635,1,0,0:0:0:0:
256,192,59707,1,0,0:0:0:0:
36,192,59707,1,0,0:0:0:0:
475,192,59707,1,0,0:0:0:0:
402,192,59779,1,0,0:0:0:0:
182,192,59851,1,0,0:0:0:0:
36,192,59851,1,0,0:0:0:0:
329,192,59851,1,0,0:0:0:0:
109,192,59922,1,0,0:0:0:0:
402,192,59922,1,0,0:0:0:0:
36,192,59994,1,0,0:0:0:0:
182,192,59994,1,0,0:0:0:0:
475,192,59994,1,0,0:0:0:0:
256,192,59994,1,0,0:0:0:0:
402,192,60065,1,0,0:0:0:0:
109,192,60065,1,0,0:0:0:0:
329,192,60137,1,0,0:0:0:0:
256,192,60137,1,0,0:0:0:0:
182,192,60137,1,0,0:0:0:0:
36,192,60137,1,0,0:0:0:0:
475,192,60209,1,0,0:0:0:0:
109,192,60209,1,0,0:0:0:0:
402,192,60281,1,0,0:0:0:0:
256,192,60281,1,0,0:0:0:0:
182,192,60281,1,0,0:0:0:0:
36,192,60281,1,0,0:0:0:0:
329,192,60352,1,0,0:0:0:0:
109,192,60352,1,0,0:0:0:0:
256,192,60424,1,0,0:0:0:0:
475,192,60424,1,0,0:0:0:0:
182,192,60424,1,0,0:0:0:0:
36,192,60424,1,0,0:0:0:0:
402,192,60495,1,0,0:0:0:0:
475,192,60567,1,0,0:0:0:0:
329,192,60567,1,0,0:0:0:0:
182,192,60567,1,0,0:0:0:0:
109,192,60639,1,0,0:0:0:0:
402,192,60711,1,0,0:0:0:0:
256,192,60711,1,0,0:0:0:0:
36,192,60711,1,0,0:0:0:0:
109,192,60782,1,0,0:0:0:0:
329,192,60854,1,0,0:0:0:0:
182,192,60854,1,0,0:0:0:0:
402,192,60925,1,0,0:0:0:0:
475,192,60997,1,0,0:0:0:0:
36,192,60997,1,0,0:0:0:0:
109,192,60997,1,0,0:0:0:0:
182,192,61069,1,0,0:0:0:0:
402,192,61069,1,0,0:0:0:0:
109,192,61141,1,0,0:0:0:0:
256,192,61141,1,0,0:0:0:0:
329,192,61141,1,0,0:0:0:0:
36,192,61141,1,0,0:0:0:0:
402,192,61212,1,0,0:0:0:0:
182,192,61212,1,0,0:0:0:0:
475,192,61284,1,0,0:0:0:0:
256,192,61284,1,0,0:0:0:0:
109,192,61284,1,0,0:0:0:0:
36,192,61284,1,0,0:0:0:0:
329,192,61355,1,0,0:0:0:0:
182,192,61355,1,0,0:0:0:0:
402,192,61427,1,0,0:0:0:0:
475,192,61427,1,0,0:0:0:0:
109,192,61427,1,0,0:0:0:0:
36,192,61427,1,0,0:0:0:0:
256,192,61499,1,0,0:0:0:0:
182,192,61499,1,0,0:0:0:0:
329,192,61571,1,0,0:0:0:0:
475,192,61571,1,0,0:0:0:0:
109,192,61571,1,0,0:0:0:0:
36,192,61571,1,0,0:0:0:0:
402,192,61642,1,0,0:0:0:0:
475,192,61714,1,0,0:0:0:0:
36,192,61714,1,0,0:0:0:0:
256,192,61714,1,0,0:0:0:0:
109,192,61785,1,0,0:0:0:0:
182,192,61857,1,0,0:0:0:0:
475,192,61857,1,0,0:0:0:0:
402,192,61857,1,0,0:0:0:0:
109,192,61929,1,0,0:0:0:0:
329,192,61929,1,0,0:0:0:0:
475,192,62001,1,0,0:0:0:0:
256,192,62001,1,0,0:0:0:0:
36,192,62001,1,0,0:0:0:0:
402,192,62072,1,0,0:0:0:0:
109,192,62144,1,0,0:0:0:0:
329,192,62144,1,0,0:0:0:0:
36,192,62144,1,0,0:0:0:0:
402,192,62215,1,0,0:0:0:0:
182,192,62215,1,0,0:0:0:0:
109,192,62287,1,0,0:0:0:0:
329,192,62287,1,0,0:0:0:0:
36,192,62287,1,0,0:0:0:0:
256,192,62287,1,0,0:0:0:0:
475,192,62287,1,0,0:0:0:0:
402,192,62359,1,0,0:0:0:0:
182,192,62359,1,0,0:0:0:0:
256,192,62431,1,0,0:0:0:0:
475,192,62431,1,0,0:0:0:0:
329,192,62502,1,0,0:0:0:0:
109,192,62502,1,0,0:0:0:0:
402,192,62574,1,0,0:0:0:0:
475,192,62574,1,0,0:0:0:0:
256,192,62574,1,0,0:0:0:0:
36,192,62574,1,0,0:0:0:0:
182,192,62574,1,0,0:0:0:0:
329,192,62645,1,0,0:0:0:0:
109,192,62645,1,0,0:0:0:0:
36,192,62717,1,0,0:0:0:0:
256,192,62717,1,0,0:0:0:0:
182,192,62789,1,0,0:0:0:0:
402,192,62789,1,0,0:0:0:0:
256,192,62861,1,0,0:0:0:0:
475,192,62861,1,0,0:0:0:0:
329,192,62861,1,0,0:0:0:0:
109,192,62861,1,0,0:0:0:0:
36,192,62861,1,0,0:0:0:0:
402,192,62932,1,0,0:0:0:0:
182,192,62932,1,0,0:0:0:0:
475,192,63004,1,0,0:0:0:0:
256,192,63004,1,0,0:0:0:0:
329,192,63075,1,0,0:0:0:0:
109,192,63075,1,0,0:0:0:0:
36,192,63147,1,0,0:0:0:0:
256,192,63147,1,0,0:0:0:0:
182,192,63147,1,0,0:0:0:0:
402,192,63147,1,0,0:0:0:0:
475,192,63147,1,0,0:0:0:0:
329,192,63219,1,0,0:0:0:0:
109,192,63219,1,0,0:0:0:0:
36,192,63291,1,0,0:0:0:0:
256,192,63291,1,0,0:0:0:0:
475,192,63291,1,0,0:0:0:0:
329,192,63362,1,0,0:0:0:0:
182,192,63362,1,0,0:0:0:0:
475,192,63434,1,0,0:0:0:0:
36,192,63434,1,0,0:0:0:0:
256,192,63434,1,0,0:0:0:0:
109,192,63434,1,0,0:0:0:0:
402,192,63434,1,0,0:0:0:0:
329,192,63577,1,0,0:0:0:0:
475,192,63577,1,0,0:0:0:0:
402,192,63577,1,0,0:0:0:0:
182,192,63577,1,0,0:0:0:0:
109,192,63577,1,0,0:0:0:0:
475,192,63721,1,0,0:0:0:0:
329,192,63721,1,0,0:0:0:0:
182,192,63721,1,0,0:0:0:0:
109,192,63792,1,0,0:0:0:0:
256,192,63792,1,0,0:0:0:0:
402,192,63792,1,0,0:0:0:0:
36,192,63864,1,0,0:0:0:0:
182,192,63864,1,0,0:0:0:0:
475,192,63864,1,0,0:0:0:0:
329,192,63864,1,0,0:0:0:0:
475,192,64151,1,0,0:0:0:0:
402,192,64151,1,0,0:0:0:0:
329,192,64151,1,0,0:0:0:0:
182,192,64151,1,0,0:0:0:0:
109,192,64151,1,0,0:0:0:0:
36,192,64294,1,0,0:0:0:0:
109,192,64294,1,0,0:0:0:0:
402,192,64294,1,0,0:0:0:0:
329,192,64294,1,0,0:0:0:0:
256,192,64294,1,0,0:0:0:0:
36,192,64437,1,0,0:0:0:0:
475,192,64437,1,0,0:0:0:0:
182,192,64437,1,0,0:0:0:0:
256,192,64437,1,0,0:0:0:0:
329,192,64437,1,0,0:0:0:0:
109,192,64509,1,0,0:0:0:0:
402,192,64509,1,0,0:0:0:0:
475,192,64581,1,0,0:0:0:0:
36,192,64581,1,0,0:0:0:0:
256,192,64581,1,0,0:0:0:0:
182,192,64581,1,0,0:0:0:0:
329,192,64581,1,0,0:0:0:0:
182,192,64724,1,0,0:0:0:0:
36,192,64724,1,0,0:0:0:0:
109,192,64724,1,0,0:0:0:0:
329,192,64724,1,0,0:0:0:0:
402,192,64724,1,0,0:0:0:0:
36,192,64867,1,0,0:0:0:0:
182,192,64867,1,0,0:0:0:0:
329,192,64867,1,0,0:0:0:0:
402,192,64939,1,0,0:0:0:0:
256,192,64939,1,0,0:0:0:0:
109,192,64939,1,0,0:0:0:0:
475,192,65011,1,0,0:0:0:0:
329,192,65011,1,0,0:0:0:0:
36,192,65011,1,0,0:0:0:0:
182,192,65011,1,0,0:0:0:0:
36,192,65297,1,0,0:0:0:0:
109,192,65297,1,0,0:0:0:0:
182,192,65297,1,0,0:0:0:0:
329,192,65297,1,0,0:0:0:0:
402,192,65297,1,0,0:0:0:0:
182,192,65441,1,0,0:0:0:0:
475,192,65441,1,0,0:0:0:0:
36,192,65441,1,0,0:0:0:0:
256,192,65441,1,0,0:0:0:0:
329,192,65441,1,0,0:0:0:0:
109,192,65512,1,0,0:0:0:0:
402,192,65512,1,0,0:0:0:0:
182,192,65584,1,0,0:0:0:0:
329,192,65584,1,0,0:0:0:0:
256,192,65584,1,0,0:0:0:0:
36,192,65655,1,0,0:0:0:0:
475,192,65655,1,0,0:0:0:0:
109,192,65727,1,0,0:0:0:0:
182,192,65727,1,0,0:0:0:0:
256,192,65727,1,0,0:0:0:0:
329,192,65727,1,0,0:0:0:0:
402,192,65727,1,0,0:0:0:0:
182,192,65942,1,0,0:0:0:0:
329,192,65942,1,0,0:0:0:0:
475,192,66014,1,0,0:0:0:0:
402,192,66014,1,0,0:0:0:0:
36,192,66014,1,0,0:0:0:0:
109,192,66014,1,0,0:0:0:0:
256,192,66014,1,0,0:0:0:0:
109,192,66229,1,0,0:0:0:0:
402,192,66229,1,0,0:0:0:0:
36,192,66301,1,0,0:0:0:0:
475,192,66301,1,0,0:0:0:0:
329,192,66301,1,0,0:0:0:0:
182,192,66301,1,0,0:0:0:0:
256,192,66301,1,0,0:0:0:0:
36,192,66515,1,0,0:0:0:0:
475,192,66515,1,0,0:0:0:0:
256,192,66587,1,0,0:0:0:0:
182,192,66587,1,0,0:0:0:0:
109,192,66587,1,0,0:0:0:0:
402,192,66587,1,0,0:0:0:0:
329,192,66587,1,0,0:0:0:0:
256,192,66802,1,0,0:0:0:0:
36,192,66874,1,0,0:0:0:0:
109,192,66874,1,0,0:0:0:0:
329,192,66874,1,0,0:0:0:0:
475,192,66874,1,0,0:0:0:0:
402,192,66874,1,0,0:0:0:0:
182,192,66874,1,0,0:0:0:0:
36,192,67161,128,0,67949:0:0:0:0:
109,192,67161,128,0,67949:0:0:0:0:
182,192,67161,128,0,67949:0:0:0:0:
329,192,67161,128,0,67949:0:0:0:0:
402,192,67161,128,0,67949:0:0:0:0:
475,192,67161,128,0,67949:0:0:0:0:
36,192,68021,1,0,0:0:0:0:
402,192,68021,1,0,0:0:0:0:
475,192,68021,1,0,0:0:0:0:
109,192,68021,1,0,0:0:0:0:
256,192,68021,1,0,0:0:0:0:
182,192,68164,1,0,0:0:0:0:
329,192,68164,1,0,0:0:0:0:
256,192,68307,1,0,0:0:0:0:
402,192,68307,1,0,0:0:0:0:
36,192,68451,1,0,0:0:0:0:
109,192,68451,1,0,0:0:0:0:
329,192,68451,1,0,0:0:0:0:
475,192,68451,1,0,0:0:0:0:
36,192,69167,1,0,0:0:0:0:
182,192,69167,1,0,0:0:0:0:
402,192,69167,1,0,0:0:0:0:
475,192,69167,1,0,0:0:0:0:
109,192,69311,1,0,0:0:0:0:
256,192,69311,1,0,0:0:0:0:
182,192,69454,1,0,0:0:0:0:
329,192,69454,1,0,0:0:0:0:
256,192,69597,1,0,0:0:0:0:
402,192,69597,1,0,0:0:0:0:
109,192,69597,1,0,0:0:0:0:
36,192,69597,1,0,0:0:0:0:
36,192,69884,1,0,0:0:0:0:
109,192,70028,1,0,0:0:0:0:
182,192,70171,1,0,0:0:0:0:
109,192,70314,1,0,0:0:0:0:
36,192,70314,1,0,0:0:0:0:
256,192,70314,1,0,0:0:0:0:
402,192,70314,1,0,0:0:0:0:
329,192,70458,1,0,0:0:0:0:
182,192,70458,1,0,0:0:0:0:
256,192,70601,1,0,0:0:0:0:
109,192,70601,1,0,0:0:0:0:
182,192,70744,1,0,0:0:0:0:
36,192,70744,1,0,0:0:0:0:
402,192,70744,1,0,0:0:0:0:
475,192,70744,1,0,0:0:0:0:
402,192,71031,1,0,0:0:0:0:
329,192,71174,1,0,0:0:0:0:
256,192,71318,1,0,0:0:0:0:
36,192,71389,1,0,0:0:0:0:
182,192,71425,1,0,0:0:0:0:
329,192,71461,1,0,0:0:0:0:
475,192,71496,1,0,0:0:0:0:
256,192,71604,1,0,0:0:0:0:
402,192,71604,1,0,0:0:0:0:
329,192,71748,1,0,0:0:0:0:
182,192,71748,1,0,0:0:0:0:
109,192,71891,1,0,0:0:0:0:
256,192,71891,1,0,0:0:0:0:
402,192,71891,1,0,0:0:0:0:
475,192,71891,1,0,0:0:0:0:
182,192,72178,1,0,0:0:0:0:
36,192,72178,1,0,0:0:0:0:
109,192,72608,1,0,0:0:0:0:
256,192,72608,1,0,0:0:0:0:
475,192,72608,1,0,0:0:0:0:
36,192,72608,1,0,0:0:0:0:
402,192,72608,1,0,0:0:0:0:
329,192,73038,1,0,0:0:0:0:
475,192,73038,1,0,0:0:0:0:
36,192,73038,1,0,0:0:0:0:
109,192,73038,1,0,0:0:0:0:
402,192,73324,1,0,0:0:0:0:
329,192,73468,1,0,0:0:0:0:
256,192,73611,1,0,0:0:0:0:
402,192,73754,1,0,0:0:0:0:
475,192,73754,1,0,0:0:0:0:
36,192,73754,1,0,0:0:0:0:
182,192,73754,1,0,0:0:0:0:
329,192,74041,1,0,0:0:0:0:
182,192,74041,1,0,0:0:0:0:
109,192,74184,1,0,0:0:0:0:
36,192,74184,1,0,0:0:0:0:
256,192,74184,1,0,0:0:0:0:
402,192,74184,1,0,0:0:0:0:
36,192,74471,1,0,0:0:0:0:
109,192,74614,1,0,0:0:0:0:
182,192,74758,1,0,0:0:0:0:
109,192,74901,1,0,0:0:0:0:
36,192,74901,1,0,0:0:0:0:
256,192,74901,1,0,0:0:0:0:
475,192,74901,128,0,74936:0:0:0:0:
329,192,75044,128,0,75080:0:0:0:0:
182,192,75188,128,0,75223:0:0:0:0:
402,192,75331,1,0,0:0:0:0:
475,192,75331,1,0,0:0:0:0:
36,192,75331,128,0,75366:0:0:0:0:
475,192,75618,128,0,75653:0:0:0:0:
109,192,75761,1,0,0:0:0:0:
36,192,75761,1,0,0:0:0:0:
256,192,75761,128,0,75797:0:0:0:0:
36,192,76621,1,0,0:0:0:0:
109,192,76621,1,0,0:0:0:0:
256,192,76621,1,0,0:0:0:0:
475,192,76621,1,0,0:0:0:0:
402,192,76764,1,0,0:0:0:0:
329,192,76908,1,0,0:0:0:0:
475,192,77194,1,0,0:0:0:0:
402,192,77194,1,0,0:0:0:0:
36,192,77194,1,0,0:0:0:0:
109,192,77194,1,0,0:0:0:0:
182,192,77194,1,0,0:0:0:0:
329,192,77265,1,0,0:0:0:0:
256,192,77338,1,0,0:0:0:0:
36,192,77338,1,0,0:0:0:0:
329,192,77409,1,0,0:0:0:0:
109,192,77409,1,0,0:0:0:0:
402,192,77481,1,0,0:0:0:0:
475,192,77481,1,0,0:0:0:0:
182,192,77481,1,0,0:0:0:0:
36,192,77481,1,0,0:0:0:0:
256,192,77552,1,0,0:0:0:0:
475,192,77624,1,0,0:0:0:0:
329,192,77624,1,0,0:0:0:0:
109,192,77624,1,0,0:0:0:0:
36,192,77624,1,0,0:0:0:0:
182,192,77695,1,0,0:0:0:0:
256,192,77695,1,0,0:0:0:0:
329,192,77768,1,0,0:0:0:0:
402,192,77768,1,0,0:0:0:0:
475,192,77768,1,0,0:0:0:0:
36,192,77768,1,0,0:0:0:0:
109,192,77839,1,0,0:0:0:0:
36,192,77911,1,0,0:0:0:0:
402,192,77911,1,0,0:0:0:0:
475,192,77911,1,0,0:0:0:0:
182,192,77911,1,0,0:0:0:0:
329,192,77982,1,0,0:0:0:0:
109,192,77982,1,0,0:0:0:0:
36,192,78054,1,0,0:0:0:0:
256,192,78054,1,0,0:0:0:0:
475,192,78054,1,0,0:0:0:0:
182,192,78125,1,0,0:0:0:0:
402,192,78125,1,0,0:0:0:0:
109,192,78198,1,0,0:0:0:0:
36,192,78198,1,0,0:0:0:0:
329,192,78198,1,0,0:0:0:0:
475,192,78198,1,0,0:0:0:0:
256,192,78269,1,0,0:0:0:0:
182,192,78269,1,0,0:0:0:0:
36,192,78341,1,0,0:0:0:0:
109,192,78341,1,0,0:0:0:0:
475,192,78341,1,0,0:0:0:0:
402,192,78341,1,0,0:0:0:0:
182,192,78412,1,0,0:0:0:0:
256,192,78484,1,0,0:0:0:0:
475,192,78484,1,0,0:0:0:0:
182,192,78555,1,0,0:0:0:0:
402,192,78555,1,0,0:0:0:0:
109,192,78628,1,0,0:0:0:0:
36,192,78628,1,0,0:0:0:0:
329,192,78628,1,0,0:0:0:0:
475,192,78628,1,0,0:0:0:0:
256,192,78699,1,0,0:0:0:0:
36,192,78771,1,0,0:0:0:0:
182,192,78771,1,0,0:0:0:0:
402,192,78771,1,0,0:0:0:0:
475,192,78771,1,0,0:0:0:0:
329,192,78842,1,0,0:0:0:0:
256,192,78842,1,0,0:0:0:0:
182,192,78914,1,0,0:0:0:0:
109,192,78914,1,0,0:0:0:0:
36,192,78914,1,0,0:0:0:0:
475,192,78914,1,0,0:0:0:0:
402,192,78985,1,0,0:0:0:0:
475,192,79058,1,0,0:0:0:0:
109,192,79058,1,0,0:0:0:0:
36,192,79058,1,0,0:0:0:0:
329,192,79058,1,0,0:0:0:0:
182,192,79129,1,0,0:0:0:0:
402,192,79129,1,0,0:0:0:0:
475,192,79201,1,0,0:0:0:0:
256,192,79201,1,0,0:0:0:0:
36,192,79201,1,0,0:0:0:0:
329,192,79272,1,0,0:0:0:0:
109,192,79272,1,0,0:0:0:0:
402,192,79344,1,0,0:0:0:0:
475,192,79344,1,0,0:0:0:0:
182,192,79344,1,0,0:0:0:0:
36,192,79344,1,0,0:0:0:0:
256,192,79415,1,0,0:0:0:0:
329,192,79415,1,0,0:0:0:0:
475,192,79488,1,0,0:0:0:0:
402,192,79488,1,0,0:0:0:0:
36,192,79488,1,0,0:0:0:0:
109,192,79488,1,0,0:0:0:0:
182,192,79559,1,0,0:0:0:0:
256,192,79631,1,0,0:0:0:0:
329,192,79631,1,0,0:0:0:0:
475,192,79631,1,0,0:0:0:0:
402,192,79702,1,0,0:0:0:0:
182,192,79702,1,0,0:0:0:0:
36,192,79774,1,0,0:0:0:0:
256,192,79774,1,0,0:0:0:0:
109,192,79774,1,0,0:0:0:0:
329,192,79774,1,0,0:0:0:0:
402,192,79845,1,0,0:0:0:0:
182,192,79918,1,0,0:0:0:0:
475,192,79918,1,0,0:0:0:0:
256,192,79918,1,0,0:0:0:0:
36,192,79918,1,0,0:0:0:0:
329,192,79989,1,0,0:0:0:0:
109,192,80061,1,0,0:0:0:0:
182,192,80061,1,0,0:0:0:0:
402,192,80061,1,0,0:0:0:0:
475,192,80061,1,0,0:0:0:0:
256,192,80132,1,0,0:0:0:0:
329,192,80204,1,0,0:0:0:0:
475,192,80204,1,0,0:0:0:0:
36,192,80204,1,0,0:0:0:0:
109,192,80204,1,0,0:0:0:0:
182,192,80275,1,0,0:0:0:0:
402,192,80275,1,0,0:0:0:0:
36,192,80348,1,0,0:0:0:0:
475,192,80348,1,0,0:0:0:0:
109,192,80348,1,0,0:0:0:0:
256,192,80348,1,0,0:0:0:0:
182,192,80419,1,0,0:0:0:0:
329,192,80419,1,0,0:0:0:0:
256,192,80491,1,0,0:0:0:0:
36,192,80491,1,0,0:0:0:0:
475,192,80491,1,0,0:0:0:0:
109,192,80562,1,0,0:0:0:0:
402,192,80562,1,0,0:0:0:0:
36,192,80634,1,0,0:0:0:0:
182,192,80634,1,0,0:0:0:0:
256,192,80634,1,0,0:0:0:0:
329,192,80634,1,0,0:0:0:0:
475,192,80634,1,0,0:0:0:0:
256,192,80778,1,0,0:0:0:0:
475,192,80778,1,0,0:0:0:0:
109,192,80778,1,0,0:0:0:0:
182,192,80849,1,0,0:0:0:0:
402,192,80849,1,0,0:0:0:0:
109,192,80921,1,0,0:0:0:0:
329,192,80921,1,0,0:0:0:0:
36,192,80921,1,0,0:0:0:0:
475,192,80921,1,0,0:0:0:0:
36,192,81064,1,0,0:0:0:0:
182,192,81064,1,0,0:0:0:0:
402,192,81064,1,0,0:0:0:0:
109,192,81135,1,0,0:0:0:0:
329,192,81135,1,0,0:0:0:0:
36,192,81208,1,0,0:0:0:0:
256,192,81208,1,0,0:0:0:0:
475,192,81208,1,0,0:0:0:0:
402,192,81208,1,0,0:0:0:0:
36,192,81351,1,0,0:0:0:0:
475,192,81351,1,0,0:0:0:0:
256,192,81351,1,0,0:0:0:0:
402,192,81422,1,0,0:0:0:0:
109,192,81422,1,0,0:0:0:0:
329,192,81458,1,0,0:0:0:0:
182,192,81458,1,0,0:0:0:0:
36,192,81494,1,0,0:0:0:0:
256,192,81494,1,0,0:0:0:0:
475,192,81494,1,0,0:0:0:0:
475,192,81638,1,0,0:0:0:0:
329,192,81638,1,0,0:0:0:0:
182,192,81638,1,0,0:0:0:0:
256,192,81709,1,0,0:0:0:0:
402,192,81709,1,0,0:0:0:0:
36,192,81781,1,0,0:0:0:0:
329,192,81781,1,0,0:0:0:0:
109,192,81781,1,0,0:0:0:0:
475,192,81781,1,0,0:0:0:0:
182,192,81852,1,0,0:0:0:0:
475,192,81924,1,0,0:0:0:0:
256,192,81924,1,0,0:0:0:0:
402,192,81996,1,0,0:0:0:0:
182,192,81996,1,0,0:0:0:0:
329,192,82068,1,0,0:0:0:0:
475,192,82068,1,0,0:0:0:0:
109,192,82068,1,0,0:0:0:0:
36,192,82068,1,0,0:0:0:0:
256,192,82139,1,0,0:0:0:0:
402,192,82211,1,0,0:0:0:0:
475,192,82211,1,0,0:0:0:0:
36,192,82211,1,0,0:0:0:0:
182,192,82211,1,0,0:0:0:0:
256,192,82282,1,0,0:0:0:0:
329,192,82282,1,0,0:0:0:0:
36,192,82354,1,0,0:0:0:0:
475,192,82354,1,0,0:0:0:0:
182,192,82354,1,0,0:0:0:0:
109,192,82354,1,0,0:0:0:0:
402,192,82426,1,0,0:0:0:0:
36,192,82498,1,0,0:0:0:0:
329,192,82498,1,0,0:0:0:0:
475,192,82498,1,0,0:0:0:0:
109,192,82498,1,0,0:0:0:0:
402,192,82569,1,0,0:0:0:0:
182,192,82569,1,0,0:0:0:0:
36,192,82641,1,0,0:0:0:0:
256,192,82641,1,0,0:0:0:0:
475,192,82641,1,0,0:0:0:0:
109,192,82712,1,0,0:0:0:0:
329,192,82712,1,0,0:0:0:0:
182,192,82784,1,0,0:0:0:0:
36,192,82784,1,0,0:0:0:0:
402,192,82784,1,0,0:0:0:0:
475,192,82784,1,0,0:0:0:0:
329,192,82856,1,0,0:0:0:0:
256,192,82856,1,0,0:0:0:0:
36,192,82928,1,0,0:0:0:0:
109,192,82928,1,0,0:0:0:0:
475,192,82928,1,0,0:0:0:0:
402,192,82928,1,0,0:0:0:0:
329,192,82999,1,0,0:0:0:0:
36,192,83071,1,0,0:0:0:0:
256,192,83071,1,0,0:0:0:0:
109,192,83142,1,0,0:0:0:0:
329,192,83142,1,0,0:0:0:0:
182,192,83214,1,0,0:0:0:0:
36,192,83214,1,0,0:0:0:0:
402,192,83214,1,0,0:0:0:0:
475,192,83214,1,0,0:0:0:0:
256,192,83286,1,0,0:0:0:0:
109,192,83358,1,0,0:0:0:0:
36,192,83358,1,0,0:0:0:0:
475,192,83358,1,0,0:0:0:0:
329,192,83358,1,0,0:0:0:0:
256,192,83429,1,0,0:0:0:0:
182,192,83429,1,0,0:0:0:0:
475,192,83501,1,0,0:0:0:0:
36,192,83501,1,0,0:0:0:0:
329,192,83501,1,0,0:0:0:0:
402,192,83501,1,0,0:0:0:0:
109,192,83572,1,0,0:0:0:0:
475,192,83644,1,0,0:0:0:0:
182,192,83644,1,0,0:0:0:0:
36,192,83644,1,0,0:0:0:0:
402,192,83644,1,0,0:0:0:0:
109,192,83716,1,0,0:0:0:0:
329,192,83716,1,0,0:0:0:0:
475,192,83788,1,0,0:0:0:0:
256,192,83788,1,0,0:0:0:0:
36,192,83788,1,0,0:0:0:0:
402,192,83859,1,0,0:0:0:0:
182,192,83859,1,0,0:0:0:0:
329,192,83931,1,0,0:0:0:0:
475,192,83931,1,0,0:0:0:0:
109,192,83931,1,0,0:0:0:0:
36,192,83931,1,0,0:0:0:0:
182,192,84002,1,0,0:0:0:0:
256,192,84002,1,0,0:0:0:0:
475,192,84074,1,0,0:0:0:0:
402,192,84074,1,0,0:0:0:0:
36,192,84074,1,0,0:0:0:0:
109,192,84074,1,0,0:0:0:0:
329,192,84146,1,0,0:0:0:0:
256,192,84218,1,0,0:0:0:0:
475,192,84218,1,0,0:0:0:0:
36,192,84218,1,0,0:0:0:0:
182,192,84289,1,0,0:0:0:0:
402,192,84289,1,0,0:0:0:0:
109,192,84361,1,0,0:0:0:0:
329,192,84361,1,0,0:0:0:0:
36,192,84361,1,0,0:0:0:0:
475,192,84361,1,0,0:0:0:0:
256,192,84432,1,0,0:0:0:0:
182,192,84504,1,0,0:0:0:0:
36,192,84504,1,0,0:0:0:0:
402,192,84504,1,0,0:0:0:0:
475,192,84504,1,0,0:0:0:0:
329,192,84576,1,0,0:0:0:0:
256,192,84648,1,0,0:0:0:0:
109,192,84648,1,0,0:0:0:0:
475,192,84648,1,0,0:0:0:0:
182,192,84719,1,0,0:0:0:0:
402,192,84719,1,0,0:0:0:0:
329,192,84791,1,0,0:0:0:0:
36,192,84791,1,0,0:0:0:0:
109,192,84791,1,0,0:0:0:0:
475,192,84791,1,0,0:0:0:0:
256,192,84862,1,0,0:0:0:0:
182,192,84934,1,0,0:0:0:0:
402,192,84934,1,0,0:0:0:0:
36,192,84934,1,0,0:0:0:0:
475,192,84934,1,0,0:0:0:0:
109,192,85006,1,0,0:0:0:0:
329,192,85006,1,0,0:0:0:0:
36,192,85078,1,0,0:0:0:0:
256,192,85078,1,0,0:0:0:0:
402,192,85078,1,0,0:0:0:0:
475,192,85078,1,0,0:0:0:0:
182,192,85149,1,0,0:0:0:0:
329,192,85149,1,0,0:0:0:0:
36,192,85221,1,0,0:0:0:0:
109,192,85221,1,0,0:0:0:0:
256,192,85221,1,0,0:0:0:0:
402,192,85221,1,0,0:0:0:0:
475,192,85221,1,0,0:0:0:0:
182,192,85292,1,0,0:0:0:0:
109,192,85364,1,0,0:0:0:0:
36,192,85364,1,0,0:0:0:0:
329,192,85364,1,0,0:0:0:0:
475,192,85364,1,0,0:0:0:0:
256,192,85436,1,0,0:0:0:0:
182,192,85508,1,0,0:0:0:0:
36,192,85508,1,0,0:0:0:0:
475,192,85508,1,0,0:0:0:0:
402,192,85508,1,0,0:0:0:0:
329,192,85579,1,0,0:0:0:0:
256,192,85651,1,0,0:0:0:0:
475,192,85651,1,0,0:0:0:0:
109,192,85651,1,0,0:0:0:0:
36,192,85651,1,0,0:0:0:0:
182,192,85722,1,0,0:0:0:0:
329,192,85722,1,0,0:0:0:0:
36,192,85794,1,0,0:0:0:0:
475,192,85794,1,0,0:0:0:0:
109,192,85794,1,0,0:0:0:0:
402,192,85794,1,0,0:0:0:0:
182,192,85866,1,0,0:0:0:0:
36,192,85938,1,0,0:0:0:0:
256,192,85938,1,0,0:0:0:0:
475,192,85938,1,0,0:0:0:0:
402,192,85938,1,0,0:0:0:0:
182,192,86009,1,0,0:0:0:0:
329,192,86009,1,0,0:0:0:0:
256,192,86081,1,0,0:0:0:0:
109,192,86081,1,0,0:0:0:0:
36,192,86081,1,0,0:0:0:0:
475,192,86081,1,0,0:0:0:0:
329,192,86152,1,0,0:0:0:0:
182,192,86152,1,0,0:0:0:0:
36,192,86224,1,0,0:0:0:0:
256,192,86224,1,0,0:0:0:0:
402,192,86224,1,0,0:0:0:0:
475,192,86224,1,0,0:0:0:0:
109,192,86296,1,0,0:0:0:0:
182,192,86368,1,0,0:0:0:0:
475,192,86368,1,0,0:0:0:0:
36,192,86368,1,0,0:0:0:0:
256,192,86368,1,0,0:0:0:0:
329,192,86368,1,0,0:0:0:0:
109,192,86439,1,0,0:0:0:0:
475,192,86511,1,0,0:0:0:0:
329,192,86511,1,0,0:0:0:0:
182,192,86511,1,0,0:0:0:0:
256,192,86582,1,0,0:0:0:0:
109,192,86582,1,0,0:0:0:0:
182,192,86654,1,0,0:0:0:0:
402,192,86654,1,0,0:0:0:0:
36,192,86654,1,0,0:0:0:0:
475,192,86654,1,0,0:0:0:0:
256,192,86726,1,0,0:0:0:0:
36,192,86798,1,0,0:0:0:0:
475,192,86798,1,0,0:0:0:0:
329,192,86798,1,0,0:0:0:0:
109,192,86798,1,0,0:0:0:0:
256,192,86869,1,0,0:0:0:0:
182,192,86869,1,0,0:0:0:0:
402,192,86941,1,0,0:0:0:0:
329,192,86941,1,0,0:0:0:0:
475,192,86941,1,0,0:0:0:0:
36,192,86941,1,0,0:0:0:0:
256,192,87012,1,0,0:0:0:0:
402,192,87084,1,0,0:0:0:0:
475,192,87084,1,0,0:0:0:0:
182,192,87084,1,0,0:0:0:0:
36,192,87084,1,0,0:0:0:0:
109,192,87156,1,0,0:0:0:0:
329,192,87156,1,0,0:0:0:0:
36,192,87228,1,0,0:0:0:0:
475,192,87228,1,0,0:0:0:0:
256,192,87228,1,0,0:0:0:0:
182,192,87299,1,0,0:0:0:0:
402,192,87299,1,0,0:0:0:0:
36,192,87371,1,0,0:0:0:0:
475,192,87371,1,0,0:0:0:0:
329,192,87371,1,0,0:0:0:0:
109,192,87371,1,0,0:0:0:0:
256,192,87442,1,0,0:0:0:0:
182,192,87442,1,0,0:0:0:0:
475,192,87514,1,0,0:0:0:0:
329,192,87514,1,0,0:0:0:0:
36,192,87514,1,0,0:0:0:0:
109,192,87514,1,0,0:0:0:0:
402,192,87586,1,0,0:0:0:0:
36,192,87658,1,0,0:0:0:0:
182,192,87658,1,0,0:0:0:0:
329,192,87658,1,0,0:0:0:0:
256,192,87729,1,0,0:0:0:0:
402,192,87729,1,0,0:0:0:0:
329,192,87801,1,0,0:0:0:0:
109,192,87801,1,0,0:0:0:0:
475,192,87801,1,0,0:0:0:0:
36,192,87801,1,0,0:0:0:0:
256,192,87872,1,0,0:0:0:0:
475,192,87944,1,0,0:0:0:0:
36,192,87944,1,0,0:0:0:0:
182,192,87944,1,0,0:0:0:0:
402,192,87944,1,0,0:0:0:0:
256,192,88016,1,0,0:0:0:0:
329,192,88016,1,0,0:0:0:0:
109,192,88088,1,0,0:0:0:0:
182,192,88088,1,0,0:0:0:0:
36,192,88088,1,0,0:0:0:0:
475,192,88088,1,0,0:0:0:0:
256,192,88159,1,0,0:0:0:0:
109,192,88231,1,0,0:0:0:0:
36,192,88231,1,0,0:0:0:0:
329,192,88231,1,0,0:0:0:0:
475,192,88231,1,0,0:0:0:0:
402,192,88302,1,0,0:0:0:0:
182,192,88302,1,0,0:0:0:0:
475,192,88374,1,0,0:0:0:0:
36,192,88374,1,0,0:0:0:0:
256,192,88374,1,0,0:0:0:0:
329,192,88446,1,0,0:0:0:0:
109,192,88446,1,0,0:0:0:0:
475,192,88518,1,0,0:0:0:0:
36,192,88518,1,0,0:0:0:0:
182,192,88518,1,0,0:0:0:0:
402,192,88518,1,0,0:0:0:0:
256,192,88589,1,0,0:0:0:0:
329,192,88589,1,0,0:0:0:0:
36,192,88661,1,0,0:0:0:0:
109,192,88661,1,0,0:0:0:0:
475,192,88661,1,0,0:0:0:0:
402,192,88661,1,0,0:0:0:0:
329,192,88732,1,0,0:0:0:0:
36,192,88804,1,0,0:0:0:0:
109,192,88804,1,0,0:0:0:0:
256,192,88804,1,0,0:0:0:0:
329,192,88876,1,0,0:0:0:0:
182,192,88876,1,0,0:0:0:0:
256,192,88948,1,0,0:0:0:0:
36,192,88948,1,0,0:0:0:0:
402,192,88948,1,0,0:0:0:0:
475,192,88948,1,0,0:0:0:0:
182,192,89019,1,0,0:0:0:0:
329,192,89091,1,0,0:0:0:0:
402,192,89091,1,0,0:0:0:0:
109,192,89091,1,0,0:0:0:0:
36,192,89091,1,0,0:0:0:0:
256,192,89162,1,0,0:0:0:0:
475,192,89234,1,0,0:0:0:0:
402,192,89234,1,0,0:0:0:0:
109,192,89234,1,0,0:0:0:0:
182,192,89234,1,0,0:0:0:0:
329,192,89306,1,0,0:0:0:0:
109,192,89378,1,0,0:0:0:0:
475,192,89378,1,0,0:0:0:0:
256,192,89378,1,0,0:0:0:0:
36,192,89378,1,0,0:0:0:0:
329,192,89449,1,0,0:0:0:0:
182,192,89449,1,0,0:0:0:0:
36,192,89521,1,0,0:0:0:0:
109,192,89521,1,0,0:0:0:0:
475,192,89521,1,0,0:0:0:0:
256,192,89521,1,0,0:0:0:0:
402,192,89521,1,0,0:0:0:0:
329,192,89592,1,0,0:0:0:0:
182,192,89592,1,0,0:0:0:0:
36,192,89664,1,0,0:0:0:0:
475,192,89664,1,0,0:0:0:0:
256,192,89664,1,0,0:0:0:0:
109,192,89736,1,0,0:0:0:0:
402,192,89736,1,0,0:0:0:0:
329,192,89808,1,0,0:0:0:0:
182,192,89808,1,0,0:0:0:0:
256,192,89808,1,0,0:0:0:0:
36,192,89808,1,0,0:0:0:0:
475,192,89808,1,0,0:0:0:0:
402,192,89879,1,0,0:0:0:0:
36,192,89951,1,0,0:0:0:0:
109,192,89951,1,0,0:0:0:0:
329,192,89951,1,0,0:0:0:0:
182,192,90022,1,0,0:0:0:0:
402,192,90022,1,0,0:0:0:0:
256,192,90094,1,0,0:0:0:0:
329,192,90094,1,0,0:0:0:0:
475,192,90094,1,0,0:0:0:0:
36,192,90094,1,0,0:0:0:0:
109,192,90166,1,0,0:0:0:0:
329,192,90238,1,0,0:0:0:0:
475,192,90238,1,0,0:0:0:0:
182,192,90238,1,0,0:0:0:0:
402,192,90309,1,0,0:0:0:0:
109,192,90309,1,0,0:0:0:0:
256,192,90309,1,0,0:0:0:0:
36,192,90381,1,0,0:0:0:0:
329,192,90381,1,0,0:0:0:0:
475,192,90381,1,0,0:0:0:0:
182,192,90381,1,0,0:0:0:0:
402,192,90452,1,0,0:0:0:0:
36,192,90524,1,0,0:0:0:0:
109,192,90524,1,0,0:0:0:0:
329,192,90524,1,0,0:0:0:0:
182,192,90596,1,0,0:0:0:0:
402,192,90596,1,0,0:0:0:0:
36,192,90668,1,0,0:0:0:0:
329,192,90668,1,0,0:0:0:0:
475,192,90668,1,0,0:0:0:0:
256,192,90668,1,0,0:0:0:0:
402,192,90739,1,0,0:0:0:0:
182,192,90739,1,0,0:0:0:0:
475,192,90811,1,0,0:0:0:0:
329,192,90811,1,0,0:0:0:0:
109,192,90811,1,0,0:0:0:0:
256,192,90882,1,0,0:0:0:0:
36,192,90882,1,0,0:0:0:0:
475,192,90954,1,0,0:0:0:0:
329,192,90954,1,0,0:0:0:0:
182,192,90954,1,0,0:0:0:0:
402,192,90954,1,0,0:0:0:0:
109,192,91026,1,0,0:0:0:0:
475,192,91098,1,0,0:0:0:0:
256,192,91098,1,0,0:0:0:0:
36,192,91098,1,0,0:0:0:0:
402,192,91169,1,0,0:0:0:0:
182,192,91169,1,0,0:0:0:0:
36,192,91241,1,0,0:0:0:0:
329,192,91241,1,0,0:0:0:0:
109,192,91241,1,0,0:0:0:0:
256,192,91312,1,0,0:0:0:0:
475,192,91384,1,0,0:0:0:0:
402,192,91384,1,0,0:0:0:0:
36,192,91384,1,0,0:0:0:0:
182,192,91384,1,0,0:0:0:0:
109,192,91456,1,0,0:0:0:0:
256,192,91456,1,0,0:0:0:0:
475,192,91528,1,0,0:0:0:0:
182,192,91528,1,0,0:0:0:0:
329,192,91528,1,0,0:0:0:0:
109,192,91599,1,0,0:0:0:0:
256,192,91671,1,0,0:0:0:0:
402,192,91671,1,0,0:0:0:0:
36,192,91671,1,0,0:0:0:0:
475,192,91671,1,0,0:0:0:0:
329,192,91742,1,0,0:0:0:0:
182,192,91742,1,0,0:0:0:0:
475,192,91814,1,0,0:0:0:0:
402,192,91814,1,0,0:0:0:0:
256,192,91814,1,0,0:0:0:0:
109,192,91814,1,0,0:0:0:0:
36,192,91814,1,0,0:0:0:0:
329,192,91886,1,0,0:0:0:0:
182,192,91886,1,0,0:0:0:0:
475,192,91958,1,0,0:0:0:0:
36,192,91958,1,0,0:0:0:0:
256,192,91958,1,0,0:0:0:0:
402,192,92029,1,0,0:0:0:0:
109,192,92029,1,0,0:0:0:0:
329,192,92101,1,0,0:0:0:0:
475,192,92101,1,0,0:0:0:0:
182,192,92101,1,0,0:0:0:0:
36,192,92101,1,0,0:0:0:0:
256,192,92101,1,0,0:0:0:0:
109,192,92172,1,0,0:0:0:0:
475,192,92244,1,0,0:0:0:0:
256,192,92244,1,0,0:0:0:0:
36,192,92244,1,0,0:0:0:0:
402,192,92316,1,0,0:0:0:0:
182,192,92316,1,0,0:0:0:0:
36,192,92388,1,0,0:0:0:0:
475,192,92388,1,0,0:0:0:0:
109,192,92388,1,0,0:0:0:0:
329,192,92388,1,0,0:0:0:0:
256,192,92459,1,0,0:0:0:0:
475,192,92531,1,0,0:0:0:0:
402,192,92531,1,0,0:0:0:0:
36,192,92531,1,0,0:0:0:0:
182,192,92531,1,0,0:0:0:0:
109,192,92602,1,0,0:0:0:0:
256,192,92602,1,0,0:0:0:0:
475,192,92674,1,0,0:0:0:0:
329,192,92674,1,0,0:0:0:0:
182,192,92674,1,0,0:0:0:0:
109,192,92746,1,0,0:0:0:0:
402,192,92818,1,0,0:0:0:0:
256,192,92818,1,0,0:0:0:0:
36,192,92818,1,0,0:0:0:0:
475,192,92818,1,0,0:0:0:0:
329,192,92889,1,0,0:0:0:0:
182,192,92889,1,0,0:0:0:0:
475,192,92961,1,0,0:0:0:0:
402,192,92961,1,0,0:0:0:0:
256,192,92961,1,0,0:0:0:0:
109,192,92961,1,0,0:0:0:0:
36,192,92961,1,0,0:0:0:0:
329,192,93032,1,0,0:0:0:0:
182,192,93032,1,0,0:0:0:0:
402,192,93105,1,0,0:0:0:0:
109,192,93105,1,0,0:0:0:0:
256,192,93105,1,0,0:0:0:0:
182,192,93176,1,0,0:0:0:0:
329,192,93176,1,0,0:0:0:0:
256,192,93248,1,0,0:0:0:0:
402,192,93248,1,0,0:0:0:0:
109,192,93248,1,0,0:0:0:0:
36,192,93248,1,0,0:0:0:0:
475,192,93248,1,0,0:0:0:0:
182,192,93319,1,0,0:0:0:0:
329,192,93391,1,0,0:0:0:0:
402,192,93391,1,0,0:0:0:0:
36,192,93391,1,0,0:0:0:0:
109,192,93391,1,0,0:0:0:0:
256,192,93462,1,0,0:0:0:0:
402,192,93535,1,0,0:0:0:0:
475,192,93535,1,0,0:0:0:0:
182,192,93535,1,0,0:0:0:0:
109,192,93535,1,0,0:0:0:0:
329,192,93606,1,0,0:0:0:0:
475,192,93678,1,0,0:0:0:0:
36,192,93678,1,0,0:0:0:0:
256,192,93678,1,0,0:0:0:0:
182,192,93678,1,0,0:0:0:0:
402,192,93749,1,0,0:0:0:0:
329,192,93749,1,0,0:0:0:0:
109,192,93749,1,0,0:0:0:0:
475,192,93821,1,0,0:0:0:0:
256,192,93821,1,0,0:0:0:0:
36,192,93821,1,0,0:0:0:0:
182,192,93892,1,0,0:0:0:0:
475,192,93965,1,0,0:0:0:0:
329,192,93965,1,0,0:0:0:0:
109,192,93965,1,0,0:0:0:0:
36,192,93965,1,0,0:0:0:0:
256,192,94036,1,0,0:0:0:0:
402,192,94108,1,0,0:0:0:0:
475,192,94108,1,0,0:0:0:0:
182,192,94108,1,0,0:0:0:0:
109,192,94108,1,0,0:0:0:0:
329,192,94179,1,0,0:0:0:0:
475,192,94251,1,0,0:0:0:0:
36,192,94251,1,0,0:0:0:0:
256,192,94251,1,0,0:0:0:0:
182,192,94251,1,0,0:0:0:0:
402,192,94322,1,0,0:0:0:0:
329,192,94395,1,0,0:0:0:0:
256,192,94395,1,0,0:0:0:0:
36,192,94395,1,0,0:0:0:0:
475,192,94395,1,0,0:0:0:0:
109,192,94466,1,0,0:0:0:0:
402,192,94466,1,0,0:0:0:0:
256,192,94538,1,0,0:0:0:0:
182,192,94538,1,0,0:0:0:0:
329,192,94538,1,0,0:0:0:0:
402,192,94609,1,0,0:0:0:0:
109,192,94609,1,0,0:0:0:0:
329,192,94681,1,0,0:0:0:0:
475,192,94681,1,0,0:0:0:0:
36,192,94681,1,0,0:0:0:0:
182,192,94681,1,0,0:0:0:0:
402,192,94752,1,0,0:0:0:0:
256,192,94752,1,0,0:0:0:0:
329,192,94825,1,0,0:0:0:0:
475,192,94825,1,0,0:0:0:0:
36,192,94825,1,0,0:0:0:0:
109,192,94825,1,0,0:0:0:0:
402,192,94896,1,0,0:0:0:0:
256,192,94896,1,0,0:0:0:0:
182,192,94968,1,0,0:0:0:0:
36,192,94968,1,0,0:0:0:0:
329,192,94968,1,0,0:0:0:0:
475,192,94968,1,0,0:0:0:0:
402,192,95039,1,0,0:0:0:0:
109,192,95039,1,0,0:0:0:0:
329,192,95111,1,0,0:0:0:0:
256,192,95111,1,0,0:0:0:0:
182,192,95111,1,0,0:0:0:0:
402,192,95182,1,0,0:0:0:0:
109,192,95182,1,0,0:0:0:0:
329,192,95255,1,0,0:0:0:0:
256,192,95255,1,0,0:0:0:0:
36,192,95255,1,0,0:0:0:0:
475,192,95255,1,0,0:0:0:0:
182,192,95398,1,0,0:0:0:0:
109,192,95398,1,0,0:0:0:0:
329,192,95398,1,0,0:0:0:0:
402,192,95398,1,0,0:0:0:0:
402,192,95541,1,0,0:0:0:0:
256,192,95541,1,0,0:0:0:0:
109,192,95541,1,0,0:0:0:0:
475,192,95541,1,0,0:0:0:0:
36,192,95541,1,0,0:0:0:0:
36,192,95828,1,0,0:0:0:0:
329,192,95828,1,0,0:0:0:0:
182,192,95828,1,0,0:0:0:0:
109,192,95899,1,0,0:0:0:0:
256,192,95899,1,0,0:0:0:0:
402,192,95899,1,0,0:0:0:0:
182,192,95971,1,0,0:0:0:0:
329,192,95971,1,0,0:0:0:0:
475,192,95971,1,0,0:0:0:0:
256,192,96042,1,0,0:0:0:0:
402,192,96042,1,0,0:0:0:0:
109,192,96042,1,0,0:0:0:0:
182,192,96115,1,0,0:0:0:0:
329,192,96115,1,0,0:0:0:0:
475,192,96115,1,0,0:0:0:0:
36,192,96115,1,0,0:0:0:0:
36,192,96258,1,0,0:0:0:0:
109,192,96258,1,0,0:0:0:0:
256,192,96258,1,0,0:0:0:0:
402,192,96258,1,0,0:0:0:0:
475,192,96401,1,0,0:0:0:0:
329,192,96401,1,0,0:0:0:0:
109,192,96401,1,0,0:0:0:0:
182,192,96401,1,0,0:0:0:0:
36,192,96545,1,0,0:0:0:0:
256,192,96545,1,0,0:0:0:0:
475,192,96545,1,0,0:0:0:0:
109,192,96545,1,0,0:0:0:0:
402,192,96545,1,0,0:0:0:0:
329,192,96831,1,0,0:0:0:0:
475,192,96831,1,0,0:0:0:0:
109,192,96831,1,0,0:0:0:0:
402,192,96902,1,0,0:0:0:0:
256,192,96902,1,0,0:0:0:0:
329,192,96975,1,0,0:0:0:0:
182,192,96975,1,0,0:0:0:0:
36,192,96975,1,0,0:0:0:0:
475,192,96975,1,0,0:0:0:0:
402,192,97118,1,0,0:0:0:0:
256,192,97118,1,0,0:0:0:0:
36,192,97118,1,0,0:0:0:0:
329,192,97189,1,0,0:0:0:0:
182,192,97189,1,0,0:0:0:0:
256,192,97261,1,0,0:0:0:0:
109,192,97261,1,0,0:0:0:0:
36,192,97261,1,0,0:0:0:0:
475,192,97261,1,0,0:0:0:0:
182,192,97405,1,0,0:0:0:0:
36,192,97405,1,0,0:0:0:0:
402,192,97405,1,0,0:0:0:0:
109,192,97476,1,0,0:0:0:0:
256,192,97476,1,0,0:0:0:0:
475,192,97548,1,0,0:0:0:0:
329,192,97548,1,0,0:0:0:0:
182,192,97548,1,0,0:0:0:0:
36,192,97548,1,0,0:0:0:0:
109,192,97691,1,0,0:0:0:0:
256,192,97691,1,0,0:0:0:0:
402,192,97691,1,0,0:0:0:0:
182,192,97762,1,0,0:0:0:0:
329,192,97762,1,0,0:0:0:0:
36,192,97835,1,0,0:0:0:0:
256,192,97835,1,0,0:0:0:0:
475,192,97835,1,0,0:0:0:0:
402,192,97835,1,0,0:0:0:0:
109,192,97835,1,0,0:0:0:0:
475,192,98121,1,0,0:0:0:0:
182,192,98121,1,0,0:0:0:0:
329,192,98121,1,0,0:0:0:0:
329,192,98265,1,0,0:0:0:0:
182,192,98265,1,0,0:0:0:0:
36,192,98265,1,0,0:0:0:0:
256,192,98336,1,0,0:0:0:0:
109,192,98336,1,0,0:0:0:0:
402,192,98336,1,0,0:0:0:0:
329,192,98408,1,0,0:0:0:0:
182,192,98408,1,0,0:0:0:0:
36,192,98408,1,0,0:0:0:0:
475,192,98408,1,0,0:0:0:0:
475,192,98551,1,0,0:0:0:0:
402,192,98551,1,0,0:0:0:0:
256,192,98551,1,0,0:0:0:0:
109,192,98551,1,0,0:0:0:0:
36,192,98695,1,0,0:0:0:0:
182,192,98695,1,0,0:0:0:0:
402,192,98695,1,0,0:0:0:0:
329,192,98695,1,0,0:0:0:0:
475,192,98838,1,0,0:0:0:0:
256,192,98838,1,0,0:0:0:0:
36,192,98838,1,0,0:0:0:0:
402,192,98838,1,0,0:0:0:0:
109,192,98838,1,0,0:0:0:0:
182,192,99125,1,0,0:0:0:0:
36,192,99125,1,0,0:0:0:0:
402,192,99125,1,0,0:0:0:0:
109,192,99196,1,0,0:0:0:0:
256,192,99196,1,0,0:0:0:0:
182,192,99268,1,0,0:0:0:0:
329,192,99268,1,0,0:0:0:0:
475,192,99268,1,0,0:0:0:0:
36,192,99268,1,0,0:0:0:0:
109,192,99411,1,0,0:0:0:0:
256,192,99411,1,0,0:0:0:0:
402,192,99411,1,0,0:0:0:0:
182,192,99482,1,0,0:0:0:0:
329,192,99482,1,0,0:0:0:0:
256,192,99555,1,0,0:0:0:0:
402,192,99555,1,0,0:0:0:0:
475,192,99555,1,0,0:0:0:0:
36,192,99555,1,0,0:0:0:0:
109,192,99555,1,0,0:0:0:0:
182,192,99626,1,0,0:0:0:0:
329,192,99626,1,0,0:0:0:0:
256,192,99698,1,0,0:0:0:0:
36,192,99698,1,0,0:0:0:0:
475,192,99698,1,0,0:0:0:0:
109,192,99769,1,0,0:0:0:0:
402,192,99769,1,0,0:0:0:0:
36,192,99841,1,0,0:0:0:0:
475,192,99841,1,0,0:0:0:0:
256,192,99841,1,0,0:0:0:0:
182,192,99841,1,0,0:0:0:0:
329,192,99841,1,0,0:0:0:0:
109,192,99912,1,0,0:0:0:0:
402,192,99912,1,0,0:0:0:0:
182,192,99985,1,0,0:0:0:0:
329,192,99985,1,0,0:0:0:0:
256,192,99985,1,0,0:0:0:0:
402,192,100056,1,0,0:0:0:0:
109,192,100056,1,0,0:0:0:0:
256,192,100128,1,0,0:0:0:0:
182,192,100128,1,0,0:0:0:0:
329,192,100128,1,0,0:0:0:0:
475,192,100128,1,0,0:0:0:0:
36,192,100128,1,0,0:0:0:0:
109,192,100271,1,0,0:0:0:0:
475,192,100271,1,0,0:0:0:0:
256,192,100271,1,0,0:0:0:0:
402,192,100342,1,0,0:0:0:0:
182,192,100342,1,0,0:0:0:0:
36,192,100415,1,0,0:0:0:0:
475,192,100415,1,0,0:0:0:0:
329,192,100415,1,0,0:0:0:0:
109,192,100415,1,0,0:0:0:0:
36,192,100558,1,0,0:0:0:0:
402,192,100558,1,0,0:0:0:0:
182,192,100558,1,0,0:0:0:0:
109,192,100629,1,0,0:0:0:0:
329,192,100629,1,0,0:0:0:0:
475,192,100701,1,0,0:0:0:0:
402,192,100701,1,0,0:0:0:0:
36,192,100701,1,0,0:0:0:0:
256,192,100701,1,0,0:0:0:0:
109,192,100845,1,0,0:0:0:0:
36,192,100845,1,0,0:0:0:0:
256,192,100845,1,0,0:0:0:0:
475,192,100845,1,0,0:0:0:0:
329,192,100916,1,0,0:0:0:0:
402,192,100916,1,0,0:0:0:0:
182,192,100916,1,0,0:0:0:0:
475,192,100988,1,0,0:0:0:0:
256,192,100988,1,0,0:0:0:0:
36,192,100988,1,0,0:0:0:0:
109,192,100988,1,0,0:0:0:0:
475,192,101131,1,0,0:0:0:0:
109,192,101131,1,0,0:0:0:0:
329,192,101131,1,0,0:0:0:0:
402,192,101202,1,0,0:0:0:0:
182,192,101202,1,0,0:0:0:0:
36,192,101275,1,0,0:0:0:0:
256,192,101275,1,0,0:0:0:0:
109,192,101275,1,0,0:0:0:0:
475,192,101275,1,0,0:0:0:0:
402,192,101418,1,0,0:0:0:0:
182,192,101418,1,0,0:0:0:0:
36,192,101418,1,0,0:0:0:0:
256,192,101489,1,0,0:0:0:0:
109,192,101489,1,0,0:0:0:0:
329,192,101561,1,0,0:0:0:0:
36,192,101561,1,0,0:0:0:0:
182,192,101561,1,0,0:0:0:0:
475,192,101561,1,0,0:0:0:0:
475,192,101705,1,0,0:0:0:0:
109,192,101705,1,0,0:0:0:0:
256,192,101705,1,0,0:0:0:0:
329,192,101776,1,0,0:0:0:0:
182,192,101776,1,0,0:0:0:0:
36,192,101848,1,0,0:0:0:0:
109,192,101848,1,0,0:0:0:0:
256,192,101848,1,0,0:0:0:0:
402,192,101848,1,0,0:0:0:0:
182,192,101991,1,0,0:0:0:0:
475,192,101991,1,0,0:0:0:0:
36,192,101991,1,0,0:0:0:0:
402,192,101991,1,0,0:0:0:0:
329,192,102062,1,0,0:0:0:0:
109,192,102062,1,0,0:0:0:0:
256,192,102062,1,0,0:0:0:0:
182,192,102135,1,0,0:0:0:0:
402,192,102135,1,0,0:0:0:0:
475,192,102135,1,0,0:0:0:0:
36,192,102135,1,0,0:0:0:0:
256,192,102278,1,0,0:0:0:0:
36,192,102278,1,0,0:0:0:0:
402,192,102278,1,0,0:0:0:0:
329,192,102349,1,0,0:0:0:0:
182,192,102349,1,0,0:0:0:0:
402,192,102421,1,0,0:0:0:0:
256,192,102421,1,0,0:0:0:0:
475,192,102421,1,0,0:0:0:0:
109,192,102421,1,0,0:0:0:0:
329,192,102565,1,0,0:0:0:0:
402,192,102565,1,0,0:0:0:0:
36,192,102565,1,0,0:0:0:0:
182,192,102565,1,0,0:0:0:0:
329,192,102708,1,0,0:0:0:0:
475,192,102708,1,0,0:0:0:0:
109,192,102708,1,0,0:0:0:0:
256,192,102708,1,0,0:0:0:0:
256,192,102851,1,0,0:0:0:0:
402,192,102851,1,0,0:0:0:0:
36,192,102851,1,0,0:0:0:0:
182,192,102851,1,0,0:0:0:0:
475,192,102995,1,0,0:0:0:0:
182,192,102995,1,0,0:0:0:0:
109,192,102995,1,0,0:0:0:0:
329,192,102995,1,0,0:0:0:0:
182,192,103138,1,0,0:0:0:0:
256,192,103138,1,0,0:0:0:0:
36,192,103138,1,0,0:0:0:0:
402,192,103138,1,0,0:0:0:0:
329,192,103281,1,0,0:0:0:0:
109,192,103281,1,0,0:0:0:0:
475,192,103281,1,0,0:0:0:0:
256,192,103281,1,0,0:0:0:0:
402,192,103425,1,0,0:0:0:0:
182,192,103425,1,0,0:0:0:0:
329,192,103425,1,0,0:0:0:0:
36,192,103425,1,0,0:0:0:0:
475,192,103568,1,0,0:0:0:0:
182,192,103568,1,0,0:0:0:0:
36,192,103568,1,0,0:0:0:0:
402,192,103568,1,0,0:0:0:0:
256,192,103639,1,0,0:0:0:0:
109,192,103711,1,0,0:0:0:0:
329,192,103711,1,0,0:0:0:0:
475,192,103711,1,0,0:0:0:0:
36,192,103711,1,0,0:0:0:0:
256,192,103782,1,0,0:0:0:0:
402,192,103855,1,0,0:0:0:0:
475,192,103855,1,0,0:0:0:0:
36,192,103855,1,0,0:0:0:0:
182,192,103855,1,0,0:0:0:0:
256,192,103926,1,0,0:0:0:0:
109,192,103998,1,0,0:0:0:0:
36,192,103998,1,0,0:0:0:0:
329,192,103998,1,0,0:0:0:0:
475,192,103998,1,0,0:0:0:0:
256,192,104069,1,0,0:0:0:0:
402,192,104141,1,0,0:0:0:0:
475,192,104141,1,0,0:0:0:0:
182,192,104141,1,0,0:0:0:0:
36,192,104141,1,0,0:0:0:0:
256,192,104212,1,0,0:0:0:0:
329,192,104212,1,0,0:0:0:0:
36,192,104285,1,0,0:0:0:0:
109,192,104285,1,0,0:0:0:0:
402,192,104285,1,0,0:0:0:0:
475,192,104285,1,0,0:0:0:0:
256,192,104356,1,0,0:0:0:0:
182,192,104356,1,0,0:0:0:0:
402,192,104428,1,0,0:0:0:0:
475,192,104428,1,0,0:0:0:0:
36,192,104428,1,0,0:0:0:0:
109,192,104428,1,0,0:0:0:0:
256,192,104499,1,0,0:0:0:0:
329,192,104499,1,0,0:0:0:0:
109,192,104571,1,0,0:0:0:0:
36,192,104571,1,0,0:0:0:0:
402,192,104571,1,0,0:0:0:0:
475,192,104571,1,0,0:0:0:0:
256,192,104643,1,0,0:0:0:0:
182,192,104643,1,0,0:0:0:0:
109,192,104715,1,0,0:0:0:0:
329,192,104715,1,0,0:0:0:0:
475,192,104715,1,0,0:0:0:0:
36,192,104715,1,0,0:0:0:0:
402,192,104786,1,0,0:0:0:0:
182,192,104786,1,0,0:0:0:0:
36,192,104858,1,0,0:0:0:0:
475,192,104858,1,0,0:0:0:0:
256,192,104858,1,0,0:0:0:0:
329,192,104929,1,0,0:0:0:0:
109,192,104929,1,0,0:0:0:0:
475,192,105001,1,0,0:0:0:0:
402,192,105001,1,0,0:0:0:0:
182,192,105001,1,0,0:0:0:0:
256,192,105073,1,0,0:0:0:0:
36,192,105073,1,0,0:0:0:0:
329,192,105145,1,0,0:0:0:0:
109,192,105145,1,0,0:0:0:0:
402,192,105216,1,0,0:0:0:0:
182,192,105216,1,0,0:0:0:0:
36,192,105288,1,0,0:0:0:0:
475,192,105288,1,0,0:0:0:0:
256,192,105288,1,0,0:0:0:0:
402,192,105359,1,0,0:0:0:0:
109,192,105359,1,0,0:0:0:0:
256,192,105431,1,0,0:0:0:0:
36,192,105431,1,0,0:0:0:0:
475,192,105431,1,0,0:0:0:0:
329,192,105503,1,0,0:0:0:0:
182,192,105503,1,0,0:0:0:0:
256,192,105575,1,0,0:0:0:0:
475,192,105575,1,0,0:0:0:0:
402,192,105575,1,0,0:0:0:0:
36,192,105575,1,0,0:0:0:0:
109,192,105575,1,0,0:0:0:0:
329,192,105646,1,0,0:0:0:0:
182,192,105646,1,0,0:0:0:0:
475,192,105718,1,0,0:0:0:0:
36,192,105718,1,0,0:0:0:0:
256,192,105718,1,0,0:0:0:0:
109,192,105789,1,0,0:0:0:0:
402,192,105789,1,0,0:0:0:0:
36,192,105861,1,0,0:0:0:0:
475,192,105861,1,0,0:0:0:0:
256,192,105861,1,0,0:0:0:0:
182,192,105861,1,0,0:0:0:0:
329,192,105861,1,0,0:0:0:0:
402,192,105933,1,0,0:0:0:0:
109,192,105933,1,0,0:0:0:0:
256,192,106005,1,0,0:0:0:0:
475,192,106005,1,0,0:0:0:0:
36,192,106005,1,0,0:0:0:0:
182,192,106005,1,0,0:0:0:0:
329,192,106076,1,0,0:0:0:0:
109,192,106076,1,0,0:0:0:0:
475,192,106148,1,0,0:0:0:0:
402,192,106148,1,0,0:0:0:0:
36,192,106148,1,0,0:0:0:0:
182,192,106148,1,0,0:0:0:0:
109,192,106219,1,0,0:0:0:0:
256,192,106219,1,0,0:0:0:0:
329,192,106291,1,0,0:0:0:0:
475,192,106291,1,0,0:0:0:0:
36,192,106291,1,0,0:0:0:0:
182,192,106291,1,0,0:0:0:0:
402,192,106363,1,0,0:0:0:0:
256,192,106435,1,0,0:0:0:0:
109,192,106435,1,0,0:0:0:0:
475,192,106435,1,0,0:0:0:0:
36,192,106506,1,0,0:0:0:0:
329,192,106578,1,0,0:0:0:0:
182,192,106578,1,0,0:0:0:0:
475,192,106578,1,0,0:0:0:0:
109,192,106649,1,0,0:0:0:0:
256,192,106721,1,0,0:0:0:0:
36,192,106721,1,0,0:0:0:0:
402,192,106721,1,0,0:0:0:0:
475,192,106793,1,0,0:0:0:0:
109,192,106865,1,0,0:0:0:0:
36,192,106865,1,0,0:0:0:0:
329,192,106865,1,0,0:0:0:0:
182,192,106936,1,0,0:0:0:0:
402,192,106936,1,0,0:0:0:0:
36,192,107008,1,0,0:0:0:0:
109,192,107008,1,0,0:0:0:0:
475,192,107008,1,0,0:0:0:0:
256,192,107008,1,0,0:0:0:0:
402,192,107079,1,0,0:0:0:0:
182,192,107079,1,0,0:0:0:0:
329,192,107151,1,0,0:0:0:0:
256,192,107151,1,0,0:0:0:0:
109,192,107151,1,0,0:0:0:0:
36,192,107151,1,0,0:0:0:0:
475,192,107223,1,0,0:0:0:0:
182,192,107223,1,0,0:0:0:0:
402,192,107295,1,0,0:0:0:0:
256,192,107295,1,0,0:0:0:0:
109,192,107295,1,0,0:0:0:0:
36,192,107295,1,0,0:0:0:0:
329,192,107366,1,0,0:0:0:0:
182,192,107366,1,0,0:0:0:0:
256,192,107438,1,0,0:0:0:0:
475,192,107438,1,0,0:0:0:0:
109,192,107438,1,0,0:0:0:0:
36,192,107438,1,0,0:0:0:0:
402,192,107509,1,0,0:0:0:0:
475,192,107581,1,0,0:0:0:0:
329,192,107581,1,0,0:0:0:0:
109,192,107581,1,0,0:0:0:0:
182,192,107653,1,0,0:0:0:0:
402,192,107725,1,0,0:0:0:0:
256,192,107725,1,0,0:0:0:0:
36,192,107725,1,0,0:0:0:0:
109,192,107796,1,0,0:0:0:0:
402,192,107868,1,0,0:0:0:0:
182,192,107868,1,0,0:0:0:0:
329,192,107939,1,0,0:0:0:0:
36,192,108011,1,0,0:0:0:0:
256,192,108011,1,0,0:0:0:0:
475,192,108011,1,0,0:0:0:0:
109,192,108083,1,0,0:0:0:0:
402,192,108083,1,0,0:0:0:0:
36,192,108155,1,0,0:0:0:0:
256,192,108155,1,0,0:0:0:0:
329,192,108155,1,0,0:0:0:0:
182,192,108155,1,0,0:0:0:0:
402,192,108226,1,0,0:0:0:0:
109,192,108226,1,0,0:0:0:0:
475,192,108298,1,0,0:0:0:0:
256,192,108298,1,0,0:0:0:0:
36,192,108298,1,0,0:0:0:0:
182,192,108298,1,0,0:0:0:0:
329,192,108369,1,0,0:0:0:0:
109,192,108369,1,0,0:0:0:0:
402,192,108441,1,0,0:0:0:0:
475,192,108441,1,0,0:0:0:0:
36,192,108441,1,0,0:0:0:0:
182,192,108441,1,0,0:0:0:0:
256,192,108513,1,0,0:0:0:0:
109,192,108513,1,0,0:0:0:0:
329,192,108585,1,0,0:0:0:0:
475,192,108585,1,0,0:0:0:0:
36,192,108585,1,0,0:0:0:0:
182,192,108585,1,0,0:0:0:0:
402,192,108656,1,0,0:0:0:0:
475,192,108728,1,0,0:0:0:0:
109,192,108728,1,0,0:0:0:0:
256,192,108728,1,0,0:0:0:0:
36,192,108799,1,0,0:0:0:0:
182,192,108871,1,0,0:0:0:0:
475,192,108871,1,0,0:0:0:0:
402,192,108871,1,0,0:0:0:0:
109,192,108943,1,0,0:0:0:0:
329,192,108943,1,0,0:0:0:0:
402,192,109015,1,0,0:0:0:0:
256,192,109015,1,0,0:0:0:0:
36,192,109015,1,0,0:0:0:0:
475,192,109086,1,0,0:0:0:0:
109,192,109158,1,0,0:0:0:0:
329,192,109158,1,0,0:0:0:0:
36,192,109158,1,0,0:0:0:0:
402,192,109229,1,0,0:0:0:0:
182,192,109229,1,0,0:0:0:0:
109,192,109301,1,0,0:0:0:0:
329,192,109301,1,0,0:0:0:0:
36,192,109301,1,0,0:0:0:0:
256,192,109301,1,0,0:0:0:0:
475,192,109301,1,0,0:0:0:0:
402,192,109373,1,0,0:0:0:0:
182,192,109373,1,0,0:0:0:0:
36,192,109445,1,0,0:0:0:0:
256,192,109445,1,0,0:0:0:0:
329,192,109516,1,0,0:0:0:0:
109,192,109516,1,0,0:0:0:0:
402,192,109588,1,0,0:0:0:0:
475,192,109588,1,0,0:0:0:0:
256,192,109588,1,0,0:0:0:0:
36,192,109588,1,0,0:0:0:0:
182,192,109588,1,0,0:0:0:0:
329,192,109659,1,0,0:0:0:0:
109,192,109659,1,0,0:0:0:0:
256,192,109731,1,0,0:0:0:0:
475,192,109731,1,0,0:0:0:0:
182,192,109803,1,0,0:0:0:0:
402,192,109803,1,0,0:0:0:0:
256,192,109875,1,0,0:0:0:0:
475,192,109875,1,0,0:0:0:0:
329,192,109875,1,0,0:0:0:0:
109,192,109875,1,0,0:0:0:0:
36,192,109875,1,0,0:0:0:0:
402,192,109946,1,0,0:0:0:0:
182,192,109946,1,0,0:0:0:0:
256,192,110018,1,0,0:0:0:0:
36,192,110018,1,0,0:0:0:0:
329,192,110089,1,0,0:0:0:0:
109,192,110089,1,0,0:0:0:0:
36,192,110161,1,0,0:0:0:0:
256,192,110161,1,0,0:0:0:0:
182,192,110161,1,0,0:0:0:0:
402,192,110161,1,0,0:0:0:0:
475,192,110161,1,0,0:0:0:0:
329,192,110233,1,0,0:0:0:0:
109,192,110233,1,0,0:0:0:0:
256,192,110305,1,0,0:0:0:0:
475,192,110305,1,0,0:0:0:0:
36,192,110305,1,0,0:0:0:0:
402,192,110376,1,0,0:0:0:0:
182,192,110376,1,0,0:0:0:0:
329,192,110448,1,0,0:0:0:0:
475,192,110448,1,0,0:0:0:0:
256,192,110448,1,0,0:0:0:0:
36,192,110448,1,0,0:0:0:0:
109,192,110448,1,0,0:0:0:0:
402,192,110519,1,0,0:0:0:0:
182,192,110519,1,0,0:0:0:0:
329,192,110591,1,0,0:0:0:0:
256,192,110591,1,0,0:0:0:0:
109,192,110591,1,0,0:0:0:0:
36,192,110591,1,0,0:0:0:0:
475,192,110663,1,0,0:0:0:0:
182,192,110663,1,0,0:0:0:0:
402,192,110735,1,0,0:0:0:0:
256,192,110735,1,0,0:0:0:0:
109,192,110735,1,0,0:0:0:0:
36,192,110735,1,0,0:0:0:0:
329,192,110806,1,0,0:0:0:0:
182,192,110806,1,0,0:0:0:0:
475,192,110878,1,0,0:0:0:0:
256,192,110878,1,0,0:0:0:0:
109,192,110878,1,0,0:0:0:0:
36,192,110878,1,0,0:0:0:0:
402,192,110949,1,0,0:0:0:0:
256,192,111021,1,0,0:0:0:0:
109,192,111021,1,0,0:0:0:0:
475,192,111021,1,0,0:0:0:0:
36,192,111093,1,0,0:0:0:0:
329,192,111165,1,0,0:0:0:0:
182,192,111165,1,0,0:0:0:0:
475,192,111165,1,0,0:0:0:0:
109,192,111236,1,0,0:0:0:0:
256,192,111308,1,0,0:0:0:0:
36,192,111308,1,0,0:0:0:0:
402,192,111308,1,0,0:0:0:0:
475,192,111379,1,0,0:0:0:0:
182,192,111451,1,0,0:0:0:0:
36,192,111451,1,0,0:0:0:0:
329,192,111451,1,0,0:0:0:0:
109,192,111523,1,0,0:0:0:0:
402,192,111523,1,0,0:0:0:0:
182,192,111595,1,0,0:0:0:0:
256,192,111595,1,0,0:0:0:0:
475,192,111595,1,0,0:0:0:0:
36,192,111595,1,0,0:0:0:0:
329,192,111666,1,0,0:0:0:0:
109,192,111666,1,0,0:0:0:0:
402,192,111738,1,0,0:0:0:0:
475,192,111738,1,0,0:0:0:0:
36,192,111738,1,0,0:0:0:0:
182,192,111738,1,0,0:0:0:0:
256,192,111809,1,0,0:0:0:0:
109,192,111809,1,0,0:0:0:0:
329,192,111881,1,0,0:0:0:0:
475,192,111881,1,0,0:0:0:0:
36,192,111881,1,0,0:0:0:0:
182,192,111881,1,0,0:0:0:0:
402,192,111953,1,0,0:0:0:0:
109,192,111953,1,0,0:0:0:0:
256,192,112025,1,0,0:0:0:0:
475,192,112025,1,0,0:0:0:0:
36,192,112025,1,0,0:0:0:0:
182,192,112025,1,0,0:0:0:0:
402,192,112096,1,0,0:0:0:0:
109,192,112168,1,0,0:0:0:0:
329,192,112168,1,0,0:0:0:0:
475,192,112168,1,0,0:0:0:0:
182,192,112239,1,0,0:0:0:0:
36,192,112311,1,0,0:0:0:0:
256,192,112311,1,0,0:0:0:0:
402,192,112311,1,0,0:0:0:0:
109,192,112383,1,0,0:0:0:0:
182,192,112455,1,0,0:0:0:0:
402,192,112455,1,0,0:0:0:0:
329,192,112526,1,0,0:0:0:0:
475,192,112598,1,0,0:0:0:0:
256,192,112598,1,0,0:0:0:0:
36,192,112598,1,0,0:0:0:0:
182,192,112598,1,0,0:0:0:0:
402,192,112669,1,0,0:0:0:0:
109,192,112669,1,0,0:0:0:0:
329,192,112741,1,0,0:0:0:0:
36,192,112741,1,0,0:0:0:0:
475,192,112741,1,0,0:0:0:0:
182,192,112813,1,0,0:0:0:0:
36,192,112885,1,0,0:0:0:0:
475,192,112885,1,0,0:0:0:0:
256,192,112885,1,0,0:0:0:0:
329,192,112885,1,0,0:0:0:0:
109,192,112956,1,0,0:0:0:0:
402,192,112956,1,0,0:0:0:0:
36,192,113028,1,0,0:0:0:0:
475,192,113028,1,0,0:0:0:0:
182,192,113028,1,0,0:0:0:0:
256,192,113099,1,0,0:0:0:0:
109,192,113099,1,0,0:0:0:0:
475,192,113171,1,0,0:0:0:0:
402,192,113171,1,0,0:0:0:0:
182,192,113171,1,0,0:0:0:0:
329,192,113171,1,0,0:0:0:0:
256,192,113243,1,0,0:0:0:0:
109,192,113243,1,0,0:0:0:0:
402,192,113315,1,0,0:0:0:0:
475,192,113315,1,0,0:0:0:0:
36,192,113315,1,0,0:0:0:0:
182,192,113315,1,0,0:0:0:0:
256,192,113386,1,0,0:0:0:0:
402,192,113458,1,0,0:0:0:0:
109,192,113458,1,0,0:0:0:0:
36,192,113458,1,0,0:0:0:0:
329,192,113458,1,0,0:0:0:0:
182,192,113529,1,0,0:0:0:0:
36,192,113601,1,0,0:0:0:0:
475,192,113601,1,0,0:0:0:0:
329,192,113601,1,0,0:0:0:0:
256,192,113601,1,0,0:0:0:0:
109,192,113673,1,0,0:0:0:0:
36,192,113745,1,0,0:0:0:0:
475,192,113745,1,0,0:0:0:0:
402,192,113745,1,0,0:0:0:0:
182,192,113745,1,0,0:0:0:0:
256,192,113745,1,0,0:0:0:0:
402,192,114031,1,0,0:0:0:0:
182,192,114031,1,0,0:0:0:0:
36,192,114031,1,0,0:0:0:0:
475,192,114031,1,0,0:0:0:0:
256,192,114103,1,0,0:0:0:0:
109,192,114175,1,0,0:0:0:0:
36,192,114175,1,0,0:0:0:0:
475,192,114175,1,0,0:0:0:0:
329,192,114175,1,0,0:0:0:0:
256,192,114246,1,0,0:0:0:0:
402,192,114318,1,0,0:0:0:0:
475,192,114318,1,0,0:0:0:0:
182,192,114318,1,0,0:0:0:0:
36,192,114318,1,0,0:0:0:0:
256,192,114389,1,0,0:0:0:0:
109,192,114461,1,0,0:0:0:0:
36,192,114461,1,0,0:0:0:0:
329,192,114461,1,0,0:0:0:0:
475,192,114461,1,0,0:0:0:0:
256,192,114533,1,0,0:0:0:0:
182,192,114533,1,0,0:0:0:0:
475,192,114605,1,0,0:0:0:0:
402,192,114605,1,0,0:0:0:0:
109,192,114605,1,0,0:0:0:0:
36,192,114605,1,0,0:0:0:0:
256,192,114676,1,0,0:0:0:0:
329,192,114676,1,0,0:0:0:0:
109,192,114748,1,0,0:0:0:0:
36,192,114748,1,0,0:0:0:0:
475,192,114748,1,0,0:0:0:0:
402,192,114748,1,0,0:0:0:0:
256,192,114819,1,0,0:0:0:0:
182,192,114819,1,0,0:0:0:0:
402,192,114891,1,0,0:0:0:0:
475,192,114891,1,0,0:0:0:0:
109,192,114891,1,0,0:0:0:0:
36,192,114891,1,0,0:0:0:0:
256,192,114963,1,0,0:0:0:0:
329,192,114963,1,0,0:0:0:0:
402,192,115035,1,0,0:0:0:0:
36,192,115035,1,0,0:0:0:0:
475,192,115035,1,0,0:0:0:0:
109,192,115035,1,0,0:0:0:0:
182,192,115106,1,0,0:0:0:0:
329,192,115106,1,0,0:0:0:0:
36,192,115178,1,0,0:0:0:0:
109,192,115178,1,0,0:0:0:0:
475,192,115178,1,0,0:0:0:0:
402,192,115178,1,0,0:0:0:0:
182,192,115249,1,0,0:0:0:0:
256,192,115249,1,0,0:0:0:0:
36,192,115321,1,0,0:0:0:0:
109,192,115321,1,0,0:0:0:0:
329,192,115321,1,0,0:0:0:0:
475,192,115321,1,0,0:0:0:0:
182,192,115393,1,0,0:0:0:0:
402,192,115393,1,0,0:0:0:0:
36,192,115465,1,0,0:0:0:0:
109,192,115465,1,0,0:0:0:0:
475,192,115465,1,0,0:0:0:0:
256,192,115465,1,0,0:0:0:0:
329,192,115536,1,0,0:0:0:0:
475,192,115608,1,0,0:0:0:0:
109,192,115608,1,0,0:0:0:0:
402,192,115608,1,0,0:0:0:0:
36,192,115679,1,0,0:0:0:0:
475,192,115751,1,0,0:0:0:0:
182,192,115751,1,0,0:0:0:0:
329,192,115751,1,0,0:0:0:0:
109,192,115823,1,0,0:0:0:0:
402,192,115895,1,0,0:0:0:0:
36,192,115895,1,0,0:0:0:0:
256,192,115895,1,0,0:0:0:0:
475,192,115966,1,0,0:0:0:0:
329,192,116038,1,0,0:0:0:0:
36,192,116038,1,0,0:0:0:0:
182,192,116038,1,0,0:0:0:0:
402,192,116109,1,0,0:0:0:0:
109,192,116109,1,0,0:0:0:0:
475,192,116182,1,0,0:0:0:0:
256,192,116182,1,0,0:0:0:0:
36,192,116182,1,0,0:0:0:0:
182,192,116182,1,0,0:0:0:0:
109,192,116253,1,0,0:0:0:0:
402,192,116253,1,0,0:0:0:0:
182,192,116325,1,0,0:0:0:0:
36,192,116325,1,0,0:0:0:0:
329,192,116325,1,0,0:0:0:0:
256,192,116325,1,0,0:0:0:0:
109,192,116396,1,0,0:0:0:0:
475,192,116396,1,0,0:0:0:0:
182,192,116468,1,0,0:0:0:0:
36,192,116468,1,0,0:0:0:0:
402,192,116468,1,0,0:0:0:0:
256,192,116468,1,0,0:0:0:0:
109,192,116539,1,0,0:0:0:0:
329,192,116539,1,0,0:0:0:0:
182,192,116612,1,0,0:0:0:0:
36,192,116612,1,0,0:0:0:0:
256,192,116612,1,0,0:0:0:0:
475,192,116612,1,0,0:0:0:0:
402,192,116683,1,0,0:0:0:0:
109,192,116755,1,0,0:0:0:0:
329,192,116755,1,0,0:0:0:0:
475,192,116755,1,0,0:0:0:0:
182,192,116826,1,0,0:0:0:0:
36,192,116898,1,0,0:0:0:0:
256,192,116898,1,0,0:0:0:0:
402,192,116898,1,0,0:0:0:0:
109,192,116969,1,0,0:0:0:0:
182,192,117042,1,0,0:0:0:0:
402,192,117042,1,0,0:0:0:0:
329,192,117113,1,0,0:0:0:0:
475,192,117185,1,0,0:0:0:0:
36,192,117185,1,0,0:0:0:0:
256,192,117185,1,0,0:0:0:0:
402,192,117256,1,0,0:0:0:0:
182,192,117256,1,0,0:0:0:0:
329,192,117328,1,0,0:0:0:0:
36,192,117328,1,0,0:0:0:0:
109,192,117328,1,0,0:0:0:0:
256,192,117328,1,0,0:0:0:0:
182,192,117399,1,0,0:0:0:0:
402,192,117399,1,0,0:0:0:0:
109,192,117472,1,0,0:0:0:0:
36,192,117472,1,0,0:0:0:0:
475,192,117472,1,0,0:0:0:0:
256,192,117472,1,0,0:0:0:0:
182,192,117543,1,0,0:0:0:0:
329,192,117543,1,0,0:0:0:0:
109,192,117615,1,0,0:0:0:0:
36,192,117615,1,0,0:0:0:0:
402,192,117615,1,0,0:0:0:0:
475,192,117615,1,0,0:0:0:0:
182,192,117686,1,0,0:0:0:0:
256,192,117686,1,0,0:0:0:0:
109,192,117758,1,0,0:0:0:0:
36,192,117758,1,0,0:0:0:0:
329,192,117758,1,0,0:0:0:0:
475,192,117758,1,0,0:0:0:0:
402,192,117829,1,0,0:0:0:0:
256,192,117902,1,0,0:0:0:0:
109,192,117902,1,0,0:0:0:0:
475,192,117902,1,0,0:0:0:0:
36,192,117973,1,0,0:0:0:0:
402,192,118045,1,0,0:0:0:0:
475,192,118045,1,0,0:0:0:0:
182,192,118045,1,0,0:0:0:0:
329,192,118116,1,0,0:0:0:0:
109,192,118116,1,0,0:0:0:0:
36,192,118188,1,0,0:0:0:0:
256,192,118188,1,0,0:0:0:0:
402,192,118188,1,0,0:0:0:0:
475,192,118259,1,0,0:0:0:0:
329,192,118332,1,0,0:0:0:0:
109,192,118332,1,0,0:0:0:0:
36,192,118332,1,0,0:0:0:0:
182,192,118403,1,0,0:0:0:0:
402,192,118403,1,0,0:0:0:0:
256,192,118475,1,0,0:0:0:0:
475,192,118475,1,0,0:0:0:0:
36,192,118475,1,0,0:0:0:0:
109,192,118475,1,0,0:0:0:0:
329,192,118475,1,0,0:0:0:0:
182,192,118546,1,0,0:0:0:0:
402,192,118546,1,0,0:0:0:0:
256,192,118618,1,0,0:0:0:0:
36,192,118618,1,0,0:0:0:0:
109,192,118689,1,0,0:0:0:0:
329,192,118689,1,0,0:0:0:0:
36,192,118762,1,0,0:0:0:0:
182,192,118762,1,0,0:0:0:0:
256,192,118762,1,0,0:0:0:0:
402,192,118762,1,0,0:0:0:0:
475,192,118762,1,0,0:0:0:0:
109,192,118833,1,0,0:0:0:0:
329,192,118833,1,0,0:0:0:0:
256,192,118905,1,0,0:0:0:0:
475,192,118905,1,0,0:0:0:0:
402,192,118976,1,0,0:0:0:0:
182,192,118976,1,0,0:0:0:0:
109,192,119048,1,0,0:0:0:0:
36,192,119048,1,0,0:0:0:0:
329,192,119048,1,0,0:0:0:0:
256,192,119048,1,0,0:0:0:0:
475,192,119048,1,0,0:0:0:0:
182,192,119119,1,0,0:0:0:0:
402,192,119119,1,0,0:0:0:0:
256,192,119192,1,0,0:0:0:0:
36,192,119192,1,0,0:0:0:0:
109,192,119263,1,0,0:0:0:0:
329,192,119263,1,0,0:0:0:0:
402,192,119335,1,0,0:0:0:0:
475,192,119335,1,0,0:0:0:0:
182,192,119335,1,0,0:0:0:0:
36,192,119335,1,0,0:0:0:0:
256,192,119335,1,0,0:0:0:0:
109,192,119406,1,0,0:0:0:0:
329,192,119406,1,0,0:0:0:0:
475,192,119478,1,0,0:0:0:0:
256,192,119478,1,0,0:0:0:0:
36,192,119478,1,0,0:0:0:0:
182,192,119549,1,0,0:0:0:0:
329,192,119549,1,0,0:0:0:0:
109,192,119622,1,0,0:0:0:0:
402,192,119622,1,0,0:0:0:0:
256,192,119622,1,0,0:0:0:0:
475,192,119622,1,0,0:0:0:0:
36,192,119622,1,0,0:0:0:0:
182,192,119765,1,0,0:0:0:0:
109,192,119765,1,0,0:0:0:0:
402,192,119765,1,0,0:0:0:0:
329,192,119765,1,0,0:0:0:0:
475,192,119765,1,0,0:0:0:0:
36,192,119908,1,0,0:0:0:0:
329,192,119908,1,0,0:0:0:0:
475,192,119908,1,0,0:0:0:0:
402,192,119979,1,0,0:0:0:0:
256,192,119979,1,0,0:0:0:0:
109,192,119979,1,0,0:0:0:0:
475,192,120052,1,0,0:0:0:0:
329,192,120052,1,0,0:0:0:0:
36,192,120052,1,0,0:0:0:0:
182,192,120052,1,0,0:0:0:0:
182,192,120338,1,0,0:0:0:0:
109,192,120338,1,0,0:0:0:0:
329,192,120338,1,0,0:0:0:0:
475,192,120338,1,0,0:0:0:0:
402,192,120338,1,0,0:0:0:0:
329,192,120482,1,0,0:0:0:0:
256,192,120482,1,0,0:0:0:0:
402,192,120482,1,0,0:0:0:0:
36,192,120482,1,0,0:0:0:0:
109,192,120482,1,0,0:0:0:0:
256,192,120625,1,0,0:0:0:0:
329,192,120625,1,0,0:0:0:0:
182,192,120625,1,0,0:0:0:0:
36,192,120625,1,0,0:0:0:0:
475,192,120625,1,0,0:0:0:0:
402,192,120696,1,0,0:0:0:0:
109,192,120696,1,0,0:0:0:0:
182,192,120768,1,0,0:0:0:0:
329,192,120768,1,0,0:0:0:0:
256,192,120768,1,0,0:0:0:0:
475,192,120768,1,0,0:0:0:0:
36,192,120768,1,0,0:0:0:0:
329,192,120912,1,0,0:0:0:0:
402,192,120912,1,0,0:0:0:0:
109,192,120912,1,0,0:0:0:0:
182,192,120912,1,0,0:0:0:0:
36,192,120912,1,0,0:0:0:0:
475,192,121055,1,0,0:0:0:0:
182,192,121055,1,0,0:0:0:0:
36,192,121055,1,0,0:0:0:0:
109,192,121126,1,0,0:0:0:0:
256,192,121126,1,0,0:0:0:0:
402,192,121126,1,0,0:0:0:0:
36,192,121198,1,0,0:0:0:0:
182,192,121198,1,0,0:0:0:0:
475,192,121198,1,0,0:0:0:0:
329,192,121198,1,0,0:0:0:0:
329,192,121485,1,0,0:0:0:0:
402,192,121485,1,0,0:0:0:0:
182,192,121485,1,0,0:0:0:0:
36,192,121485,1,0,0:0:0:0:
109,192,121485,1,0,0:0:0:0:
256,192,121628,1,0,0:0:0:0:
402,192,121628,1,0,0:0:0:0:
36,192,121628,1,0,0:0:0:0:
109,192,121628,1,0,0:0:0:0:
475,192,121628,1,0,0:0:0:0:
329,192,121699,1,0,0:0:0:0:
182,192,121699,1,0,0:0:0:0:
256,192,121772,1,0,0:0:0:0:
475,192,121772,1,0,0:0:0:0:
36,192,121772,1,0,0:0:0:0:
402,192,121843,1,0,0:0:0:0:
109,192,121843,1,0,0:0:0:0:
329,192,121915,1,0,0:0:0:0:
475,192,121915,1,0,0:0:0:0:
256,192,121915,1,0,0:0:0:0:
36,192,121915,1,0,0:0:0:0:
182,192,121915,1,0,0:0:0:0:
329,192,122129,1,0,0:0:0:0:
182,192,122129,1,0,0:0:0:0:
109,192,122202,1,0,0:0:0:0:
256,192,122202,1,0,0:0:0:0:
36,192,122202,1,0,0:0:0:0:
475,192,122202,1,0,0:0:0:0:
402,192,122202,1,0,0:0:0:0:
402,192,122416,1,0,0:0:0:0:
109,192,122416,1,0,0:0:0:0:
182,192,122488,1,0,0:0:0:0:
256,192,122488,1,0,0:0:0:0:
329,192,122488,1,0,0:0:0:0:
36,192,122488,1,0,0:0:0:0:
475,192,122488,1,0,0:0:0:0:
475,192,122703,1,0,0:0:0:0:
36,192,122703,1,0,0:0:0:0:
402,192,122775,1,0,0:0:0:0:
329,192,122775,1,0,0:0:0:0:
109,192,122775,1,0,0:0:0:0:
256,192,122775,1,0,0:0:0:0:
182,192,122775,1,0,0:0:0:0:
256,192,122989,1,0,0:0:0:0:
475,192,123062,1,0,0:0:0:0:
402,192,123062,1,0,0:0:0:0:
182,192,123062,1,0,0:0:0:0:
36,192,123062,1,0,0:0:0:0:
109,192,123062,1,0,0:0:0:0:
329,192,123062,1,0,0:0:0:0:
329,192,123348,128,0,124065:0:0:0:0:
402,192,123348,128,0,124065:0:0:0:0:
475,192,123348,128,0,124065:0:0:0:0:
36,192,123348,128,0,124065:0:0:0:0:
109,192,123348,128,0,124065:0:0:0:0:
182,192,123348,128,0,124065:0:0:0:0:
109,192,124136,1,0,0:0:0:0:
402,192,124136,1,0,0:0:0:0:
182,192,124172,1,0,0:0:0:0:
329,192,124172,1,0,0:0:0:0:
475,192,124208,1,0,0:0:0:0:
109,192,124208,1,0,0:0:0:0:
36,192,124208,1,0,0:0:0:0:
402,192,124208,1,0,0:0:0:0:
256,192,124208,1,0,0:0:0:0:
36,192,124352,1,0,0:0:0:0:
182,192,124352,1,0,0:0:0:0:
402,192,124352,1,0,0:0:0:0:
109,192,124423,1,0,0:0:0:0:
256,192,124423,1,0,0:0:0:0:
36,192,124495,1,0,0:0:0:0:
475,192,124495,1,0,0:0:0:0:
182,192,124495,1,0,0:0:0:0:
329,192,124495,1,0,0:0:0:0:
109,192,124638,1,0,0:0:0:0:
256,192,124638,1,0,0:0:0:0:
402,192,124638,1,0,0:0:0:0:
182,192,124709,1,0,0:0:0:0:
329,192,124709,1,0,0:0:0:0:
475,192,124709,1,0,0:0:0:0:
36,192,124782,1,0,0:0:0:0:
256,192,124782,1,0,0:0:0:0:
109,192,124782,1,0,0:0:0:0:
402,192,124782,1,0,0:0:0:0:
475,192,124925,1,0,0:0:0:0:
109,192,124925,1,0,0:0:0:0:
329,192,124925,1,0,0:0:0:0:
256,192,124996,1,0,0:0:0:0:
402,192,124996,1,0,0:0:0:0:
36,192,125068,1,0,0:0:0:0:
475,192,125068,1,0,0:0:0:0:
182,192,125068,1,0,0:0:0:0:
329,192,125068,1,0,0:0:0:0:
402,192,125212,1,0,0:0:0:0:
256,192,125212,1,0,0:0:0:0:
109,192,125212,1,0,0:0:0:0:
182,192,125283,1,0,0:0:0:0:
329,192,125283,1,0,0:0:0:0:
109,192,125355,1,0,0:0:0:0:
256,192,125355,1,0,0:0:0:0:
475,192,125355,1,0,0:0:0:0:
36,192,125355,1,0,0:0:0:0:
475,192,125498,1,0,0:0:0:0:
329,192,125498,1,0,0:0:0:0:
36,192,125498,1,0,0:0:0:0:
256,192,125569,1,0,0:0:0:0:
109,192,125569,1,0,0:0:0:0:
182,192,125642,1,0,0:0:0:0:
329,192,125642,1,0,0:0:0:0:
36,192,125642,1,0,0:0:0:0:
475,192,125642,1,0,0:0:0:0:
402,192,125785,1,0,0:0:0:0:
109,192,125785,1,0,0:0:0:0:
36,192,125785,1,0,0:0:0:0:
329,192,125856,1,0,0:0:0:0:
182,192,125856,1,0,0:0:0:0:
402,192,125928,1,0,0:0:0:0:
36,192,125928,1,0,0:0:0:0:
256,192,125928,1,0,0:0:0:0:
475,192,125928,1,0,0:0:0:0:
36,192,126072,1,0,0:0:0:0:
475,192,126072,1,0,0:0:0:0:
182,192,126072,1,0,0:0:0:0:
402,192,126143,1,0,0:0:0:0:
256,192,126143,1,0,0:0:0:0:
182,192,126215,1,0,0:0:0:0:
329,192,126215,1,0,0:0:0:0:
36,192,126215,1,0,0:0:0:0:
475,192,126215,1,0,0:0:0:0:
475,192,126358,1,0,0:0:0:0:
109,192,126358,1,0,0:0:0:0:
402,192,126358,1,0,0:0:0:0:
329,192,126429,1,0,0:0:0:0:
182,192,126429,1,0,0:0:0:0:
475,192,126502,1,0,0:0:0:0:
36,192,126502,1,0,0:0:0:0:
109,192,126502,1,0,0:0:0:0:
256,192,126502,1,0,0:0:0:0:
36,192,126645,1,0,0:0:0:0:
256,192,126645,1,0,0:0:0:0:
475,192,126645,1,0,0:0:0:0:
109,192,126716,1,0,0:0:0:0:
329,192,126716,1,0,0:0:0:0:
36,192,126788,1,0,0:0:0:0:
182,192,126788,1,0,0:0:0:0:
402,192,126788,1,0,0:0:0:0:
475,192,126788,1,0,0:0:0:0:
109,192,126932,1,0,0:0:0:0:
329,192,126932,1,0,0:0:0:0:
475,192,126932,1,0,0:0:0:0:
182,192,127003,1,0,0:0:0:0:
402,192,127003,1,0,0:0:0:0:
36,192,127003,1,0,0:0:0:0:
256,192,127075,1,0,0:0:0:0:
475,192,127075,1,0,0:0:0:0:
109,192,127075,1,0,0:0:0:0:
329,192,127075,1,0,0:0:0:0:
36,192,127218,1,0,0:0:0:0:
256,192,127218,1,0,0:0:0:0:
475,192,127218,1,0,0:0:0:0:
182,192,127289,1,0,0:0:0:0:
402,192,127289,1,0,0:0:0:0:
36,192,127362,1,0,0:0:0:0:
109,192,127362,1,0,0:0:0:0:
475,192,127362,1,0,0:0:0:0:
329,192,127362,1,0,0:0:0:0:
36,192,127505,1,0,0:0:0:0:
182,192,127505,1,0,0:0:0:0:
329,192,127505,1,0,0:0:0:0:
256,192,127505,1,0,0:0:0:0:
109,192,127505,1,0,0:0:0:0:
36,192,127792,1,0,0:0:0:0:
182,192,127792,1,0,0:0:0:0:
329,192,127792,1,0,0:0:0:0:
256,192,127792,1,0,0:0:0:0:
109,192,127792,1,0,0:0:0:0:
109,192,128078,1,0,0:0:0:0:
182,192,128078,1,0,0:0:0:0:
256,192,128078,1,0,0:0:0:0:
402,192,128078,1,0,0:0:0:0:
329,192,128078,1,0,0:0:0:0:
182,192,128365,1,0,0:0:0:0:
256,192,128365,1,0,0:0:0:0:
329,192,128365,1,0,0:0:0:0:
402,192,128365,1,0,0:0:0:0:
475,192,128365,1,0,0:0:0:0:
256,192,128508,1,0,0:0:0:0:
109,192,128508,1,0,0:0:0:0:
402,192,128508,1,0,0:0:0:0:
182,192,128580,1,0,0:0:0:0:
329,192,128580,1,0,0:0:0:0:
256,192,128652,1,0,0:0:0:0:
36,192,128652,1,0,0:0:0:0:
475,192,128652,1,0,0:0:0:0:
402,192,128723,1,0,0:0:0:0:
109,192,128723,1,0,0:0:0:0:
182,192,128795,1,0,0:0:0:0:
256,192,128795,1,0,0:0:0:0:
329,192,128795,1,0,0:0:0:0:
475,192,128795,1,0,0:0:0:0:
36,192,128795,1,0,0:0:0:0:
109,192,128938,1,0,0:0:0:0:
182,192,128938,1,0,0:0:0:0:
256,192,128938,1,0,0:0:0:0:
402,192,128938,1,0,0:0:0:0:
36,192,129082,1,0,0:0:0:0:
109,192,129082,1,0,0:0:0:0:
329,192,129082,1,0,0:0:0:0:
182,192,129082,1,0,0:0:0:0:
256,192,129225,1,0,0:0:0:0:
36,192,129225,1,0,0:0:0:0:
109,192,129225,1,0,0:0:0:0:
475,192,129225,1,0,0:0:0:0:
402,192,129225,1,0,0:0:0:0:
256,192,129368,1,0,0:0:0:0:
475,192,129368,1,0,0:0:0:0:
109,192,129368,1,0,0:0:0:0:
402,192,129440,1,0,0:0:0:0:
182,192,129440,1,0,0:0:0:0:
109,192,129512,1,0,0:0:0:0:
36,192,129512,1,0,0:0:0:0:
329,192,129512,1,0,0:0:0:0:
475,192,129512,1,0,0:0:0:0:
256,192,129512,1,0,0:0:0:0:
402,192,129655,1,0,0:0:0:0:
182,192,129655,1,0,0:0:0:0:
36,192,129655,1,0,0:0:0:0:
109,192,129726,1,0,0:0:0:0:
329,192,129726,1,0,0:0:0:0:
36,192,129798,1,0,0:0:0:0:
182,192,129798,1,0,0:0:0:0:
256,192,129798,1,0,0:0:0:0:
402,192,129798,1,0,0:0:0:0:
475,192,129798,1,0,0:0:0:0:
329,192,129942,1,0,0:0:0:0:
475,192,129942,1,0,0:0:0:0:
109,192,129942,1,0,0:0:0:0:
402,192,130013,1,0,0:0:0:0:
256,192,130013,1,0,0:0:0:0:
329,192,130085,1,0,0:0:0:0:
182,192,130085,1,0,0:0:0:0:
36,192,130085,1,0,0:0:0:0:
109,192,130085,1,0,0:0:0:0:
475,192,130085,1,0,0:0:0:0:
256,192,130228,1,0,0:0:0:0:
402,192,130228,1,0,0:0:0:0:
36,192,130228,1,0,0:0:0:0:
329,192,130300,1,0,0:0:0:0:
182,192,130300,1,0,0:0:0:0:
256,192,130372,1,0,0:0:0:0:
109,192,130372,1,0,0:0:0:0:
36,192,130372,1,0,0:0:0:0:
402,192,130372,1,0,0:0:0:0:
475,192,130372,1,0,0:0:0:0:
182,192,130515,1,0,0:0:0:0:
329,192,130515,1,0,0:0:0:0:
109,192,130586,1,0,0:0:0:0:
256,192,130586,1,0,0:0:0:0:
402,192,130586,1,0,0:0:0:0:
36,192,130658,1,0,0:0:0:0:
182,192,130658,1,0,0:0:0:0:
475,192,130658,1,0,0:0:0:0:
329,192,130658,1,0,0:0:0:0:
109,192,130730,1,0,0:0:0:0:
402,192,130730,1,0,0:0:0:0:
182,192,130802,1,0,0:0:0:0:
256,192,130802,1,0,0:0:0:0:
329,192,130802,1,0,0:0:0:0:
109,192,130873,1,0,0:0:0:0:
402,192,130873,1,0,0:0:0:0:
182,192,130945,1,0,0:0:0:0:
329,192,130945,1,0,0:0:0:0:
256,192,130945,1,0,0:0:0:0:
36,192,130945,1,0,0:0:0:0:
475,192,130945,1,0,0:0:0:0:
36,192,131232,1,0,0:0:0:0:
256,192,131232,1,0,0:0:0:0:
475,192,131232,1,0,0:0:0:0:
109,192,131303,1,0,0:0:0:0:
329,192,131303,1,0,0:0:0:0:
182,192,131375,1,0,0:0:0:0:
402,192,131375,1,0,0:0:0:0:
475,192,131375,1,0,0:0:0:0:
36,192,131446,1,0,0:0:0:0:
256,192,131446,1,0,0:0:0:0:
109,192,131518,1,0,0:0:0:0:
329,192,131518,1,0,0:0:0:0:
182,192,131590,1,0,0:0:0:0:
402,192,131590,1,0,0:0:0:0:
256,192,131662,1,0,0:0:0:0:
475,192,131662,1,0,0:0:0:0:
36,192,131662,1,0,0:0:0:0:
109,192,131733,1,0,0:0:0:0:
329,192,131733,1,0,0:0:0:0:
182,192,131805,1,0,0:0:0:0:
402,192,131805,1,0,0:0:0:0:
475,192,131805,1,0,0:0:0:0:
36,192,131876,1,0,0:0:0:0:
256,192,131876,1,0,0:0:0:0:
109,192,131948,1,0,0:0:0:0:
475,192,131948,1,0,0:0:0:0:
329,192,131948,1,0,0:0:0:0:
256,192,132020,1,0,0:0:0:0:
402,192,132020,1,0,0:0:0:0:
182,192,132092,1,0,0:0:0:0:
329,192,132092,1,0,0:0:0:0:
36,192,132092,1,0,0:0:0:0:
109,192,132163,1,0,0:0:0:0:
256,192,132163,1,0,0:0:0:0:
36,192,132235,1,0,0:0:0:0:
182,192,132235,1,0,0:0:0:0:
402,192,132235,1,0,0:0:0:0:
475,192,132235,1,0,0:0:0:0:
329,192,132235,1,0,0:0:0:0:
182,192,132378,1,0,0:0:0:0:
109,192,132378,1,0,0:0:0:0:
475,192,132378,1,0,0:0:0:0:
329,192,132378,1,0,0:0:0:0:
182,192,132522,1,0,0:0:0:0:
36,192,132522,1,0,0:0:0:0:
402,192,132522,1,0,0:0:0:0:
256,192,132522,1,0,0:0:0:0:
256,192,132665,1,0,0:0:0:0:
109,192,132665,1,0,0:0:0:0:
475,192,132665,1,0,0:0:0:0:
329,192,132665,1,0,0:0:0:0:
36,192,132808,1,0,0:0:0:0:
329,192,132808,1,0,0:0:0:0:
402,192,132808,1,0,0:0:0:0:
182,192,132808,1,0,0:0:0:0:
329,192,132952,1,0,0:0:0:0:
256,192,132952,1,0,0:0:0:0:
475,192,132952,1,0,0:0:0:0:
109,192,132952,1,0,0:0:0:0:
182,192,133095,1,0,0:0:0:0:
402,192,133095,1,0,0:0:0:0:
36,192,133095,1,0,0:0:0:0:
256,192,133095,1,0,0:0:0:0:
109,192,133238,1,0,0:0:0:0:
329,192,133238,1,0,0:0:0:0:
182,192,133238,1,0,0:0:0:0:
475,192,133238,1,0,0:0:0:0:
36,192,133382,1,0,0:0:0:0:
109,192,133382,1,0,0:0:0:0:
256,192,133382,1,0,0:0:0:0:
402,192,133382,1,0,0:0:0:0:
36,192,133525,1,0,0:0:0:0:
109,192,133668,1,0,0:0:0:0:
256,192,133668,1,0,0:0:0:0:
329,192,133668,1,0,0:0:0:0:
36,192,133812,1,0,0:0:0:0:
182,192,133955,1,0,0:0:0:0:
329,192,133955,1,0,0:0:0:0:
402,192,133955,1,0,0:0:0:0:
36,192,134098,1,0,0:0:0:0:
109,192,134242,1,0,0:0:0:0:
475,192,134242,1,0,0:0:0:0:
402,192,134242,1,0,0:0:0:0:
36,192,134385,1,0,0:0:0:0:
182,192,134528,1,0,0:0:0:0:
475,192,134528,1,0,0:0:0:0:
329,192,134528,1,0,0:0:0:0:
256,192,134528,1,0,0:0:0:0:
36,192,134672,1,0,0:0:0:0:
109,192,134815,1,0,0:0:0:0:
36,192,134958,1,0,0:0:0:0:
402,192,134958,1,0,0:0:0:0:
475,192,134958,1,0,0:0:0:0:
182,192,135102,1,0,0:0:0:0:
329,192,135102,1,0,0:0:0:0:
402,192,135102,1,0,0:0:0:0:
36,192,135245,1,0,0:0:0:0:
109,192,135388,1,0,0:0:0:0:
36,192,135532,1,0,0:0:0:0:
182,192,135675,1,0,0:0:0:0:
329,192,135675,1,0,0:0:0:0:
475,192,135818,1,0,0:0:0:0:
402,192,135962,1,0,0:0:0:0:
256,192,135962,1,0,0:0:0:0:
182,192,135962,1,0,0:0:0:0:
475,192,136105,1,0,0:0:0:0:
329,192,136248,1,0,0:0:0:0:
182,192,136248,1,0,0:0:0:0:
109,192,136248,1,0,0:0:0:0:
475,192,136392,1,0,0:0:0:0:
402,192,136535,1,0,0:0:0:0:
109,192,136535,1,0,0:0:0:0:
36,192,136535,1,0,0:0:0:0:
475,192,136678,1,0,0:0:0:0:
329,192,136822,1,0,0:0:0:0:
182,192,136822,1,0,0:0:0:0:
36,192,136822,1,0,0:0:0:0:
256,192,136822,1,0,0:0:0:0:
475,192,136965,1,0,0:0:0:0:
402,192,137108,1,0,0:0:0:0:
475,192,137252,1,0,0:0:0:0:
36,192,137252,1,0,0:0:0:0:
109,192,137252,1,0,0:0:0:0:
329,192,137395,1,0,0:0:0:0:
109,192,137395,1,0,0:0:0:0:
182,192,137395,1,0,0:0:0:0:
475,192,137538,1,0,0:0:0:0:
402,192,137682,1,0,0:0:0:0:
475,192,137825,1,0,0:0:0:0:
36,192,137968,1,0,0:0:0:0:
182,192,137968,1,0,0:0:0:0:
36,192,138255,1,0,0:0:0:0:
182,192,138255,1,0,0:0:0:0:
256,192,138255,1,0,0:0:0:0:
329,192,138255,1,0,0:0:0:0:
36,192,138542,1,0,0:0:0:0:
182,192,138542,1,0,0:0:0:0:
329,192,138542,1,0,0:0:0:0:
402,192,138542,1,0,0:0:0:0:
36,192,138828,1,0,0:0:0:0:
182,192,138828,1,0,0:0:0:0:
402,192,138828,1,0,0:0:0:0:
475,192,138828,1,0,0:0:0:0:
36,192,139115,1,0,0:0:0:0:
182,192,139115,1,0,0:0:0:0:
256,192,139115,1,0,0:0:0:0:
475,192,139115,1,0,0:0:0:0:
36,192,139402,1,0,0:0:0:0:
182,192,139402,1,0,0:0:0:0:
402,192,139545,1,0,0:0:0:0:
475,192,139545,1,0,0:0:0:0:
36,192,139688,1,0,0:0:0:0:
182,192,139688,1,0,0:0:0:0:
329,192,139688,1,0,0:0:0:0:
402,192,139688,1,0,0:0:0:0:
475,192,139832,1,0,0:0:0:0:
329,192,139903,1,0,0:0:0:0:
36,192,139975,1,0,0:0:0:0:
182,192,139975,1,0,0:0:0:0:
182,192,140118,1,0,0:0:0:0:
329,192,140118,1,0,0:0:0:0:
109,192,140190,1,0,0:0:0:0:
402,192,140190,1,0,0:0:0:0:
475,192,140262,1,0,0:0:0:0:
36,192,140262,1,0,0:0:0:0:
182,192,140262,1,0,0:0:0:0:
329,192,140262,1,0,0:0:0:0:
256,192,140262,1,0,0:0:0:0:
109,192,140333,1,0,0:0:0:0:
329,192,140405,1,0,0:0:0:0:
402,192,140405,1,0,0:0:0:0:
475,192,140405,1,0,0:0:0:0:
182,192,140405,1,0,0:0:0:0:
36,192,140476,1,0,0:0:0:0:
109,192,140548,1,0,0:0:0:0:
256,192,140548,1,0,0:0:0:0:
329,192,140548,1,0,0:0:0:0:
402,192,140548,1,0,0:0:0:0:
475,192,140620,1,0,0:0:0:0:
182,192,140692,1,0,0:0:0:0:
256,192,140692,1,0,0:0:0:0:
329,192,140692,1,0,0:0:0:0:
36,192,140692,1,0,0:0:0:0:
36,192,140978,1,0,0:0:0:0:
109,192,140978,1,0,0:0:0:0:
329,192,140978,1,0,0:0:0:0:
475,192,140978,1,0,0:0:0:0:
256,192,141050,1,0,0:0:0:0:
36,192,141122,1,0,0:0:0:0:
402,192,141122,1,0,0:0:0:0:
475,192,141122,1,0,0:0:0:0:
182,192,141122,1,0,0:0:0:0:
256,192,141193,1,0,0:0:0:0:
329,192,141265,1,0,0:0:0:0:
109,192,141265,1,0,0:0:0:0:
475,192,141265,1,0,0:0:0:0:
36,192,141265,1,0,0:0:0:0:
182,192,141552,1,0,0:0:0:0:
475,192,141552,1,0,0:0:0:0:
402,192,141552,1,0,0:0:0:0:
36,192,141552,1,0,0:0:0:0:
256,192,141623,1,0,0:0:0:0:
36,192,141695,1,0,0:0:0:0:
109,192,141695,1,0,0:0:0:0:
329,192,141695,1,0,0:0:0:0:
475,192,141695,1,0,0:0:0:0:
256,192,141766,1,0,0:0:0:0:
36,192,141838,1,0,0:0:0:0:
182,192,141838,1,0,0:0:0:0:
402,192,141838,1,0,0:0:0:0:
475,192,141838,1,0,0:0:0:0:
256,192,141910,1,0,0:0:0:0:
329,192,141982,1,0,0:0:0:0:
109,192,141982,1,0,0:0:0:0:
475,192,141982,1,0,0:0:0:0:
36,192,141982,1,0,0:0:0:0:
256,192,142053,1,0,0:0:0:0:
182,192,142125,1,0,0:0:0:0:
36,192,142125,1,0,0:0:0:0:
402,192,142125,1,0,0:0:0:0:
475,192,142125,1,0,0:0:0:0:
329,192,142196,1,0,0:0:0:0:
109,192,142196,1,0,0:0:0:0:
36,192,142268,1,0,0:0:0:0:
475,192,142268,1,0,0:0:0:0:
256,192,142268,1,0,0:0:0:0:
402,192,142340,1,0,0:0:0:0:
109,192,142340,1,0,0:0:0:0:
329,192,142412,1,0,0:0:0:0:
182,192,142412,1,0,0:0:0:0:
256,192,142412,1,0,0:0:0:0:
475,192,142483,1,0,0:0:0:0:
36,192,142483,1,0,0:0:0:0:
182,192,142555,1,0,0:0:0:0:
256,192,142555,1,0,0:0:0:0:
329,192,142555,1,0,0:0:0:0:
109,192,142555,1,0,0:0:0:0:
402,192,142555,1,0,0:0:0:0:
329,192,142842,1,0,0:0:0:0:
475,192,142842,1,0,0:0:0:0:
109,192,142842,1,0,0:0:0:0:
36,192,142842,1,0,0:0:0:0:
256,192,142913,1,0,0:0:0:0:
402,192,142985,1,0,0:0:0:0:
475,192,142985,1,0,0:0:0:0:
182,192,142985,1,0,0:0:0:0:
36,192,142985,1,0,0:0:0:0:
329,192,143056,1,0,0:0:0:0:
36,192,143128,1,0,0:0:0:0:
109,192,143128,1,0,0:0:0:0:
256,192,143128,1,0,0:0:0:0:
475,192,143128,1,0,0:0:0:0:
329,192,143200,1,0,0:0:0:0:
402,192,143272,1,0,0:0:0:0:
182,192,143272,1,0,0:0:0:0:
36,192,143272,1,0,0:0:0:0:
475,192,143272,1,0,0:0:0:0:
256,192,143343,1,0,0:0:0:0:
329,192,143415,1,0,0:0:0:0:
475,192,143415,1,0,0:0:0:0:
36,192,143415,1,0,0:0:0:0:
109,192,143415,1,0,0:0:0:0:
182,192,143486,1,0,0:0:0:0:
402,192,143486,1,0,0:0:0:0:
36,192,143558,1,0,0:0:0:0:
475,192,143558,1,0,0:0:0:0:
256,192,143558,1,0,0:0:0:0:
402,192,143630,1,0,0:0:0:0:
109,192,143630,1,0,0:0:0:0:
36,192,143702,1,0,0:0:0:0:
329,192,143702,1,0,0:0:0:0:
475,192,143702,1,0,0:0:0:0:
182,192,143702,1,0,0:0:0:0:
109,192,143773,1,0,0:0:0:0:
402,192,143773,1,0,0:0:0:0:
182,192,143845,1,0,0:0:0:0:
329,192,143845,1,0,0:0:0:0:
256,192,143845,1,0,0:0:0:0:
109,192,143916,1,0,0:0:0:0:
402,192,143916,1,0,0:0:0:0:
36,192,143988,1,0,0:0:0:0:
475,192,143988,1,0,0:0:0:0:
256,192,143988,1,0,0:0:0:0:
182,192,144060,1,0,0:0:0:0:
329,192,144060,1,0,0:0:0:0:
109,192,144132,1,0,0:0:0:0:
36,192,144132,1,0,0:0:0:0:
402,192,144132,1,0,0:0:0:0:
475,192,144132,1,0,0:0:0:0:
182,192,144203,1,0,0:0:0:0:
329,192,144203,1,0,0:0:0:0:
256,192,144275,1,0,0:0:0:0:
36,192,144275,1,0,0:0:0:0:
475,192,144275,1,0,0:0:0:0:
109,192,144346,1,0,0:0:0:0:
329,192,144346,1,0,0:0:0:0:
182,192,144418,1,0,0:0:0:0:
402,192,144418,1,0,0:0:0:0:
475,192,144418,1,0,0:0:0:0:
109,192,144490,1,0,0:0:0:0:
329,192,144490,1,0,0:0:0:0:
36,192,144562,1,0,0:0:0:0:
475,192,144562,1,0,0:0:0:0:
256,192,144562,1,0,0:0:0:0:
182,192,144633,1,0,0:0:0:0:
402,192,144633,1,0,0:0:0:0:
109,192,144705,1,0,0:0:0:0:
36,192,144705,1,0,0:0:0:0:
329,192,144705,1,0,0:0:0:0:
182,192,144776,1,0,0:0:0:0:
402,192,144776,1,0,0:0:0:0:
475,192,144848,1,0,0:0:0:0:
36,192,144848,1,0,0:0:0:0:
256,192,144848,1,0,0:0:0:0:
329,192,144848,1,0,0:0:0:0:
475,192,144992,1,0,0:0:0:0:
256,192,144992,1,0,0:0:0:0:
109,192,144992,1,0,0:0:0:0:
329,192,145063,1,0,0:0:0:0:
402,192,145063,1,0,0:0:0:0:
182,192,145063,1,0,0:0:0:0:
475,192,145135,1,0,0:0:0:0:
256,192,145135,1,0,0:0:0:0:
36,192,145135,1,0,0:0:0:0:
109,192,145135,1,0,0:0:0:0:
475,192,145278,1,0,0:0:0:0:
36,192,145278,1,0,0:0:0:0:
402,192,145278,1,0,0:0:0:0:
182,192,145278,1,0,0:0:0:0:
256,192,145350,1,0,0:0:0:0:
329,192,145350,1,0,0:0:0:0:
475,192,145422,1,0,0:0:0:0:
36,192,145422,1,0,0:0:0:0:
109,192,145422,1,0,0:0:0:0:
402,192,145422,1,0,0:0:0:0:
402,192,145565,1,0,0:0:0:0:
256,192,145565,1,0,0:0:0:0:
36,192,145565,1,0,0:0:0:0:
109,192,145636,1,0,0:0:0:0:
329,192,145636,1,0,0:0:0:0:
182,192,145636,1,0,0:0:0:0:
256,192,145708,1,0,0:0:0:0:
475,192,145708,1,0,0:0:0:0:
36,192,145708,1,0,0:0:0:0:
402,192,145708,1,0,0:0:0:0:
329,192,145852,1,0,0:0:0:0:
36,192,145852,1,0,0:0:0:0:
475,192,145852,1,0,0:0:0:0:
109,192,145852,1,0,0:0:0:0:
182,192,145923,1,0,0:0:0:0:
256,192,145923,1,0,0:0:0:0:
402,192,145995,1,0,0:0:0:0:
475,192,145995,1,0,0:0:0:0:
109,192,145995,1,0,0:0:0:0:
36,192,145995,1,0,0:0:0:0:
329,192,146066,1,0,0:0:0:0:
109,192,146138,1,0,0:0:0:0:
36,192,146138,1,0,0:0:0:0:
256,192,146138,1,0,0:0:0:0:
182,192,146210,1,0,0:0:0:0:
329,192,146210,1,0,0:0:0:0:
475,192,146282,1,0,0:0:0:0:
36,192,146282,1,0,0:0:0:0:
402,192,146282,1,0,0:0:0:0:
256,192,146282,1,0,0:0:0:0:
182,192,146353,1,0,0:0:0:0:
329,192,146353,1,0,0:0:0:0:
109,192,146425,1,0,0:0:0:0:
475,192,146425,1,0,0:0:0:0:
36,192,146425,1,0,0:0:0:0:
256,192,146425,1,0,0:0:0:0:
402,192,146461,1,0,0:0:0:0:
329,192,146496,1,0,0:0:0:0:
256,192,146532,1,0,0:0:0:0:
36,192,146568,1,0,0:0:0:0:
109,192,146568,1,0,0:0:0:0:
475,192,146568,1,0,0:0:0:0:
402,192,146568,1,0,0:0:0:0:
182,192,146568,1,0,0:0:0:0:
36,192,146712,1,0,0:0:0:0:
109,192,146712,1,0,0:0:0:0:
182,192,146712,1,0,0:0:0:0:
475,192,146712,1,0,0:0:0:0:
402,192,146712,1,0,0:0:0:0:
109,192,146998,1,0,0:0:0:0:
256,192,146998,1,0,0:0:0:0:
36,192,146998,1,0,0:0:0:0:
475,192,146998,1,0,0:0:0:0:
329,192,147070,1,0,0:0:0:0:
402,192,147070,1,0,0:0:0:0:
182,192,147070,1,0,0:0:0:0:
36,192,147142,1,0,0:0:0:0:
256,192,147142,1,0,0:0:0:0:
475,192,147142,1,0,0:0:0:0:
109,192,147142,1,0,0:0:0:0:
36,192,147285,1,0,0:0:0:0:
182,192,147285,1,0,0:0:0:0:
329,192,147285,1,0,0:0:0:0:
109,192,147428,1,0,0:0:0:0:
256,192,147428,1,0,0:0:0:0:
402,192,147428,1,0,0:0:0:0:
475,192,147572,1,0,0:0:0:0:
182,192,147572,1,0,0:0:0:0:
329,192,147572,1,0,0:0:0:0:
256,192,147858,1,0,0:0:0:0:
402,192,147858,1,0,0:0:0:0:
109,192,147858,1,0,0:0:0:0:
475,192,147930,1,0,0:0:0:0:
182,192,148002,1,0,0:0:0:0:
329,192,148002,1,0,0:0:0:0:
36,192,148002,1,0,0:0:0:0:
402,192,148073,1,0,0:0:0:0:
182,192,148145,1,0,0:0:0:0:
36,192,148145,1,0,0:0:0:0:
109,192,148145,1,0,0:0:0:0:
475,192,148145,1,0,0:0:0:0:
256,192,148216,1,0,0:0:0:0:
329,192,148216,1,0,0:0:0:0:
109,192,148288,1,0,0:0:0:0:
36,192,148288,1,0,0:0:0:0:
475,192,148288,1,0,0:0:0:0:
182,192,148288,1,0,0:0:0:0:
402,192,148288,1,0,0:0:0:0:
402,192,148432,1,0,0:0:0:0:
109,192,148432,1,0,0:0:0:0:
36,192,148432,1,0,0:0:0:0:
182,192,148432,1,0,0:0:0:0:
475,192,148432,1,0,0:0:0:0:
109,192,148575,1,0,0:0:0:0:
256,192,148575,1,0,0:0:0:0:
402,192,148575,1,0,0:0:0:0:
182,192,148718,1,0,0:0:0:0:
329,192,148718,1,0,0:0:0:0:
475,192,148718,1,0,0:0:0:0:
109,192,149005,1,0,0:0:0:0:
256,192,149005,1,0,0:0:0:0:
402,192,149005,1,0,0:0:0:0:
36,192,149005,1,0,0:0:0:0:
475,192,149005,1,0,0:0:0:0:
109,192,149292,1,0,0:0:0:0:
182,192,149292,1,0,0:0:0:0:
329,192,149292,1,0,0:0:0:0:
402,192,149292,1,0,0:0:0:0:
329,192,149435,1,0,0:0:0:0:
182,192,149435,1,0,0:0:0:0:
36,192,149435,1,0,0:0:0:0:
256,192,149435,1,0,0:0:0:0:
475,192,149435,1,0,0:0:0:0:
109,192,149506,1,0,0:0:0:0:
402,192,149506,1,0,0:0:0:0:
36,192,149578,1,0,0:0:0:0:
182,192,149578,1,0,0:0:0:0:
475,192,149578,1,0,0:0:0:0:
256,192,149578,1,0,0:0:0:0:
109,192,149650,1,0,0:0:0:0:
329,192,149650,1,0,0:0:0:0:
36,192,149722,1,0,0:0:0:0:
182,192,149722,1,0,0:0:0:0:
402,192,149722,1,0,0:0:0:0:
475,192,149722,1,0,0:0:0:0:
109,192,149793,1,0,0:0:0:0:
256,192,149793,1,0,0:0:0:0:
36,192,149865,1,0,0:0:0:0:
182,192,149865,1,0,0:0:0:0:
329,192,149865,1,0,0:0:0:0:
475,192,149865,1,0,0:0:0:0:
402,192,149936,1,0,0:0:0:0:
256,192,150008,1,0,0:0:0:0:
36,192,150008,1,0,0:0:0:0:
475,192,150008,1,0,0:0:0:0:
109,192,150080,1,0,0:0:0:0:
402,192,150152,1,0,0:0:0:0:
475,192,150152,1,0,0:0:0:0:
182,192,150152,1,0,0:0:0:0:
329,192,150223,1,0,0:0:0:0:
109,192,150223,1,0,0:0:0:0:
36,192,150295,1,0,0:0:0:0:
256,192,150295,1,0,0:0:0:0:
475,192,150295,1,0,0:0:0:0:
402,192,150366,1,0,0:0:0:0:
329,192,150438,1,0,0:0:0:0:
109,192,150438,1,0,0:0:0:0:
36,192,150438,1,0,0:0:0:0:
182,192,150510,1,0,0:0:0:0:
402,192,150510,1,0,0:0:0:0:
256,192,150582,1,0,0:0:0:0:
475,192,150582,1,0,0:0:0:0:
36,192,150582,1,0,0:0:0:0:
109,192,150582,1,0,0:0:0:0:
402,192,150618,1,0,0:0:0:0:
329,192,150653,1,0,0:0:0:0:
256,192,150689,1,0,0:0:0:0:
182,192,150725,1,0,0:0:0:0:
36,192,150725,1,0,0:0:0:0:
256,192,150761,1,0,0:0:0:0:
329,192,150797,1,0,0:0:0:0:
402,192,150832,1,0,0:0:0:0:
475,192,150868,1,0,0:0:0:0:
109,192,150868,1,0,0:0:0:0:
182,192,150904,1,0,0:0:0:0:
256,192,150940,1,0,0:0:0:0:
329,192,150975,1,0,0:0:0:0:
36,192,151012,1,0,0:0:0:0:
402,192,151012,1,0,0:0:0:0:
109,192,151048,1,0,0:0:0:0:
182,192,151083,1,0,0:0:0:0:
256,192,151119,1,0,0:0:0:0:
329,192,151155,1,0,0:0:0:0:
475,192,151155,1,0,0:0:0:0:
256,192,151191,1,0,0:0:0:0:
182,192,151227,1,0,0:0:0:0:
109,192,151262,1,0,0:0:0:0:
36,192,151298,1,0,0:0:0:0:
402,192,151298,1,0,0:0:0:0:
329,192,151334,1,0,0:0:0:0:
256,192,151370,1,0,0:0:0:0:
182,192,151405,1,0,0:0:0:0:
109,192,151442,1,0,0:0:0:0:
475,192,151442,1,0,0:0:0:0:
402,192,151478,1,0,0:0:0:0:
329,192,151513,1,0,0:0:0:0:
256,192,151549,1,0,0:0:0:0:
182,192,151585,1,0,0:0:0:0:
36,192,151585,1,0,0:0:0:0:
256,192,151621,1,0,0:0:0:0:
329,192,151657,1,0,0:0:0:0:
402,192,151692,1,0,0:0:0:0:
36,192,151728,1,0,0:0:0:0:
109,192,151728,1,0,0:0:0:0:
256,192,151728,1,0,0:0:0:0:
475,192,151728,1,0,0:0:0:0:
182,192,151800,1,0,0:0:0:0:
402,192,151800,1,0,0:0:0:0:
109,192,151872,1,0,0:0:0:0:
36,192,151872,1,0,0:0:0:0:
329,192,151872,1,0,0:0:0:0:
256,192,151872,1,0,0:0:0:0:
182,192,151943,1,0,0:0:0:0:
475,192,151943,1,0,0:0:0:0:
109,192,152015,1,0,0:0:0:0:
36,192,152015,1,0,0:0:0:0:
402,192,152015,1,0,0:0:0:0:
256,192,152015,1,0,0:0:0:0:
182,192,152087,1,0,0:0:0:0:
329,192,152087,1,0,0:0:0:0:
109,192,152158,1,0,0:0:0:0:
36,192,152158,1,0,0:0:0:0:
475,192,152158,1,0,0:0:0:0:
256,192,152158,1,0,0:0:0:0:
402,192,152230,1,0,0:0:0:0:
475,192,152302,1,0,0:0:0:0:
36,192,152302,1,0,0:0:0:0:
256,192,152302,1,0,0:0:0:0:
109,192,152373,1,0,0:0:0:0:
475,192,152445,1,0,0:0:0:0:
182,192,152445,1,0,0:0:0:0:
329,192,152445,1,0,0:0:0:0:
109,192,152517,1,0,0:0:0:0:
36,192,152588,1,0,0:0:0:0:
256,192,152588,1,0,0:0:0:0:
475,192,152588,1,0,0:0:0:0:
402,192,152660,1,0,0:0:0:0:
329,192,152732,1,0,0:0:0:0:
36,192,152732,1,0,0:0:0:0:
182,192,152732,1,0,0:0:0:0:
402,192,152803,1,0,0:0:0:0:
109,192,152803,1,0,0:0:0:0:
475,192,152875,1,0,0:0:0:0:
36,192,152875,1,0,0:0:0:0:
182,192,152875,1,0,0:0:0:0:
256,192,152875,1,0,0:0:0:0:
109,192,152947,1,0,0:0:0:0:
329,192,152947,1,0,0:0:0:0:
36,192,153018,1,0,0:0:0:0:
182,192,153018,1,0,0:0:0:0:
402,192,153018,1,0,0:0:0:0:
475,192,153018,1,0,0:0:0:0:
109,192,153090,1,0,0:0:0:0:
256,192,153090,1,0,0:0:0:0:
36,192,153162,1,0,0:0:0:0:
182,192,153162,1,0,0:0:0:0:
329,192,153162,1,0,0:0:0:0:
475,192,153162,1,0,0:0:0:0:
109,192,153233,1,0,0:0:0:0:
402,192,153233,1,0,0:0:0:0:
36,192,153305,1,0,0:0:0:0:
182,192,153305,1,0,0:0:0:0:
256,192,153305,1,0,0:0:0:0:
475,192,153305,1,0,0:0:0:0:
402,192,153377,1,0,0:0:0:0:
475,192,153448,1,0,0:0:0:0:
329,192,153448,1,0,0:0:0:0:
109,192,153448,1,0,0:0:0:0:
182,192,153520,1,0,0:0:0:0:
402,192,153592,1,0,0:0:0:0:
256,192,153592,1,0,0:0:0:0:
36,192,153592,1,0,0:0:0:0:
109,192,153663,1,0,0:0:0:0:
402,192,153735,1,0,0:0:0:0:
182,192,153735,1,0,0:0:0:0:
329,192,153807,1,0,0:0:0:0:
36,192,153878,1,0,0:0:0:0:
182,192,153878,1,0,0:0:0:0:
475,192,153878,1,0,0:0:0:0:
256,192,153878,1,0,0:0:0:0:
109,192,153950,1,0,0:0:0:0:
402,192,153950,1,0,0:0:0:0:
475,192,154022,1,0,0:0:0:0:
36,192,154022,1,0,0:0:0:0:
329,192,154022,1,0,0:0:0:0:
182,192,154093,1,0,0:0:0:0:
256,192,154165,1,0,0:0:0:0:
329,192,154165,1,0,0:0:0:0:
36,192,154165,1,0,0:0:0:0:
475,192,154165,1,0,0:0:0:0:
402,192,154237,1,0,0:0:0:0:
109,192,154237,1,0,0:0:0:0:
182,192,154308,1,0,0:0:0:0:
475,192,154308,1,0,0:0:0:0:
36,192,154308,1,0,0:0:0:0:
109,192,154380,1,0,0:0:0:0:
256,192,154380,1,0,0:0:0:0:
182,192,154452,1,0,0:0:0:0:
329,192,154452,1,0,0:0:0:0:
475,192,154452,1,0,0:0:0:0:
402,192,154452,1,0,0:0:0:0:
109,192,154523,1,0,0:0:0:0:
256,192,154523,1,0,0:0:0:0:
36,192,154595,1,0,0:0:0:0:
182,192,154595,1,0,0:0:0:0:
402,192,154595,1,0,0:0:0:0:
475,192,154595,1,0,0:0:0:0:
256,192,154667,1,0,0:0:0:0:
36,192,154738,1,0,0:0:0:0:
329,192,154738,1,0,0:0:0:0:
402,192,154738,1,0,0:0:0:0:
109,192,154738,1,0,0:0:0:0:
182,192,154810,1,0,0:0:0:0:
329,192,154882,1,0,0:0:0:0:
256,192,154882,1,0,0:0:0:0:
36,192,154882,1,0,0:0:0:0:
475,192,154882,1,0,0:0:0:0:
109,192,154953,1,0,0:0:0:0:
182,192,155025,1,0,0:0:0:0:
256,192,155025,1,0,0:0:0:0:
402,192,155025,1,0,0:0:0:0:
36,192,155025,1,0,0:0:0:0:
475,192,155025,1,0,0:0:0:0:
109,192,155312,1,0,0:0:0:0:
36,192,155312,1,0,0:0:0:0:
402,192,155312,1,0,0:0:0:0:
475,192,155312,1,0,0:0:0:0:
329,192,155383,1,0,0:0:0:0:
182,192,155383,1,0,0:0:0:0:
402,192,155455,1,0,0:0:0:0:
36,192,155455,1,0,0:0:0:0:
475,192,155455,1,0,0:0:0:0:
109,192,155455,1,0,0:0:0:0:
256,192,155527,1,0,0:0:0:0:
36,192,155598,1,0,0:0:0:0:
402,192,155598,1,0,0:0:0:0:
475,192,155598,1,0,0:0:0:0:
109,192,155598,1,0,0:0:0:0:
182,192,155670,1,0,0:0:0:0:
329,192,155670,1,0,0:0:0:0:
475,192,155742,1,0,0:0:0:0:
36,192,155742,1,0,0:0:0:0:
402,192,155742,1,0,0:0:0:0:
109,192,155742,1,0,0:0:0:0:
256,192,155813,1,0,0:0:0:0:
109,192,155885,1,0,0:0:0:0:
475,192,155885,1,0,0:0:0:0:
36,192,155885,1,0,0:0:0:0:
402,192,155885,1,0,0:0:0:0:
182,192,155957,1,0,0:0:0:0:
329,192,155957,1,0,0:0:0:0:
402,192,156028,1,0,0:0:0:0:
475,192,156028,1,0,0:0:0:0:
36,192,156028,1,0,0:0:0:0:
109,192,156028,1,0,0:0:0:0:
256,192,156100,1,0,0:0:0:0:
36,192,156172,1,0,0:0:0:0:
402,192,156172,1,0,0:0:0:0:
475,192,156172,1,0,0:0:0:0:
109,192,156172,1,0,0:0:0:0:
182,192,156243,1,0,0:0:0:0:
329,192,156243,1,0,0:0:0:0:
36,192,156315,1,0,0:0:0:0:
475,192,156315,1,0,0:0:0:0:
402,192,156315,1,0,0:0:0:0:
109,192,156315,1,0,0:0:0:0:
256,192,156315,1,0,0:0:0:0:
182,192,156387,1,0,0:0:0:0:
329,192,156387,1,0,0:0:0:0:
475,192,156458,1,0,0:0:0:0:
402,192,156458,1,0,0:0:0:0:
36,192,156458,1,0,0:0:0:0:
109,192,156458,1,0,0:0:0:0:
256,192,156530,1,0,0:0:0:0:
182,192,156530,1,0,0:0:0:0:
329,192,156602,1,0,0:0:0:0:
475,192,156602,1,0,0:0:0:0:
36,192,156602,1,0,0:0:0:0:
109,192,156602,1,0,0:0:0:0:
402,192,156673,1,0,0:0:0:0:
182,192,156673,1,0,0:0:0:0:
475,192,156745,1,0,0:0:0:0:
256,192,156745,1,0,0:0:0:0:
36,192,156745,1,0,0:0:0:0:
109,192,156745,1,0,0:0:0:0:
329,192,156817,1,0,0:0:0:0:
402,192,156888,1,0,0:0:0:0:
475,192,156888,1,0,0:0:0:0:
36,192,156888,1,0,0:0:0:0:
109,192,156960,1,0,0:0:0:0:
329,192,157032,1,0,0:0:0:0:
182,192,157032,1,0,0:0:0:0:
475,192,157032,1,0,0:0:0:0:
109,192,157103,1,0,0:0:0:0:
256,192,157175,1,0,0:0:0:0:
36,192,157175,1,0,0:0:0:0:
475,192,157175,1,0,0:0:0:0:
402,192,157247,1,0,0:0:0:0:
182,192,157318,1,0,0:0:0:0:
36,192,157318,1,0,0:0:0:0:
329,192,157318,1,0,0:0:0:0:
109,192,157390,1,0,0:0:0:0:
402,192,157390,1,0,0:0:0:0:
36,192,157462,1,0,0:0:0:0:
182,192,157462,1,0,0:0:0:0:
475,192,157462,1,0,0:0:0:0:
256,192,157462,1,0,0:0:0:0:
402,192,157533,1,0,0:0:0:0:
109,192,157533,1,0,0:0:0:0:
329,192,157605,1,0,0:0:0:0:
256,192,157605,1,0,0:0:0:0:
182,192,157605,1,0,0:0:0:0:
36,192,157605,1,0,0:0:0:0:
475,192,157677,1,0,0:0:0:0:
109,192,157677,1,0,0:0:0:0:
402,192,157748,1,0,0:0:0:0:
256,192,157748,1,0,0:0:0:0:
182,192,157748,1,0,0:0:0:0:
36,192,157748,1,0,0:0:0:0:
329,192,157820,1,0,0:0:0:0:
109,192,157820,1,0,0:0:0:0:
256,192,157892,1,0,0:0:0:0:
475,192,157892,1,0,0:0:0:0:
182,192,157892,1,0,0:0:0:0:
36,192,157892,1,0,0:0:0:0:
402,192,157963,1,0,0:0:0:0:
475,192,158035,1,0,0:0:0:0:
329,192,158035,1,0,0:0:0:0:
182,192,158035,1,0,0:0:0:0:
109,192,158107,1,0,0:0:0:0:
402,192,158178,1,0,0:0:0:0:
256,192,158178,1,0,0:0:0:0:
36,192,158178,1,0,0:0:0:0:
109,192,158250,1,0,0:0:0:0:
182,192,158322,1,0,0:0:0:0:
329,192,158322,1,0,0:0:0:0:
402,192,158393,1,0,0:0:0:0:
475,192,158465,1,0,0:0:0:0:
109,192,158465,1,0,0:0:0:0:
36,192,158465,1,0,0:0:0:0:
182,192,158537,1,0,0:0:0:0:
402,192,158537,1,0,0:0:0:0:
109,192,158608,1,0,0:0:0:0:
256,192,158608,1,0,0:0:0:0:
329,192,158608,1,0,0:0:0:0:
36,192,158608,1,0,0:0:0:0:
402,192,158680,1,0,0:0:0:0:
182,192,158680,1,0,0:0:0:0:
475,192,158752,1,0,0:0:0:0:
256,192,158752,1,0,0:0:0:0:
109,192,158752,1,0,0:0:0:0:
36,192,158752,1,0,0:0:0:0:
329,192,158823,1,0,0:0:0:0:
182,192,158823,1,0,0:0:0:0:
402,192,158895,1,0,0:0:0:0:
475,192,158895,1,0,0:0:0:0:
109,192,158895,1,0,0:0:0:0:
36,192,158895,1,0,0:0:0:0:
256,192,158967,1,0,0:0:0:0:
182,192,158967,1,0,0:0:0:0:
329,192,159038,1,0,0:0:0:0:
475,192,159038,1,0,0:0:0:0:
109,192,159038,1,0,0:0:0:0:
36,192,159038,1,0,0:0:0:0:
402,192,159110,1,0,0:0:0:0:
475,192,159182,1,0,0:0:0:0:
109,192,159182,1,0,0:0:0:0:
256,192,159182,1,0,0:0:0:0:
36,192,159253,1,0,0:0:0:0:
182,192,159325,1,0,0:0:0:0:
475,192,159325,1,0,0:0:0:0:
402,192,159325,1,0,0:0:0:0:
109,192,159397,1,0,0:0:0:0:
329,192,159397,1,0,0:0:0:0:
402,192,159468,1,0,0:0:0:0:
256,192,159468,1,0,0:0:0:0:
36,192,159468,1,0,0:0:0:0:
475,192,159540,1,0,0:0:0:0:
109,192,159612,1,0,0:0:0:0:
329,192,159612,1,0,0:0:0:0:
36,192,159612,1,0,0:0:0:0:
402,192,159683,1,0,0:0:0:0:
182,192,159683,1,0,0:0:0:0:
109,192,159755,1,0,0:0:0:0:
329,192,159755,1,0,0:0:0:0:
36,192,159755,1,0,0:0:0:0:
256,192,159755,1,0,0:0:0:0:
475,192,159755,1,0,0:0:0:0:
402,192,159827,1,0,0:0:0:0:
182,192,159827,1,0,0:0:0:0:
256,192,159898,1,0,0:0:0:0:
475,192,159898,1,0,0:0:0:0:
329,192,159970,1,0,0:0:0:0:
109,192,159970,1,0,0:0:0:0:
402,192,160042,1,0,0:0:0:0:
475,192,160042,1,0,0:0:0:0:
256,192,160042,1,0,0:0:0:0:
36,192,160042,1,0,0:0:0:0:
182,192,160042,1,0,0:0:0:0:
329,192,160113,1,0,0:0:0:0:
109,192,160113,1,0,0:0:0:0:
36,192,160185,1,0,0:0:0:0:
256,192,160185,1,0,0:0:0:0:
182,192,160257,1,0,0:0:0:0:
402,192,160257,1,0,0:0:0:0:
256,192,160328,1,0,0:0:0:0:
475,192,160328,1,0,0:0:0:0:
329,192,160328,1,0,0:0:0:0:
109,192,160328,1,0,0:0:0:0:
36,192,160328,1,0,0:0:0:0:
402,192,160400,1,0,0:0:0:0:
182,192,160400,1,0,0:0:0:0:
475,192,160472,1,0,0:0:0:0:
256,192,160472,1,0,0:0:0:0:
329,192,160543,1,0,0:0:0:0:
109,192,160543,1,0,0:0:0:0:
36,192,160615,1,0,0:0:0:0:
256,192,160615,1,0,0:0:0:0:
182,192,160615,1,0,0:0:0:0:
402,192,160615,1,0,0:0:0:0:
475,192,160615,1,0,0:0:0:0:
329,192,160687,1,0,0:0:0:0:
109,192,160687,1,0,0:0:0:0:
36,192,160758,1,0,0:0:0:0:
256,192,160758,1,0,0:0:0:0:
475,192,160758,1,0,0:0:0:0:
329,192,160830,1,0,0:0:0:0:
182,192,160830,1,0,0:0:0:0:
475,192,160902,1,0,0:0:0:0:
36,192,160902,1,0,0:0:0:0:
256,192,160902,1,0,0:0:0:0:
109,192,160902,1,0,0:0:0:0:
402,192,160902,1,0,0:0:0:0:
329,192,161045,1,0,0:0:0:0:
475,192,161045,1,0,0:0:0:0:
402,192,161045,1,0,0:0:0:0:
182,192,161045,1,0,0:0:0:0:
109,192,161045,1,0,0:0:0:0:
475,192,161188,1,0,0:0:0:0:
329,192,161188,1,0,0:0:0:0:
36,192,161188,1,0,0:0:0:0:
109,192,161260,1,0,0:0:0:0:
256,192,161260,1,0,0:0:0:0:
402,192,161260,1,0,0:0:0:0:
36,192,161332,1,0,0:0:0:0:
182,192,161332,1,0,0:0:0:0:
475,192,161332,1,0,0:0:0:0:
329,192,161332,1,0,0:0:0:0:
475,192,161618,1,0,0:0:0:0:
402,192,161618,1,0,0:0:0:0:
329,192,161618,1,0,0:0:0:0:
182,192,161618,1,0,0:0:0:0:
109,192,161618,1,0,0:0:0:0:
36,192,161762,1,0,0:0:0:0:
109,192,161762,1,0,0:0:0:0:
402,192,161762,1,0,0:0:0:0:
329,192,161762,1,0,0:0:0:0:
256,192,161762,1,0,0:0:0:0:
36,192,161905,1,0,0:0:0:0:
475,192,161905,1,0,0:0:0:0:
182,192,161905,1,0,0:0:0:0:
256,192,161905,1,0,0:0:0:0:
329,192,161905,1,0,0:0:0:0:
109,192,161977,1,0,0:0:0:0:
402,192,161977,1,0,0:0:0:0:
475,192,162048,1,0,0:0:0:0:
36,192,162048,1,0,0:0:0:0:
256,192,162048,1,0,0:0:0:0:
182,192,162048,1,0,0:0:0:0:
329,192,162048,1,0,0:0:0:0:
182,192,162192,1,0,0:0:0:0:
36,192,162192,1,0,0:0:0:0:
109,192,162192,1,0,0:0:0:0:
329,192,162192,1,0,0:0:0:0:
402,192,162192,1,0,0:0:0:0:
36,192,162335,1,0,0:0:0:0:
182,192,162335,1,0,0:0:0:0:
475,192,162335,1,0,0:0:0:0:
402,192,162407,1,0,0:0:0:0:
256,192,162407,1,0,0:0:0:0:
109,192,162407,1,0,0:0:0:0:
475,192,162478,1,0,0:0:0:0:
329,192,162478,1,0,0:0:0:0:
36,192,162478,1,0,0:0:0:0:
182,192,162478,1,0,0:0:0:0:
36,192,162765,1,0,0:0:0:0:
109,192,162765,1,0,0:0:0:0:
182,192,162765,1,0,0:0:0:0:
329,192,162765,1,0,0:0:0:0:
402,192,162765,1,0,0:0:0:0:
109,192,162908,1,0,0:0:0:0:
475,192,162908,1,0,0:0:0:0:
36,192,162908,1,0,0:0:0:0:
256,192,162908,1,0,0:0:0:0:
402,192,162908,1,0,0:0:0:0:
182,192,162980,1,0,0:0:0:0:
329,192,162980,1,0,0:0:0:0:
36,192,163052,1,0,0:0:0:0:
475,192,163052,1,0,0:0:0:0:
256,192,163052,1,0,0:0:0:0:
109,192,163123,1,0,0:0:0:0:
402,192,163123,1,0,0:0:0:0:
36,192,163195,1,0,0:0:0:0:
182,192,163195,1,0,0:0:0:0:
256,192,163195,1,0,0:0:0:0:
329,192,163195,1,0,0:0:0:0:
475,192,163195,1,0,0:0:0:0:
182,192,163410,1,0,0:0:0:0:
329,192,163410,1,0,0:0:0:0:
475,192,163482,1,0,0:0:0:0:
402,192,163482,1,0,0:0:0:0:
36,192,163482,1,0,0:0:0:0:
109,192,163482,1,0,0:0:0:0:
256,192,163482,1,0,0:0:0:0:
109,192,163697,1,0,0:0:0:0:
402,192,163697,1,0,0:0:0:0:
36,192,163768,1,0,0:0:0:0:
475,192,163768,1,0,0:0:0:0:
329,192,163768,1,0,0:0:0:0:
182,192,163768,1,0,0:0:0:0:
256,192,163768,1,0,0:0:0:0:
36,192,163983,1,0,0:0:0:0:
475,192,163983,1,0,0:0:0:0:
256,192,164055,1,0,0:0:0:0:
182,192,164055,1,0,0:0:0:0:
109,192,164055,1,0,0:0:0:0:
402,192,164055,1,0,0:0:0:0:
329,192,164055,1,0,0:0:0:0:
256,192,164270,1,0,0:0:0:0:
182,192,164342,1,0,0:0:0:0:
109,192,164342,1,0,0:0:0:0:
36,192,164342,1,0,0:0:0:0:
329,192,164342,1,0,0:0:0:0:
475,192,164342,1,0,0:0:0:0:
402,192,164342,1,0,0:0:0:0:
36,192,164628,1,0,0:0:0:0:
109,192,164628,1,0,0:0:0:0:
182,192,164628,1,0,0:0:0:0:
329,192,164628,1,0,0:0:0:0:
402,192,164628,1,0,0:0:0:0:
475,192,164628,1,0,0:0:0:0:
256,192,164915,1,0,0:0:0:0:
475,192,164915,1,0,0:0:0:0:
36,192,164915,1,0,0:0:0:0:
402,192,164987,1,0,0:0:0:0:
109,192,164987,1,0,0:0:0:0:
329,192,165058,1,0,0:0:0:0:
182,192,165058,1,0,0:0:0:0:
109,192,165130,1,0,0:0:0:0:
402,192,165130,1,0,0:0:0:0:
36,192,165202,1,0,0:0:0:0:
475,192,165202,1,0,0:0:0:0:
256,192,165202,1,0,0:0:0:0:
182,192,165273,1,0,0:0:0:0:
329,192,165273,1,0,0:0:0:0:
109,192,165345,1,0,0:0:0:0:
402,192,165345,1,0,0:0:0:0:
36,192,165345,1,0,0:0:0:0:
475,192,165345,1,0,0:0:0:0:
182,192,165417,1,0,0:0:0:0:
329,192,165417,1,0,0:0:0:0:
36,192,165488,1,0,0:0:0:0:
256,192,165488,1,0,0:0:0:0:
402,192,165488,1,0,0:0:0:0:
475,192,165488,1,0,0:0:0:0:
109,192,165488,1,0,0:0:0:0:
329,192,165632,1,0,0:0:0:0:
402,192,165632,1,0,0:0:0:0:
36,192,165632,1,0,0:0:0:0:
182,192,165632,1,0,0:0:0:0:
329,192,165775,1,0,0:0:0:0:
475,192,165775,1,0,0:0:0:0:
109,192,165775,1,0,0:0:0:0:
256,192,165775,1,0,0:0:0:0:
256,192,165918,1,0,0:0:0:0:
402,192,165918,1,0,0:0:0:0:
36,192,165918,1,0,0:0:0:0:
182,192,165918,1,0,0:0:0:0:
475,192,166062,1,0,0:0:0:0:
182,192,166062,1,0,0:0:0:0:
109,192,166062,1,0,0:0:0:0:
329,192,166062,1,0,0:0:0:0:
182,192,166205,1,0,0:0:0:0:
256,192,166205,1,0,0:0:0:0:
36,192,166205,1,0,0:0:0:0:
402,192,166205,1,0,0:0:0:0:
329,192,166348,1,0,0:0:0:0:
109,192,166348,1,0,0:0:0:0:
475,192,166348,1,0,0:0:0:0:
256,192,166348,1,0,0:0:0:0:
402,192,166492,1,0,0:0:0:0:
182,192,166492,1,0,0:0:0:0:
329,192,166492,1,0,0:0:0:0:
36,192,166492,1,0,0:0:0:0:
475,192,166635,1,0,0:0:0:0:
329,192,166635,1,0,0:0:0:0:
182,192,166635,1,0,0:0:0:0:
109,192,166635,1,0,0:0:0:0:
402,192,166778,1,0,0:0:0:0:
256,192,166778,1,0,0:0:0:0:
182,192,166778,1,0,0:0:0:0:
36,192,166778,1,0,0:0:0:0:
475,192,166922,1,0,0:0:0:0:
329,192,166922,1,0,0:0:0:0:
256,192,166922,1,0,0:0:0:0:
109,192,166922,1,0,0:0:0:0:
402,192,167065,1,0,0:0:0:0:
182,192,167065,1,0,0:0:0:0:
36,192,167065,1,0,0:0:0:0:
329,192,167065,1,0,0:0:0:0:
475,192,167208,1,0,0:0:0:0:
36,192,167208,1,0,0:0:0:0:
402,192,167208,1,0,0:0:0:0:
109,192,167208,1,0,0:0:0:0:
182,192,167280,1,0,0:0:0:0:
329,192,167280,1,0,0:0:0:0:
256,192,167352,1,0,0:0:0:0:
36,192,167352,1,0,0:0:0:0:
475,192,167352,1,0,0:0:0:0:
402,192,167423,1,0,0:0:0:0:
109,192,167423,1,0,0:0:0:0:
182,192,167495,1,0,0:0:0:0:
256,192,167495,1,0,0:0:0:0:
329,192,167495,1,0,0:0:0:0:
109,192,167567,1,0,0:0:0:0:
402,192,167567,1,0,0:0:0:0:
36,192,167638,1,0,0:0:0:0:
475,192,167638,1,0,0:0:0:0:
256,192,167638,1,0,0:0:0:0:
182,192,167710,1,0,0:0:0:0:
329,192,167710,1,0,0:0:0:0:
109,192,167782,1,0,0:0:0:0:
36,192,167782,1,0,0:0:0:0:
256,192,167782,1,0,0:0:0:0:
402,192,167782,1,0,0:0:0:0:
475,192,167782,1,0,0:0:0:0:
475,192,167925,1,0,0:0:0:0:
256,192,167925,1,0,0:0:0:0:
36,192,167925,1,0,0:0:0:0:
329,192,167997,1,0,0:0:0:0:
109,192,167997,1,0,0:0:0:0:
402,192,168068,1,0,0:0:0:0:
36,192,168068,1,0,0:0:0:0:
182,192,168068,1,0,0:0:0:0:
475,192,168068,1,0,0:0:0:0:
329,192,168140,1,0,0:0:0:0:
475,192,168212,1,0,0:0:0:0:
256,192,168212,1,0,0:0:0:0:
36,192,168212,1,0,0:0:0:0:
182,192,168283,1,0,0:0:0:0:
402,192,168283,1,0,0:0:0:0:
36,192,168355,1,0,0:0:0:0:
329,192,168355,1,0,0:0:0:0:
475,192,168355,1,0,0:0:0:0:
109,192,168355,1,0,0:0:0:0:
256,192,168427,1,0,0:0:0:0:
402,192,168498,1,0,0:0:0:0:
475,192,168498,1,0,0:0:0:0:
182,192,168498,1,0,0:0:0:0:
109,192,168498,1,0,0:0:0:0:
329,192,168570,1,0,0:0:0:0:
182,192,168642,1,0,0:0:0:0:
36,192,168642,1,0,0:0:0:0:
475,192,168642,1,0,0:0:0:0:
256,192,168642,1,0,0:0:0:0:
402,192,168713,1,0,0:0:0:0:
109,192,168785,1,0,0:0:0:0:
36,192,168785,1,0,0:0:0:0:
256,192,168785,1,0,0:0:0:0:
475,192,168785,1,0,0:0:0:0:
329,192,168785,1,0,0:0:0:0:
256,192,168928,1,0,0:0:0:0:
36,192,168928,1,0,0:0:0:0:
109,192,168928,1,0,0:0:0:0:
182,192,169000,1,0,0:0:0:0:
329,192,169000,1,0,0:0:0:0:
402,192,169072,1,0,0:0:0:0:
36,192,169072,1,0,0:0:0:0:
256,192,169072,1,0,0:0:0:0:
475,192,169072,1,0,0:0:0:0:
329,192,169143,1,0,0:0:0:0:
109,192,169143,1,0,0:0:0:0:
182,192,169215,1,0,0:0:0:0:
402,192,169215,1,0,0:0:0:0:
36,192,169215,1,0,0:0:0:0:
475,192,169215,1,0,0:0:0:0:
402,192,169358,1,0,0:0:0:0:
256,192,169358,1,0,0:0:0:0:
475,192,169358,1,0,0:0:0:0:
329,192,169430,1,0,0:0:0:0:
182,192,169430,1,0,0:0:0:0:
109,192,169502,1,0,0:0:0:0:
256,192,169502,1,0,0:0:0:0:
36,192,169502,1,0,0:0:0:0:
475,192,169502,1,0,0:0:0:0:
182,192,169645,1,0,0:0:0:0:
329,192,169645,1,0,0:0:0:0:
402,192,169645,1,0,0:0:0:0:
109,192,169717,1,0,0:0:0:0:
256,192,169717,1,0,0:0:0:0:
182,192,169788,1,0,0:0:0:0:
402,192,169788,1,0,0:0:0:0:
475,192,169788,1,0,0:0:0:0:
36,192,169788,1,0,0:0:0:0:
182,192,169932,1,0,0:0:0:0:
36,192,169932,1,0,0:0:0:0:
256,192,170003,1,0,0:0:0:0:
109,192,170003,1,0,0:0:0:0:
329,192,170075,1,0,0:0:0:0:
182,192,170075,1,0,0:0:0:0:
475,192,170075,1,0,0:0:0:0:
36,192,170075,1,0,0:0:0:0:
402,192,170147,1,0,0:0:0:0:
109,192,170218,1,0,0:0:0:0:
329,192,170218,1,0,0:0:0:0:
36,192,170218,1,0,0:0:0:0:
182,192,170290,1,0,0:0:0:0:
402,192,170290,1,0,0:0:0:0:
475,192,170362,1,0,0:0:0:0:
329,192,170362,1,0,0:0:0:0:
256,192,170362,1,0,0:0:0:0:
36,192,170362,1,0,0:0:0:0:
109,192,170433,1,0,0:0:0:0:
402,192,170505,1,0,0:0:0:0:
182,192,170505,1,0,0:0:0:0:
329,192,170577,1,0,0:0:0:0:
109,192,170577,1,0,0:0:0:0:
256,192,170648,1,0,0:0:0:0:
182,192,170648,1,0,0:0:0:0:
475,192,170648,1,0,0:0:0:0:
36,192,170648,1,0,0:0:0:0:
402,192,170720,1,0,0:0:0:0:
109,192,170792,1,0,0:0:0:0:
36,192,170792,1,0,0:0:0:0:
329,192,170792,1,0,0:0:0:0:
256,192,170792,1,0,0:0:0:0:
475,192,170863,1,0,0:0:0:0:
182,192,170935,1,0,0:0:0:0:
109,192,170935,1,0,0:0:0:0:
402,192,170935,1,0,0:0:0:0:
329,192,170935,1,0,0:0:0:0:
36,192,171007,1,0,0:0:0:0:
256,192,171078,1,0,0:0:0:0:
402,192,171078,1,0,0:0:0:0:
475,192,171078,1,0,0:0:0:0:
182,192,171078,1,0,0:0:0:0:
329,192,171222,1,0,0:0:0:0:
109,192,171222,1,0,0:0:0:0:
36,192,171222,1,0,0:0:0:0:
402,192,171293,1,0,0:0:0:0:
182,192,171293,1,0,0:0:0:0:
36,192,171365,1,0,0:0:0:0:
256,192,171365,1,0,0:0:0:0:
475,192,171365,1,0,0:0:0:0:
329,192,171437,1,0,0:0:0:0:
109,192,171437,1,0,0:0:0:0:
402,192,171508,1,0,0:0:0:0:
182,192,171508,1,0,0:0:0:0:
475,192,171508,1,0,0:0:0:0:
36,192,171508,1,0,0:0:0:0:
329,192,171580,1,0,0:0:0:0:
256,192,171580,1,0,0:0:0:0:
109,192,171580,1,0,0:0:0:0:
182,192,171652,1,0,0:0:0:0:
402,192,171652,1,0,0:0:0:0:
475,192,171652,1,0,0:0:0:0:
36,192,171652,1,0,0:0:0:0:
402,192,171795,1,0,0:0:0:0:
109,192,171795,1,0,0:0:0:0:
256,192,171795,1,0,0:0:0:0:
182,192,171867,1,0,0:0:0:0:
329,192,171867,1,0,0:0:0:0:
475,192,171938,1,0,0:0:0:0:
36,192,171938,1,0,0:0:0:0:
256,192,171938,1,0,0:0:0:0:
329,192,172010,1,0,0:0:0:0:
182,192,172010,1,0,0:0:0:0:
36,192,172082,1,0,0:0:0:0:
475,192,172082,1,0,0:0:0:0:
256,192,172082,1,0,0:0:0:0:
402,192,172153,1,0,0:0:0:0:
109,192,172153,1,0,0:0:0:0:
329,192,172225,1,0,0:0:0:0:
256,192,172225,1,0,0:0:0:0:
182,192,172225,1,0,0:0:0:0:
402,192,172297,1,0,0:0:0:0:
109,192,172297,1,0,0:0:0:0:
329,192,172368,1,0,0:0:0:0:
256,192,172368,1,0,0:0:0:0:
182,192,172368,1,0,0:0:0:0:
475,192,172368,1,0,0:0:0:0:
36,192,172368,1,0,0:0:0:0:
109,192,172440,1,0,0:0:0:0:
475,192,172512,1,0,0:0:0:0:
182,192,172512,1,0,0:0:0:0:
329,192,172512,1,0,0:0:0:0:
402,192,172512,1,0,0:0:0:0:
36,192,172583,1,0,0:0:0:0:
329,192,172655,1,0,0:0:0:0:
402,192,172655,1,0,0:0:0:0:
109,192,172655,1,0,0:0:0:0:
256,192,172655,1,0,0:0:0:0:
475,192,172727,1,0,0:0:0:0:
329,192,172798,1,0,0:0:0:0:
36,192,172798,1,0,0:0:0:0:
182,192,172798,1,0,0:0:0:0:
256,192,172798,1,0,0:0:0:0:
329,192,173085,1,0,0:0:0:0:
475,192,173085,1,0,0:0:0:0:
36,192,173085,1,0,0:0:0:0:
109,192,173085,1,0,0:0:0:0:
256,192,173157,1,0,0:0:0:0:
475,192,173228,1,0,0:0:0:0:
182,192,173228,1,0,0:0:0:0:
36,192,173228,1,0,0:0:0:0:
402,192,173228,1,0,0:0:0:0:
256,192,173300,1,0,0:0:0:0:
475,192,173372,1,0,0:0:0:0:
36,192,173372,1,0,0:0:0:0:
329,192,173372,1,0,0:0:0:0:
109,192,173372,1,0,0:0:0:0:
402,192,173658,1,0,0:0:0:0:
36,192,173658,1,0,0:0:0:0:
182,192,173658,1,0,0:0:0:0:
475,192,173658,1,0,0:0:0:0:
256,192,173730,1,0,0:0:0:0:
329,192,173802,1,0,0:0:0:0:
475,192,173802,1,0,0:0:0:0:
36,192,173802,1,0,0:0:0:0:
109,192,173802,1,0,0:0:0:0:
256,192,173874,1,0,0:0:0:0:
402,192,173945,1,0,0:0:0:0:
475,192,173945,1,0,0:0:0:0:
36,192,173945,1,0,0:0:0:0:
182,192,173945,1,0,0:0:0:0:
182,192,174232,1,0,0:0:0:0:
329,192,174232,1,0,0:0:0:0:
475,192,174232,1,0,0:0:0:0:
36,192,174232,1,0,0:0:0:0:
402,192,174304,1,0,0:0:0:0:
256,192,174304,1,0,0:0:0:0:
109,192,174304,1,0,0:0:0:0:
182,192,174375,1,0,0:0:0:0:
329,192,174375,1,0,0:0:0:0:
475,192,174375,1,0,0:0:0:0:
36,192,174375,1,0,0:0:0:0:
402,192,174447,1,0,0:0:0:0:
109,192,174447,1,0,0:0:0:0:
256,192,174518,1,0,0:0:0:0:
329,192,174518,1,0,0:0:0:0:
182,192,174518,1,0,0:0:0:0:
109,192,174590,1,0,0:0:0:0:
402,192,174590,1,0,0:0:0:0:
329,192,174662,1,0,0:0:0:0:
256,192,174662,1,0,0:0:0:0:
182,192,174662,1,0,0:0:0:0:
475,192,174662,1,0,0:0:0:0:
36,192,174662,1,0,0:0:0:0:
109,192,174734,1,0,0:0:0:0:
402,192,174805,1,0,0:0:0:0:
475,192,174805,1,0,0:0:0:0:
182,192,174805,1,0,0:0:0:0:
329,192,174877,1,0,0:0:0:0:
109,192,174877,1,0,0:0:0:0:
256,192,174948,1,0,0:0:0:0:
36,192,174948,1,0,0:0:0:0:
475,192,174948,1,0,0:0:0:0:
182,192,175020,1,0,0:0:0:0:
36,192,175092,1,0,0:0:0:0:
475,192,175092,1,0,0:0:0:0:
329,192,175092,1,0,0:0:0:0:
256,192,175164,1,0,0:0:0:0:
402,192,175164,1,0,0:0:0:0:
109,192,175164,1,0,0:0:0:0:
475,192,175235,1,0,0:0:0:0:
329,192,175235,1,0,0:0:0:0:
182,192,175235,1,0,0:0:0:0:
36,192,175235,1,0,0:0:0:0:
256,192,175378,1,0,0:0:0:0:
36,192,175378,1,0,0:0:0:0:
402,192,175378,1,0,0:0:0:0:
182,192,175378,1,0,0:0:0:0:
329,192,175522,1,0,0:0:0:0:
475,192,175522,1,0,0:0:0:0:
182,192,175522,1,0,0:0:0:0:
109,192,175522,1,0,0:0:0:0:
402,192,175665,1,0,0:0:0:0:
475,192,175665,1,0,0:0:0:0:
36,192,175665,1,0,0:0:0:0:
256,192,175665,1,0,0:0:0:0:
109,192,175665,1,0,0:0:0:0:
402,192,176238,1,0,0:0:0:0:
256,192,176238,1,0,0:0:0:0:
475,192,176238,1,0,0:0:0:0:
182,192,176525,1,0,0:0:0:0:
329,192,176525,1,0,0:0:0:0:
256,192,176668,1,0,0:0:0:0:
109,192,176668,1,0,0:0:0:0:
36,192,176812,1,0,0:0:0:0:
182,192,176812,1,0,0:0:0:0:
36,192,176955,1,0,0:0:0:0:
475,192,176955,1,0,0:0:0:0:
256,192,176955,1,0,0:0:0:0:
109,192,177098,1,0,0:0:0:0:
182,192,177242,1,0,0:0:0:0:
256,192,177385,1,0,0:0:0:0:
109,192,177672,1,0,0:0:0:0:
182,192,177815,1,0,0:0:0:0:
256,192,177958,1,0,0:0:0:0:
109,192,178245,1,0,0:0:0:0:
182,192,178388,1,0,0:0:0:0:
256,192,178532,1,0,0:0:0:0:
109,192,178818,1,0,0:0:0:0:
182,192,178962,1,0,0:0:0:0:
256,192,179105,1,0,0:0:0:0:
109,192,179392,1,0,0:0:0:0:
182,192,179535,1,0,0:0:0:0:
256,192,179678,1,0,0:0:0:0:
109,192,179965,1,0,0:0:0:0:
182,192,180108,1,0,0:0:0:0:
256,192,180252,1,0,0:0:0:0:
109,192,180538,1,0,0:0:0:0:
182,192,180700,1,0,0:0:0:0:
256,192,180861,1,0,0:0:0:0:
109,192,181148,1,0,0:0:0:0:
182,192,181309,1,0,0:0:0:0:
256,192,181470,1,0,0:0:0:0:
