osu file format v14

[General]
AudioFilename: Yanaginagi - Landscape120.mp3
AudioLeadIn: 0
PreviewTime: 53607
Countdown: 0
SampleSet: None
StackLeniency: 0.7
Mode: 3
LetterboxInBreaks: 0
SpecialStyle: 0
WidescreenStoryboard: 0

[Editor]
Bookmarks: 99618
DistanceSpacing: 1.6
BeatDivisor: 4
GridSize: 4
TimelineZoom: 2.7

[Metadata]
Title:Landscape
TitleUnicode:Landscape
Artist:Yanaginagi
ArtistUnicode:Yanaginagi
Creator:Applequestria
Version:For Kawawa [1.2x Rate]
Source:
Tags:
BeatmapID:4536945
BeatmapSetID:677745

[Difficulty]
HPDrainRate:8
CircleSize:7
OverallDifficulty:8
ApproachRate:5
SliderMultiplier:1.4
SliderTickRate:1

[Events]
//Background and Video events
0,0,"Yanaginagi - Landscape.jpg",0,0
//Break Periods
//Storyboard Layer 0 (Background)
//Storyboard Layer 1 (Fail)
//Storyboard Layer 2 (Pass)
//Storyboard Layer 3 (Foreground)
//Storyboard Layer 4 (Overlay)
//Storyboard Sound Samples

[TimingPoints]
394,310.55900621118,4,2,0,10,1,0
53810,-100,4,2,0,10,0,1
73686,-100,4,2,0,10,0,0
114679,-100,4,2,0,10,0,1
134555,-100,4,2,0,10,0,0
161884,-100,4,2,0,10,0,1
181760,-100,4,2,0,10,0,0

[HitObjects]
36,192,394,5,0,0:0:0:0:
475,192,394,5,0,0:0:0:0:
109,192,394,1,0,0:0:0:0:
256,192,394,1,0,0:0:0:0:
402,192,394,1,0,0:0:0:0:
402,192,860,1,0,0:0:0:0:
475,192,860,1,0,0:0:0:0:
256,192,860,1,0,0:0:0:0:
329,192,1170,1,0,0:0:0:0:
475,192,1170,1,0,0:0:0:0:
256,192,1326,1,0,0:0:0:0:
402,192,1326,1,0,0:0:0:0:
182,192,1481,1,0,0:0:0:0:
329,192,1481,1,0,0:0:0:0:
36,192,1636,1,0,0:0:0:0:
109,192,1636,1,0,0:0:0:0:
256,192,1636,1,0,0:0:0:0:
329,192,2258,1,0,0:0:0:0:
182,192,2258,1,0,0:0:0:0:
256,192,2878,1,0,0:0:0:0:
402,192,2878,1,0,0:0:0:0:
475,192,2878,1,0,0:0:0:0:
182,192,2878,1,0,0:0:0:0:
36,192,2878,1,0,0:0:0:0:
329,192,3033,1,0,0:0:0:0:
109,192,3033,1,0,0:0:0:0:
182,192,3189,1,0,0:0:0:0:
36,192,3189,1,0,0:0:0:0:
475,192,3344,1,0,0:0:0:0:
402,192,3344,1,0,0:0:0:0:
256,192,3344,1,0,0:0:0:0:
182,192,3499,1,0,0:0:0:0:
36,192,3499,1,0,0:0:0:0:
109,192,3655,1,0,0:0:0:0:
475,192,3655,1,0,0:0:0:0:
329,192,3655,1,0,0:0:0:0:
256,192,3810,1,0,0:0:0:0:
402,192,3810,1,0,0:0:0:0:
182,192,3965,1,0,0:0:0:0:
329,192,3965,1,0,0:0:0:0:
256,192,4121,1,0,0:0:0:0:
402,192,4121,1,0,0:0:0:0:
475,192,4121,1,0,0:0:0:0:
109,192,4121,1,0,0:0:0:0:
36,192,4121,1,0,0:0:0:0:
475,192,4431,128,0,4742:0:0:0:0:
329,192,4431,128,0,4742:0:0:0:0:
182,192,4431,1,0,0:0:0:0:
402,192,4742,128,0,5052:0:0:0:0:
256,192,4742,128,0,5052:0:0:0:0:
109,192,4742,1,0,0:0:0:0:
36,192,5052,1,0,0:0:0:0:
329,192,5052,128,0,5362:0:0:0:0:
182,192,5052,128,0,5362:0:0:0:0:
402,192,5362,1,0,0:0:0:0:
475,192,5362,1,0,0:0:0:0:
36,192,5362,1,0,0:0:0:0:
109,192,5362,1,0,0:0:0:0:
256,192,5362,1,0,0:0:0:0:
329,192,5518,1,0,0:0:0:0:
182,192,5518,1,0,0:0:0:0:
36,192,5673,1,0,0:0:0:0:
109,192,5673,1,0,0:0:0:0:
402,192,5828,1,0,0:0:0:0:
475,192,5828,1,0,0:0:0:0:
256,192,5828,1,0,0:0:0:0:
36,192,5984,1,0,0:0:0:0:
109,192,5984,1,0,0:0:0:0:
329,192,6139,1,0,0:0:0:0:
475,192,6139,1,0,0:0:0:0:
182,192,6139,1,0,0:0:0:0:
256,192,6294,1,0,0:0:0:0:
402,192,6294,1,0,0:0:0:0:
182,192,6450,1,0,0:0:0:0:
329,192,6450,1,0,0:0:0:0:
36,192,6605,128,0,7148:0:0:0:0:
109,192,6605,128,0,7148:0:0:0:0:
256,192,6605,128,0,7148:0:0:0:0:
402,192,6605,128,0,7148:0:0:0:0:
475,192,6605,128,0,7148:0:0:0:0:
36,192,7226,128,0,7769:0:0:0:0:
109,192,7226,128,0,7769:0:0:0:0:
256,192,7226,128,0,7769:0:0:0:0:
329,192,7226,128,0,7769:0:0:0:0:
402,192,7226,128,0,7769:0:0:0:0:
109,192,7848,128,0,9012:0:0:0:0:
182,192,7848,128,0,9012:0:0:0:0:
329,192,7848,128,0,9012:0:0:0:0:
402,192,7848,128,0,9012:0:0:0:0:
475,192,7848,128,0,9012:0:0:0:0:
36,192,9089,128,0,10254:0:0:0:0:
109,192,9089,128,0,10254:0:0:0:0:
256,192,9089,128,0,10254:0:0:0:0:
475,192,9089,128,0,10254:0:0:0:0:
402,192,9089,128,0,10254:0:0:0:0:
36,192,10332,1,0,0:0:0:0:
109,192,10332,1,0,0:0:0:0:
256,192,10332,1,0,0:0:0:0:
402,192,10332,1,0,0:0:0:0:
475,192,10332,1,0,0:0:0:0:
182,192,10538,1,0,0:0:0:0:
329,192,10538,1,0,0:0:0:0:
256,192,10746,1,0,0:0:0:0:
109,192,10746,1,0,0:0:0:0:
36,192,10746,1,0,0:0:0:0:
182,192,10952,128,0,12195:0:0:0:0:
329,192,11418,128,0,12195:0:0:0:0:
36,192,12195,1,0,0:0:0:0:
475,192,12195,1,0,0:0:0:0:
109,192,12195,1,0,0:0:0:0:
402,192,12195,1,0,0:0:0:0:
256,192,12195,1,0,0:0:0:0:
475,192,12350,1,0,0:0:0:0:
36,192,12350,1,0,0:0:0:0:
182,192,12350,1,0,0:0:0:0:
329,192,12350,1,0,0:0:0:0:
402,192,12428,1,0,0:0:0:0:
109,192,12428,1,0,0:0:0:0:
36,192,12506,1,0,0:0:0:0:
475,192,12506,1,0,0:0:0:0:
256,192,12506,1,0,0:0:0:0:
182,192,12506,1,0,0:0:0:0:
329,192,12506,1,0,0:0:0:0:
109,192,12661,1,0,0:0:0:0:
402,192,12661,1,0,0:0:0:0:
36,192,12661,1,0,0:0:0:0:
475,192,12661,1,0,0:0:0:0:
182,192,12738,1,0,0:0:0:0:
329,192,12738,1,0,0:0:0:0:
36,192,12816,1,0,0:0:0:0:
475,192,12816,1,0,0:0:0:0:
256,192,12816,1,0,0:0:0:0:
109,192,12816,1,0,0:0:0:0:
402,192,12816,1,0,0:0:0:0:
36,192,12972,1,0,0:0:0:0:
256,192,12972,1,0,0:0:0:0:
475,192,12972,1,0,0:0:0:0:
109,192,13049,1,0,0:0:0:0:
329,192,13049,1,0,0:0:0:0:
182,192,13127,1,0,0:0:0:0:
475,192,13127,1,0,0:0:0:0:
402,192,13127,1,0,0:0:0:0:
36,192,13127,1,0,0:0:0:0:
329,192,13204,1,0,0:0:0:0:
36,192,13282,1,0,0:0:0:0:
256,192,13282,1,0,0:0:0:0:
475,192,13282,1,0,0:0:0:0:
402,192,13360,1,0,0:0:0:0:
182,192,13360,1,0,0:0:0:0:
475,192,13438,1,0,0:0:0:0:
109,192,13438,1,0,0:0:0:0:
36,192,13438,1,0,0:0:0:0:
329,192,13438,1,0,0:0:0:0:
256,192,13515,1,0,0:0:0:0:
182,192,13592,1,0,0:0:0:0:
109,192,13592,1,0,0:0:0:0:
402,192,13592,1,0,0:0:0:0:
475,192,13592,1,0,0:0:0:0:
329,192,13670,1,0,0:0:0:0:
475,192,13748,1,0,0:0:0:0:
256,192,13748,1,0,0:0:0:0:
182,192,13748,1,0,0:0:0:0:
36,192,13748,1,0,0:0:0:0:
402,192,13826,1,0,0:0:0:0:
475,192,13903,1,0,0:0:0:0:
329,192,13903,1,0,0:0:0:0:
256,192,13903,1,0,0:0:0:0:
109,192,13903,1,0,0:0:0:0:
36,192,13903,1,0,0:0:0:0:
109,192,14058,1,0,0:0:0:0:
36,192,14058,1,0,0:0:0:0:
256,192,14058,1,0,0:0:0:0:
329,192,14136,1,0,0:0:0:0:
182,192,14136,1,0,0:0:0:0:
256,192,14213,1,0,0:0:0:0:
475,192,14213,1,0,0:0:0:0:
402,192,14213,1,0,0:0:0:0:
36,192,14213,1,0,0:0:0:0:
109,192,14292,1,0,0:0:0:0:
329,192,14292,1,0,0:0:0:0:
36,192,14369,1,0,0:0:0:0:
475,192,14369,1,0,0:0:0:0:
182,192,14369,1,0,0:0:0:0:
402,192,14369,1,0,0:0:0:0:
475,192,14524,1,0,0:0:0:0:
256,192,14524,1,0,0:0:0:0:
402,192,14524,1,0,0:0:0:0:
182,192,14602,1,0,0:0:0:0:
329,192,14602,1,0,0:0:0:0:
36,192,14679,1,0,0:0:0:0:
475,192,14679,1,0,0:0:0:0:
109,192,14679,1,0,0:0:0:0:
256,192,14679,1,0,0:0:0:0:
402,192,14835,1,0,0:0:0:0:
329,192,14835,1,0,0:0:0:0:
182,192,14835,1,0,0:0:0:0:
256,192,14912,1,0,0:0:0:0:
109,192,14912,1,0,0:0:0:0:
475,192,14990,1,0,0:0:0:0:
36,192,14990,1,0,0:0:0:0:
182,192,14990,1,0,0:0:0:0:
402,192,14990,1,0,0:0:0:0:
36,192,15145,1,0,0:0:0:0:
182,192,15145,1,0,0:0:0:0:
109,192,15223,1,0,0:0:0:0:
256,192,15223,1,0,0:0:0:0:
475,192,15301,1,0,0:0:0:0:
36,192,15301,1,0,0:0:0:0:
329,192,15301,1,0,0:0:0:0:
182,192,15301,1,0,0:0:0:0:
402,192,15378,1,0,0:0:0:0:
36,192,15456,1,0,0:0:0:0:
329,192,15456,1,0,0:0:0:0:
109,192,15456,1,0,0:0:0:0:
402,192,15533,1,0,0:0:0:0:
182,192,15533,1,0,0:0:0:0:
256,192,15611,1,0,0:0:0:0:
36,192,15611,1,0,0:0:0:0:
475,192,15611,1,0,0:0:0:0:
329,192,15611,1,0,0:0:0:0:
109,192,15689,1,0,0:0:0:0:
182,192,15767,1,0,0:0:0:0:
402,192,15767,1,0,0:0:0:0:
109,192,15844,1,0,0:0:0:0:
329,192,15844,1,0,0:0:0:0:
475,192,15922,1,0,0:0:0:0:
36,192,15922,1,0,0:0:0:0:
256,192,15922,1,0,0:0:0:0:
182,192,15922,1,0,0:0:0:0:
402,192,15999,1,0,0:0:0:0:
329,192,16077,1,0,0:0:0:0:
256,192,16077,1,0,0:0:0:0:
109,192,16077,1,0,0:0:0:0:
36,192,16077,1,0,0:0:0:0:
475,192,16155,1,0,0:0:0:0:
402,192,16232,1,0,0:0:0:0:
329,192,16232,1,0,0:0:0:0:
182,192,16232,1,0,0:0:0:0:
109,192,16232,1,0,0:0:0:0:
36,192,16310,1,0,0:0:0:0:
475,192,16388,1,0,0:0:0:0:
182,192,16388,1,0,0:0:0:0:
256,192,16388,1,0,0:0:0:0:
402,192,16388,1,0,0:0:0:0:
36,192,16542,1,0,0:0:0:0:
109,192,16542,1,0,0:0:0:0:
329,192,16542,1,0,0:0:0:0:
182,192,16621,1,0,0:0:0:0:
402,192,16621,1,0,0:0:0:0:
475,192,16698,1,0,0:0:0:0:
256,192,16698,1,0,0:0:0:0:
36,192,16698,1,0,0:0:0:0:
109,192,16776,1,0,0:0:0:0:
329,192,16776,1,0,0:0:0:0:
475,192,16853,1,0,0:0:0:0:
36,192,16853,1,0,0:0:0:0:
402,192,16853,1,0,0:0:0:0:
182,192,16853,1,0,0:0:0:0:
109,192,16931,1,0,0:0:0:0:
256,192,16931,1,0,0:0:0:0:
329,192,16931,1,0,0:0:0:0:
475,192,17008,1,0,0:0:0:0:
36,192,17008,1,0,0:0:0:0:
182,192,17008,1,0,0:0:0:0:
402,192,17008,1,0,0:0:0:0:
256,192,17164,1,0,0:0:0:0:
109,192,17164,1,0,0:0:0:0:
402,192,17164,1,0,0:0:0:0:
329,192,17242,1,0,0:0:0:0:
182,192,17242,1,0,0:0:0:0:
256,192,17319,1,0,0:0:0:0:
36,192,17319,1,0,0:0:0:0:
475,192,17319,1,0,0:0:0:0:
182,192,17397,1,0,0:0:0:0:
329,192,17397,1,0,0:0:0:0:
256,192,17474,1,0,0:0:0:0:
475,192,17474,1,0,0:0:0:0:
36,192,17474,1,0,0:0:0:0:
109,192,17552,1,0,0:0:0:0:
402,192,17552,1,0,0:0:0:0:
182,192,17630,1,0,0:0:0:0:
256,192,17630,1,0,0:0:0:0:
329,192,17630,1,0,0:0:0:0:
109,192,17708,1,0,0:0:0:0:
402,192,17708,1,0,0:0:0:0:
475,192,17785,1,0,0:0:0:0:
36,192,17785,1,0,0:0:0:0:
182,192,17785,1,0,0:0:0:0:
329,192,17785,1,0,0:0:0:0:
256,192,17785,1,0,0:0:0:0:
109,192,17862,1,0,0:0:0:0:
329,192,17940,1,0,0:0:0:0:
402,192,17940,1,0,0:0:0:0:
475,192,17940,1,0,0:0:0:0:
182,192,17940,1,0,0:0:0:0:
36,192,18018,1,0,0:0:0:0:
109,192,18096,1,0,0:0:0:0:
256,192,18096,1,0,0:0:0:0:
329,192,18096,1,0,0:0:0:0:
402,192,18096,1,0,0:0:0:0:
475,192,18173,1,0,0:0:0:0:
182,192,18251,1,0,0:0:0:0:
256,192,18251,1,0,0:0:0:0:
329,192,18251,1,0,0:0:0:0:
36,192,18251,1,0,0:0:0:0:
36,192,18562,1,0,0:0:0:0:
109,192,18562,1,0,0:0:0:0:
329,192,18562,1,0,0:0:0:0:
475,192,18562,1,0,0:0:0:0:
256,192,18639,1,0,0:0:0:0:
36,192,18717,1,0,0:0:0:0:
402,192,18717,1,0,0:0:0:0:
475,192,18717,1,0,0:0:0:0:
182,192,18717,1,0,0:0:0:0:
256,192,18794,1,0,0:0:0:0:
329,192,18872,1,0,0:0:0:0:
109,192,18872,1,0,0:0:0:0:
475,192,18872,1,0,0:0:0:0:
36,192,18872,1,0,0:0:0:0:
182,192,19182,1,0,0:0:0:0:
475,192,19182,1,0,0:0:0:0:
402,192,19182,1,0,0:0:0:0:
36,192,19182,1,0,0:0:0:0:
256,192,19260,1,0,0:0:0:0:
36,192,19338,1,0,0:0:0:0:
109,192,19338,1,0,0:0:0:0:
329,192,19338,1,0,0:0:0:0:
475,192,19338,1,0,0:0:0:0:
256,192,19416,1,0,0:0:0:0:
36,192,19493,1,0,0:0:0:0:
182,192,19493,1,0,0:0:0:0:
402,192,19493,1,0,0:0:0:0:
475,192,19493,1,0,0:0:0:0:
475,192,19803,1,0,0:0:0:0:
36,192,19803,1,0,0:0:0:0:
182,192,19803,1,0,0:0:0:0:
329,192,19803,1,0,0:0:0:0:
109,192,19882,1,0,0:0:0:0:
256,192,19882,1,0,0:0:0:0:
402,192,19882,1,0,0:0:0:0:
475,192,19959,1,0,0:0:0:0:
36,192,19959,1,0,0:0:0:0:
182,192,19959,1,0,0:0:0:0:
329,192,19959,1,0,0:0:0:0:
109,192,20037,1,0,0:0:0:0:
402,192,20037,1,0,0:0:0:0:
182,192,20114,1,0,0:0:0:0:
329,192,20114,1,0,0:0:0:0:
256,192,20114,1,0,0:0:0:0:
402,192,20192,1,0,0:0:0:0:
109,192,20192,1,0,0:0:0:0:
475,192,20269,1,0,0:0:0:0:
36,192,20269,1,0,0:0:0:0:
182,192,20269,1,0,0:0:0:0:
329,192,20269,1,0,0:0:0:0:
256,192,20269,1,0,0:0:0:0:
109,192,20348,1,0,0:0:0:0:
182,192,20425,1,0,0:0:0:0:
475,192,20425,1,0,0:0:0:0:
402,192,20425,1,0,0:0:0:0:
109,192,20502,1,0,0:0:0:0:
329,192,20502,1,0,0:0:0:0:
475,192,20580,1,0,0:0:0:0:
36,192,20580,1,0,0:0:0:0:
256,192,20580,1,0,0:0:0:0:
182,192,20658,1,0,0:0:0:0:
329,192,20735,1,0,0:0:0:0:
475,192,20735,1,0,0:0:0:0:
36,192,20735,1,0,0:0:0:0:
109,192,20813,1,0,0:0:0:0:
402,192,20813,1,0,0:0:0:0:
256,192,20813,1,0,0:0:0:0:
182,192,20891,1,0,0:0:0:0:
36,192,20891,1,0,0:0:0:0:
475,192,20891,1,0,0:0:0:0:
329,192,20891,1,0,0:0:0:0:
402,192,21046,1,0,0:0:0:0:
182,192,21046,1,0,0:0:0:0:
256,192,21046,1,0,0:0:0:0:
36,192,21046,1,0,0:0:0:0:
182,192,21201,1,0,0:0:0:0:
109,192,21201,1,0,0:0:0:0:
329,192,21201,1,0,0:0:0:0:
475,192,21201,1,0,0:0:0:0:
256,192,21357,1,0,0:0:0:0:
109,192,21357,1,0,0:0:0:0:
36,192,21357,1,0,0:0:0:0:
402,192,21357,1,0,0:0:0:0:
475,192,21357,1,0,0:0:0:0:
475,192,21978,1,0,0:0:0:0:
256,192,21978,1,0,0:0:0:0:
402,192,21978,1,0,0:0:0:0:
36,192,22132,1,0,0:0:0:0:
109,192,22172,1,0,0:0:0:0:
182,192,22211,1,0,0:0:0:0:
256,192,22249,1,0,0:0:0:0:
329,192,22288,1,0,0:0:0:0:
475,192,22288,1,0,0:0:0:0:
256,192,22327,1,0,0:0:0:0:
182,192,22366,1,0,0:0:0:0:
109,192,22405,1,0,0:0:0:0:
402,192,22443,1,0,0:0:0:0:
36,192,22443,1,0,0:0:0:0:
329,192,22482,1,0,0:0:0:0:
256,192,22521,1,0,0:0:0:0:
182,192,22560,1,0,0:0:0:0:
475,192,22598,1,0,0:0:0:0:
109,192,22598,1,0,0:0:0:0:
402,192,22638,1,0,0:0:0:0:
329,192,22677,1,0,0:0:0:0:
256,192,22715,1,0,0:0:0:0:
475,192,22754,1,0,0:0:0:0:
36,192,22754,1,0,0:0:0:0:
182,192,22754,1,0,0:0:0:0:
109,192,22909,1,0,0:0:0:0:
182,192,23064,1,0,0:0:0:0:
402,192,23064,1,0,0:0:0:0:
475,192,23064,1,0,0:0:0:0:
256,192,23220,1,0,0:0:0:0:
402,192,23220,1,0,0:0:0:0:
329,192,23220,1,0,0:0:0:0:
109,192,23530,1,0,0:0:0:0:
402,192,23530,1,0,0:0:0:0:
475,192,23530,1,0,0:0:0:0:
182,192,23686,1,0,0:0:0:0:
256,192,23841,1,0,0:0:0:0:
402,192,23841,1,0,0:0:0:0:
329,192,23841,1,0,0:0:0:0:
36,192,23996,1,0,0:0:0:0:
182,192,23996,1,0,0:0:0:0:
109,192,24152,1,0,0:0:0:0:
182,192,24307,1,0,0:0:0:0:
402,192,24307,1,0,0:0:0:0:
475,192,24307,1,0,0:0:0:0:
256,192,24462,1,0,0:0:0:0:
402,192,24462,1,0,0:0:0:0:
329,192,24462,1,0,0:0:0:0:
109,192,24772,1,0,0:0:0:0:
402,192,24772,1,0,0:0:0:0:
475,192,24772,1,0,0:0:0:0:
182,192,24928,1,0,0:0:0:0:
256,192,25083,1,0,0:0:0:0:
329,192,25083,1,0,0:0:0:0:
402,192,25083,1,0,0:0:0:0:
36,192,25238,1,0,0:0:0:0:
182,192,25238,1,0,0:0:0:0:
402,192,25238,1,0,0:0:0:0:
475,192,25238,1,0,0:0:0:0:
109,192,25393,1,0,0:0:0:0:
182,192,25549,1,0,0:0:0:0:
256,192,25704,1,0,0:0:0:0:
402,192,25704,1,0,0:0:0:0:
475,192,25704,1,0,0:0:0:0:
402,192,25860,1,0,0:0:0:0:
329,192,25860,1,0,0:0:0:0:
109,192,26015,1,0,0:0:0:0:
182,192,26170,1,0,0:0:0:0:
256,192,26326,1,0,0:0:0:0:
36,192,26481,1,0,0:0:0:0:
182,192,26481,1,0,0:0:0:0:
109,192,26636,1,0,0:0:0:0:
182,192,26792,1,0,0:0:0:0:
256,192,26947,1,0,0:0:0:0:
109,192,27258,1,0,0:0:0:0:
182,192,27412,1,0,0:0:0:0:
256,192,27568,1,0,0:0:0:0:
475,192,27723,1,0,0:0:0:0:
329,192,27723,1,0,0:0:0:0:
402,192,27878,1,0,0:0:0:0:
329,192,28033,1,0,0:0:0:0:
109,192,28033,1,0,0:0:0:0:
182,192,28033,1,0,0:0:0:0:
256,192,28189,1,0,0:0:0:0:
109,192,28189,1,0,0:0:0:0:
36,192,28189,1,0,0:0:0:0:
402,192,28499,1,0,0:0:0:0:
109,192,28499,1,0,0:0:0:0:
182,192,28499,1,0,0:0:0:0:
329,192,28655,1,0,0:0:0:0:
256,192,28810,1,0,0:0:0:0:
109,192,28810,1,0,0:0:0:0:
36,192,28810,1,0,0:0:0:0:
475,192,28965,1,0,0:0:0:0:
329,192,28965,1,0,0:0:0:0:
402,192,29121,1,0,0:0:0:0:
329,192,29276,1,0,0:0:0:0:
109,192,29276,1,0,0:0:0:0:
182,192,29276,1,0,0:0:0:0:
256,192,29431,1,0,0:0:0:0:
109,192,29431,1,0,0:0:0:0:
36,192,29431,1,0,0:0:0:0:
402,192,29742,1,0,0:0:0:0:
109,192,29742,1,0,0:0:0:0:
182,192,29742,1,0,0:0:0:0:
329,192,29897,1,0,0:0:0:0:
256,192,30052,1,0,0:0:0:0:
109,192,30052,1,0,0:0:0:0:
36,192,30052,1,0,0:0:0:0:
475,192,30208,1,0,0:0:0:0:
329,192,30208,1,0,0:0:0:0:
402,192,30362,1,0,0:0:0:0:
329,192,30518,1,0,0:0:0:0:
109,192,30518,1,0,0:0:0:0:
182,192,30518,1,0,0:0:0:0:
256,192,30673,1,0,0:0:0:0:
109,192,30673,1,0,0:0:0:0:
36,192,30673,1,0,0:0:0:0:
402,192,30984,1,0,0:0:0:0:
109,192,30984,1,0,0:0:0:0:
182,192,30984,1,0,0:0:0:0:
329,192,31139,1,0,0:0:0:0:
256,192,31294,1,0,0:0:0:0:
109,192,31294,1,0,0:0:0:0:
36,192,31294,1,0,0:0:0:0:
329,192,31450,128,0,31993:0:0:0:0:
475,192,31450,128,0,31993:0:0:0:0:
182,192,31916,128,0,31993:0:0:0:0:
36,192,31916,128,0,31993:0:0:0:0:
36,192,32071,1,0,0:0:0:0:
182,192,32071,1,0,0:0:0:0:
329,192,32071,1,0,0:0:0:0:
475,192,32071,1,0,0:0:0:0:
109,192,32148,1,0,0:0:0:0:
402,192,32148,1,0,0:0:0:0:
182,192,32226,1,0,0:0:0:0:
329,192,32226,1,0,0:0:0:0:
256,192,32226,1,0,0:0:0:0:
109,192,32303,1,0,0:0:0:0:
402,192,32303,1,0,0:0:0:0:
36,192,32382,1,0,0:0:0:0:
475,192,32382,1,0,0:0:0:0:
182,192,32382,1,0,0:0:0:0:
329,192,32382,1,0,0:0:0:0:
109,192,32537,1,0,0:0:0:0:
182,192,32537,1,0,0:0:0:0:
329,192,32537,1,0,0:0:0:0:
402,192,32537,1,0,0:0:0:0:
36,192,32692,1,0,0:0:0:0:
182,192,32692,1,0,0:0:0:0:
256,192,32692,1,0,0:0:0:0:
329,192,32692,1,0,0:0:0:0:
475,192,32692,1,0,0:0:0:0:
109,192,32769,1,0,0:0:0:0:
182,192,32848,1,0,0:0:0:0:
329,192,32848,1,0,0:0:0:0:
475,192,32848,1,0,0:0:0:0:
109,192,32925,1,0,0:0:0:0:
256,192,32925,1,0,0:0:0:0:
36,192,33002,1,0,0:0:0:0:
475,192,33002,1,0,0:0:0:0:
182,192,33002,1,0,0:0:0:0:
402,192,33002,1,0,0:0:0:0:
256,192,33080,1,0,0:0:0:0:
329,192,33158,1,0,0:0:0:0:
109,192,33158,1,0,0:0:0:0:
36,192,33158,1,0,0:0:0:0:
475,192,33158,1,0,0:0:0:0:
182,192,33235,1,0,0:0:0:0:
256,192,33235,1,0,0:0:0:0:
475,192,33313,1,0,0:0:0:0:
36,192,33313,1,0,0:0:0:0:
402,192,33313,1,0,0:0:0:0:
329,192,33313,1,0,0:0:0:0:
256,192,33391,1,0,0:0:0:0:
182,192,33468,1,0,0:0:0:0:
36,192,33468,1,0,0:0:0:0:
402,192,33468,1,0,0:0:0:0:
475,192,33468,1,0,0:0:0:0:
329,192,33546,1,0,0:0:0:0:
109,192,33546,1,0,0:0:0:0:
256,192,33623,1,0,0:0:0:0:
475,192,33623,1,0,0:0:0:0:
36,192,33623,1,0,0:0:0:0:
402,192,33701,1,0,0:0:0:0:
182,192,33701,1,0,0:0:0:0:
329,192,33779,1,0,0:0:0:0:
109,192,33779,1,0,0:0:0:0:
36,192,33779,1,0,0:0:0:0:
475,192,33779,1,0,0:0:0:0:
182,192,33857,1,0,0:0:0:0:
256,192,33857,1,0,0:0:0:0:
36,192,33934,1,0,0:0:0:0:
109,192,33934,1,0,0:0:0:0:
475,192,33934,1,0,0:0:0:0:
329,192,33934,1,0,0:0:0:0:
402,192,34012,1,0,0:0:0:0:
329,192,34089,1,0,0:0:0:0:
182,192,34089,1,0,0:0:0:0:
36,192,34089,1,0,0:0:0:0:
402,192,34167,1,0,0:0:0:0:
256,192,34167,1,0,0:0:0:0:
475,192,34245,1,0,0:0:0:0:
36,192,34245,1,0,0:0:0:0:
329,192,34245,1,0,0:0:0:0:
109,192,34245,1,0,0:0:0:0:
256,192,34322,1,0,0:0:0:0:
182,192,34400,1,0,0:0:0:0:
402,192,34400,1,0,0:0:0:0:
475,192,34400,1,0,0:0:0:0:
36,192,34400,1,0,0:0:0:0:
329,192,34478,1,0,0:0:0:0:
256,192,34478,1,0,0:0:0:0:
36,192,34555,1,0,0:0:0:0:
475,192,34555,1,0,0:0:0:0:
109,192,34555,1,0,0:0:0:0:
182,192,34555,1,0,0:0:0:0:
256,192,34632,1,0,0:0:0:0:
329,192,34711,1,0,0:0:0:0:
475,192,34711,1,0,0:0:0:0:
109,192,34711,1,0,0:0:0:0:
36,192,34711,1,0,0:0:0:0:
182,192,34788,1,0,0:0:0:0:
402,192,34788,1,0,0:0:0:0:
256,192,34866,1,0,0:0:0:0:
36,192,34866,1,0,0:0:0:0:
475,192,34866,1,0,0:0:0:0:
109,192,34943,1,0,0:0:0:0:
329,192,34943,1,0,0:0:0:0:
182,192,35021,1,0,0:0:0:0:
402,192,35021,1,0,0:0:0:0:
475,192,35021,1,0,0:0:0:0:
36,192,35021,1,0,0:0:0:0:
329,192,35098,1,0,0:0:0:0:
256,192,35098,1,0,0:0:0:0:
475,192,35177,1,0,0:0:0:0:
402,192,35177,1,0,0:0:0:0:
36,192,35177,1,0,0:0:0:0:
109,192,35177,1,0,0:0:0:0:
329,192,35254,1,0,0:0:0:0:
256,192,35332,1,0,0:0:0:0:
109,192,35332,1,0,0:0:0:0:
36,192,35332,1,0,0:0:0:0:
182,192,35409,1,0,0:0:0:0:
329,192,35409,1,0,0:0:0:0:
402,192,35487,1,0,0:0:0:0:
475,192,35487,1,0,0:0:0:0:
256,192,35487,1,0,0:0:0:0:
36,192,35487,1,0,0:0:0:0:
182,192,35564,1,0,0:0:0:0:
109,192,35642,1,0,0:0:0:0:
36,192,35642,1,0,0:0:0:0:
329,192,35642,1,0,0:0:0:0:
402,192,35642,1,0,0:0:0:0:
256,192,35720,1,0,0:0:0:0:
109,192,35798,1,0,0:0:0:0:
182,192,35798,1,0,0:0:0:0:
475,192,35798,1,0,0:0:0:0:
402,192,35798,1,0,0:0:0:0:
329,192,35875,1,0,0:0:0:0:
256,192,35952,1,0,0:0:0:0:
36,192,35952,1,0,0:0:0:0:
109,192,35952,1,0,0:0:0:0:
475,192,35952,1,0,0:0:0:0:
182,192,36030,1,0,0:0:0:0:
329,192,36030,1,0,0:0:0:0:
256,192,36108,1,0,0:0:0:0:
402,192,36108,1,0,0:0:0:0:
475,192,36108,1,0,0:0:0:0:
36,192,36108,1,0,0:0:0:0:
109,192,36108,1,0,0:0:0:0:
182,192,36186,1,0,0:0:0:0:
329,192,36186,1,0,0:0:0:0:
256,192,36263,1,0,0:0:0:0:
475,192,36263,1,0,0:0:0:0:
36,192,36263,1,0,0:0:0:0:
402,192,36341,1,0,0:0:0:0:
109,192,36341,1,0,0:0:0:0:
36,192,36418,1,0,0:0:0:0:
475,192,36418,1,0,0:0:0:0:
256,192,36418,1,0,0:0:0:0:
329,192,36418,1,0,0:0:0:0:
182,192,36418,1,0,0:0:0:0:
402,192,36496,1,0,0:0:0:0:
329,192,36574,1,0,0:0:0:0:
109,192,36574,1,0,0:0:0:0:
36,192,36574,1,0,0:0:0:0:
402,192,36652,1,0,0:0:0:0:
182,192,36652,1,0,0:0:0:0:
475,192,36729,1,0,0:0:0:0:
36,192,36729,1,0,0:0:0:0:
256,192,36729,1,0,0:0:0:0:
329,192,36729,1,0,0:0:0:0:
109,192,36807,1,0,0:0:0:0:
182,192,36884,1,0,0:0:0:0:
475,192,36884,1,0,0:0:0:0:
329,192,36884,1,0,0:0:0:0:
256,192,36962,1,0,0:0:0:0:
109,192,36962,1,0,0:0:0:0:
402,192,36962,1,0,0:0:0:0:
475,192,37040,1,0,0:0:0:0:
182,192,37040,1,0,0:0:0:0:
36,192,37040,1,0,0:0:0:0:
329,192,37040,1,0,0:0:0:0:
402,192,37118,1,0,0:0:0:0:
329,192,37195,1,0,0:0:0:0:
109,192,37195,1,0,0:0:0:0:
36,192,37195,1,0,0:0:0:0:
402,192,37272,1,0,0:0:0:0:
182,192,37272,1,0,0:0:0:0:
475,192,37350,1,0,0:0:0:0:
256,192,37350,1,0,0:0:0:0:
36,192,37350,1,0,0:0:0:0:
329,192,37350,1,0,0:0:0:0:
182,192,37428,1,0,0:0:0:0:
402,192,37428,1,0,0:0:0:0:
109,192,37506,1,0,0:0:0:0:
329,192,37506,1,0,0:0:0:0:
475,192,37506,1,0,0:0:0:0:
36,192,37583,1,0,0:0:0:0:
256,192,37583,1,0,0:0:0:0:
182,192,37661,1,0,0:0:0:0:
402,192,37661,1,0,0:0:0:0:
475,192,37661,1,0,0:0:0:0:
329,192,37661,1,0,0:0:0:0:
109,192,37738,1,0,0:0:0:0:
36,192,37816,1,0,0:0:0:0:
256,192,37816,1,0,0:0:0:0:
475,192,37816,1,0,0:0:0:0:
182,192,37893,1,0,0:0:0:0:
402,192,37893,1,0,0:0:0:0:
109,192,37972,1,0,0:0:0:0:
329,192,37972,1,0,0:0:0:0:
36,192,37972,1,0,0:0:0:0:
256,192,38049,1,0,0:0:0:0:
36,192,38127,1,0,0:0:0:0:
182,192,38127,1,0,0:0:0:0:
475,192,38127,1,0,0:0:0:0:
402,192,38127,1,0,0:0:0:0:
256,192,38204,1,0,0:0:0:0:
109,192,38204,1,0,0:0:0:0:
329,192,38282,1,0,0:0:0:0:
182,192,38282,1,0,0:0:0:0:
475,192,38282,1,0,0:0:0:0:
109,192,38360,1,0,0:0:0:0:
36,192,38438,1,0,0:0:0:0:
475,192,38438,1,0,0:0:0:0:
256,192,38438,1,0,0:0:0:0:
402,192,38438,1,0,0:0:0:0:
182,192,38515,1,0,0:0:0:0:
329,192,38515,1,0,0:0:0:0:
109,192,38592,1,0,0:0:0:0:
36,192,38592,1,0,0:0:0:0:
256,192,38592,1,0,0:0:0:0:
475,192,38592,1,0,0:0:0:0:
402,192,38592,1,0,0:0:0:0:
182,192,38670,1,0,0:0:0:0:
329,192,38670,1,0,0:0:0:0:
256,192,38748,1,0,0:0:0:0:
36,192,38748,1,0,0:0:0:0:
475,192,38748,1,0,0:0:0:0:
109,192,38826,1,0,0:0:0:0:
402,192,38826,1,0,0:0:0:0:
36,192,38903,1,0,0:0:0:0:
256,192,38903,1,0,0:0:0:0:
182,192,38903,1,0,0:0:0:0:
329,192,38903,1,0,0:0:0:0:
475,192,38903,1,0,0:0:0:0:
109,192,38981,1,0,0:0:0:0:
36,192,39058,1,0,0:0:0:0:
256,192,39058,1,0,0:0:0:0:
475,192,39058,1,0,0:0:0:0:
182,192,39136,1,0,0:0:0:0:
402,192,39136,1,0,0:0:0:0:
109,192,39213,1,0,0:0:0:0:
329,192,39213,1,0,0:0:0:0:
36,192,39213,1,0,0:0:0:0:
475,192,39213,1,0,0:0:0:0:
256,192,39292,1,0,0:0:0:0:
36,192,39369,1,0,0:0:0:0:
182,192,39369,1,0,0:0:0:0:
475,192,39369,1,0,0:0:0:0:
402,192,39369,1,0,0:0:0:0:
256,192,39447,1,0,0:0:0:0:
109,192,39447,1,0,0:0:0:0:
182,192,39524,1,0,0:0:0:0:
329,192,39524,1,0,0:0:0:0:
475,192,39524,1,0,0:0:0:0:
109,192,39602,1,0,0:0:0:0:
36,192,39679,1,0,0:0:0:0:
475,192,39679,1,0,0:0:0:0:
402,192,39679,1,0,0:0:0:0:
256,192,39679,1,0,0:0:0:0:
182,192,39758,1,0,0:0:0:0:
329,192,39758,1,0,0:0:0:0:
109,192,39835,1,0,0:0:0:0:
36,192,39835,1,0,0:0:0:0:
256,192,39835,1,0,0:0:0:0:
475,192,39835,1,0,0:0:0:0:
402,192,39835,1,0,0:0:0:0:
182,192,39912,1,0,0:0:0:0:
329,192,39912,1,0,0:0:0:0:
256,192,39990,1,0,0:0:0:0:
109,192,39990,1,0,0:0:0:0:
402,192,39990,1,0,0:0:0:0:
329,192,40068,1,0,0:0:0:0:
182,192,40068,1,0,0:0:0:0:
36,192,40145,1,0,0:0:0:0:
475,192,40145,1,0,0:0:0:0:
109,192,40145,1,0,0:0:0:0:
256,192,40145,1,0,0:0:0:0:
402,192,40145,1,0,0:0:0:0:
182,192,40223,1,0,0:0:0:0:
36,192,40301,1,0,0:0:0:0:
109,192,40301,1,0,0:0:0:0:
329,192,40301,1,0,0:0:0:0:
402,192,40301,1,0,0:0:0:0:
256,192,40378,1,0,0:0:0:0:
182,192,40456,1,0,0:0:0:0:
109,192,40456,1,0,0:0:0:0:
402,192,40456,1,0,0:0:0:0:
475,192,40456,1,0,0:0:0:0:
329,192,40533,1,0,0:0:0:0:
256,192,40611,1,0,0:0:0:0:
182,192,40611,1,0,0:0:0:0:
475,192,40611,1,0,0:0:0:0:
36,192,40611,1,0,0:0:0:0:
109,192,40689,1,0,0:0:0:0:
329,192,40689,1,0,0:0:0:0:
402,192,40689,1,0,0:0:0:0:
36,192,40767,1,0,0:0:0:0:
256,192,40767,1,0,0:0:0:0:
475,192,40767,1,0,0:0:0:0:
182,192,40844,1,0,0:0:0:0:
109,192,40922,1,0,0:0:0:0:
36,192,40922,1,0,0:0:0:0:
475,192,40922,1,0,0:0:0:0:
329,192,40922,1,0,0:0:0:0:
256,192,40999,1,0,0:0:0:0:
182,192,41077,1,0,0:0:0:0:
109,192,41077,1,0,0:0:0:0:
402,192,41077,1,0,0:0:0:0:
475,192,41077,1,0,0:0:0:0:
329,192,41155,1,0,0:0:0:0:
256,192,41232,1,0,0:0:0:0:
182,192,41232,1,0,0:0:0:0:
475,192,41232,1,0,0:0:0:0:
36,192,41232,1,0,0:0:0:0:
402,192,41310,1,0,0:0:0:0:
36,192,41388,1,0,0:0:0:0:
475,192,41388,1,0,0:0:0:0:
329,192,41388,1,0,0:0:0:0:
256,192,41388,1,0,0:0:0:0:
402,192,41465,1,0,0:0:0:0:
109,192,41465,1,0,0:0:0:0:
329,192,41542,1,0,0:0:0:0:
182,192,41542,1,0,0:0:0:0:
256,192,41542,1,0,0:0:0:0:
109,192,41621,1,0,0:0:0:0:
402,192,41621,1,0,0:0:0:0:
36,192,41698,1,0,0:0:0:0:
182,192,41698,1,0,0:0:0:0:
475,192,41698,1,0,0:0:0:0:
329,192,41698,1,0,0:0:0:0:
402,192,41776,1,0,0:0:0:0:
256,192,41776,1,0,0:0:0:0:
36,192,41853,1,0,0:0:0:0:
109,192,41853,1,0,0:0:0:0:
475,192,41853,1,0,0:0:0:0:
329,192,41853,1,0,0:0:0:0:
402,192,41931,1,0,0:0:0:0:
256,192,41931,1,0,0:0:0:0:
475,192,42008,1,0,0:0:0:0:
182,192,42008,1,0,0:0:0:0:
36,192,42008,1,0,0:0:0:0:
329,192,42008,1,0,0:0:0:0:
109,192,42087,1,0,0:0:0:0:
402,192,42087,1,0,0:0:0:0:
182,192,42164,1,0,0:0:0:0:
256,192,42164,1,0,0:0:0:0:
329,192,42164,1,0,0:0:0:0:
109,192,42242,1,0,0:0:0:0:
402,192,42242,1,0,0:0:0:0:
36,192,42319,1,0,0:0:0:0:
475,192,42319,1,0,0:0:0:0:
329,192,42319,1,0,0:0:0:0:
256,192,42319,1,0,0:0:0:0:
329,192,42474,1,0,0:0:0:0:
402,192,42474,1,0,0:0:0:0:
182,192,42474,1,0,0:0:0:0:
109,192,42474,1,0,0:0:0:0:
475,192,42630,1,0,0:0:0:0:
36,192,42630,1,0,0:0:0:0:
109,192,42630,1,0,0:0:0:0:
402,192,42630,1,0,0:0:0:0:
256,192,42630,1,0,0:0:0:0:
329,192,42940,1,0,0:0:0:0:
475,192,42940,1,0,0:0:0:0:
182,192,42940,1,0,0:0:0:0:
402,192,43251,1,0,0:0:0:0:
256,192,43251,1,0,0:0:0:0:
475,192,43251,1,0,0:0:0:0:
329,192,43406,1,0,0:0:0:0:
182,192,43406,1,0,0:0:0:0:
109,192,43562,1,0,0:0:0:0:
36,192,43562,1,0,0:0:0:0:
256,192,43562,1,0,0:0:0:0:
182,192,43717,1,0,0:0:0:0:
329,192,43717,1,0,0:0:0:0:
256,192,43872,1,0,0:0:0:0:
475,192,43872,1,0,0:0:0:0:
36,192,43872,1,0,0:0:0:0:
402,192,43872,1,0,0:0:0:0:
36,192,44182,1,0,0:0:0:0:
256,192,44182,1,0,0:0:0:0:
475,192,44182,1,0,0:0:0:0:
402,192,44338,1,0,0:0:0:0:
329,192,44338,1,0,0:0:0:0:
109,192,44493,1,0,0:0:0:0:
182,192,44493,1,0,0:0:0:0:
36,192,44493,1,0,0:0:0:0:
329,192,44648,1,0,0:0:0:0:
402,192,44648,1,0,0:0:0:0:
36,192,44803,1,0,0:0:0:0:
256,192,44803,1,0,0:0:0:0:
475,192,44803,1,0,0:0:0:0:
109,192,44959,1,0,0:0:0:0:
182,192,44959,1,0,0:0:0:0:
329,192,44959,1,0,0:0:0:0:
36,192,45114,1,0,0:0:0:0:
256,192,45114,1,0,0:0:0:0:
402,192,45114,1,0,0:0:0:0:
475,192,45114,1,0,0:0:0:0:
256,192,45425,1,0,0:0:0:0:
402,192,45425,1,0,0:0:0:0:
475,192,45425,1,0,0:0:0:0:
182,192,45580,1,0,0:0:0:0:
329,192,45580,1,0,0:0:0:0:
36,192,45735,1,0,0:0:0:0:
256,192,45735,1,0,0:0:0:0:
109,192,45735,1,0,0:0:0:0:
329,192,45891,1,0,0:0:0:0:
182,192,45891,1,0,0:0:0:0:
256,192,46046,1,0,0:0:0:0:
475,192,46046,1,0,0:0:0:0:
402,192,46046,1,0,0:0:0:0:
182,192,46201,1,0,0:0:0:0:
329,192,46201,1,0,0:0:0:0:
475,192,46357,1,0,0:0:0:0:
109,192,46357,1,0,0:0:0:0:
256,192,46357,1,0,0:0:0:0:
36,192,46357,1,0,0:0:0:0:
36,192,46667,1,0,0:0:0:0:
256,192,46667,1,0,0:0:0:0:
475,192,46667,1,0,0:0:0:0:
182,192,46822,1,0,0:0:0:0:
109,192,46822,1,0,0:0:0:0:
402,192,46978,1,0,0:0:0:0:
475,192,46978,1,0,0:0:0:0:
329,192,46978,1,0,0:0:0:0:
36,192,47132,1,0,0:0:0:0:
256,192,47132,1,0,0:0:0:0:
475,192,47132,1,0,0:0:0:0:
109,192,47211,1,0,0:0:0:0:
329,192,47211,1,0,0:0:0:0:
475,192,47288,1,0,0:0:0:0:
402,192,47288,1,0,0:0:0:0:
182,192,47288,1,0,0:0:0:0:
36,192,47288,1,0,0:0:0:0:
109,192,47443,1,0,0:0:0:0:
402,192,47443,1,0,0:0:0:0:
329,192,47443,1,0,0:0:0:0:
36,192,47598,1,0,0:0:0:0:
475,192,47598,1,0,0:0:0:0:
256,192,47598,1,0,0:0:0:0:
329,192,47598,1,0,0:0:0:0:
182,192,47598,1,0,0:0:0:0:
256,192,47754,1,0,0:0:0:0:
475,192,47754,1,0,0:0:0:0:
109,192,47754,1,0,0:0:0:0:
182,192,47832,1,0,0:0:0:0:
402,192,47832,1,0,0:0:0:0:
329,192,47909,1,0,0:0:0:0:
109,192,47909,1,0,0:0:0:0:
36,192,47909,1,0,0:0:0:0:
475,192,47909,1,0,0:0:0:0:
182,192,48064,1,0,0:0:0:0:
402,192,48064,1,0,0:0:0:0:
36,192,48064,1,0,0:0:0:0:
329,192,48142,1,0,0:0:0:0:
109,192,48142,1,0,0:0:0:0:
36,192,48220,1,0,0:0:0:0:
256,192,48220,1,0,0:0:0:0:
475,192,48220,1,0,0:0:0:0:
402,192,48220,1,0,0:0:0:0:
256,192,48375,1,0,0:0:0:0:
475,192,48375,1,0,0:0:0:0:
109,192,48375,1,0,0:0:0:0:
36,192,48375,1,0,0:0:0:0:
182,192,48452,1,0,0:0:0:0:
402,192,48452,1,0,0:0:0:0:
329,192,48452,1,0,0:0:0:0:
36,192,48530,1,0,0:0:0:0:
109,192,48530,1,0,0:0:0:0:
475,192,48530,1,0,0:0:0:0:
256,192,48530,1,0,0:0:0:0:
329,192,48686,1,0,0:0:0:0:
109,192,48686,1,0,0:0:0:0:
475,192,48686,1,0,0:0:0:0:
182,192,48763,1,0,0:0:0:0:
402,192,48763,1,0,0:0:0:0:
109,192,48841,1,0,0:0:0:0:
475,192,48841,1,0,0:0:0:0:
36,192,48841,1,0,0:0:0:0:
256,192,48841,1,0,0:0:0:0:
36,192,48996,1,0,0:0:0:0:
182,192,48996,1,0,0:0:0:0:
402,192,48996,1,0,0:0:0:0:
109,192,49074,1,0,0:0:0:0:
256,192,49074,1,0,0:0:0:0:
182,192,49152,1,0,0:0:0:0:
475,192,49152,1,0,0:0:0:0:
329,192,49152,1,0,0:0:0:0:
36,192,49152,1,0,0:0:0:0:
256,192,49307,1,0,0:0:0:0:
109,192,49307,1,0,0:0:0:0:
475,192,49307,1,0,0:0:0:0:
182,192,49384,1,0,0:0:0:0:
329,192,49384,1,0,0:0:0:0:
256,192,49462,1,0,0:0:0:0:
402,192,49462,1,0,0:0:0:0:
36,192,49462,1,0,0:0:0:0:
109,192,49462,1,0,0:0:0:0:
36,192,49618,1,0,0:0:0:0:
402,192,49618,1,0,0:0:0:0:
182,192,49618,1,0,0:0:0:0:
475,192,49618,1,0,0:0:0:0:
256,192,49695,1,0,0:0:0:0:
109,192,49695,1,0,0:0:0:0:
329,192,49695,1,0,0:0:0:0:
475,192,49772,1,0,0:0:0:0:
36,192,49772,1,0,0:0:0:0:
182,192,49772,1,0,0:0:0:0:
402,192,49772,1,0,0:0:0:0:
402,192,49928,1,0,0:0:0:0:
36,192,49928,1,0,0:0:0:0:
256,192,49928,1,0,0:0:0:0:
182,192,50006,1,0,0:0:0:0:
329,192,50006,1,0,0:0:0:0:
475,192,50083,1,0,0:0:0:0:
109,192,50083,1,0,0:0:0:0:
402,192,50083,1,0,0:0:0:0:
256,192,50083,1,0,0:0:0:0:
36,192,50238,1,0,0:0:0:0:
182,192,50238,1,0,0:0:0:0:
329,192,50238,1,0,0:0:0:0:
402,192,50238,1,0,0:0:0:0:
109,192,50393,1,0,0:0:0:0:
256,192,50393,1,0,0:0:0:0:
329,192,50393,1,0,0:0:0:0:
475,192,50393,1,0,0:0:0:0:
36,192,50549,1,0,0:0:0:0:
182,192,50549,1,0,0:0:0:0:
256,192,50549,1,0,0:0:0:0:
402,192,50549,1,0,0:0:0:0:
109,192,50704,1,0,0:0:0:0:
329,192,50704,1,0,0:0:0:0:
475,192,50704,1,0,0:0:0:0:
182,192,50704,1,0,0:0:0:0:
36,192,50860,1,0,0:0:0:0:
402,192,50860,1,0,0:0:0:0:
182,192,50860,1,0,0:0:0:0:
256,192,50860,1,0,0:0:0:0:
475,192,51015,1,0,0:0:0:0:
256,192,51015,1,0,0:0:0:0:
329,192,51015,1,0,0:0:0:0:
109,192,51015,1,0,0:0:0:0:
329,192,51170,1,0,0:0:0:0:
36,192,51170,1,0,0:0:0:0:
402,192,51170,1,0,0:0:0:0:
182,192,51170,1,0,0:0:0:0:
36,192,51326,1,0,0:0:0:0:
402,192,51326,1,0,0:0:0:0:
475,192,51326,1,0,0:0:0:0:
182,192,51326,1,0,0:0:0:0:
256,192,51403,1,0,0:0:0:0:
475,192,51481,1,0,0:0:0:0:
36,192,51481,1,0,0:0:0:0:
109,192,51481,1,0,0:0:0:0:
329,192,51481,1,0,0:0:0:0:
256,192,51558,1,0,0:0:0:0:
36,192,51636,1,0,0:0:0:0:
182,192,51636,1,0,0:0:0:0:
402,192,51636,1,0,0:0:0:0:
475,192,51636,1,0,0:0:0:0:
256,192,51713,1,0,0:0:0:0:
329,192,51792,1,0,0:0:0:0:
475,192,51792,1,0,0:0:0:0:
109,192,51792,1,0,0:0:0:0:
36,192,51792,1,0,0:0:0:0:
256,192,51869,1,0,0:0:0:0:
182,192,51947,1,0,0:0:0:0:
36,192,51947,1,0,0:0:0:0:
402,192,51947,1,0,0:0:0:0:
475,192,51947,1,0,0:0:0:0:
329,192,52024,1,0,0:0:0:0:
256,192,52024,1,0,0:0:0:0:
402,192,52102,1,0,0:0:0:0:
475,192,52102,1,0,0:0:0:0:
36,192,52102,1,0,0:0:0:0:
109,192,52102,1,0,0:0:0:0:
182,192,52179,1,0,0:0:0:0:
256,192,52179,1,0,0:0:0:0:
36,192,52258,1,0,0:0:0:0:
109,192,52258,1,0,0:0:0:0:
402,192,52258,1,0,0:0:0:0:
475,192,52258,1,0,0:0:0:0:
329,192,52335,1,0,0:0:0:0:
256,192,52335,1,0,0:0:0:0:
402,192,52412,1,0,0:0:0:0:
475,192,52412,1,0,0:0:0:0:
109,192,52412,1,0,0:0:0:0:
36,192,52412,1,0,0:0:0:0:
182,192,52490,1,0,0:0:0:0:
256,192,52490,1,0,0:0:0:0:
475,192,52568,1,0,0:0:0:0:
36,192,52568,1,0,0:0:0:0:
109,192,52568,1,0,0:0:0:0:
329,192,52568,1,0,0:0:0:0:
182,192,52645,1,0,0:0:0:0:
402,192,52645,1,0,0:0:0:0:
256,192,52723,1,0,0:0:0:0:
475,192,52723,1,0,0:0:0:0:
36,192,52723,1,0,0:0:0:0:
109,192,52801,1,0,0:0:0:0:
329,192,52801,1,0,0:0:0:0:
182,192,52878,1,0,0:0:0:0:
402,192,52878,1,0,0:0:0:0:
475,192,52878,1,0,0:0:0:0:
36,192,52956,1,0,0:0:0:0:
256,192,52956,1,0,0:0:0:0:
109,192,53033,1,0,0:0:0:0:
329,192,53033,1,0,0:0:0:0:
182,192,53111,1,0,0:0:0:0:
402,192,53111,1,0,0:0:0:0:
256,192,53189,1,0,0:0:0:0:
475,192,53189,1,0,0:0:0:0:
36,192,53189,1,0,0:0:0:0:
109,192,53267,1,0,0:0:0:0:
402,192,53267,1,0,0:0:0:0:
475,192,53344,1,0,0:0:0:0:
36,192,53344,1,0,0:0:0:0:
256,192,53344,1,0,0:0:0:0:
182,192,53422,1,0,0:0:0:0:
329,192,53422,1,0,0:0:0:0:
36,192,53499,1,0,0:0:0:0:
109,192,53499,1,0,0:0:0:0:
475,192,53499,1,0,0:0:0:0:
402,192,53499,1,0,0:0:0:0:
182,192,53577,1,0,0:0:0:0:
329,192,53577,1,0,0:0:0:0:
256,192,53655,1,0,0:0:0:0:
36,192,53655,1,0,0:0:0:0:
475,192,53655,1,0,0:0:0:0:
402,192,53732,1,0,0:0:0:0:
109,192,53732,1,0,0:0:0:0:
182,192,53810,1,0,0:0:0:0:
329,192,53810,1,0,0:0:0:0:
256,192,53810,1,0,0:0:0:0:
36,192,53810,1,0,0:0:0:0:
475,192,53810,1,0,0:0:0:0:
109,192,53888,1,0,0:0:0:0:
402,192,53888,1,0,0:0:0:0:
36,192,53965,1,0,0:0:0:0:
182,192,53965,1,0,0:0:0:0:
256,192,53965,1,0,0:0:0:0:
475,192,53965,1,0,0:0:0:0:
109,192,54042,1,0,0:0:0:0:
329,192,54042,1,0,0:0:0:0:
36,192,54121,1,0,0:0:0:0:
182,192,54121,1,0,0:0:0:0:
475,192,54121,1,0,0:0:0:0:
402,192,54121,1,0,0:0:0:0:
256,192,54198,1,0,0:0:0:0:
109,192,54198,1,0,0:0:0:0:
36,192,54276,1,0,0:0:0:0:
182,192,54276,1,0,0:0:0:0:
329,192,54276,1,0,0:0:0:0:
475,192,54276,1,0,0:0:0:0:
402,192,54353,1,0,0:0:0:0:
475,192,54431,1,0,0:0:0:0:
36,192,54431,1,0,0:0:0:0:
256,192,54431,1,0,0:0:0:0:
109,192,54508,1,0,0:0:0:0:
475,192,54587,1,0,0:0:0:0:
182,192,54587,1,0,0:0:0:0:
329,192,54587,1,0,0:0:0:0:
109,192,54664,1,0,0:0:0:0:
475,192,54742,1,0,0:0:0:0:
36,192,54742,1,0,0:0:0:0:
256,192,54742,1,0,0:0:0:0:
402,192,54819,1,0,0:0:0:0:
329,192,54897,1,0,0:0:0:0:
36,192,54897,1,0,0:0:0:0:
109,192,54897,1,0,0:0:0:0:
402,192,54974,1,0,0:0:0:0:
182,192,54974,1,0,0:0:0:0:
475,192,55052,1,0,0:0:0:0:
256,192,55052,1,0,0:0:0:0:
36,192,55052,1,0,0:0:0:0:
109,192,55052,1,0,0:0:0:0:
182,192,55130,1,0,0:0:0:0:
402,192,55130,1,0,0:0:0:0:
109,192,55208,1,0,0:0:0:0:
36,192,55208,1,0,0:0:0:0:
329,192,55208,1,0,0:0:0:0:
256,192,55208,1,0,0:0:0:0:
182,192,55285,1,0,0:0:0:0:
475,192,55285,1,0,0:0:0:0:
109,192,55362,1,0,0:0:0:0:
36,192,55362,1,0,0:0:0:0:
402,192,55362,1,0,0:0:0:0:
256,192,55362,1,0,0:0:0:0:
182,192,55440,1,0,0:0:0:0:
329,192,55440,1,0,0:0:0:0:
109,192,55518,1,0,0:0:0:0:
36,192,55518,1,0,0:0:0:0:
256,192,55518,1,0,0:0:0:0:
475,192,55518,1,0,0:0:0:0:
402,192,55596,1,0,0:0:0:0:
182,192,55673,1,0,0:0:0:0:
329,192,55673,1,0,0:0:0:0:
475,192,55673,1,0,0:0:0:0:
109,192,55751,1,0,0:0:0:0:
36,192,55828,1,0,0:0:0:0:
256,192,55828,1,0,0:0:0:0:
402,192,55828,1,0,0:0:0:0:
109,192,55906,1,0,0:0:0:0:
182,192,55984,1,0,0:0:0:0:
329,192,55984,1,0,0:0:0:0:
402,192,56062,1,0,0:0:0:0:
475,192,56139,1,0,0:0:0:0:
182,192,56139,1,0,0:0:0:0:
36,192,56139,1,0,0:0:0:0:
402,192,56217,1,0,0:0:0:0:
109,192,56217,1,0,0:0:0:0:
329,192,56294,1,0,0:0:0:0:
182,192,56294,1,0,0:0:0:0:
36,192,56294,1,0,0:0:0:0:
256,192,56294,1,0,0:0:0:0:
109,192,56372,1,0,0:0:0:0:
402,192,56372,1,0,0:0:0:0:
36,192,56450,1,0,0:0:0:0:
182,192,56450,1,0,0:0:0:0:
475,192,56450,1,0,0:0:0:0:
256,192,56450,1,0,0:0:0:0:
109,192,56528,1,0,0:0:0:0:
329,192,56528,1,0,0:0:0:0:
36,192,56605,1,0,0:0:0:0:
182,192,56605,1,0,0:0:0:0:
402,192,56605,1,0,0:0:0:0:
475,192,56605,1,0,0:0:0:0:
109,192,56682,1,0,0:0:0:0:
256,192,56682,1,0,0:0:0:0:
36,192,56760,1,0,0:0:0:0:
182,192,56760,1,0,0:0:0:0:
329,192,56760,1,0,0:0:0:0:
475,192,56760,1,0,0:0:0:0:
402,192,56838,1,0,0:0:0:0:
256,192,56916,1,0,0:0:0:0:
36,192,56916,1,0,0:0:0:0:
475,192,56916,1,0,0:0:0:0:
109,192,56993,1,0,0:0:0:0:
402,192,57071,1,0,0:0:0:0:
475,192,57071,1,0,0:0:0:0:
182,192,57071,1,0,0:0:0:0:
329,192,57148,1,0,0:0:0:0:
109,192,57148,1,0,0:0:0:0:
36,192,57226,1,0,0:0:0:0:
256,192,57226,1,0,0:0:0:0:
475,192,57226,1,0,0:0:0:0:
402,192,57303,1,0,0:0:0:0:
329,192,57382,1,0,0:0:0:0:
109,192,57382,1,0,0:0:0:0:
36,192,57382,1,0,0:0:0:0:
182,192,57459,1,0,0:0:0:0:
402,192,57459,1,0,0:0:0:0:
256,192,57537,1,0,0:0:0:0:
475,192,57537,1,0,0:0:0:0:
36,192,57537,1,0,0:0:0:0:
109,192,57537,1,0,0:0:0:0:
329,192,57537,1,0,0:0:0:0:
182,192,57614,1,0,0:0:0:0:
402,192,57614,1,0,0:0:0:0:
475,192,57692,1,0,0:0:0:0:
256,192,57692,1,0,0:0:0:0:
109,192,57769,1,0,0:0:0:0:
329,192,57769,1,0,0:0:0:0:
36,192,57848,1,0,0:0:0:0:
182,192,57848,1,0,0:0:0:0:
256,192,57848,1,0,0:0:0:0:
402,192,57848,1,0,0:0:0:0:
475,192,57848,1,0,0:0:0:0:
109,192,57925,1,0,0:0:0:0:
329,192,57925,1,0,0:0:0:0:
256,192,58002,1,0,0:0:0:0:
36,192,58002,1,0,0:0:0:0:
402,192,58080,1,0,0:0:0:0:
182,192,58080,1,0,0:0:0:0:
109,192,58158,1,0,0:0:0:0:
36,192,58158,1,0,0:0:0:0:
329,192,58158,1,0,0:0:0:0:
256,192,58158,1,0,0:0:0:0:
475,192,58158,1,0,0:0:0:0:
182,192,58235,1,0,0:0:0:0:
402,192,58235,1,0,0:0:0:0:
256,192,58313,1,0,0:0:0:0:
475,192,58313,1,0,0:0:0:0:
109,192,58391,1,0,0:0:0:0:
329,192,58391,1,0,0:0:0:0:
402,192,58468,1,0,0:0:0:0:
475,192,58468,1,0,0:0:0:0:
182,192,58468,1,0,0:0:0:0:
36,192,58468,1,0,0:0:0:0:
256,192,58468,1,0,0:0:0:0:
109,192,58546,1,0,0:0:0:0:
329,192,58546,1,0,0:0:0:0:
256,192,58623,1,0,0:0:0:0:
36,192,58623,1,0,0:0:0:0:
475,192,58623,1,0,0:0:0:0:
182,192,58701,1,0,0:0:0:0:
402,192,58701,1,0,0:0:0:0:
36,192,58779,1,0,0:0:0:0:
109,192,58779,1,0,0:0:0:0:
256,192,58779,1,0,0:0:0:0:
329,192,58779,1,0,0:0:0:0:
475,192,58779,1,0,0:0:0:0:
182,192,58857,1,0,0:0:0:0:
402,192,58857,1,0,0:0:0:0:
109,192,58934,1,0,0:0:0:0:
36,192,58934,1,0,0:0:0:0:
329,192,58934,1,0,0:0:0:0:
256,192,58934,1,0,0:0:0:0:
182,192,59012,1,0,0:0:0:0:
475,192,59012,1,0,0:0:0:0:
109,192,59089,1,0,0:0:0:0:
36,192,59089,1,0,0:0:0:0:
402,192,59089,1,0,0:0:0:0:
256,192,59089,1,0,0:0:0:0:
182,192,59167,1,0,0:0:0:0:
329,192,59167,1,0,0:0:0:0:
109,192,59245,1,0,0:0:0:0:
36,192,59245,1,0,0:0:0:0:
475,192,59245,1,0,0:0:0:0:
256,192,59245,1,0,0:0:0:0:
402,192,59322,1,0,0:0:0:0:
475,192,59400,1,0,0:0:0:0:
36,192,59400,1,0,0:0:0:0:
256,192,59400,1,0,0:0:0:0:
109,192,59478,1,0,0:0:0:0:
475,192,59555,1,0,0:0:0:0:
182,192,59555,1,0,0:0:0:0:
329,192,59555,1,0,0:0:0:0:
109,192,59632,1,0,0:0:0:0:
475,192,59711,1,0,0:0:0:0:
36,192,59711,1,0,0:0:0:0:
256,192,59711,1,0,0:0:0:0:
402,192,59788,1,0,0:0:0:0:
329,192,59866,1,0,0:0:0:0:
36,192,59866,1,0,0:0:0:0:
182,192,59866,1,0,0:0:0:0:
402,192,59943,1,0,0:0:0:0:
109,192,59943,1,0,0:0:0:0:
475,192,60021,1,0,0:0:0:0:
36,192,60021,1,0,0:0:0:0:
182,192,60021,1,0,0:0:0:0:
256,192,60021,1,0,0:0:0:0:
109,192,60098,1,0,0:0:0:0:
329,192,60098,1,0,0:0:0:0:
36,192,60177,1,0,0:0:0:0:
182,192,60177,1,0,0:0:0:0:
402,192,60177,1,0,0:0:0:0:
475,192,60177,1,0,0:0:0:0:
109,192,60254,1,0,0:0:0:0:
256,192,60254,1,0,0:0:0:0:
36,192,60332,1,0,0:0:0:0:
182,192,60332,1,0,0:0:0:0:
329,192,60332,1,0,0:0:0:0:
475,192,60332,1,0,0:0:0:0:
109,192,60409,1,0,0:0:0:0:
402,192,60409,1,0,0:0:0:0:
36,192,60487,1,0,0:0:0:0:
182,192,60487,1,0,0:0:0:0:
256,192,60487,1,0,0:0:0:0:
475,192,60487,1,0,0:0:0:0:
402,192,60564,1,0,0:0:0:0:
475,192,60642,1,0,0:0:0:0:
329,192,60642,1,0,0:0:0:0:
182,192,60642,1,0,0:0:0:0:
109,192,60720,1,0,0:0:0:0:
402,192,60798,1,0,0:0:0:0:
256,192,60798,1,0,0:0:0:0:
36,192,60798,1,0,0:0:0:0:
109,192,60875,1,0,0:0:0:0:
329,192,60952,1,0,0:0:0:0:
182,192,60952,1,0,0:0:0:0:
402,192,61030,1,0,0:0:0:0:
36,192,61108,1,0,0:0:0:0:
182,192,61108,1,0,0:0:0:0:
475,192,61108,1,0,0:0:0:0:
256,192,61108,1,0,0:0:0:0:
109,192,61186,1,0,0:0:0:0:
402,192,61186,1,0,0:0:0:0:
475,192,61263,1,0,0:0:0:0:
36,192,61263,1,0,0:0:0:0:
329,192,61263,1,0,0:0:0:0:
182,192,61341,1,0,0:0:0:0:
256,192,61418,1,0,0:0:0:0:
329,192,61418,1,0,0:0:0:0:
36,192,61418,1,0,0:0:0:0:
475,192,61418,1,0,0:0:0:0:
402,192,61496,1,0,0:0:0:0:
109,192,61496,1,0,0:0:0:0:
182,192,61574,1,0,0:0:0:0:
475,192,61574,1,0,0:0:0:0:
36,192,61574,1,0,0:0:0:0:
109,192,61652,1,0,0:0:0:0:
256,192,61652,1,0,0:0:0:0:
182,192,61729,1,0,0:0:0:0:
329,192,61729,1,0,0:0:0:0:
475,192,61729,1,0,0:0:0:0:
402,192,61729,1,0,0:0:0:0:
109,192,61807,1,0,0:0:0:0:
256,192,61807,1,0,0:0:0:0:
36,192,61884,1,0,0:0:0:0:
182,192,61884,1,0,0:0:0:0:
402,192,61884,1,0,0:0:0:0:
475,192,61884,1,0,0:0:0:0:
256,192,61962,1,0,0:0:0:0:
36,192,62040,1,0,0:0:0:0:
329,192,62040,1,0,0:0:0:0:
402,192,62040,1,0,0:0:0:0:
109,192,62040,1,0,0:0:0:0:
182,192,62118,1,0,0:0:0:0:
329,192,62195,1,0,0:0:0:0:
256,192,62195,1,0,0:0:0:0:
36,192,62195,1,0,0:0:0:0:
475,192,62195,1,0,0:0:0:0:
109,192,62272,1,0,0:0:0:0:
182,192,62350,1,0,0:0:0:0:
256,192,62350,1,0,0:0:0:0:
402,192,62350,1,0,0:0:0:0:
36,192,62350,1,0,0:0:0:0:
475,192,62350,1,0,0:0:0:0:
36,192,62661,1,0,0:0:0:0:
475,192,62661,1,0,0:0:0:0:
402,192,62661,1,0,0:0:0:0:
182,192,62661,1,0,0:0:0:0:
256,192,62738,1,0,0:0:0:0:
329,192,62816,1,0,0:0:0:0:
475,192,62816,1,0,0:0:0:0:
109,192,62816,1,0,0:0:0:0:
36,192,62816,1,0,0:0:0:0:
256,192,62893,1,0,0:0:0:0:
182,192,62972,1,0,0:0:0:0:
36,192,62972,1,0,0:0:0:0:
402,192,62972,1,0,0:0:0:0:
475,192,62972,1,0,0:0:0:0:
256,192,63049,1,0,0:0:0:0:
475,192,63127,1,0,0:0:0:0:
329,192,63127,1,0,0:0:0:0:
109,192,63127,1,0,0:0:0:0:
36,192,63127,1,0,0:0:0:0:
182,192,63204,1,0,0:0:0:0:
256,192,63204,1,0,0:0:0:0:
109,192,63282,1,0,0:0:0:0:
36,192,63282,1,0,0:0:0:0:
402,192,63282,1,0,0:0:0:0:
475,192,63282,1,0,0:0:0:0:
256,192,63360,1,0,0:0:0:0:
329,192,63360,1,0,0:0:0:0:
36,192,63438,1,0,0:0:0:0:
109,192,63438,1,0,0:0:0:0:
475,192,63438,1,0,0:0:0:0:
402,192,63438,1,0,0:0:0:0:
182,192,63515,1,0,0:0:0:0:
256,192,63515,1,0,0:0:0:0:
109,192,63592,1,0,0:0:0:0:
36,192,63592,1,0,0:0:0:0:
402,192,63592,1,0,0:0:0:0:
475,192,63592,1,0,0:0:0:0:
329,192,63670,1,0,0:0:0:0:
256,192,63670,1,0,0:0:0:0:
36,192,63748,1,0,0:0:0:0:
475,192,63748,1,0,0:0:0:0:
109,192,63748,1,0,0:0:0:0:
402,192,63748,1,0,0:0:0:0:
256,192,63826,1,0,0:0:0:0:
182,192,63826,1,0,0:0:0:0:
329,192,63903,1,0,0:0:0:0:
475,192,63903,1,0,0:0:0:0:
36,192,63903,1,0,0:0:0:0:
109,192,63903,1,0,0:0:0:0:
402,192,63981,1,0,0:0:0:0:
182,192,63981,1,0,0:0:0:0:
475,192,64058,1,0,0:0:0:0:
256,192,64058,1,0,0:0:0:0:
36,192,64058,1,0,0:0:0:0:
109,192,64058,1,0,0:0:0:0:
182,192,64136,1,0,0:0:0:0:
329,192,64136,1,0,0:0:0:0:
402,192,64213,1,0,0:0:0:0:
475,192,64213,1,0,0:0:0:0:
36,192,64213,1,0,0:0:0:0:
109,192,64213,1,0,0:0:0:0:
329,192,64292,1,0,0:0:0:0:
256,192,64369,1,0,0:0:0:0:
36,192,64369,1,0,0:0:0:0:
475,192,64369,1,0,0:0:0:0:
109,192,64447,1,0,0:0:0:0:
329,192,64524,1,0,0:0:0:0:
182,192,64524,1,0,0:0:0:0:
475,192,64524,1,0,0:0:0:0:
109,192,64602,1,0,0:0:0:0:
256,192,64679,1,0,0:0:0:0:
36,192,64679,1,0,0:0:0:0:
475,192,64679,1,0,0:0:0:0:
402,192,64758,1,0,0:0:0:0:
182,192,64835,1,0,0:0:0:0:
36,192,64835,1,0,0:0:0:0:
329,192,64835,1,0,0:0:0:0:
109,192,64912,1,0,0:0:0:0:
402,192,64912,1,0,0:0:0:0:
36,192,64990,1,0,0:0:0:0:
182,192,64990,1,0,0:0:0:0:
475,192,64990,1,0,0:0:0:0:
256,192,64990,1,0,0:0:0:0:
402,192,65068,1,0,0:0:0:0:
109,192,65068,1,0,0:0:0:0:
329,192,65145,1,0,0:0:0:0:
256,192,65145,1,0,0:0:0:0:
182,192,65145,1,0,0:0:0:0:
36,192,65145,1,0,0:0:0:0:
475,192,65223,1,0,0:0:0:0:
109,192,65223,1,0,0:0:0:0:
402,192,65301,1,0,0:0:0:0:
256,192,65301,1,0,0:0:0:0:
182,192,65301,1,0,0:0:0:0:
36,192,65301,1,0,0:0:0:0:
329,192,65378,1,0,0:0:0:0:
109,192,65378,1,0,0:0:0:0:
256,192,65456,1,0,0:0:0:0:
475,192,65456,1,0,0:0:0:0:
182,192,65456,1,0,0:0:0:0:
36,192,65456,1,0,0:0:0:0:
402,192,65533,1,0,0:0:0:0:
475,192,65611,1,0,0:0:0:0:
329,192,65611,1,0,0:0:0:0:
182,192,65611,1,0,0:0:0:0:
109,192,65689,1,0,0:0:0:0:
402,192,65767,1,0,0:0:0:0:
256,192,65767,1,0,0:0:0:0:
36,192,65767,1,0,0:0:0:0:
109,192,65844,1,0,0:0:0:0:
329,192,65922,1,0,0:0:0:0:
182,192,65922,1,0,0:0:0:0:
402,192,65999,1,0,0:0:0:0:
475,192,66077,1,0,0:0:0:0:
36,192,66077,1,0,0:0:0:0:
109,192,66077,1,0,0:0:0:0:
182,192,66155,1,0,0:0:0:0:
402,192,66155,1,0,0:0:0:0:
109,192,66232,1,0,0:0:0:0:
256,192,66232,1,0,0:0:0:0:
329,192,66232,1,0,0:0:0:0:
36,192,66232,1,0,0:0:0:0:
402,192,66310,1,0,0:0:0:0:
182,192,66310,1,0,0:0:0:0:
475,192,66388,1,0,0:0:0:0:
256,192,66388,1,0,0:0:0:0:
109,192,66388,1,0,0:0:0:0:
36,192,66388,1,0,0:0:0:0:
329,192,66465,1,0,0:0:0:0:
182,192,66465,1,0,0:0:0:0:
402,192,66542,1,0,0:0:0:0:
475,192,66542,1,0,0:0:0:0:
109,192,66542,1,0,0:0:0:0:
36,192,66542,1,0,0:0:0:0:
256,192,66621,1,0,0:0:0:0:
182,192,66621,1,0,0:0:0:0:
329,192,66698,1,0,0:0:0:0:
475,192,66698,1,0,0:0:0:0:
109,192,66698,1,0,0:0:0:0:
36,192,66698,1,0,0:0:0:0:
402,192,66776,1,0,0:0:0:0:
475,192,66853,1,0,0:0:0:0:
36,192,66853,1,0,0:0:0:0:
256,192,66853,1,0,0:0:0:0:
109,192,66931,1,0,0:0:0:0:
182,192,67008,1,0,0:0:0:0:
475,192,67008,1,0,0:0:0:0:
402,192,67008,1,0,0:0:0:0:
109,192,67087,1,0,0:0:0:0:
329,192,67087,1,0,0:0:0:0:
475,192,67164,1,0,0:0:0:0:
256,192,67164,1,0,0:0:0:0:
36,192,67164,1,0,0:0:0:0:
402,192,67242,1,0,0:0:0:0:
109,192,67319,1,0,0:0:0:0:
329,192,67319,1,0,0:0:0:0:
36,192,67319,1,0,0:0:0:0:
402,192,67397,1,0,0:0:0:0:
182,192,67397,1,0,0:0:0:0:
109,192,67474,1,0,0:0:0:0:
329,192,67474,1,0,0:0:0:0:
36,192,67474,1,0,0:0:0:0:
256,192,67474,1,0,0:0:0:0:
475,192,67474,1,0,0:0:0:0:
402,192,67552,1,0,0:0:0:0:
182,192,67552,1,0,0:0:0:0:
256,192,67630,1,0,0:0:0:0:
475,192,67630,1,0,0:0:0:0:
329,192,67708,1,0,0:0:0:0:
109,192,67708,1,0,0:0:0:0:
402,192,67785,1,0,0:0:0:0:
475,192,67785,1,0,0:0:0:0:
256,192,67785,1,0,0:0:0:0:
36,192,67785,1,0,0:0:0:0:
182,192,67785,1,0,0:0:0:0:
329,192,67862,1,0,0:0:0:0:
109,192,67862,1,0,0:0:0:0:
36,192,67940,1,0,0:0:0:0:
256,192,67940,1,0,0:0:0:0:
182,192,68018,1,0,0:0:0:0:
402,192,68018,1,0,0:0:0:0:
256,192,68096,1,0,0:0:0:0:
475,192,68096,1,0,0:0:0:0:
329,192,68096,1,0,0:0:0:0:
109,192,68096,1,0,0:0:0:0:
36,192,68096,1,0,0:0:0:0:
402,192,68173,1,0,0:0:0:0:
182,192,68173,1,0,0:0:0:0:
475,192,68251,1,0,0:0:0:0:
256,192,68251,1,0,0:0:0:0:
329,192,68328,1,0,0:0:0:0:
109,192,68328,1,0,0:0:0:0:
36,192,68406,1,0,0:0:0:0:
256,192,68406,1,0,0:0:0:0:
182,192,68406,1,0,0:0:0:0:
402,192,68406,1,0,0:0:0:0:
475,192,68406,1,0,0:0:0:0:
329,192,68484,1,0,0:0:0:0:
109,192,68484,1,0,0:0:0:0:
36,192,68562,1,0,0:0:0:0:
256,192,68562,1,0,0:0:0:0:
475,192,68562,1,0,0:0:0:0:
329,192,68639,1,0,0:0:0:0:
182,192,68639,1,0,0:0:0:0:
475,192,68717,1,0,0:0:0:0:
36,192,68717,1,0,0:0:0:0:
256,192,68717,1,0,0:0:0:0:
109,192,68717,1,0,0:0:0:0:
402,192,68717,1,0,0:0:0:0:
329,192,68872,1,0,0:0:0:0:
475,192,68872,1,0,0:0:0:0:
402,192,68872,1,0,0:0:0:0:
182,192,68872,1,0,0:0:0:0:
109,192,68872,1,0,0:0:0:0:
475,192,69028,1,0,0:0:0:0:
329,192,69028,1,0,0:0:0:0:
182,192,69028,1,0,0:0:0:0:
109,192,69105,1,0,0:0:0:0:
256,192,69105,1,0,0:0:0:0:
402,192,69105,1,0,0:0:0:0:
36,192,69182,1,0,0:0:0:0:
182,192,69182,1,0,0:0:0:0:
475,192,69182,1,0,0:0:0:0:
329,192,69182,1,0,0:0:0:0:
475,192,69493,1,0,0:0:0:0:
402,192,69493,1,0,0:0:0:0:
329,192,69493,1,0,0:0:0:0:
182,192,69493,1,0,0:0:0:0:
109,192,69493,1,0,0:0:0:0:
36,192,69648,1,0,0:0:0:0:
109,192,69648,1,0,0:0:0:0:
402,192,69648,1,0,0:0:0:0:
329,192,69648,1,0,0:0:0:0:
256,192,69648,1,0,0:0:0:0:
36,192,69803,1,0,0:0:0:0:
475,192,69803,1,0,0:0:0:0:
182,192,69803,1,0,0:0:0:0:
256,192,69803,1,0,0:0:0:0:
329,192,69803,1,0,0:0:0:0:
109,192,69882,1,0,0:0:0:0:
402,192,69882,1,0,0:0:0:0:
475,192,69959,1,0,0:0:0:0:
36,192,69959,1,0,0:0:0:0:
256,192,69959,1,0,0:0:0:0:
182,192,69959,1,0,0:0:0:0:
329,192,69959,1,0,0:0:0:0:
182,192,70114,1,0,0:0:0:0:
36,192,70114,1,0,0:0:0:0:
109,192,70114,1,0,0:0:0:0:
329,192,70114,1,0,0:0:0:0:
402,192,70114,1,0,0:0:0:0:
36,192,70269,1,0,0:0:0:0:
182,192,70269,1,0,0:0:0:0:
329,192,70269,1,0,0:0:0:0:
402,192,70348,1,0,0:0:0:0:
256,192,70348,1,0,0:0:0:0:
109,192,70348,1,0,0:0:0:0:
475,192,70425,1,0,0:0:0:0:
329,192,70425,1,0,0:0:0:0:
36,192,70425,1,0,0:0:0:0:
182,192,70425,1,0,0:0:0:0:
36,192,70735,1,0,0:0:0:0:
109,192,70735,1,0,0:0:0:0:
182,192,70735,1,0,0:0:0:0:
329,192,70735,1,0,0:0:0:0:
402,192,70735,1,0,0:0:0:0:
182,192,70891,1,0,0:0:0:0:
475,192,70891,1,0,0:0:0:0:
36,192,70891,1,0,0:0:0:0:
256,192,70891,1,0,0:0:0:0:
329,192,70891,1,0,0:0:0:0:
109,192,70968,1,0,0:0:0:0:
402,192,70968,1,0,0:0:0:0:
182,192,71046,1,0,0:0:0:0:
329,192,71046,1,0,0:0:0:0:
256,192,71046,1,0,0:0:0:0:
36,192,71123,1,0,0:0:0:0:
475,192,71123,1,0,0:0:0:0:
109,192,71201,1,0,0:0:0:0:
182,192,71201,1,0,0:0:0:0:
256,192,71201,1,0,0:0:0:0:
329,192,71201,1,0,0:0:0:0:
402,192,71201,1,0,0:0:0:0:
182,192,71434,1,0,0:0:0:0:
329,192,71434,1,0,0:0:0:0:
475,192,71512,1,0,0:0:0:0:
402,192,71512,1,0,0:0:0:0:
36,192,71512,1,0,0:0:0:0:
109,192,71512,1,0,0:0:0:0:
256,192,71512,1,0,0:0:0:0:
109,192,71745,1,0,0:0:0:0:
402,192,71745,1,0,0:0:0:0:
36,192,71822,1,0,0:0:0:0:
475,192,71822,1,0,0:0:0:0:
329,192,71822,1,0,0:0:0:0:
182,192,71822,1,0,0:0:0:0:
256,192,71822,1,0,0:0:0:0:
36,192,72055,1,0,0:0:0:0:
475,192,72055,1,0,0:0:0:0:
256,192,72132,1,0,0:0:0:0:
182,192,72132,1,0,0:0:0:0:
109,192,72132,1,0,0:0:0:0:
402,192,72132,1,0,0:0:0:0:
329,192,72132,1,0,0:0:0:0:
256,192,72366,1,0,0:0:0:0:
36,192,72443,1,0,0:0:0:0:
109,192,72443,1,0,0:0:0:0:
329,192,72443,1,0,0:0:0:0:
475,192,72443,1,0,0:0:0:0:
402,192,72443,1,0,0:0:0:0:
182,192,72443,1,0,0:0:0:0:
36,192,72754,128,0,73608:0:0:0:0:
109,192,72754,128,0,73608:0:0:0:0:
182,192,72754,128,0,73608:0:0:0:0:
329,192,72754,128,0,73608:0:0:0:0:
402,192,72754,128,0,73608:0:0:0:0:
475,192,72754,128,0,73608:0:0:0:0:
36,192,73686,1,0,0:0:0:0:
402,192,73686,1,0,0:0:0:0:
475,192,73686,1,0,0:0:0:0:
109,192,73686,1,0,0:0:0:0:
256,192,73686,1,0,0:0:0:0:
182,192,73841,1,0,0:0:0:0:
329,192,73841,1,0,0:0:0:0:
256,192,73996,1,0,0:0:0:0:
402,192,73996,1,0,0:0:0:0:
36,192,74152,1,0,0:0:0:0:
109,192,74152,1,0,0:0:0:0:
329,192,74152,1,0,0:0:0:0:
475,192,74152,1,0,0:0:0:0:
36,192,74928,1,0,0:0:0:0:
182,192,74928,1,0,0:0:0:0:
402,192,74928,1,0,0:0:0:0:
475,192,74928,1,0,0:0:0:0:
109,192,75083,1,0,0:0:0:0:
256,192,75083,1,0,0:0:0:0:
182,192,75238,1,0,0:0:0:0:
329,192,75238,1,0,0:0:0:0:
256,192,75393,1,0,0:0:0:0:
402,192,75393,1,0,0:0:0:0:
109,192,75393,1,0,0:0:0:0:
36,192,75393,1,0,0:0:0:0:
36,192,75704,1,0,0:0:0:0:
109,192,75860,1,0,0:0:0:0:
182,192,76015,1,0,0:0:0:0:
109,192,76170,1,0,0:0:0:0:
36,192,76170,1,0,0:0:0:0:
256,192,76170,1,0,0:0:0:0:
402,192,76170,1,0,0:0:0:0:
329,192,76326,1,0,0:0:0:0:
182,192,76326,1,0,0:0:0:0:
256,192,76481,1,0,0:0:0:0:
109,192,76481,1,0,0:0:0:0:
182,192,76636,1,0,0:0:0:0:
36,192,76636,1,0,0:0:0:0:
402,192,76636,1,0,0:0:0:0:
475,192,76636,1,0,0:0:0:0:
402,192,76947,1,0,0:0:0:0:
329,192,77102,1,0,0:0:0:0:
256,192,77258,1,0,0:0:0:0:
36,192,77335,1,0,0:0:0:0:
182,192,77373,1,0,0:0:0:0:
329,192,77412,1,0,0:0:0:0:
475,192,77451,1,0,0:0:0:0:
256,192,77568,1,0,0:0:0:0:
402,192,77568,1,0,0:0:0:0:
329,192,77723,1,0,0:0:0:0:
182,192,77723,1,0,0:0:0:0:
109,192,77878,1,0,0:0:0:0:
256,192,77878,1,0,0:0:0:0:
402,192,77878,1,0,0:0:0:0:
475,192,77878,1,0,0:0:0:0:
182,192,78189,1,0,0:0:0:0:
36,192,78189,1,0,0:0:0:0:
109,192,78655,1,0,0:0:0:0:
256,192,78655,1,0,0:0:0:0:
475,192,78655,1,0,0:0:0:0:
36,192,78655,1,0,0:0:0:0:
402,192,78655,1,0,0:0:0:0:
329,192,79121,1,0,0:0:0:0:
475,192,79121,1,0,0:0:0:0:
36,192,79121,1,0,0:0:0:0:
109,192,79121,1,0,0:0:0:0:
402,192,79431,1,0,0:0:0:0:
329,192,79587,1,0,0:0:0:0:
256,192,79742,1,0,0:0:0:0:
402,192,79897,1,0,0:0:0:0:
475,192,79897,1,0,0:0:0:0:
36,192,79897,1,0,0:0:0:0:
182,192,79897,1,0,0:0:0:0:
329,192,80208,1,0,0:0:0:0:
182,192,80208,1,0,0:0:0:0:
109,192,80362,1,0,0:0:0:0:
36,192,80362,1,0,0:0:0:0:
256,192,80362,1,0,0:0:0:0:
402,192,80362,1,0,0:0:0:0:
36,192,80673,1,0,0:0:0:0:
109,192,80828,1,0,0:0:0:0:
182,192,80984,1,0,0:0:0:0:
109,192,81139,1,0,0:0:0:0:
36,192,81139,1,0,0:0:0:0:
256,192,81139,1,0,0:0:0:0:
475,192,81139,128,0,81178:0:0:0:0:
329,192,81294,128,0,81333:0:0:0:0:
182,192,81450,128,0,81488:0:0:0:0:
402,192,81605,1,0,0:0:0:0:
475,192,81605,1,0,0:0:0:0:
36,192,81605,128,0,81643:0:0:0:0:
475,192,81916,128,0,81954:0:0:0:0:
109,192,82071,1,0,0:0:0:0:
36,192,82071,1,0,0:0:0:0:
256,192,82071,128,0,82110:0:0:0:0:
36,192,83002,1,0,0:0:0:0:
109,192,83002,1,0,0:0:0:0:
256,192,83002,1,0,0:0:0:0:
475,192,83002,1,0,0:0:0:0:
402,192,83158,1,0,0:0:0:0:
329,192,83313,1,0,0:0:0:0:
475,192,83623,1,0,0:0:0:0:
402,192,83623,1,0,0:0:0:0:
36,192,83623,1,0,0:0:0:0:
109,192,83623,1,0,0:0:0:0:
182,192,83623,1,0,0:0:0:0:
329,192,83701,1,0,0:0:0:0:
256,192,83779,1,0,0:0:0:0:
36,192,83779,1,0,0:0:0:0:
329,192,83857,1,0,0:0:0:0:
109,192,83857,1,0,0:0:0:0:
402,192,83934,1,0,0:0:0:0:
475,192,83934,1,0,0:0:0:0:
182,192,83934,1,0,0:0:0:0:
36,192,83934,1,0,0:0:0:0:
256,192,84012,1,0,0:0:0:0:
475,192,84089,1,0,0:0:0:0:
329,192,84089,1,0,0:0:0:0:
109,192,84089,1,0,0:0:0:0:
36,192,84089,1,0,0:0:0:0:
182,192,84167,1,0,0:0:0:0:
256,192,84167,1,0,0:0:0:0:
329,192,84245,1,0,0:0:0:0:
402,192,84245,1,0,0:0:0:0:
475,192,84245,1,0,0:0:0:0:
36,192,84245,1,0,0:0:0:0:
109,192,84322,1,0,0:0:0:0:
36,192,84400,1,0,0:0:0:0:
402,192,84400,1,0,0:0:0:0:
475,192,84400,1,0,0:0:0:0:
182,192,84400,1,0,0:0:0:0:
329,192,84478,1,0,0:0:0:0:
109,192,84478,1,0,0:0:0:0:
36,192,84555,1,0,0:0:0:0:
256,192,84555,1,0,0:0:0:0:
475,192,84555,1,0,0:0:0:0:
182,192,84632,1,0,0:0:0:0:
402,192,84632,1,0,0:0:0:0:
109,192,84711,1,0,0:0:0:0:
36,192,84711,1,0,0:0:0:0:
329,192,84711,1,0,0:0:0:0:
475,192,84711,1,0,0:0:0:0:
256,192,84788,1,0,0:0:0:0:
182,192,84788,1,0,0:0:0:0:
36,192,84866,1,0,0:0:0:0:
109,192,84866,1,0,0:0:0:0:
475,192,84866,1,0,0:0:0:0:
402,192,84866,1,0,0:0:0:0:
182,192,84943,1,0,0:0:0:0:
256,192,85021,1,0,0:0:0:0:
475,192,85021,1,0,0:0:0:0:
182,192,85098,1,0,0:0:0:0:
402,192,85098,1,0,0:0:0:0:
109,192,85177,1,0,0:0:0:0:
36,192,85177,1,0,0:0:0:0:
329,192,85177,1,0,0:0:0:0:
475,192,85177,1,0,0:0:0:0:
256,192,85254,1,0,0:0:0:0:
36,192,85332,1,0,0:0:0:0:
182,192,85332,1,0,0:0:0:0:
402,192,85332,1,0,0:0:0:0:
475,192,85332,1,0,0:0:0:0:
329,192,85409,1,0,0:0:0:0:
256,192,85409,1,0,0:0:0:0:
182,192,85487,1,0,0:0:0:0:
109,192,85487,1,0,0:0:0:0:
36,192,85487,1,0,0:0:0:0:
475,192,85487,1,0,0:0:0:0:
402,192,85564,1,0,0:0:0:0:
475,192,85642,1,0,0:0:0:0:
109,192,85642,1,0,0:0:0:0:
36,192,85642,1,0,0:0:0:0:
329,192,85642,1,0,0:0:0:0:
182,192,85720,1,0,0:0:0:0:
402,192,85720,1,0,0:0:0:0:
475,192,85798,1,0,0:0:0:0:
256,192,85798,1,0,0:0:0:0:
36,192,85798,1,0,0:0:0:0:
329,192,85875,1,0,0:0:0:0:
109,192,85875,1,0,0:0:0:0:
402,192,85952,1,0,0:0:0:0:
475,192,85952,1,0,0:0:0:0:
182,192,85952,1,0,0:0:0:0:
36,192,85952,1,0,0:0:0:0:
256,192,86030,1,0,0:0:0:0:
329,192,86030,1,0,0:0:0:0:
475,192,86108,1,0,0:0:0:0:
402,192,86108,1,0,0:0:0:0:
36,192,86108,1,0,0:0:0:0:
109,192,86108,1,0,0:0:0:0:
182,192,86186,1,0,0:0:0:0:
256,192,86263,1,0,0:0:0:0:
329,192,86263,1,0,0:0:0:0:
475,192,86263,1,0,0:0:0:0:
402,192,86341,1,0,0:0:0:0:
182,192,86341,1,0,0:0:0:0:
36,192,86418,1,0,0:0:0:0:
256,192,86418,1,0,0:0:0:0:
109,192,86418,1,0,0:0:0:0:
329,192,86418,1,0,0:0:0:0:
402,192,86496,1,0,0:0:0:0:
182,192,86574,1,0,0:0:0:0:
475,192,86574,1,0,0:0:0:0:
256,192,86574,1,0,0:0:0:0:
36,192,86574,1,0,0:0:0:0:
329,192,86652,1,0,0:0:0:0:
109,192,86729,1,0,0:0:0:0:
182,192,86729,1,0,0:0:0:0:
402,192,86729,1,0,0:0:0:0:
475,192,86729,1,0,0:0:0:0:
256,192,86807,1,0,0:0:0:0:
329,192,86884,1,0,0:0:0:0:
475,192,86884,1,0,0:0:0:0:
36,192,86884,1,0,0:0:0:0:
109,192,86884,1,0,0:0:0:0:
182,192,86962,1,0,0:0:0:0:
402,192,86962,1,0,0:0:0:0:
36,192,87040,1,0,0:0:0:0:
475,192,87040,1,0,0:0:0:0:
109,192,87040,1,0,0:0:0:0:
256,192,87040,1,0,0:0:0:0:
182,192,87118,1,0,0:0:0:0:
329,192,87118,1,0,0:0:0:0:
256,192,87195,1,0,0:0:0:0:
36,192,87195,1,0,0:0:0:0:
475,192,87195,1,0,0:0:0:0:
109,192,87272,1,0,0:0:0:0:
402,192,87272,1,0,0:0:0:0:
36,192,87350,1,0,0:0:0:0:
182,192,87350,1,0,0:0:0:0:
256,192,87350,1,0,0:0:0:0:
329,192,87350,1,0,0:0:0:0:
475,192,87350,1,0,0:0:0:0:
256,192,87506,1,0,0:0:0:0:
475,192,87506,1,0,0:0:0:0:
109,192,87506,1,0,0:0:0:0:
182,192,87583,1,0,0:0:0:0:
402,192,87583,1,0,0:0:0:0:
109,192,87661,1,0,0:0:0:0:
329,192,87661,1,0,0:0:0:0:
36,192,87661,1,0,0:0:0:0:
475,192,87661,1,0,0:0:0:0:
36,192,87816,1,0,0:0:0:0:
182,192,87816,1,0,0:0:0:0:
402,192,87816,1,0,0:0:0:0:
109,192,87893,1,0,0:0:0:0:
329,192,87893,1,0,0:0:0:0:
36,192,87972,1,0,0:0:0:0:
256,192,87972,1,0,0:0:0:0:
475,192,87972,1,0,0:0:0:0:
402,192,87972,1,0,0:0:0:0:
36,192,88127,1,0,0:0:0:0:
475,192,88127,1,0,0:0:0:0:
256,192,88127,1,0,0:0:0:0:
402,192,88204,1,0,0:0:0:0:
109,192,88204,1,0,0:0:0:0:
329,192,88243,1,0,0:0:0:0:
182,192,88243,1,0,0:0:0:0:
36,192,88282,1,0,0:0:0:0:
256,192,88282,1,0,0:0:0:0:
475,192,88282,1,0,0:0:0:0:
475,192,88438,1,0,0:0:0:0:
329,192,88438,1,0,0:0:0:0:
182,192,88438,1,0,0:0:0:0:
256,192,88515,1,0,0:0:0:0:
402,192,88515,1,0,0:0:0:0:
36,192,88592,1,0,0:0:0:0:
329,192,88592,1,0,0:0:0:0:
109,192,88592,1,0,0:0:0:0:
475,192,88592,1,0,0:0:0:0:
182,192,88670,1,0,0:0:0:0:
475,192,88748,1,0,0:0:0:0:
256,192,88748,1,0,0:0:0:0:
402,192,88826,1,0,0:0:0:0:
182,192,88826,1,0,0:0:0:0:
329,192,88903,1,0,0:0:0:0:
475,192,88903,1,0,0:0:0:0:
109,192,88903,1,0,0:0:0:0:
36,192,88903,1,0,0:0:0:0:
256,192,88981,1,0,0:0:0:0:
402,192,89058,1,0,0:0:0:0:
475,192,89058,1,0,0:0:0:0:
36,192,89058,1,0,0:0:0:0:
182,192,89058,1,0,0:0:0:0:
256,192,89136,1,0,0:0:0:0:
329,192,89136,1,0,0:0:0:0:
36,192,89213,1,0,0:0:0:0:
475,192,89213,1,0,0:0:0:0:
182,192,89213,1,0,0:0:0:0:
109,192,89213,1,0,0:0:0:0:
402,192,89292,1,0,0:0:0:0:
36,192,89369,1,0,0:0:0:0:
329,192,89369,1,0,0:0:0:0:
475,192,89369,1,0,0:0:0:0:
109,192,89369,1,0,0:0:0:0:
402,192,89447,1,0,0:0:0:0:
182,192,89447,1,0,0:0:0:0:
36,192,89524,1,0,0:0:0:0:
256,192,89524,1,0,0:0:0:0:
475,192,89524,1,0,0:0:0:0:
109,192,89602,1,0,0:0:0:0:
329,192,89602,1,0,0:0:0:0:
182,192,89679,1,0,0:0:0:0:
36,192,89679,1,0,0:0:0:0:
402,192,89679,1,0,0:0:0:0:
475,192,89679,1,0,0:0:0:0:
329,192,89758,1,0,0:0:0:0:
256,192,89758,1,0,0:0:0:0:
36,192,89835,1,0,0:0:0:0:
109,192,89835,1,0,0:0:0:0:
475,192,89835,1,0,0:0:0:0:
402,192,89835,1,0,0:0:0:0:
329,192,89912,1,0,0:0:0:0:
36,192,89990,1,0,0:0:0:0:
256,192,89990,1,0,0:0:0:0:
109,192,90068,1,0,0:0:0:0:
329,192,90068,1,0,0:0:0:0:
182,192,90145,1,0,0:0:0:0:
36,192,90145,1,0,0:0:0:0:
402,192,90145,1,0,0:0:0:0:
475,192,90145,1,0,0:0:0:0:
256,192,90223,1,0,0:0:0:0:
109,192,90301,1,0,0:0:0:0:
36,192,90301,1,0,0:0:0:0:
475,192,90301,1,0,0:0:0:0:
329,192,90301,1,0,0:0:0:0:
256,192,90378,1,0,0:0:0:0:
182,192,90378,1,0,0:0:0:0:
475,192,90456,1,0,0:0:0:0:
36,192,90456,1,0,0:0:0:0:
329,192,90456,1,0,0:0:0:0:
402,192,90456,1,0,0:0:0:0:
109,192,90533,1,0,0:0:0:0:
475,192,90611,1,0,0:0:0:0:
182,192,90611,1,0,0:0:0:0:
36,192,90611,1,0,0:0:0:0:
402,192,90611,1,0,0:0:0:0:
109,192,90689,1,0,0:0:0:0:
329,192,90689,1,0,0:0:0:0:
475,192,90767,1,0,0:0:0:0:
256,192,90767,1,0,0:0:0:0:
36,192,90767,1,0,0:0:0:0:
402,192,90844,1,0,0:0:0:0:
182,192,90844,1,0,0:0:0:0:
329,192,90922,1,0,0:0:0:0:
475,192,90922,1,0,0:0:0:0:
109,192,90922,1,0,0:0:0:0:
36,192,90922,1,0,0:0:0:0:
182,192,90999,1,0,0:0:0:0:
256,192,90999,1,0,0:0:0:0:
475,192,91077,1,0,0:0:0:0:
402,192,91077,1,0,0:0:0:0:
36,192,91077,1,0,0:0:0:0:
109,192,91077,1,0,0:0:0:0:
329,192,91155,1,0,0:0:0:0:
256,192,91232,1,0,0:0:0:0:
475,192,91232,1,0,0:0:0:0:
36,192,91232,1,0,0:0:0:0:
182,192,91310,1,0,0:0:0:0:
402,192,91310,1,0,0:0:0:0:
109,192,91388,1,0,0:0:0:0:
329,192,91388,1,0,0:0:0:0:
36,192,91388,1,0,0:0:0:0:
475,192,91388,1,0,0:0:0:0:
256,192,91465,1,0,0:0:0:0:
182,192,91542,1,0,0:0:0:0:
36,192,91542,1,0,0:0:0:0:
402,192,91542,1,0,0:0:0:0:
475,192,91542,1,0,0:0:0:0:
329,192,91621,1,0,0:0:0:0:
256,192,91698,1,0,0:0:0:0:
109,192,91698,1,0,0:0:0:0:
475,192,91698,1,0,0:0:0:0:
182,192,91776,1,0,0:0:0:0:
402,192,91776,1,0,0:0:0:0:
329,192,91853,1,0,0:0:0:0:
36,192,91853,1,0,0:0:0:0:
109,192,91853,1,0,0:0:0:0:
475,192,91853,1,0,0:0:0:0:
256,192,91931,1,0,0:0:0:0:
182,192,92008,1,0,0:0:0:0:
402,192,92008,1,0,0:0:0:0:
36,192,92008,1,0,0:0:0:0:
475,192,92008,1,0,0:0:0:0:
109,192,92087,1,0,0:0:0:0:
329,192,92087,1,0,0:0:0:0:
36,192,92164,1,0,0:0:0:0:
256,192,92164,1,0,0:0:0:0:
402,192,92164,1,0,0:0:0:0:
475,192,92164,1,0,0:0:0:0:
182,192,92242,1,0,0:0:0:0:
329,192,92242,1,0,0:0:0:0:
36,192,92319,1,0,0:0:0:0:
109,192,92319,1,0,0:0:0:0:
256,192,92319,1,0,0:0:0:0:
402,192,92319,1,0,0:0:0:0:
475,192,92319,1,0,0:0:0:0:
182,192,92397,1,0,0:0:0:0:
109,192,92474,1,0,0:0:0:0:
36,192,92474,1,0,0:0:0:0:
329,192,92474,1,0,0:0:0:0:
475,192,92474,1,0,0:0:0:0:
256,192,92552,1,0,0:0:0:0:
182,192,92630,1,0,0:0:0:0:
36,192,92630,1,0,0:0:0:0:
475,192,92630,1,0,0:0:0:0:
402,192,92630,1,0,0:0:0:0:
329,192,92708,1,0,0:0:0:0:
256,192,92785,1,0,0:0:0:0:
475,192,92785,1,0,0:0:0:0:
109,192,92785,1,0,0:0:0:0:
36,192,92785,1,0,0:0:0:0:
182,192,92862,1,0,0:0:0:0:
329,192,92862,1,0,0:0:0:0:
36,192,92940,1,0,0:0:0:0:
475,192,92940,1,0,0:0:0:0:
109,192,92940,1,0,0:0:0:0:
402,192,92940,1,0,0:0:0:0:
182,192,93018,1,0,0:0:0:0:
36,192,93096,1,0,0:0:0:0:
256,192,93096,1,0,0:0:0:0:
475,192,93096,1,0,0:0:0:0:
402,192,93096,1,0,0:0:0:0:
182,192,93173,1,0,0:0:0:0:
329,192,93173,1,0,0:0:0:0:
256,192,93251,1,0,0:0:0:0:
109,192,93251,1,0,0:0:0:0:
36,192,93251,1,0,0:0:0:0:
475,192,93251,1,0,0:0:0:0:
329,192,93328,1,0,0:0:0:0:
182,192,93328,1,0,0:0:0:0:
36,192,93406,1,0,0:0:0:0:
256,192,93406,1,0,0:0:0:0:
402,192,93406,1,0,0:0:0:0:
475,192,93406,1,0,0:0:0:0:
109,192,93484,1,0,0:0:0:0:
182,192,93562,1,0,0:0:0:0:
475,192,93562,1,0,0:0:0:0:
36,192,93562,1,0,0:0:0:0:
256,192,93562,1,0,0:0:0:0:
329,192,93562,1,0,0:0:0:0:
109,192,93639,1,0,0:0:0:0:
475,192,93717,1,0,0:0:0:0:
329,192,93717,1,0,0:0:0:0:
182,192,93717,1,0,0:0:0:0:
256,192,93794,1,0,0:0:0:0:
109,192,93794,1,0,0:0:0:0:
182,192,93872,1,0,0:0:0:0:
402,192,93872,1,0,0:0:0:0:
36,192,93872,1,0,0:0:0:0:
475,192,93872,1,0,0:0:0:0:
256,192,93950,1,0,0:0:0:0:
36,192,94028,1,0,0:0:0:0:
475,192,94028,1,0,0:0:0:0:
329,192,94028,1,0,0:0:0:0:
109,192,94028,1,0,0:0:0:0:
256,192,94105,1,0,0:0:0:0:
182,192,94105,1,0,0:0:0:0:
402,192,94182,1,0,0:0:0:0:
329,192,94182,1,0,0:0:0:0:
475,192,94182,1,0,0:0:0:0:
36,192,94182,1,0,0:0:0:0:
256,192,94260,1,0,0:0:0:0:
402,192,94338,1,0,0:0:0:0:
475,192,94338,1,0,0:0:0:0:
182,192,94338,1,0,0:0:0:0:
36,192,94338,1,0,0:0:0:0:
109,192,94416,1,0,0:0:0:0:
329,192,94416,1,0,0:0:0:0:
36,192,94493,1,0,0:0:0:0:
475,192,94493,1,0,0:0:0:0:
256,192,94493,1,0,0:0:0:0:
182,192,94571,1,0,0:0:0:0:
402,192,94571,1,0,0:0:0:0:
36,192,94648,1,0,0:0:0:0:
475,192,94648,1,0,0:0:0:0:
329,192,94648,1,0,0:0:0:0:
109,192,94648,1,0,0:0:0:0:
256,192,94726,1,0,0:0:0:0:
182,192,94726,1,0,0:0:0:0:
475,192,94803,1,0,0:0:0:0:
329,192,94803,1,0,0:0:0:0:
36,192,94803,1,0,0:0:0:0:
109,192,94803,1,0,0:0:0:0:
402,192,94882,1,0,0:0:0:0:
36,192,94959,1,0,0:0:0:0:
182,192,94959,1,0,0:0:0:0:
329,192,94959,1,0,0:0:0:0:
256,192,95037,1,0,0:0:0:0:
402,192,95037,1,0,0:0:0:0:
329,192,95114,1,0,0:0:0:0:
109,192,95114,1,0,0:0:0:0:
475,192,95114,1,0,0:0:0:0:
36,192,95114,1,0,0:0:0:0:
256,192,95192,1,0,0:0:0:0:
475,192,95269,1,0,0:0:0:0:
36,192,95269,1,0,0:0:0:0:
182,192,95269,1,0,0:0:0:0:
402,192,95269,1,0,0:0:0:0:
256,192,95348,1,0,0:0:0:0:
329,192,95348,1,0,0:0:0:0:
109,192,95425,1,0,0:0:0:0:
182,192,95425,1,0,0:0:0:0:
36,192,95425,1,0,0:0:0:0:
475,192,95425,1,0,0:0:0:0:
256,192,95502,1,0,0:0:0:0:
109,192,95580,1,0,0:0:0:0:
36,192,95580,1,0,0:0:0:0:
329,192,95580,1,0,0:0:0:0:
475,192,95580,1,0,0:0:0:0:
402,192,95658,1,0,0:0:0:0:
182,192,95658,1,0,0:0:0:0:
475,192,95735,1,0,0:0:0:0:
36,192,95735,1,0,0:0:0:0:
256,192,95735,1,0,0:0:0:0:
329,192,95813,1,0,0:0:0:0:
109,192,95813,1,0,0:0:0:0:
475,192,95891,1,0,0:0:0:0:
36,192,95891,1,0,0:0:0:0:
182,192,95891,1,0,0:0:0:0:
402,192,95891,1,0,0:0:0:0:
256,192,95968,1,0,0:0:0:0:
329,192,95968,1,0,0:0:0:0:
36,192,96046,1,0,0:0:0:0:
109,192,96046,1,0,0:0:0:0:
475,192,96046,1,0,0:0:0:0:
402,192,96046,1,0,0:0:0:0:
329,192,96123,1,0,0:0:0:0:
36,192,96201,1,0,0:0:0:0:
109,192,96201,1,0,0:0:0:0:
256,192,96201,1,0,0:0:0:0:
329,192,96279,1,0,0:0:0:0:
182,192,96279,1,0,0:0:0:0:
256,192,96357,1,0,0:0:0:0:
36,192,96357,1,0,0:0:0:0:
402,192,96357,1,0,0:0:0:0:
475,192,96357,1,0,0:0:0:0:
182,192,96434,1,0,0:0:0:0:
329,192,96512,1,0,0:0:0:0:
402,192,96512,1,0,0:0:0:0:
109,192,96512,1,0,0:0:0:0:
36,192,96512,1,0,0:0:0:0:
256,192,96589,1,0,0:0:0:0:
475,192,96667,1,0,0:0:0:0:
402,192,96667,1,0,0:0:0:0:
109,192,96667,1,0,0:0:0:0:
182,192,96667,1,0,0:0:0:0:
329,192,96745,1,0,0:0:0:0:
109,192,96822,1,0,0:0:0:0:
475,192,96822,1,0,0:0:0:0:
256,192,96822,1,0,0:0:0:0:
36,192,96822,1,0,0:0:0:0:
329,192,96900,1,0,0:0:0:0:
182,192,96900,1,0,0:0:0:0:
36,192,96978,1,0,0:0:0:0:
109,192,96978,1,0,0:0:0:0:
475,192,96978,1,0,0:0:0:0:
256,192,96978,1,0,0:0:0:0:
402,192,96978,1,0,0:0:0:0:
329,192,97055,1,0,0:0:0:0:
182,192,97055,1,0,0:0:0:0:
36,192,97132,1,0,0:0:0:0:
475,192,97132,1,0,0:0:0:0:
256,192,97132,1,0,0:0:0:0:
109,192,97211,1,0,0:0:0:0:
402,192,97211,1,0,0:0:0:0:
329,192,97288,1,0,0:0:0:0:
182,192,97288,1,0,0:0:0:0:
256,192,97288,1,0,0:0:0:0:
36,192,97288,1,0,0:0:0:0:
475,192,97288,1,0,0:0:0:0:
402,192,97366,1,0,0:0:0:0:
36,192,97443,1,0,0:0:0:0:
109,192,97443,1,0,0:0:0:0:
329,192,97443,1,0,0:0:0:0:
182,192,97521,1,0,0:0:0:0:
402,192,97521,1,0,0:0:0:0:
256,192,97598,1,0,0:0:0:0:
329,192,97598,1,0,0:0:0:0:
475,192,97598,1,0,0:0:0:0:
36,192,97598,1,0,0:0:0:0:
109,192,97677,1,0,0:0:0:0:
329,192,97754,1,0,0:0:0:0:
475,192,97754,1,0,0:0:0:0:
182,192,97754,1,0,0:0:0:0:
402,192,97832,1,0,0:0:0:0:
109,192,97832,1,0,0:0:0:0:
256,192,97832,1,0,0:0:0:0:
36,192,97909,1,0,0:0:0:0:
329,192,97909,1,0,0:0:0:0:
475,192,97909,1,0,0:0:0:0:
182,192,97909,1,0,0:0:0:0:
402,192,97987,1,0,0:0:0:0:
36,192,98064,1,0,0:0:0:0:
109,192,98064,1,0,0:0:0:0:
329,192,98064,1,0,0:0:0:0:
182,192,98142,1,0,0:0:0:0:
402,192,98142,1,0,0:0:0:0:
36,192,98220,1,0,0:0:0:0:
329,192,98220,1,0,0:0:0:0:
475,192,98220,1,0,0:0:0:0:
256,192,98220,1,0,0:0:0:0:
402,192,98298,1,0,0:0:0:0:
182,192,98298,1,0,0:0:0:0:
475,192,98375,1,0,0:0:0:0:
329,192,98375,1,0,0:0:0:0:
109,192,98375,1,0,0:0:0:0:
256,192,98452,1,0,0:0:0:0:
36,192,98452,1,0,0:0:0:0:
475,192,98530,1,0,0:0:0:0:
329,192,98530,1,0,0:0:0:0:
182,192,98530,1,0,0:0:0:0:
402,192,98530,1,0,0:0:0:0:
109,192,98608,1,0,0:0:0:0:
475,192,98686,1,0,0:0:0:0:
256,192,98686,1,0,0:0:0:0:
36,192,98686,1,0,0:0:0:0:
402,192,98763,1,0,0:0:0:0:
182,192,98763,1,0,0:0:0:0:
36,192,98841,1,0,0:0:0:0:
329,192,98841,1,0,0:0:0:0:
109,192,98841,1,0,0:0:0:0:
256,192,98918,1,0,0:0:0:0:
475,192,98996,1,0,0:0:0:0:
402,192,98996,1,0,0:0:0:0:
36,192,98996,1,0,0:0:0:0:
182,192,98996,1,0,0:0:0:0:
109,192,99074,1,0,0:0:0:0:
256,192,99074,1,0,0:0:0:0:
475,192,99152,1,0,0:0:0:0:
182,192,99152,1,0,0:0:0:0:
329,192,99152,1,0,0:0:0:0:
109,192,99229,1,0,0:0:0:0:
256,192,99307,1,0,0:0:0:0:
402,192,99307,1,0,0:0:0:0:
36,192,99307,1,0,0:0:0:0:
475,192,99307,1,0,0:0:0:0:
329,192,99384,1,0,0:0:0:0:
182,192,99384,1,0,0:0:0:0:
475,192,99462,1,0,0:0:0:0:
402,192,99462,1,0,0:0:0:0:
256,192,99462,1,0,0:0:0:0:
109,192,99462,1,0,0:0:0:0:
36,192,99462,1,0,0:0:0:0:
329,192,99540,1,0,0:0:0:0:
182,192,99540,1,0,0:0:0:0:
475,192,99618,1,0,0:0:0:0:
36,192,99618,1,0,0:0:0:0:
256,192,99618,1,0,0:0:0:0:
402,192,99695,1,0,0:0:0:0:
109,192,99695,1,0,0:0:0:0:
329,192,99772,1,0,0:0:0:0:
475,192,99772,1,0,0:0:0:0:
182,192,99772,1,0,0:0:0:0:
36,192,99772,1,0,0:0:0:0:
256,192,99772,1,0,0:0:0:0:
109,192,99850,1,0,0:0:0:0:
475,192,99928,1,0,0:0:0:0:
256,192,99928,1,0,0:0:0:0:
36,192,99928,1,0,0:0:0:0:
402,192,100006,1,0,0:0:0:0:
182,192,100006,1,0,0:0:0:0:
36,192,100083,1,0,0:0:0:0:
475,192,100083,1,0,0:0:0:0:
109,192,100083,1,0,0:0:0:0:
329,192,100083,1,0,0:0:0:0:
256,192,100161,1,0,0:0:0:0:
475,192,100238,1,0,0:0:0:0:
402,192,100238,1,0,0:0:0:0:
36,192,100238,1,0,0:0:0:0:
182,192,100238,1,0,0:0:0:0:
109,192,100316,1,0,0:0:0:0:
256,192,100316,1,0,0:0:0:0:
475,192,100393,1,0,0:0:0:0:
329,192,100393,1,0,0:0:0:0:
182,192,100393,1,0,0:0:0:0:
109,192,100472,1,0,0:0:0:0:
402,192,100549,1,0,0:0:0:0:
256,192,100549,1,0,0:0:0:0:
36,192,100549,1,0,0:0:0:0:
475,192,100549,1,0,0:0:0:0:
329,192,100627,1,0,0:0:0:0:
182,192,100627,1,0,0:0:0:0:
475,192,100704,1,0,0:0:0:0:
402,192,100704,1,0,0:0:0:0:
256,192,100704,1,0,0:0:0:0:
109,192,100704,1,0,0:0:0:0:
36,192,100704,1,0,0:0:0:0:
329,192,100782,1,0,0:0:0:0:
182,192,100782,1,0,0:0:0:0:
402,192,100860,1,0,0:0:0:0:
109,192,100860,1,0,0:0:0:0:
256,192,100860,1,0,0:0:0:0:
182,192,100938,1,0,0:0:0:0:
329,192,100938,1,0,0:0:0:0:
256,192,101015,1,0,0:0:0:0:
402,192,101015,1,0,0:0:0:0:
109,192,101015,1,0,0:0:0:0:
36,192,101015,1,0,0:0:0:0:
475,192,101015,1,0,0:0:0:0:
182,192,101092,1,0,0:0:0:0:
329,192,101170,1,0,0:0:0:0:
402,192,101170,1,0,0:0:0:0:
36,192,101170,1,0,0:0:0:0:
109,192,101170,1,0,0:0:0:0:
256,192,101248,1,0,0:0:0:0:
402,192,101326,1,0,0:0:0:0:
475,192,101326,1,0,0:0:0:0:
182,192,101326,1,0,0:0:0:0:
109,192,101326,1,0,0:0:0:0:
329,192,101403,1,0,0:0:0:0:
475,192,101481,1,0,0:0:0:0:
36,192,101481,1,0,0:0:0:0:
256,192,101481,1,0,0:0:0:0:
182,192,101481,1,0,0:0:0:0:
402,192,101558,1,0,0:0:0:0:
329,192,101558,1,0,0:0:0:0:
109,192,101558,1,0,0:0:0:0:
475,192,101636,1,0,0:0:0:0:
256,192,101636,1,0,0:0:0:0:
36,192,101636,1,0,0:0:0:0:
182,192,101713,1,0,0:0:0:0:
475,192,101792,1,0,0:0:0:0:
329,192,101792,1,0,0:0:0:0:
109,192,101792,1,0,0:0:0:0:
36,192,101792,1,0,0:0:0:0:
256,192,101869,1,0,0:0:0:0:
402,192,101947,1,0,0:0:0:0:
475,192,101947,1,0,0:0:0:0:
182,192,101947,1,0,0:0:0:0:
109,192,101947,1,0,0:0:0:0:
329,192,102024,1,0,0:0:0:0:
475,192,102102,1,0,0:0:0:0:
36,192,102102,1,0,0:0:0:0:
256,192,102102,1,0,0:0:0:0:
182,192,102102,1,0,0:0:0:0:
402,192,102179,1,0,0:0:0:0:
329,192,102258,1,0,0:0:0:0:
256,192,102258,1,0,0:0:0:0:
36,192,102258,1,0,0:0:0:0:
475,192,102258,1,0,0:0:0:0:
109,192,102335,1,0,0:0:0:0:
402,192,102335,1,0,0:0:0:0:
256,192,102412,1,0,0:0:0:0:
182,192,102412,1,0,0:0:0:0:
329,192,102412,1,0,0:0:0:0:
402,192,102490,1,0,0:0:0:0:
109,192,102490,1,0,0:0:0:0:
329,192,102568,1,0,0:0:0:0:
475,192,102568,1,0,0:0:0:0:
36,192,102568,1,0,0:0:0:0:
182,192,102568,1,0,0:0:0:0:
402,192,102645,1,0,0:0:0:0:
256,192,102645,1,0,0:0:0:0:
329,192,102723,1,0,0:0:0:0:
475,192,102723,1,0,0:0:0:0:
36,192,102723,1,0,0:0:0:0:
109,192,102723,1,0,0:0:0:0:
402,192,102801,1,0,0:0:0:0:
256,192,102801,1,0,0:0:0:0:
182,192,102878,1,0,0:0:0:0:
36,192,102878,1,0,0:0:0:0:
329,192,102878,1,0,0:0:0:0:
475,192,102878,1,0,0:0:0:0:
402,192,102956,1,0,0:0:0:0:
109,192,102956,1,0,0:0:0:0:
329,192,103033,1,0,0:0:0:0:
256,192,103033,1,0,0:0:0:0:
182,192,103033,1,0,0:0:0:0:
402,192,103111,1,0,0:0:0:0:
109,192,103111,1,0,0:0:0:0:
329,192,103189,1,0,0:0:0:0:
256,192,103189,1,0,0:0:0:0:
36,192,103189,1,0,0:0:0:0:
475,192,103189,1,0,0:0:0:0:
182,192,103344,1,0,0:0:0:0:
109,192,103344,1,0,0:0:0:0:
329,192,103344,1,0,0:0:0:0:
402,192,103344,1,0,0:0:0:0:
402,192,103499,1,0,0:0:0:0:
256,192,103499,1,0,0:0:0:0:
109,192,103499,1,0,0:0:0:0:
475,192,103499,1,0,0:0:0:0:
36,192,103499,1,0,0:0:0:0:
36,192,103810,1,0,0:0:0:0:
329,192,103810,1,0,0:0:0:0:
182,192,103810,1,0,0:0:0:0:
109,192,103888,1,0,0:0:0:0:
256,192,103888,1,0,0:0:0:0:
402,192,103888,1,0,0:0:0:0:
182,192,103965,1,0,0:0:0:0:
329,192,103965,1,0,0:0:0:0:
475,192,103965,1,0,0:0:0:0:
256,192,104042,1,0,0:0:0:0:
402,192,104042,1,0,0:0:0:0:
109,192,104042,1,0,0:0:0:0:
182,192,104121,1,0,0:0:0:0:
329,192,104121,1,0,0:0:0:0:
475,192,104121,1,0,0:0:0:0:
36,192,104121,1,0,0:0:0:0:
36,192,104276,1,0,0:0:0:0:
109,192,104276,1,0,0:0:0:0:
256,192,104276,1,0,0:0:0:0:
402,192,104276,1,0,0:0:0:0:
475,192,104431,1,0,0:0:0:0:
329,192,104431,1,0,0:0:0:0:
109,192,104431,1,0,0:0:0:0:
182,192,104431,1,0,0:0:0:0:
36,192,104587,1,0,0:0:0:0:
256,192,104587,1,0,0:0:0:0:
475,192,104587,1,0,0:0:0:0:
109,192,104587,1,0,0:0:0:0:
402,192,104587,1,0,0:0:0:0:
329,192,104897,1,0,0:0:0:0:
475,192,104897,1,0,0:0:0:0:
109,192,104897,1,0,0:0:0:0:
402,192,104974,1,0,0:0:0:0:
256,192,104974,1,0,0:0:0:0:
329,192,105052,1,0,0:0:0:0:
182,192,105052,1,0,0:0:0:0:
36,192,105052,1,0,0:0:0:0:
475,192,105052,1,0,0:0:0:0:
402,192,105208,1,0,0:0:0:0:
256,192,105208,1,0,0:0:0:0:
36,192,105208,1,0,0:0:0:0:
329,192,105285,1,0,0:0:0:0:
182,192,105285,1,0,0:0:0:0:
256,192,105362,1,0,0:0:0:0:
109,192,105362,1,0,0:0:0:0:
36,192,105362,1,0,0:0:0:0:
475,192,105362,1,0,0:0:0:0:
182,192,105518,1,0,0:0:0:0:
36,192,105518,1,0,0:0:0:0:
402,192,105518,1,0,0:0:0:0:
109,192,105596,1,0,0:0:0:0:
256,192,105596,1,0,0:0:0:0:
475,192,105673,1,0,0:0:0:0:
329,192,105673,1,0,0:0:0:0:
182,192,105673,1,0,0:0:0:0:
36,192,105673,1,0,0:0:0:0:
109,192,105828,1,0,0:0:0:0:
256,192,105828,1,0,0:0:0:0:
402,192,105828,1,0,0:0:0:0:
182,192,105906,1,0,0:0:0:0:
329,192,105906,1,0,0:0:0:0:
36,192,105984,1,0,0:0:0:0:
256,192,105984,1,0,0:0:0:0:
475,192,105984,1,0,0:0:0:0:
402,192,105984,1,0,0:0:0:0:
109,192,105984,1,0,0:0:0:0:
475,192,106294,1,0,0:0:0:0:
182,192,106294,1,0,0:0:0:0:
329,192,106294,1,0,0:0:0:0:
329,192,106450,1,0,0:0:0:0:
182,192,106450,1,0,0:0:0:0:
36,192,106450,1,0,0:0:0:0:
256,192,106528,1,0,0:0:0:0:
109,192,106528,1,0,0:0:0:0:
402,192,106528,1,0,0:0:0:0:
329,192,106605,1,0,0:0:0:0:
182,192,106605,1,0,0:0:0:0:
36,192,106605,1,0,0:0:0:0:
475,192,106605,1,0,0:0:0:0:
475,192,106760,1,0,0:0:0:0:
402,192,106760,1,0,0:0:0:0:
256,192,106760,1,0,0:0:0:0:
109,192,106760,1,0,0:0:0:0:
36,192,106916,1,0,0:0:0:0:
182,192,106916,1,0,0:0:0:0:
402,192,106916,1,0,0:0:0:0:
329,192,106916,1,0,0:0:0:0:
475,192,107071,1,0,0:0:0:0:
256,192,107071,1,0,0:0:0:0:
36,192,107071,1,0,0:0:0:0:
402,192,107071,1,0,0:0:0:0:
109,192,107071,1,0,0:0:0:0:
182,192,107382,1,0,0:0:0:0:
36,192,107382,1,0,0:0:0:0:
402,192,107382,1,0,0:0:0:0:
109,192,107459,1,0,0:0:0:0:
256,192,107459,1,0,0:0:0:0:
182,192,107537,1,0,0:0:0:0:
329,192,107537,1,0,0:0:0:0:
475,192,107537,1,0,0:0:0:0:
36,192,107537,1,0,0:0:0:0:
109,192,107692,1,0,0:0:0:0:
256,192,107692,1,0,0:0:0:0:
402,192,107692,1,0,0:0:0:0:
182,192,107769,1,0,0:0:0:0:
329,192,107769,1,0,0:0:0:0:
256,192,107848,1,0,0:0:0:0:
402,192,107848,1,0,0:0:0:0:
475,192,107848,1,0,0:0:0:0:
36,192,107848,1,0,0:0:0:0:
109,192,107848,1,0,0:0:0:0:
182,192,107925,1,0,0:0:0:0:
329,192,107925,1,0,0:0:0:0:
256,192,108002,1,0,0:0:0:0:
36,192,108002,1,0,0:0:0:0:
475,192,108002,1,0,0:0:0:0:
109,192,108080,1,0,0:0:0:0:
402,192,108080,1,0,0:0:0:0:
36,192,108158,1,0,0:0:0:0:
475,192,108158,1,0,0:0:0:0:
256,192,108158,1,0,0:0:0:0:
182,192,108158,1,0,0:0:0:0:
329,192,108158,1,0,0:0:0:0:
109,192,108235,1,0,0:0:0:0:
402,192,108235,1,0,0:0:0:0:
182,192,108313,1,0,0:0:0:0:
329,192,108313,1,0,0:0:0:0:
256,192,108313,1,0,0:0:0:0:
402,192,108391,1,0,0:0:0:0:
109,192,108391,1,0,0:0:0:0:
256,192,108468,1,0,0:0:0:0:
182,192,108468,1,0,0:0:0:0:
329,192,108468,1,0,0:0:0:0:
475,192,108468,1,0,0:0:0:0:
36,192,108468,1,0,0:0:0:0:
109,192,108623,1,0,0:0:0:0:
475,192,108623,1,0,0:0:0:0:
256,192,108623,1,0,0:0:0:0:
402,192,108701,1,0,0:0:0:0:
182,192,108701,1,0,0:0:0:0:
36,192,108779,1,0,0:0:0:0:
475,192,108779,1,0,0:0:0:0:
329,192,108779,1,0,0:0:0:0:
109,192,108779,1,0,0:0:0:0:
36,192,108934,1,0,0:0:0:0:
402,192,108934,1,0,0:0:0:0:
182,192,108934,1,0,0:0:0:0:
109,192,109012,1,0,0:0:0:0:
329,192,109012,1,0,0:0:0:0:
475,192,109089,1,0,0:0:0:0:
402,192,109089,1,0,0:0:0:0:
36,192,109089,1,0,0:0:0:0:
256,192,109089,1,0,0:0:0:0:
109,192,109245,1,0,0:0:0:0:
36,192,109245,1,0,0:0:0:0:
256,192,109245,1,0,0:0:0:0:
475,192,109245,1,0,0:0:0:0:
329,192,109322,1,0,0:0:0:0:
402,192,109322,1,0,0:0:0:0:
182,192,109322,1,0,0:0:0:0:
475,192,109400,1,0,0:0:0:0:
256,192,109400,1,0,0:0:0:0:
36,192,109400,1,0,0:0:0:0:
109,192,109400,1,0,0:0:0:0:
475,192,109555,1,0,0:0:0:0:
109,192,109555,1,0,0:0:0:0:
329,192,109555,1,0,0:0:0:0:
402,192,109632,1,0,0:0:0:0:
182,192,109632,1,0,0:0:0:0:
36,192,109711,1,0,0:0:0:0:
256,192,109711,1,0,0:0:0:0:
109,192,109711,1,0,0:0:0:0:
475,192,109711,1,0,0:0:0:0:
402,192,109866,1,0,0:0:0:0:
182,192,109866,1,0,0:0:0:0:
36,192,109866,1,0,0:0:0:0:
256,192,109943,1,0,0:0:0:0:
109,192,109943,1,0,0:0:0:0:
329,192,110021,1,0,0:0:0:0:
36,192,110021,1,0,0:0:0:0:
182,192,110021,1,0,0:0:0:0:
475,192,110021,1,0,0:0:0:0:
475,192,110177,1,0,0:0:0:0:
109,192,110177,1,0,0:0:0:0:
256,192,110177,1,0,0:0:0:0:
329,192,110254,1,0,0:0:0:0:
182,192,110254,1,0,0:0:0:0:
36,192,110332,1,0,0:0:0:0:
109,192,110332,1,0,0:0:0:0:
256,192,110332,1,0,0:0:0:0:
402,192,110332,1,0,0:0:0:0:
182,192,110487,1,0,0:0:0:0:
475,192,110487,1,0,0:0:0:0:
36,192,110487,1,0,0:0:0:0:
402,192,110487,1,0,0:0:0:0:
329,192,110564,1,0,0:0:0:0:
109,192,110564,1,0,0:0:0:0:
256,192,110564,1,0,0:0:0:0:
182,192,110642,1,0,0:0:0:0:
402,192,110642,1,0,0:0:0:0:
475,192,110642,1,0,0:0:0:0:
36,192,110642,1,0,0:0:0:0:
256,192,110798,1,0,0:0:0:0:
36,192,110798,1,0,0:0:0:0:
402,192,110798,1,0,0:0:0:0:
329,192,110875,1,0,0:0:0:0:
182,192,110875,1,0,0:0:0:0:
402,192,110952,1,0,0:0:0:0:
256,192,110952,1,0,0:0:0:0:
475,192,110952,1,0,0:0:0:0:
109,192,110952,1,0,0:0:0:0:
329,192,111108,1,0,0:0:0:0:
402,192,111108,1,0,0:0:0:0:
36,192,111108,1,0,0:0:0:0:
182,192,111108,1,0,0:0:0:0:
329,192,111263,1,0,0:0:0:0:
475,192,111263,1,0,0:0:0:0:
109,192,111263,1,0,0:0:0:0:
256,192,111263,1,0,0:0:0:0:
256,192,111418,1,0,0:0:0:0:
402,192,111418,1,0,0:0:0:0:
36,192,111418,1,0,0:0:0:0:
182,192,111418,1,0,0:0:0:0:
475,192,111574,1,0,0:0:0:0:
182,192,111574,1,0,0:0:0:0:
109,192,111574,1,0,0:0:0:0:
329,192,111574,1,0,0:0:0:0:
182,192,111729,1,0,0:0:0:0:
256,192,111729,1,0,0:0:0:0:
36,192,111729,1,0,0:0:0:0:
402,192,111729,1,0,0:0:0:0:
329,192,111884,1,0,0:0:0:0:
109,192,111884,1,0,0:0:0:0:
475,192,111884,1,0,0:0:0:0:
256,192,111884,1,0,0:0:0:0:
402,192,112040,1,0,0:0:0:0:
182,192,112040,1,0,0:0:0:0:
329,192,112040,1,0,0:0:0:0:
36,192,112040,1,0,0:0:0:0:
475,192,112195,1,0,0:0:0:0:
182,192,112195,1,0,0:0:0:0:
36,192,112195,1,0,0:0:0:0:
402,192,112195,1,0,0:0:0:0:
256,192,112272,1,0,0:0:0:0:
109,192,112350,1,0,0:0:0:0:
329,192,112350,1,0,0:0:0:0:
475,192,112350,1,0,0:0:0:0:
36,192,112350,1,0,0:0:0:0:
256,192,112428,1,0,0:0:0:0:
402,192,112506,1,0,0:0:0:0:
475,192,112506,1,0,0:0:0:0:
36,192,112506,1,0,0:0:0:0:
182,192,112506,1,0,0:0:0:0:
256,192,112583,1,0,0:0:0:0:
109,192,112661,1,0,0:0:0:0:
36,192,112661,1,0,0:0:0:0:
329,192,112661,1,0,0:0:0:0:
475,192,112661,1,0,0:0:0:0:
256,192,112738,1,0,0:0:0:0:
402,192,112816,1,0,0:0:0:0:
475,192,112816,1,0,0:0:0:0:
182,192,112816,1,0,0:0:0:0:
36,192,112816,1,0,0:0:0:0:
256,192,112893,1,0,0:0:0:0:
329,192,112893,1,0,0:0:0:0:
36,192,112972,1,0,0:0:0:0:
109,192,112972,1,0,0:0:0:0:
402,192,112972,1,0,0:0:0:0:
475,192,112972,1,0,0:0:0:0:
256,192,113049,1,0,0:0:0:0:
182,192,113049,1,0,0:0:0:0:
402,192,113127,1,0,0:0:0:0:
475,192,113127,1,0,0:0:0:0:
36,192,113127,1,0,0:0:0:0:
109,192,113127,1,0,0:0:0:0:
256,192,113204,1,0,0:0:0:0:
329,192,113204,1,0,0:0:0:0:
109,192,113282,1,0,0:0:0:0:
36,192,113282,1,0,0:0:0:0:
402,192,113282,1,0,0:0:0:0:
475,192,113282,1,0,0:0:0:0:
256,192,113360,1,0,0:0:0:0:
182,192,113360,1,0,0:0:0:0:
109,192,113438,1,0,0:0:0:0:
329,192,113438,1,0,0:0:0:0:
475,192,113438,1,0,0:0:0:0:
36,192,113438,1,0,0:0:0:0:
402,192,113515,1,0,0:0:0:0:
182,192,113515,1,0,0:0:0:0:
36,192,113592,1,0,0:0:0:0:
475,192,113592,1,0,0:0:0:0:
256,192,113592,1,0,0:0:0:0:
329,192,113670,1,0,0:0:0:0:
109,192,113670,1,0,0:0:0:0:
475,192,113748,1,0,0:0:0:0:
402,192,113748,1,0,0:0:0:0:
182,192,113748,1,0,0:0:0:0:
256,192,113826,1,0,0:0:0:0:
36,192,113826,1,0,0:0:0:0:
329,192,113903,1,0,0:0:0:0:
109,192,113903,1,0,0:0:0:0:
402,192,113981,1,0,0:0:0:0:
182,192,113981,1,0,0:0:0:0:
36,192,114058,1,0,0:0:0:0:
475,192,114058,1,0,0:0:0:0:
256,192,114058,1,0,0:0:0:0:
402,192,114136,1,0,0:0:0:0:
109,192,114136,1,0,0:0:0:0:
256,192,114213,1,0,0:0:0:0:
36,192,114213,1,0,0:0:0:0:
475,192,114213,1,0,0:0:0:0:
329,192,114292,1,0,0:0:0:0:
182,192,114292,1,0,0:0:0:0:
256,192,114369,1,0,0:0:0:0:
475,192,114369,1,0,0:0:0:0:
402,192,114369,1,0,0:0:0:0:
36,192,114369,1,0,0:0:0:0:
109,192,114369,1,0,0:0:0:0:
329,192,114447,1,0,0:0:0:0:
182,192,114447,1,0,0:0:0:0:
475,192,114524,1,0,0:0:0:0:
36,192,114524,1,0,0:0:0:0:
256,192,114524,1,0,0:0:0:0:
109,192,114602,1,0,0:0:0:0:
402,192,114602,1,0,0:0:0:0:
36,192,114679,1,0,0:0:0:0:
475,192,114679,1,0,0:0:0:0:
256,192,114679,1,0,0:0:0:0:
182,192,114679,1,0,0:0:0:0:
329,192,114679,1,0,0:0:0:0:
402,192,114758,1,0,0:0:0:0:
109,192,114758,1,0,0:0:0:0:
256,192,114835,1,0,0:0:0:0:
475,192,114835,1,0,0:0:0:0:
36,192,114835,1,0,0:0:0:0:
182,192,114835,1,0,0:0:0:0:
329,192,114912,1,0,0:0:0:0:
109,192,114912,1,0,0:0:0:0:
475,192,114990,1,0,0:0:0:0:
402,192,114990,1,0,0:0:0:0:
36,192,114990,1,0,0:0:0:0:
182,192,114990,1,0,0:0:0:0:
109,192,115068,1,0,0:0:0:0:
256,192,115068,1,0,0:0:0:0:
329,192,115145,1,0,0:0:0:0:
475,192,115145,1,0,0:0:0:0:
36,192,115145,1,0,0:0:0:0:
182,192,115145,1,0,0:0:0:0:
402,192,115223,1,0,0:0:0:0:
256,192,115301,1,0,0:0:0:0:
109,192,115301,1,0,0:0:0:0:
475,192,115301,1,0,0:0:0:0:
36,192,115378,1,0,0:0:0:0:
329,192,115456,1,0,0:0:0:0:
182,192,115456,1,0,0:0:0:0:
475,192,115456,1,0,0:0:0:0:
109,192,115533,1,0,0:0:0:0:
256,192,115611,1,0,0:0:0:0:
36,192,115611,1,0,0:0:0:0:
402,192,115611,1,0,0:0:0:0:
475,192,115689,1,0,0:0:0:0:
109,192,115767,1,0,0:0:0:0:
36,192,115767,1,0,0:0:0:0:
329,192,115767,1,0,0:0:0:0:
182,192,115844,1,0,0:0:0:0:
402,192,115844,1,0,0:0:0:0:
36,192,115922,1,0,0:0:0:0:
109,192,115922,1,0,0:0:0:0:
475,192,115922,1,0,0:0:0:0:
256,192,115922,1,0,0:0:0:0:
402,192,115999,1,0,0:0:0:0:
182,192,115999,1,0,0:0:0:0:
329,192,116077,1,0,0:0:0:0:
256,192,116077,1,0,0:0:0:0:
109,192,116077,1,0,0:0:0:0:
36,192,116077,1,0,0:0:0:0:
475,192,116155,1,0,0:0:0:0:
182,192,116155,1,0,0:0:0:0:
402,192,116232,1,0,0:0:0:0:
256,192,116232,1,0,0:0:0:0:
109,192,116232,1,0,0:0:0:0:
36,192,116232,1,0,0:0:0:0:
329,192,116310,1,0,0:0:0:0:
182,192,116310,1,0,0:0:0:0:
256,192,116388,1,0,0:0:0:0:
475,192,116388,1,0,0:0:0:0:
109,192,116388,1,0,0:0:0:0:
36,192,116388,1,0,0:0:0:0:
402,192,116465,1,0,0:0:0:0:
475,192,116542,1,0,0:0:0:0:
329,192,116542,1,0,0:0:0:0:
109,192,116542,1,0,0:0:0:0:
182,192,116621,1,0,0:0:0:0:
402,192,116698,1,0,0:0:0:0:
256,192,116698,1,0,0:0:0:0:
36,192,116698,1,0,0:0:0:0:
109,192,116776,1,0,0:0:0:0:
402,192,116853,1,0,0:0:0:0:
182,192,116853,1,0,0:0:0:0:
329,192,116931,1,0,0:0:0:0:
36,192,117008,1,0,0:0:0:0:
256,192,117008,1,0,0:0:0:0:
475,192,117008,1,0,0:0:0:0:
109,192,117087,1,0,0:0:0:0:
402,192,117087,1,0,0:0:0:0:
36,192,117164,1,0,0:0:0:0:
256,192,117164,1,0,0:0:0:0:
329,192,117164,1,0,0:0:0:0:
182,192,117164,1,0,0:0:0:0:
402,192,117242,1,0,0:0:0:0:
109,192,117242,1,0,0:0:0:0:
475,192,117319,1,0,0:0:0:0:
256,192,117319,1,0,0:0:0:0:
36,192,117319,1,0,0:0:0:0:
182,192,117319,1,0,0:0:0:0:
329,192,117397,1,0,0:0:0:0:
109,192,117397,1,0,0:0:0:0:
402,192,117474,1,0,0:0:0:0:
475,192,117474,1,0,0:0:0:0:
36,192,117474,1,0,0:0:0:0:
182,192,117474,1,0,0:0:0:0:
256,192,117552,1,0,0:0:0:0:
109,192,117552,1,0,0:0:0:0:
329,192,117630,1,0,0:0:0:0:
475,192,117630,1,0,0:0:0:0:
36,192,117630,1,0,0:0:0:0:
182,192,117630,1,0,0:0:0:0:
402,192,117708,1,0,0:0:0:0:
475,192,117785,1,0,0:0:0:0:
109,192,117785,1,0,0:0:0:0:
256,192,117785,1,0,0:0:0:0:
36,192,117862,1,0,0:0:0:0:
182,192,117940,1,0,0:0:0:0:
475,192,117940,1,0,0:0:0:0:
402,192,117940,1,0,0:0:0:0:
109,192,118018,1,0,0:0:0:0:
329,192,118018,1,0,0:0:0:0:
402,192,118096,1,0,0:0:0:0:
256,192,118096,1,0,0:0:0:0:
36,192,118096,1,0,0:0:0:0:
475,192,118173,1,0,0:0:0:0:
109,192,118251,1,0,0:0:0:0:
329,192,118251,1,0,0:0:0:0:
36,192,118251,1,0,0:0:0:0:
402,192,118328,1,0,0:0:0:0:
182,192,118328,1,0,0:0:0:0:
109,192,118406,1,0,0:0:0:0:
329,192,118406,1,0,0:0:0:0:
36,192,118406,1,0,0:0:0:0:
256,192,118406,1,0,0:0:0:0:
475,192,118406,1,0,0:0:0:0:
402,192,118484,1,0,0:0:0:0:
182,192,118484,1,0,0:0:0:0:
36,192,118562,1,0,0:0:0:0:
256,192,118562,1,0,0:0:0:0:
329,192,118639,1,0,0:0:0:0:
109,192,118639,1,0,0:0:0:0:
402,192,118717,1,0,0:0:0:0:
475,192,118717,1,0,0:0:0:0:
256,192,118717,1,0,0:0:0:0:
36,192,118717,1,0,0:0:0:0:
182,192,118717,1,0,0:0:0:0:
329,192,118794,1,0,0:0:0:0:
109,192,118794,1,0,0:0:0:0:
256,192,118872,1,0,0:0:0:0:
475,192,118872,1,0,0:0:0:0:
182,192,118950,1,0,0:0:0:0:
402,192,118950,1,0,0:0:0:0:
256,192,119028,1,0,0:0:0:0:
475,192,119028,1,0,0:0:0:0:
329,192,119028,1,0,0:0:0:0:
109,192,119028,1,0,0:0:0:0:
36,192,119028,1,0,0:0:0:0:
402,192,119105,1,0,0:0:0:0:
182,192,119105,1,0,0:0:0:0:
256,192,119182,1,0,0:0:0:0:
36,192,119182,1,0,0:0:0:0:
329,192,119260,1,0,0:0:0:0:
109,192,119260,1,0,0:0:0:0:
36,192,119338,1,0,0:0:0:0:
256,192,119338,1,0,0:0:0:0:
182,192,119338,1,0,0:0:0:0:
402,192,119338,1,0,0:0:0:0:
475,192,119338,1,0,0:0:0:0:
329,192,119416,1,0,0:0:0:0:
109,192,119416,1,0,0:0:0:0:
256,192,119493,1,0,0:0:0:0:
475,192,119493,1,0,0:0:0:0:
36,192,119493,1,0,0:0:0:0:
402,192,119571,1,0,0:0:0:0:
182,192,119571,1,0,0:0:0:0:
329,192,119648,1,0,0:0:0:0:
475,192,119648,1,0,0:0:0:0:
256,192,119648,1,0,0:0:0:0:
36,192,119648,1,0,0:0:0:0:
109,192,119648,1,0,0:0:0:0:
402,192,119726,1,0,0:0:0:0:
182,192,119726,1,0,0:0:0:0:
329,192,119803,1,0,0:0:0:0:
256,192,119803,1,0,0:0:0:0:
109,192,119803,1,0,0:0:0:0:
36,192,119803,1,0,0:0:0:0:
475,192,119882,1,0,0:0:0:0:
182,192,119882,1,0,0:0:0:0:
402,192,119959,1,0,0:0:0:0:
256,192,119959,1,0,0:0:0:0:
109,192,119959,1,0,0:0:0:0:
36,192,119959,1,0,0:0:0:0:
329,192,120037,1,0,0:0:0:0:
182,192,120037,1,0,0:0:0:0:
475,192,120114,1,0,0:0:0:0:
256,192,120114,1,0,0:0:0:0:
109,192,120114,1,0,0:0:0:0:
36,192,120114,1,0,0:0:0:0:
402,192,120192,1,0,0:0:0:0:
256,192,120269,1,0,0:0:0:0:
109,192,120269,1,0,0:0:0:0:
475,192,120269,1,0,0:0:0:0:
36,192,120348,1,0,0:0:0:0:
329,192,120425,1,0,0:0:0:0:
182,192,120425,1,0,0:0:0:0:
475,192,120425,1,0,0:0:0:0:
109,192,120502,1,0,0:0:0:0:
256,192,120580,1,0,0:0:0:0:
36,192,120580,1,0,0:0:0:0:
402,192,120580,1,0,0:0:0:0:
475,192,120658,1,0,0:0:0:0:
182,192,120735,1,0,0:0:0:0:
36,192,120735,1,0,0:0:0:0:
329,192,120735,1,0,0:0:0:0:
109,192,120813,1,0,0:0:0:0:
402,192,120813,1,0,0:0:0:0:
182,192,120891,1,0,0:0:0:0:
256,192,120891,1,0,0:0:0:0:
475,192,120891,1,0,0:0:0:0:
36,192,120891,1,0,0:0:0:0:
329,192,120968,1,0,0:0:0:0:
109,192,120968,1,0,0:0:0:0:
402,192,121046,1,0,0:0:0:0:
475,192,121046,1,0,0:0:0:0:
36,192,121046,1,0,0:0:0:0:
182,192,121046,1,0,0:0:0:0:
256,192,121123,1,0,0:0:0:0:
109,192,121123,1,0,0:0:0:0:
329,192,121201,1,0,0:0:0:0:
475,192,121201,1,0,0:0:0:0:
36,192,121201,1,0,0:0:0:0:
182,192,121201,1,0,0:0:0:0:
402,192,121279,1,0,0:0:0:0:
109,192,121279,1,0,0:0:0:0:
256,192,121357,1,0,0:0:0:0:
475,192,121357,1,0,0:0:0:0:
36,192,121357,1,0,0:0:0:0:
182,192,121357,1,0,0:0:0:0:
402,192,121434,1,0,0:0:0:0:
109,192,121512,1,0,0:0:0:0:
329,192,121512,1,0,0:0:0:0:
475,192,121512,1,0,0:0:0:0:
182,192,121589,1,0,0:0:0:0:
36,192,121667,1,0,0:0:0:0:
256,192,121667,1,0,0:0:0:0:
402,192,121667,1,0,0:0:0:0:
109,192,121745,1,0,0:0:0:0:
182,192,121822,1,0,0:0:0:0:
402,192,121822,1,0,0:0:0:0:
329,192,121900,1,0,0:0:0:0:
475,192,121978,1,0,0:0:0:0:
256,192,121978,1,0,0:0:0:0:
36,192,121978,1,0,0:0:0:0:
182,192,121978,1,0,0:0:0:0:
402,192,122055,1,0,0:0:0:0:
109,192,122055,1,0,0:0:0:0:
329,192,122132,1,0,0:0:0:0:
36,192,122132,1,0,0:0:0:0:
475,192,122132,1,0,0:0:0:0:
182,192,122211,1,0,0:0:0:0:
36,192,122288,1,0,0:0:0:0:
475,192,122288,1,0,0:0:0:0:
256,192,122288,1,0,0:0:0:0:
329,192,122288,1,0,0:0:0:0:
109,192,122366,1,0,0:0:0:0:
402,192,122366,1,0,0:0:0:0:
36,192,122443,1,0,0:0:0:0:
475,192,122443,1,0,0:0:0:0:
182,192,122443,1,0,0:0:0:0:
256,192,122521,1,0,0:0:0:0:
109,192,122521,1,0,0:0:0:0:
475,192,122598,1,0,0:0:0:0:
402,192,122598,1,0,0:0:0:0:
182,192,122598,1,0,0:0:0:0:
329,192,122598,1,0,0:0:0:0:
256,192,122677,1,0,0:0:0:0:
109,192,122677,1,0,0:0:0:0:
402,192,122754,1,0,0:0:0:0:
475,192,122754,1,0,0:0:0:0:
36,192,122754,1,0,0:0:0:0:
182,192,122754,1,0,0:0:0:0:
256,192,122832,1,0,0:0:0:0:
402,192,122909,1,0,0:0:0:0:
109,192,122909,1,0,0:0:0:0:
36,192,122909,1,0,0:0:0:0:
329,192,122909,1,0,0:0:0:0:
182,192,122987,1,0,0:0:0:0:
36,192,123064,1,0,0:0:0:0:
475,192,123064,1,0,0:0:0:0:
329,192,123064,1,0,0:0:0:0:
256,192,123064,1,0,0:0:0:0:
109,192,123142,1,0,0:0:0:0:
36,192,123220,1,0,0:0:0:0:
475,192,123220,1,0,0:0:0:0:
402,192,123220,1,0,0:0:0:0:
182,192,123220,1,0,0:0:0:0:
256,192,123220,1,0,0:0:0:0:
402,192,123530,1,0,0:0:0:0:
182,192,123530,1,0,0:0:0:0:
36,192,123530,1,0,0:0:0:0:
475,192,123530,1,0,0:0:0:0:
256,192,123608,1,0,0:0:0:0:
109,192,123686,1,0,0:0:0:0:
36,192,123686,1,0,0:0:0:0:
475,192,123686,1,0,0:0:0:0:
329,192,123686,1,0,0:0:0:0:
256,192,123763,1,0,0:0:0:0:
402,192,123841,1,0,0:0:0:0:
475,192,123841,1,0,0:0:0:0:
182,192,123841,1,0,0:0:0:0:
36,192,123841,1,0,0:0:0:0:
256,192,123918,1,0,0:0:0:0:
109,192,123996,1,0,0:0:0:0:
36,192,123996,1,0,0:0:0:0:
329,192,123996,1,0,0:0:0:0:
475,192,123996,1,0,0:0:0:0:
256,192,124074,1,0,0:0:0:0:
182,192,124074,1,0,0:0:0:0:
475,192,124152,1,0,0:0:0:0:
402,192,124152,1,0,0:0:0:0:
109,192,124152,1,0,0:0:0:0:
36,192,124152,1,0,0:0:0:0:
256,192,124229,1,0,0:0:0:0:
329,192,124229,1,0,0:0:0:0:
109,192,124307,1,0,0:0:0:0:
36,192,124307,1,0,0:0:0:0:
475,192,124307,1,0,0:0:0:0:
402,192,124307,1,0,0:0:0:0:
256,192,124384,1,0,0:0:0:0:
182,192,124384,1,0,0:0:0:0:
402,192,124462,1,0,0:0:0:0:
475,192,124462,1,0,0:0:0:0:
109,192,124462,1,0,0:0:0:0:
36,192,124462,1,0,0:0:0:0:
256,192,124540,1,0,0:0:0:0:
329,192,124540,1,0,0:0:0:0:
402,192,124618,1,0,0:0:0:0:
36,192,124618,1,0,0:0:0:0:
475,192,124618,1,0,0:0:0:0:
109,192,124618,1,0,0:0:0:0:
182,192,124695,1,0,0:0:0:0:
329,192,124695,1,0,0:0:0:0:
36,192,124772,1,0,0:0:0:0:
109,192,124772,1,0,0:0:0:0:
475,192,124772,1,0,0:0:0:0:
402,192,124772,1,0,0:0:0:0:
182,192,124850,1,0,0:0:0:0:
256,192,124850,1,0,0:0:0:0:
36,192,124928,1,0,0:0:0:0:
109,192,124928,1,0,0:0:0:0:
329,192,124928,1,0,0:0:0:0:
475,192,124928,1,0,0:0:0:0:
182,192,125006,1,0,0:0:0:0:
402,192,125006,1,0,0:0:0:0:
36,192,125083,1,0,0:0:0:0:
109,192,125083,1,0,0:0:0:0:
475,192,125083,1,0,0:0:0:0:
256,192,125083,1,0,0:0:0:0:
329,192,125161,1,0,0:0:0:0:
475,192,125238,1,0,0:0:0:0:
109,192,125238,1,0,0:0:0:0:
402,192,125238,1,0,0:0:0:0:
36,192,125316,1,0,0:0:0:0:
475,192,125393,1,0,0:0:0:0:
182,192,125393,1,0,0:0:0:0:
329,192,125393,1,0,0:0:0:0:
109,192,125472,1,0,0:0:0:0:
402,192,125549,1,0,0:0:0:0:
36,192,125549,1,0,0:0:0:0:
256,192,125549,1,0,0:0:0:0:
475,192,125627,1,0,0:0:0:0:
329,192,125704,1,0,0:0:0:0:
36,192,125704,1,0,0:0:0:0:
182,192,125704,1,0,0:0:0:0:
402,192,125782,1,0,0:0:0:0:
109,192,125782,1,0,0:0:0:0:
475,192,125860,1,0,0:0:0:0:
256,192,125860,1,0,0:0:0:0:
36,192,125860,1,0,0:0:0:0:
182,192,125860,1,0,0:0:0:0:
109,192,125938,1,0,0:0:0:0:
402,192,125938,1,0,0:0:0:0:
182,192,126015,1,0,0:0:0:0:
36,192,126015,1,0,0:0:0:0:
329,192,126015,1,0,0:0:0:0:
256,192,126015,1,0,0:0:0:0:
109,192,126092,1,0,0:0:0:0:
475,192,126092,1,0,0:0:0:0:
182,192,126170,1,0,0:0:0:0:
36,192,126170,1,0,0:0:0:0:
402,192,126170,1,0,0:0:0:0:
256,192,126170,1,0,0:0:0:0:
109,192,126248,1,0,0:0:0:0:
329,192,126248,1,0,0:0:0:0:
182,192,126326,1,0,0:0:0:0:
36,192,126326,1,0,0:0:0:0:
256,192,126326,1,0,0:0:0:0:
475,192,126326,1,0,0:0:0:0:
402,192,126403,1,0,0:0:0:0:
109,192,126481,1,0,0:0:0:0:
329,192,126481,1,0,0:0:0:0:
475,192,126481,1,0,0:0:0:0:
182,192,126558,1,0,0:0:0:0:
36,192,126636,1,0,0:0:0:0:
256,192,126636,1,0,0:0:0:0:
402,192,126636,1,0,0:0:0:0:
109,192,126713,1,0,0:0:0:0:
182,192,126792,1,0,0:0:0:0:
402,192,126792,1,0,0:0:0:0:
329,192,126869,1,0,0:0:0:0:
475,192,126947,1,0,0:0:0:0:
36,192,126947,1,0,0:0:0:0:
256,192,126947,1,0,0:0:0:0:
402,192,127024,1,0,0:0:0:0:
182,192,127024,1,0,0:0:0:0:
329,192,127102,1,0,0:0:0:0:
36,192,127102,1,0,0:0:0:0:
109,192,127102,1,0,0:0:0:0:
256,192,127102,1,0,0:0:0:0:
182,192,127179,1,0,0:0:0:0:
402,192,127179,1,0,0:0:0:0:
109,192,127258,1,0,0:0:0:0:
36,192,127258,1,0,0:0:0:0:
475,192,127258,1,0,0:0:0:0:
256,192,127258,1,0,0:0:0:0:
182,192,127335,1,0,0:0:0:0:
329,192,127335,1,0,0:0:0:0:
109,192,127412,1,0,0:0:0:0:
36,192,127412,1,0,0:0:0:0:
402,192,127412,1,0,0:0:0:0:
475,192,127412,1,0,0:0:0:0:
182,192,127490,1,0,0:0:0:0:
256,192,127490,1,0,0:0:0:0:
109,192,127568,1,0,0:0:0:0:
36,192,127568,1,0,0:0:0:0:
329,192,127568,1,0,0:0:0:0:
475,192,127568,1,0,0:0:0:0:
402,192,127645,1,0,0:0:0:0:
256,192,127723,1,0,0:0:0:0:
109,192,127723,1,0,0:0:0:0:
475,192,127723,1,0,0:0:0:0:
36,192,127801,1,0,0:0:0:0:
402,192,127878,1,0,0:0:0:0:
475,192,127878,1,0,0:0:0:0:
182,192,127878,1,0,0:0:0:0:
329,192,127956,1,0,0:0:0:0:
109,192,127956,1,0,0:0:0:0:
36,192,128033,1,0,0:0:0:0:
256,192,128033,1,0,0:0:0:0:
402,192,128033,1,0,0:0:0:0:
475,192,128111,1,0,0:0:0:0:
329,192,128189,1,0,0:0:0:0:
109,192,128189,1,0,0:0:0:0:
36,192,128189,1,0,0:0:0:0:
182,192,128267,1,0,0:0:0:0:
402,192,128267,1,0,0:0:0:0:
256,192,128344,1,0,0:0:0:0:
475,192,128344,1,0,0:0:0:0:
36,192,128344,1,0,0:0:0:0:
109,192,128344,1,0,0:0:0:0:
329,192,128344,1,0,0:0:0:0:
182,192,128422,1,0,0:0:0:0:
402,192,128422,1,0,0:0:0:0:
256,192,128499,1,0,0:0:0:0:
36,192,128499,1,0,0:0:0:0:
109,192,128577,1,0,0:0:0:0:
329,192,128577,1,0,0:0:0:0:
36,192,128655,1,0,0:0:0:0:
182,192,128655,1,0,0:0:0:0:
256,192,128655,1,0,0:0:0:0:
402,192,128655,1,0,0:0:0:0:
475,192,128655,1,0,0:0:0:0:
109,192,128732,1,0,0:0:0:0:
329,192,128732,1,0,0:0:0:0:
256,192,128810,1,0,0:0:0:0:
475,192,128810,1,0,0:0:0:0:
402,192,128888,1,0,0:0:0:0:
182,192,128888,1,0,0:0:0:0:
109,192,128965,1,0,0:0:0:0:
36,192,128965,1,0,0:0:0:0:
329,192,128965,1,0,0:0:0:0:
256,192,128965,1,0,0:0:0:0:
475,192,128965,1,0,0:0:0:0:
182,192,129042,1,0,0:0:0:0:
402,192,129042,1,0,0:0:0:0:
256,192,129121,1,0,0:0:0:0:
36,192,129121,1,0,0:0:0:0:
109,192,129198,1,0,0:0:0:0:
329,192,129198,1,0,0:0:0:0:
402,192,129276,1,0,0:0:0:0:
475,192,129276,1,0,0:0:0:0:
182,192,129276,1,0,0:0:0:0:
36,192,129276,1,0,0:0:0:0:
256,192,129276,1,0,0:0:0:0:
109,192,129353,1,0,0:0:0:0:
329,192,129353,1,0,0:0:0:0:
475,192,129431,1,0,0:0:0:0:
256,192,129431,1,0,0:0:0:0:
36,192,129431,1,0,0:0:0:0:
182,192,129508,1,0,0:0:0:0:
329,192,129508,1,0,0:0:0:0:
109,192,129587,1,0,0:0:0:0:
402,192,129587,1,0,0:0:0:0:
256,192,129587,1,0,0:0:0:0:
475,192,129587,1,0,0:0:0:0:
36,192,129587,1,0,0:0:0:0:
182,192,129742,1,0,0:0:0:0:
109,192,129742,1,0,0:0:0:0:
402,192,129742,1,0,0:0:0:0:
329,192,129742,1,0,0:0:0:0:
475,192,129742,1,0,0:0:0:0:
36,192,129897,1,0,0:0:0:0:
329,192,129897,1,0,0:0:0:0:
475,192,129897,1,0,0:0:0:0:
402,192,129974,1,0,0:0:0:0:
256,192,129974,1,0,0:0:0:0:
109,192,129974,1,0,0:0:0:0:
475,192,130052,1,0,0:0:0:0:
329,192,130052,1,0,0:0:0:0:
36,192,130052,1,0,0:0:0:0:
182,192,130052,1,0,0:0:0:0:
182,192,130362,1,0,0:0:0:0:
109,192,130362,1,0,0:0:0:0:
329,192,130362,1,0,0:0:0:0:
475,192,130362,1,0,0:0:0:0:
402,192,130362,1,0,0:0:0:0:
329,192,130518,1,0,0:0:0:0:
256,192,130518,1,0,0:0:0:0:
402,192,130518,1,0,0:0:0:0:
36,192,130518,1,0,0:0:0:0:
109,192,130518,1,0,0:0:0:0:
256,192,130673,1,0,0:0:0:0:
329,192,130673,1,0,0:0:0:0:
182,192,130673,1,0,0:0:0:0:
36,192,130673,1,0,0:0:0:0:
475,192,130673,1,0,0:0:0:0:
402,192,130751,1,0,0:0:0:0:
109,192,130751,1,0,0:0:0:0:
182,192,130828,1,0,0:0:0:0:
329,192,130828,1,0,0:0:0:0:
256,192,130828,1,0,0:0:0:0:
475,192,130828,1,0,0:0:0:0:
36,192,130828,1,0,0:0:0:0:
329,192,130984,1,0,0:0:0:0:
402,192,130984,1,0,0:0:0:0:
109,192,130984,1,0,0:0:0:0:
182,192,130984,1,0,0:0:0:0:
36,192,130984,1,0,0:0:0:0:
475,192,131139,1,0,0:0:0:0:
182,192,131139,1,0,0:0:0:0:
36,192,131139,1,0,0:0:0:0:
109,192,131217,1,0,0:0:0:0:
256,192,131217,1,0,0:0:0:0:
402,192,131217,1,0,0:0:0:0:
36,192,131294,1,0,0:0:0:0:
182,192,131294,1,0,0:0:0:0:
475,192,131294,1,0,0:0:0:0:
329,192,131294,1,0,0:0:0:0:
329,192,131605,1,0,0:0:0:0:
402,192,131605,1,0,0:0:0:0:
182,192,131605,1,0,0:0:0:0:
36,192,131605,1,0,0:0:0:0:
109,192,131605,1,0,0:0:0:0:
256,192,131760,1,0,0:0:0:0:
402,192,131760,1,0,0:0:0:0:
36,192,131760,1,0,0:0:0:0:
109,192,131760,1,0,0:0:0:0:
475,192,131760,1,0,0:0:0:0:
329,192,131838,1,0,0:0:0:0:
182,192,131838,1,0,0:0:0:0:
256,192,131916,1,0,0:0:0:0:
475,192,131916,1,0,0:0:0:0:
36,192,131916,1,0,0:0:0:0:
402,192,131993,1,0,0:0:0:0:
109,192,131993,1,0,0:0:0:0:
329,192,132071,1,0,0:0:0:0:
475,192,132071,1,0,0:0:0:0:
256,192,132071,1,0,0:0:0:0:
36,192,132071,1,0,0:0:0:0:
182,192,132071,1,0,0:0:0:0:
329,192,132303,1,0,0:0:0:0:
182,192,132303,1,0,0:0:0:0:
109,192,132382,1,0,0:0:0:0:
256,192,132382,1,0,0:0:0:0:
36,192,132382,1,0,0:0:0:0:
475,192,132382,1,0,0:0:0:0:
402,192,132382,1,0,0:0:0:0:
402,192,132614,1,0,0:0:0:0:
109,192,132614,1,0,0:0:0:0:
182,192,132692,1,0,0:0:0:0:
256,192,132692,1,0,0:0:0:0:
329,192,132692,1,0,0:0:0:0:
36,192,132692,1,0,0:0:0:0:
475,192,132692,1,0,0:0:0:0:
475,192,132925,1,0,0:0:0:0:
36,192,132925,1,0,0:0:0:0:
402,192,133002,1,0,0:0:0:0:
329,192,133002,1,0,0:0:0:0:
109,192,133002,1,0,0:0:0:0:
256,192,133002,1,0,0:0:0:0:
182,192,133002,1,0,0:0:0:0:
256,192,133235,1,0,0:0:0:0:
475,192,133313,1,0,0:0:0:0:
402,192,133313,1,0,0:0:0:0:
182,192,133313,1,0,0:0:0:0:
36,192,133313,1,0,0:0:0:0:
109,192,133313,1,0,0:0:0:0:
329,192,133313,1,0,0:0:0:0:
329,192,133623,128,0,134400:0:0:0:0:
402,192,133623,128,0,134400:0:0:0:0:
475,192,133623,128,0,134400:0:0:0:0:
36,192,133623,128,0,134400:0:0:0:0:
109,192,133623,128,0,134400:0:0:0:0:
182,192,133623,128,0,134400:0:0:0:0:
109,192,134478,1,0,0:0:0:0:
402,192,134478,1,0,0:0:0:0:
182,192,134517,1,0,0:0:0:0:
329,192,134517,1,0,0:0:0:0:
475,192,134555,1,0,0:0:0:0:
109,192,134555,1,0,0:0:0:0:
36,192,134555,1,0,0:0:0:0:
402,192,134555,1,0,0:0:0:0:
256,192,134555,1,0,0:0:0:0:
36,192,134711,1,0,0:0:0:0:
182,192,134711,1,0,0:0:0:0:
402,192,134711,1,0,0:0:0:0:
109,192,134788,1,0,0:0:0:0:
256,192,134788,1,0,0:0:0:0:
36,192,134866,1,0,0:0:0:0:
475,192,134866,1,0,0:0:0:0:
182,192,134866,1,0,0:0:0:0:
329,192,134866,1,0,0:0:0:0:
109,192,135021,1,0,0:0:0:0:
256,192,135021,1,0,0:0:0:0:
402,192,135021,1,0,0:0:0:0:
182,192,135098,1,0,0:0:0:0:
329,192,135098,1,0,0:0:0:0:
475,192,135098,1,0,0:0:0:0:
36,192,135177,1,0,0:0:0:0:
256,192,135177,1,0,0:0:0:0:
109,192,135177,1,0,0:0:0:0:
402,192,135177,1,0,0:0:0:0:
475,192,135332,1,0,0:0:0:0:
109,192,135332,1,0,0:0:0:0:
329,192,135332,1,0,0:0:0:0:
256,192,135409,1,0,0:0:0:0:
402,192,135409,1,0,0:0:0:0:
36,192,135487,1,0,0:0:0:0:
475,192,135487,1,0,0:0:0:0:
182,192,135487,1,0,0:0:0:0:
329,192,135487,1,0,0:0:0:0:
402,192,135642,1,0,0:0:0:0:
256,192,135642,1,0,0:0:0:0:
109,192,135642,1,0,0:0:0:0:
182,192,135720,1,0,0:0:0:0:
329,192,135720,1,0,0:0:0:0:
109,192,135798,1,0,0:0:0:0:
256,192,135798,1,0,0:0:0:0:
475,192,135798,1,0,0:0:0:0:
36,192,135798,1,0,0:0:0:0:
475,192,135952,1,0,0:0:0:0:
329,192,135952,1,0,0:0:0:0:
36,192,135952,1,0,0:0:0:0:
256,192,136030,1,0,0:0:0:0:
109,192,136030,1,0,0:0:0:0:
182,192,136108,1,0,0:0:0:0:
329,192,136108,1,0,0:0:0:0:
36,192,136108,1,0,0:0:0:0:
475,192,136108,1,0,0:0:0:0:
402,192,136263,1,0,0:0:0:0:
109,192,136263,1,0,0:0:0:0:
36,192,136263,1,0,0:0:0:0:
329,192,136341,1,0,0:0:0:0:
182,192,136341,1,0,0:0:0:0:
402,192,136418,1,0,0:0:0:0:
36,192,136418,1,0,0:0:0:0:
256,192,136418,1,0,0:0:0:0:
475,192,136418,1,0,0:0:0:0:
36,192,136574,1,0,0:0:0:0:
475,192,136574,1,0,0:0:0:0:
182,192,136574,1,0,0:0:0:0:
402,192,136652,1,0,0:0:0:0:
256,192,136652,1,0,0:0:0:0:
182,192,136729,1,0,0:0:0:0:
329,192,136729,1,0,0:0:0:0:
36,192,136729,1,0,0:0:0:0:
475,192,136729,1,0,0:0:0:0:
475,192,136884,1,0,0:0:0:0:
109,192,136884,1,0,0:0:0:0:
402,192,136884,1,0,0:0:0:0:
329,192,136962,1,0,0:0:0:0:
182,192,136962,1,0,0:0:0:0:
475,192,137040,1,0,0:0:0:0:
36,192,137040,1,0,0:0:0:0:
109,192,137040,1,0,0:0:0:0:
256,192,137040,1,0,0:0:0:0:
36,192,137195,1,0,0:0:0:0:
256,192,137195,1,0,0:0:0:0:
475,192,137195,1,0,0:0:0:0:
109,192,137272,1,0,0:0:0:0:
329,192,137272,1,0,0:0:0:0:
36,192,137350,1,0,0:0:0:0:
182,192,137350,1,0,0:0:0:0:
402,192,137350,1,0,0:0:0:0:
475,192,137350,1,0,0:0:0:0:
109,192,137506,1,0,0:0:0:0:
329,192,137506,1,0,0:0:0:0:
475,192,137506,1,0,0:0:0:0:
182,192,137583,1,0,0:0:0:0:
402,192,137583,1,0,0:0:0:0:
36,192,137583,1,0,0:0:0:0:
256,192,137661,1,0,0:0:0:0:
475,192,137661,1,0,0:0:0:0:
109,192,137661,1,0,0:0:0:0:
329,192,137661,1,0,0:0:0:0:
36,192,137816,1,0,0:0:0:0:
256,192,137816,1,0,0:0:0:0:
475,192,137816,1,0,0:0:0:0:
182,192,137893,1,0,0:0:0:0:
402,192,137893,1,0,0:0:0:0:
36,192,137972,1,0,0:0:0:0:
109,192,137972,1,0,0:0:0:0:
475,192,137972,1,0,0:0:0:0:
329,192,137972,1,0,0:0:0:0:
36,192,138127,1,0,0:0:0:0:
182,192,138127,1,0,0:0:0:0:
329,192,138127,1,0,0:0:0:0:
256,192,138127,1,0,0:0:0:0:
109,192,138127,1,0,0:0:0:0:
36,192,138438,1,0,0:0:0:0:
182,192,138438,1,0,0:0:0:0:
329,192,138438,1,0,0:0:0:0:
256,192,138438,1,0,0:0:0:0:
109,192,138438,1,0,0:0:0:0:
109,192,138748,1,0,0:0:0:0:
182,192,138748,1,0,0:0:0:0:
256,192,138748,1,0,0:0:0:0:
402,192,138748,1,0,0:0:0:0:
329,192,138748,1,0,0:0:0:0:
182,192,139058,1,0,0:0:0:0:
256,192,139058,1,0,0:0:0:0:
329,192,139058,1,0,0:0:0:0:
402,192,139058,1,0,0:0:0:0:
475,192,139058,1,0,0:0:0:0:
256,192,139213,1,0,0:0:0:0:
109,192,139213,1,0,0:0:0:0:
402,192,139213,1,0,0:0:0:0:
182,192,139292,1,0,0:0:0:0:
329,192,139292,1,0,0:0:0:0:
256,192,139369,1,0,0:0:0:0:
36,192,139369,1,0,0:0:0:0:
475,192,139369,1,0,0:0:0:0:
402,192,139447,1,0,0:0:0:0:
109,192,139447,1,0,0:0:0:0:
182,192,139524,1,0,0:0:0:0:
256,192,139524,1,0,0:0:0:0:
329,192,139524,1,0,0:0:0:0:
475,192,139524,1,0,0:0:0:0:
36,192,139524,1,0,0:0:0:0:
109,192,139679,1,0,0:0:0:0:
182,192,139679,1,0,0:0:0:0:
256,192,139679,1,0,0:0:0:0:
402,192,139679,1,0,0:0:0:0:
36,192,139835,1,0,0:0:0:0:
109,192,139835,1,0,0:0:0:0:
329,192,139835,1,0,0:0:0:0:
182,192,139835,1,0,0:0:0:0:
256,192,139990,1,0,0:0:0:0:
36,192,139990,1,0,0:0:0:0:
109,192,139990,1,0,0:0:0:0:
475,192,139990,1,0,0:0:0:0:
402,192,139990,1,0,0:0:0:0:
256,192,140145,1,0,0:0:0:0:
475,192,140145,1,0,0:0:0:0:
109,192,140145,1,0,0:0:0:0:
402,192,140223,1,0,0:0:0:0:
182,192,140223,1,0,0:0:0:0:
109,192,140301,1,0,0:0:0:0:
36,192,140301,1,0,0:0:0:0:
329,192,140301,1,0,0:0:0:0:
475,192,140301,1,0,0:0:0:0:
256,192,140301,1,0,0:0:0:0:
402,192,140456,1,0,0:0:0:0:
182,192,140456,1,0,0:0:0:0:
36,192,140456,1,0,0:0:0:0:
109,192,140533,1,0,0:0:0:0:
329,192,140533,1,0,0:0:0:0:
36,192,140611,1,0,0:0:0:0:
182,192,140611,1,0,0:0:0:0:
256,192,140611,1,0,0:0:0:0:
402,192,140611,1,0,0:0:0:0:
475,192,140611,1,0,0:0:0:0:
329,192,140767,1,0,0:0:0:0:
475,192,140767,1,0,0:0:0:0:
109,192,140767,1,0,0:0:0:0:
402,192,140844,1,0,0:0:0:0:
256,192,140844,1,0,0:0:0:0:
329,192,140922,1,0,0:0:0:0:
182,192,140922,1,0,0:0:0:0:
36,192,140922,1,0,0:0:0:0:
109,192,140922,1,0,0:0:0:0:
475,192,140922,1,0,0:0:0:0:
256,192,141077,1,0,0:0:0:0:
402,192,141077,1,0,0:0:0:0:
36,192,141077,1,0,0:0:0:0:
329,192,141155,1,0,0:0:0:0:
182,192,141155,1,0,0:0:0:0:
256,192,141232,1,0,0:0:0:0:
109,192,141232,1,0,0:0:0:0:
36,192,141232,1,0,0:0:0:0:
402,192,141232,1,0,0:0:0:0:
475,192,141232,1,0,0:0:0:0:
182,192,141388,1,0,0:0:0:0:
329,192,141388,1,0,0:0:0:0:
109,192,141465,1,0,0:0:0:0:
256,192,141465,1,0,0:0:0:0:
402,192,141465,1,0,0:0:0:0:
36,192,141542,1,0,0:0:0:0:
182,192,141542,1,0,0:0:0:0:
475,192,141542,1,0,0:0:0:0:
329,192,141542,1,0,0:0:0:0:
109,192,141621,1,0,0:0:0:0:
402,192,141621,1,0,0:0:0:0:
182,192,141698,1,0,0:0:0:0:
256,192,141698,1,0,0:0:0:0:
329,192,141698,1,0,0:0:0:0:
109,192,141776,1,0,0:0:0:0:
402,192,141776,1,0,0:0:0:0:
182,192,141853,1,0,0:0:0:0:
329,192,141853,1,0,0:0:0:0:
256,192,141853,1,0,0:0:0:0:
36,192,141853,1,0,0:0:0:0:
475,192,141853,1,0,0:0:0:0:
36,192,142164,1,0,0:0:0:0:
256,192,142164,1,0,0:0:0:0:
475,192,142164,1,0,0:0:0:0:
109,192,142242,1,0,0:0:0:0:
329,192,142242,1,0,0:0:0:0:
182,192,142319,1,0,0:0:0:0:
402,192,142319,1,0,0:0:0:0:
475,192,142319,1,0,0:0:0:0:
36,192,142397,1,0,0:0:0:0:
256,192,142397,1,0,0:0:0:0:
109,192,142474,1,0,0:0:0:0:
329,192,142474,1,0,0:0:0:0:
182,192,142552,1,0,0:0:0:0:
402,192,142552,1,0,0:0:0:0:
256,192,142630,1,0,0:0:0:0:
475,192,142630,1,0,0:0:0:0:
36,192,142630,1,0,0:0:0:0:
109,192,142708,1,0,0:0:0:0:
329,192,142708,1,0,0:0:0:0:
182,192,142785,1,0,0:0:0:0:
402,192,142785,1,0,0:0:0:0:
475,192,142785,1,0,0:0:0:0:
36,192,142862,1,0,0:0:0:0:
256,192,142862,1,0,0:0:0:0:
109,192,142940,1,0,0:0:0:0:
475,192,142940,1,0,0:0:0:0:
329,192,142940,1,0,0:0:0:0:
256,192,143018,1,0,0:0:0:0:
402,192,143018,1,0,0:0:0:0:
182,192,143096,1,0,0:0:0:0:
329,192,143096,1,0,0:0:0:0:
36,192,143096,1,0,0:0:0:0:
109,192,143173,1,0,0:0:0:0:
256,192,143173,1,0,0:0:0:0:
36,192,143251,1,0,0:0:0:0:
182,192,143251,1,0,0:0:0:0:
402,192,143251,1,0,0:0:0:0:
475,192,143251,1,0,0:0:0:0:
329,192,143251,1,0,0:0:0:0:
182,192,143406,1,0,0:0:0:0:
109,192,143406,1,0,0:0:0:0:
475,192,143406,1,0,0:0:0:0:
329,192,143406,1,0,0:0:0:0:
182,192,143562,1,0,0:0:0:0:
36,192,143562,1,0,0:0:0:0:
402,192,143562,1,0,0:0:0:0:
256,192,143562,1,0,0:0:0:0:
256,192,143717,1,0,0:0:0:0:
109,192,143717,1,0,0:0:0:0:
475,192,143717,1,0,0:0:0:0:
329,192,143717,1,0,0:0:0:0:
36,192,143872,1,0,0:0:0:0:
329,192,143872,1,0,0:0:0:0:
402,192,143872,1,0,0:0:0:0:
182,192,143872,1,0,0:0:0:0:
329,192,144028,1,0,0:0:0:0:
256,192,144028,1,0,0:0:0:0:
475,192,144028,1,0,0:0:0:0:
109,192,144028,1,0,0:0:0:0:
182,192,144182,1,0,0:0:0:0:
402,192,144182,1,0,0:0:0:0:
36,192,144182,1,0,0:0:0:0:
256,192,144182,1,0,0:0:0:0:
109,192,144338,1,0,0:0:0:0:
329,192,144338,1,0,0:0:0:0:
182,192,144338,1,0,0:0:0:0:
475,192,144338,1,0,0:0:0:0:
36,192,144493,1,0,0:0:0:0:
109,192,144493,1,0,0:0:0:0:
256,192,144493,1,0,0:0:0:0:
402,192,144493,1,0,0:0:0:0:
36,192,144648,1,0,0:0:0:0:
109,192,144803,1,0,0:0:0:0:
256,192,144803,1,0,0:0:0:0:
329,192,144803,1,0,0:0:0:0:
36,192,144959,1,0,0:0:0:0:
182,192,145114,1,0,0:0:0:0:
329,192,145114,1,0,0:0:0:0:
402,192,145114,1,0,0:0:0:0:
36,192,145269,1,0,0:0:0:0:
109,192,145425,1,0,0:0:0:0:
475,192,145425,1,0,0:0:0:0:
402,192,145425,1,0,0:0:0:0:
36,192,145580,1,0,0:0:0:0:
182,192,145735,1,0,0:0:0:0:
475,192,145735,1,0,0:0:0:0:
329,192,145735,1,0,0:0:0:0:
256,192,145735,1,0,0:0:0:0:
36,192,145891,1,0,0:0:0:0:
109,192,146046,1,0,0:0:0:0:
36,192,146201,1,0,0:0:0:0:
402,192,146201,1,0,0:0:0:0:
475,192,146201,1,0,0:0:0:0:
182,192,146357,1,0,0:0:0:0:
329,192,146357,1,0,0:0:0:0:
402,192,146357,1,0,0:0:0:0:
36,192,146512,1,0,0:0:0:0:
109,192,146667,1,0,0:0:0:0:
36,192,146822,1,0,0:0:0:0:
182,192,146978,1,0,0:0:0:0:
329,192,146978,1,0,0:0:0:0:
475,192,147132,1,0,0:0:0:0:
402,192,147288,1,0,0:0:0:0:
256,192,147288,1,0,0:0:0:0:
182,192,147288,1,0,0:0:0:0:
475,192,147443,1,0,0:0:0:0:
329,192,147598,1,0,0:0:0:0:
182,192,147598,1,0,0:0:0:0:
109,192,147598,1,0,0:0:0:0:
475,192,147754,1,0,0:0:0:0:
402,192,147909,1,0,0:0:0:0:
109,192,147909,1,0,0:0:0:0:
36,192,147909,1,0,0:0:0:0:
475,192,148064,1,0,0:0:0:0:
329,192,148220,1,0,0:0:0:0:
182,192,148220,1,0,0:0:0:0:
36,192,148220,1,0,0:0:0:0:
256,192,148220,1,0,0:0:0:0:
475,192,148375,1,0,0:0:0:0:
402,192,148530,1,0,0:0:0:0:
475,192,148686,1,0,0:0:0:0:
36,192,148686,1,0,0:0:0:0:
109,192,148686,1,0,0:0:0:0:
329,192,148841,1,0,0:0:0:0:
109,192,148841,1,0,0:0:0:0:
182,192,148841,1,0,0:0:0:0:
475,192,148996,1,0,0:0:0:0:
402,192,149152,1,0,0:0:0:0:
475,192,149307,1,0,0:0:0:0:
36,192,149462,1,0,0:0:0:0:
182,192,149462,1,0,0:0:0:0:
36,192,149772,1,0,0:0:0:0:
182,192,149772,1,0,0:0:0:0:
256,192,149772,1,0,0:0:0:0:
329,192,149772,1,0,0:0:0:0:
36,192,150083,1,0,0:0:0:0:
182,192,150083,1,0,0:0:0:0:
329,192,150083,1,0,0:0:0:0:
402,192,150083,1,0,0:0:0:0:
36,192,150393,1,0,0:0:0:0:
182,192,150393,1,0,0:0:0:0:
402,192,150393,1,0,0:0:0:0:
475,192,150393,1,0,0:0:0:0:
36,192,150704,1,0,0:0:0:0:
182,192,150704,1,0,0:0:0:0:
256,192,150704,1,0,0:0:0:0:
475,192,150704,1,0,0:0:0:0:
36,192,151015,1,0,0:0:0:0:
182,192,151015,1,0,0:0:0:0:
402,192,151170,1,0,0:0:0:0:
475,192,151170,1,0,0:0:0:0:
36,192,151326,1,0,0:0:0:0:
182,192,151326,1,0,0:0:0:0:
329,192,151326,1,0,0:0:0:0:
402,192,151326,1,0,0:0:0:0:
475,192,151481,1,0,0:0:0:0:
329,192,151558,1,0,0:0:0:0:
36,192,151636,1,0,0:0:0:0:
182,192,151636,1,0,0:0:0:0:
182,192,151792,1,0,0:0:0:0:
329,192,151792,1,0,0:0:0:0:
109,192,151869,1,0,0:0:0:0:
402,192,151869,1,0,0:0:0:0:
475,192,151947,1,0,0:0:0:0:
36,192,151947,1,0,0:0:0:0:
182,192,151947,1,0,0:0:0:0:
329,192,151947,1,0,0:0:0:0:
256,192,151947,1,0,0:0:0:0:
109,192,152024,1,0,0:0:0:0:
329,192,152102,1,0,0:0:0:0:
402,192,152102,1,0,0:0:0:0:
475,192,152102,1,0,0:0:0:0:
182,192,152102,1,0,0:0:0:0:
36,192,152179,1,0,0:0:0:0:
109,192,152258,1,0,0:0:0:0:
256,192,152258,1,0,0:0:0:0:
329,192,152258,1,0,0:0:0:0:
402,192,152258,1,0,0:0:0:0:
475,192,152335,1,0,0:0:0:0:
182,192,152412,1,0,0:0:0:0:
256,192,152412,1,0,0:0:0:0:
329,192,152412,1,0,0:0:0:0:
36,192,152412,1,0,0:0:0:0:
36,192,152723,1,0,0:0:0:0:
109,192,152723,1,0,0:0:0:0:
329,192,152723,1,0,0:0:0:0:
475,192,152723,1,0,0:0:0:0:
256,192,152801,1,0,0:0:0:0:
36,192,152878,1,0,0:0:0:0:
402,192,152878,1,0,0:0:0:0:
475,192,152878,1,0,0:0:0:0:
182,192,152878,1,0,0:0:0:0:
256,192,152956,1,0,0:0:0:0:
329,192,153033,1,0,0:0:0:0:
109,192,153033,1,0,0:0:0:0:
475,192,153033,1,0,0:0:0:0:
36,192,153033,1,0,0:0:0:0:
182,192,153344,1,0,0:0:0:0:
475,192,153344,1,0,0:0:0:0:
402,192,153344,1,0,0:0:0:0:
36,192,153344,1,0,0:0:0:0:
256,192,153422,1,0,0:0:0:0:
36,192,153499,1,0,0:0:0:0:
109,192,153499,1,0,0:0:0:0:
329,192,153499,1,0,0:0:0:0:
475,192,153499,1,0,0:0:0:0:
256,192,153577,1,0,0:0:0:0:
36,192,153655,1,0,0:0:0:0:
182,192,153655,1,0,0:0:0:0:
402,192,153655,1,0,0:0:0:0:
475,192,153655,1,0,0:0:0:0:
256,192,153732,1,0,0:0:0:0:
329,192,153810,1,0,0:0:0:0:
109,192,153810,1,0,0:0:0:0:
475,192,153810,1,0,0:0:0:0:
36,192,153810,1,0,0:0:0:0:
256,192,153888,1,0,0:0:0:0:
182,192,153965,1,0,0:0:0:0:
36,192,153965,1,0,0:0:0:0:
402,192,153965,1,0,0:0:0:0:
475,192,153965,1,0,0:0:0:0:
329,192,154042,1,0,0:0:0:0:
109,192,154042,1,0,0:0:0:0:
36,192,154121,1,0,0:0:0:0:
475,192,154121,1,0,0:0:0:0:
256,192,154121,1,0,0:0:0:0:
402,192,154198,1,0,0:0:0:0:
109,192,154198,1,0,0:0:0:0:
329,192,154276,1,0,0:0:0:0:
182,192,154276,1,0,0:0:0:0:
256,192,154276,1,0,0:0:0:0:
475,192,154353,1,0,0:0:0:0:
36,192,154353,1,0,0:0:0:0:
182,192,154431,1,0,0:0:0:0:
256,192,154431,1,0,0:0:0:0:
329,192,154431,1,0,0:0:0:0:
109,192,154431,1,0,0:0:0:0:
402,192,154431,1,0,0:0:0:0:
329,192,154742,1,0,0:0:0:0:
475,192,154742,1,0,0:0:0:0:
109,192,154742,1,0,0:0:0:0:
36,192,154742,1,0,0:0:0:0:
256,192,154819,1,0,0:0:0:0:
402,192,154897,1,0,0:0:0:0:
475,192,154897,1,0,0:0:0:0:
182,192,154897,1,0,0:0:0:0:
36,192,154897,1,0,0:0:0:0:
329,192,154974,1,0,0:0:0:0:
36,192,155052,1,0,0:0:0:0:
109,192,155052,1,0,0:0:0:0:
256,192,155052,1,0,0:0:0:0:
475,192,155052,1,0,0:0:0:0:
329,192,155130,1,0,0:0:0:0:
402,192,155208,1,0,0:0:0:0:
182,192,155208,1,0,0:0:0:0:
36,192,155208,1,0,0:0:0:0:
475,192,155208,1,0,0:0:0:0:
256,192,155285,1,0,0:0:0:0:
329,192,155362,1,0,0:0:0:0:
475,192,155362,1,0,0:0:0:0:
36,192,155362,1,0,0:0:0:0:
109,192,155362,1,0,0:0:0:0:
182,192,155440,1,0,0:0:0:0:
402,192,155440,1,0,0:0:0:0:
36,192,155518,1,0,0:0:0:0:
475,192,155518,1,0,0:0:0:0:
256,192,155518,1,0,0:0:0:0:
402,192,155596,1,0,0:0:0:0:
109,192,155596,1,0,0:0:0:0:
36,192,155673,1,0,0:0:0:0:
329,192,155673,1,0,0:0:0:0:
475,192,155673,1,0,0:0:0:0:
182,192,155673,1,0,0:0:0:0:
109,192,155751,1,0,0:0:0:0:
402,192,155751,1,0,0:0:0:0:
182,192,155828,1,0,0:0:0:0:
329,192,155828,1,0,0:0:0:0:
256,192,155828,1,0,0:0:0:0:
109,192,155906,1,0,0:0:0:0:
402,192,155906,1,0,0:0:0:0:
36,192,155984,1,0,0:0:0:0:
475,192,155984,1,0,0:0:0:0:
256,192,155984,1,0,0:0:0:0:
182,192,156062,1,0,0:0:0:0:
329,192,156062,1,0,0:0:0:0:
109,192,156139,1,0,0:0:0:0:
36,192,156139,1,0,0:0:0:0:
402,192,156139,1,0,0:0:0:0:
475,192,156139,1,0,0:0:0:0:
182,192,156217,1,0,0:0:0:0:
329,192,156217,1,0,0:0:0:0:
256,192,156294,1,0,0:0:0:0:
36,192,156294,1,0,0:0:0:0:
475,192,156294,1,0,0:0:0:0:
109,192,156372,1,0,0:0:0:0:
329,192,156372,1,0,0:0:0:0:
182,192,156450,1,0,0:0:0:0:
402,192,156450,1,0,0:0:0:0:
475,192,156450,1,0,0:0:0:0:
109,192,156528,1,0,0:0:0:0:
329,192,156528,1,0,0:0:0:0:
36,192,156605,1,0,0:0:0:0:
475,192,156605,1,0,0:0:0:0:
256,192,156605,1,0,0:0:0:0:
182,192,156682,1,0,0:0:0:0:
402,192,156682,1,0,0:0:0:0:
109,192,156760,1,0,0:0:0:0:
36,192,156760,1,0,0:0:0:0:
329,192,156760,1,0,0:0:0:0:
182,192,156838,1,0,0:0:0:0:
402,192,156838,1,0,0:0:0:0:
475,192,156916,1,0,0:0:0:0:
36,192,156916,1,0,0:0:0:0:
256,192,156916,1,0,0:0:0:0:
329,192,156916,1,0,0:0:0:0:
475,192,157071,1,0,0:0:0:0:
256,192,157071,1,0,0:0:0:0:
109,192,157071,1,0,0:0:0:0:
329,192,157148,1,0,0:0:0:0:
402,192,157148,1,0,0:0:0:0:
182,192,157148,1,0,0:0:0:0:
475,192,157226,1,0,0:0:0:0:
256,192,157226,1,0,0:0:0:0:
36,192,157226,1,0,0:0:0:0:
109,192,157226,1,0,0:0:0:0:
475,192,157382,1,0,0:0:0:0:
36,192,157382,1,0,0:0:0:0:
402,192,157382,1,0,0:0:0:0:
182,192,157382,1,0,0:0:0:0:
256,192,157459,1,0,0:0:0:0:
329,192,157459,1,0,0:0:0:0:
475,192,157537,1,0,0:0:0:0:
36,192,157537,1,0,0:0:0:0:
109,192,157537,1,0,0:0:0:0:
402,192,157537,1,0,0:0:0:0:
402,192,157692,1,0,0:0:0:0:
256,192,157692,1,0,0:0:0:0:
36,192,157692,1,0,0:0:0:0:
109,192,157769,1,0,0:0:0:0:
329,192,157769,1,0,0:0:0:0:
182,192,157769,1,0,0:0:0:0:
256,192,157848,1,0,0:0:0:0:
475,192,157848,1,0,0:0:0:0:
36,192,157848,1,0,0:0:0:0:
402,192,157848,1,0,0:0:0:0:
329,192,158002,1,0,0:0:0:0:
36,192,158002,1,0,0:0:0:0:
475,192,158002,1,0,0:0:0:0:
109,192,158002,1,0,0:0:0:0:
182,192,158080,1,0,0:0:0:0:
256,192,158080,1,0,0:0:0:0:
402,192,158158,1,0,0:0:0:0:
475,192,158158,1,0,0:0:0:0:
109,192,158158,1,0,0:0:0:0:
36,192,158158,1,0,0:0:0:0:
329,192,158235,1,0,0:0:0:0:
109,192,158313,1,0,0:0:0:0:
36,192,158313,1,0,0:0:0:0:
256,192,158313,1,0,0:0:0:0:
182,192,158391,1,0,0:0:0:0:
329,192,158391,1,0,0:0:0:0:
475,192,158468,1,0,0:0:0:0:
36,192,158468,1,0,0:0:0:0:
402,192,158468,1,0,0:0:0:0:
256,192,158468,1,0,0:0:0:0:
182,192,158546,1,0,0:0:0:0:
329,192,158546,1,0,0:0:0:0:
109,192,158623,1,0,0:0:0:0:
475,192,158623,1,0,0:0:0:0:
36,192,158623,1,0,0:0:0:0:
256,192,158623,1,0,0:0:0:0:
402,192,158662,1,0,0:0:0:0:
329,192,158701,1,0,0:0:0:0:
256,192,158740,1,0,0:0:0:0:
36,192,158779,1,0,0:0:0:0:
109,192,158779,1,0,0:0:0:0:
475,192,158779,1,0,0:0:0:0:
402,192,158779,1,0,0:0:0:0:
182,192,158779,1,0,0:0:0:0:
36,192,158934,1,0,0:0:0:0:
109,192,158934,1,0,0:0:0:0:
182,192,158934,1,0,0:0:0:0:
475,192,158934,1,0,0:0:0:0:
402,192,158934,1,0,0:0:0:0:
109,192,159245,1,0,0:0:0:0:
256,192,159245,1,0,0:0:0:0:
36,192,159245,1,0,0:0:0:0:
475,192,159245,1,0,0:0:0:0:
329,192,159322,1,0,0:0:0:0:
402,192,159322,1,0,0:0:0:0:
182,192,159322,1,0,0:0:0:0:
36,192,159400,1,0,0:0:0:0:
256,192,159400,1,0,0:0:0:0:
475,192,159400,1,0,0:0:0:0:
109,192,159400,1,0,0:0:0:0:
36,192,159555,1,0,0:0:0:0:
182,192,159555,1,0,0:0:0:0:
329,192,159555,1,0,0:0:0:0:
109,192,159711,1,0,0:0:0:0:
256,192,159711,1,0,0:0:0:0:
402,192,159711,1,0,0:0:0:0:
475,192,159866,1,0,0:0:0:0:
182,192,159866,1,0,0:0:0:0:
329,192,159866,1,0,0:0:0:0:
256,192,160177,1,0,0:0:0:0:
402,192,160177,1,0,0:0:0:0:
109,192,160177,1,0,0:0:0:0:
475,192,160254,1,0,0:0:0:0:
182,192,160332,1,0,0:0:0:0:
329,192,160332,1,0,0:0:0:0:
36,192,160332,1,0,0:0:0:0:
402,192,160409,1,0,0:0:0:0:
182,192,160487,1,0,0:0:0:0:
36,192,160487,1,0,0:0:0:0:
109,192,160487,1,0,0:0:0:0:
475,192,160487,1,0,0:0:0:0:
256,192,160564,1,0,0:0:0:0:
329,192,160564,1,0,0:0:0:0:
109,192,160642,1,0,0:0:0:0:
36,192,160642,1,0,0:0:0:0:
475,192,160642,1,0,0:0:0:0:
182,192,160642,1,0,0:0:0:0:
402,192,160642,1,0,0:0:0:0:
402,192,160798,1,0,0:0:0:0:
109,192,160798,1,0,0:0:0:0:
36,192,160798,1,0,0:0:0:0:
182,192,160798,1,0,0:0:0:0:
475,192,160798,1,0,0:0:0:0:
109,192,160952,1,0,0:0:0:0:
256,192,160952,1,0,0:0:0:0:
402,192,160952,1,0,0:0:0:0:
182,192,161108,1,0,0:0:0:0:
329,192,161108,1,0,0:0:0:0:
475,192,161108,1,0,0:0:0:0:
109,192,161418,1,0,0:0:0:0:
256,192,161418,1,0,0:0:0:0:
402,192,161418,1,0,0:0:0:0:
36,192,161418,1,0,0:0:0:0:
475,192,161418,1,0,0:0:0:0:
109,192,161729,1,0,0:0:0:0:
182,192,161729,1,0,0:0:0:0:
329,192,161729,1,0,0:0:0:0:
402,192,161729,1,0,0:0:0:0:
329,192,161884,1,0,0:0:0:0:
182,192,161884,1,0,0:0:0:0:
36,192,161884,1,0,0:0:0:0:
256,192,161884,1,0,0:0:0:0:
475,192,161884,1,0,0:0:0:0:
109,192,161962,1,0,0:0:0:0:
402,192,161962,1,0,0:0:0:0:
36,192,162040,1,0,0:0:0:0:
182,192,162040,1,0,0:0:0:0:
475,192,162040,1,0,0:0:0:0:
256,192,162040,1,0,0:0:0:0:
109,192,162118,1,0,0:0:0:0:
329,192,162118,1,0,0:0:0:0:
36,192,162195,1,0,0:0:0:0:
182,192,162195,1,0,0:0:0:0:
402,192,162195,1,0,0:0:0:0:
475,192,162195,1,0,0:0:0:0:
109,192,162272,1,0,0:0:0:0:
256,192,162272,1,0,0:0:0:0:
36,192,162350,1,0,0:0:0:0:
182,192,162350,1,0,0:0:0:0:
329,192,162350,1,0,0:0:0:0:
475,192,162350,1,0,0:0:0:0:
402,192,162428,1,0,0:0:0:0:
256,192,162506,1,0,0:0:0:0:
36,192,162506,1,0,0:0:0:0:
475,192,162506,1,0,0:0:0:0:
109,192,162583,1,0,0:0:0:0:
402,192,162661,1,0,0:0:0:0:
475,192,162661,1,0,0:0:0:0:
182,192,162661,1,0,0:0:0:0:
329,192,162738,1,0,0:0:0:0:
109,192,162738,1,0,0:0:0:0:
36,192,162816,1,0,0:0:0:0:
256,192,162816,1,0,0:0:0:0:
475,192,162816,1,0,0:0:0:0:
402,192,162893,1,0,0:0:0:0:
329,192,162972,1,0,0:0:0:0:
109,192,162972,1,0,0:0:0:0:
36,192,162972,1,0,0:0:0:0:
182,192,163049,1,0,0:0:0:0:
402,192,163049,1,0,0:0:0:0:
256,192,163127,1,0,0:0:0:0:
475,192,163127,1,0,0:0:0:0:
36,192,163127,1,0,0:0:0:0:
109,192,163127,1,0,0:0:0:0:
402,192,163166,1,0,0:0:0:0:
329,192,163204,1,0,0:0:0:0:
256,192,163243,1,0,0:0:0:0:
182,192,163282,1,0,0:0:0:0:
36,192,163282,1,0,0:0:0:0:
256,192,163321,1,0,0:0:0:0:
329,192,163360,1,0,0:0:0:0:
402,192,163398,1,0,0:0:0:0:
475,192,163438,1,0,0:0:0:0:
109,192,163438,1,0,0:0:0:0:
182,192,163476,1,0,0:0:0:0:
256,192,163515,1,0,0:0:0:0:
329,192,163553,1,0,0:0:0:0:
36,192,163592,1,0,0:0:0:0:
402,192,163592,1,0,0:0:0:0:
109,192,163632,1,0,0:0:0:0:
182,192,163670,1,0,0:0:0:0:
256,192,163709,1,0,0:0:0:0:
329,192,163748,1,0,0:0:0:0:
475,192,163748,1,0,0:0:0:0:
256,192,163787,1,0,0:0:0:0:
182,192,163826,1,0,0:0:0:0:
109,192,163864,1,0,0:0:0:0:
36,192,163903,1,0,0:0:0:0:
402,192,163903,1,0,0:0:0:0:
329,192,163942,1,0,0:0:0:0:
256,192,163981,1,0,0:0:0:0:
182,192,164019,1,0,0:0:0:0:
109,192,164058,1,0,0:0:0:0:
475,192,164058,1,0,0:0:0:0:
402,192,164098,1,0,0:0:0:0:
329,192,164136,1,0,0:0:0:0:
256,192,164175,1,0,0:0:0:0:
182,192,164213,1,0,0:0:0:0:
36,192,164213,1,0,0:0:0:0:
256,192,164252,1,0,0:0:0:0:
329,192,164292,1,0,0:0:0:0:
402,192,164330,1,0,0:0:0:0:
36,192,164369,1,0,0:0:0:0:
109,192,164369,1,0,0:0:0:0:
256,192,164369,1,0,0:0:0:0:
475,192,164369,1,0,0:0:0:0:
182,192,164447,1,0,0:0:0:0:
402,192,164447,1,0,0:0:0:0:
109,192,164524,1,0,0:0:0:0:
36,192,164524,1,0,0:0:0:0:
329,192,164524,1,0,0:0:0:0:
256,192,164524,1,0,0:0:0:0:
182,192,164602,1,0,0:0:0:0:
475,192,164602,1,0,0:0:0:0:
109,192,164679,1,0,0:0:0:0:
36,192,164679,1,0,0:0:0:0:
402,192,164679,1,0,0:0:0:0:
256,192,164679,1,0,0:0:0:0:
182,192,164758,1,0,0:0:0:0:
329,192,164758,1,0,0:0:0:0:
109,192,164835,1,0,0:0:0:0:
36,192,164835,1,0,0:0:0:0:
475,192,164835,1,0,0:0:0:0:
256,192,164835,1,0,0:0:0:0:
402,192,164912,1,0,0:0:0:0:
475,192,164990,1,0,0:0:0:0:
36,192,164990,1,0,0:0:0:0:
256,192,164990,1,0,0:0:0:0:
109,192,165068,1,0,0:0:0:0:
475,192,165145,1,0,0:0:0:0:
182,192,165145,1,0,0:0:0:0:
329,192,165145,1,0,0:0:0:0:
109,192,165223,1,0,0:0:0:0:
36,192,165301,1,0,0:0:0:0:
256,192,165301,1,0,0:0:0:0:
475,192,165301,1,0,0:0:0:0:
402,192,165378,1,0,0:0:0:0:
329,192,165456,1,0,0:0:0:0:
36,192,165456,1,0,0:0:0:0:
182,192,165456,1,0,0:0:0:0:
402,192,165533,1,0,0:0:0:0:
109,192,165533,1,0,0:0:0:0:
475,192,165611,1,0,0:0:0:0:
36,192,165611,1,0,0:0:0:0:
182,192,165611,1,0,0:0:0:0:
256,192,165611,1,0,0:0:0:0:
109,192,165689,1,0,0:0:0:0:
329,192,165689,1,0,0:0:0:0:
36,192,165767,1,0,0:0:0:0:
182,192,165767,1,0,0:0:0:0:
402,192,165767,1,0,0:0:0:0:
475,192,165767,1,0,0:0:0:0:
109,192,165844,1,0,0:0:0:0:
256,192,165844,1,0,0:0:0:0:
36,192,165922,1,0,0:0:0:0:
182,192,165922,1,0,0:0:0:0:
329,192,165922,1,0,0:0:0:0:
475,192,165922,1,0,0:0:0:0:
109,192,165999,1,0,0:0:0:0:
402,192,165999,1,0,0:0:0:0:
36,192,166077,1,0,0:0:0:0:
182,192,166077,1,0,0:0:0:0:
256,192,166077,1,0,0:0:0:0:
475,192,166077,1,0,0:0:0:0:
402,192,166155,1,0,0:0:0:0:
475,192,166232,1,0,0:0:0:0:
329,192,166232,1,0,0:0:0:0:
109,192,166232,1,0,0:0:0:0:
182,192,166310,1,0,0:0:0:0:
402,192,166388,1,0,0:0:0:0:
256,192,166388,1,0,0:0:0:0:
36,192,166388,1,0,0:0:0:0:
109,192,166465,1,0,0:0:0:0:
402,192,166542,1,0,0:0:0:0:
182,192,166542,1,0,0:0:0:0:
329,192,166621,1,0,0:0:0:0:
36,192,166698,1,0,0:0:0:0:
182,192,166698,1,0,0:0:0:0:
475,192,166698,1,0,0:0:0:0:
256,192,166698,1,0,0:0:0:0:
109,192,166776,1,0,0:0:0:0:
402,192,166776,1,0,0:0:0:0:
475,192,166853,1,0,0:0:0:0:
36,192,166853,1,0,0:0:0:0:
329,192,166853,1,0,0:0:0:0:
182,192,166931,1,0,0:0:0:0:
256,192,167008,1,0,0:0:0:0:
329,192,167008,1,0,0:0:0:0:
36,192,167008,1,0,0:0:0:0:
475,192,167008,1,0,0:0:0:0:
402,192,167087,1,0,0:0:0:0:
109,192,167087,1,0,0:0:0:0:
182,192,167164,1,0,0:0:0:0:
475,192,167164,1,0,0:0:0:0:
36,192,167164,1,0,0:0:0:0:
109,192,167242,1,0,0:0:0:0:
256,192,167242,1,0,0:0:0:0:
182,192,167319,1,0,0:0:0:0:
329,192,167319,1,0,0:0:0:0:
475,192,167319,1,0,0:0:0:0:
402,192,167319,1,0,0:0:0:0:
109,192,167397,1,0,0:0:0:0:
256,192,167397,1,0,0:0:0:0:
36,192,167474,1,0,0:0:0:0:
182,192,167474,1,0,0:0:0:0:
402,192,167474,1,0,0:0:0:0:
475,192,167474,1,0,0:0:0:0:
256,192,167552,1,0,0:0:0:0:
36,192,167630,1,0,0:0:0:0:
329,192,167630,1,0,0:0:0:0:
402,192,167630,1,0,0:0:0:0:
109,192,167630,1,0,0:0:0:0:
182,192,167708,1,0,0:0:0:0:
329,192,167785,1,0,0:0:0:0:
256,192,167785,1,0,0:0:0:0:
36,192,167785,1,0,0:0:0:0:
475,192,167785,1,0,0:0:0:0:
109,192,167862,1,0,0:0:0:0:
182,192,167940,1,0,0:0:0:0:
256,192,167940,1,0,0:0:0:0:
402,192,167940,1,0,0:0:0:0:
36,192,167940,1,0,0:0:0:0:
475,192,167940,1,0,0:0:0:0:
109,192,168251,1,0,0:0:0:0:
36,192,168251,1,0,0:0:0:0:
402,192,168251,1,0,0:0:0:0:
475,192,168251,1,0,0:0:0:0:
329,192,168328,1,0,0:0:0:0:
182,192,168328,1,0,0:0:0:0:
402,192,168406,1,0,0:0:0:0:
36,192,168406,1,0,0:0:0:0:
475,192,168406,1,0,0:0:0:0:
109,192,168406,1,0,0:0:0:0:
256,192,168484,1,0,0:0:0:0:
36,192,168562,1,0,0:0:0:0:
402,192,168562,1,0,0:0:0:0:
475,192,168562,1,0,0:0:0:0:
109,192,168562,1,0,0:0:0:0:
182,192,168639,1,0,0:0:0:0:
329,192,168639,1,0,0:0:0:0:
475,192,168717,1,0,0:0:0:0:
36,192,168717,1,0,0:0:0:0:
402,192,168717,1,0,0:0:0:0:
109,192,168717,1,0,0:0:0:0:
256,192,168794,1,0,0:0:0:0:
109,192,168872,1,0,0:0:0:0:
475,192,168872,1,0,0:0:0:0:
36,192,168872,1,0,0:0:0:0:
402,192,168872,1,0,0:0:0:0:
182,192,168950,1,0,0:0:0:0:
329,192,168950,1,0,0:0:0:0:
402,192,169028,1,0,0:0:0:0:
475,192,169028,1,0,0:0:0:0:
36,192,169028,1,0,0:0:0:0:
109,192,169028,1,0,0:0:0:0:
256,192,169105,1,0,0:0:0:0:
36,192,169182,1,0,0:0:0:0:
402,192,169182,1,0,0:0:0:0:
475,192,169182,1,0,0:0:0:0:
109,192,169182,1,0,0:0:0:0:
182,192,169260,1,0,0:0:0:0:
329,192,169260,1,0,0:0:0:0:
36,192,169338,1,0,0:0:0:0:
475,192,169338,1,0,0:0:0:0:
402,192,169338,1,0,0:0:0:0:
109,192,169338,1,0,0:0:0:0:
256,192,169338,1,0,0:0:0:0:
182,192,169416,1,0,0:0:0:0:
329,192,169416,1,0,0:0:0:0:
475,192,169493,1,0,0:0:0:0:
402,192,169493,1,0,0:0:0:0:
36,192,169493,1,0,0:0:0:0:
109,192,169493,1,0,0:0:0:0:
256,192,169571,1,0,0:0:0:0:
182,192,169571,1,0,0:0:0:0:
329,192,169648,1,0,0:0:0:0:
475,192,169648,1,0,0:0:0:0:
36,192,169648,1,0,0:0:0:0:
109,192,169648,1,0,0:0:0:0:
402,192,169726,1,0,0:0:0:0:
182,192,169726,1,0,0:0:0:0:
475,192,169803,1,0,0:0:0:0:
256,192,169803,1,0,0:0:0:0:
36,192,169803,1,0,0:0:0:0:
109,192,169803,1,0,0:0:0:0:
329,192,169882,1,0,0:0:0:0:
402,192,169959,1,0,0:0:0:0:
475,192,169959,1,0,0:0:0:0:
36,192,169959,1,0,0:0:0:0:
109,192,170037,1,0,0:0:0:0:
329,192,170114,1,0,0:0:0:0:
182,192,170114,1,0,0:0:0:0:
475,192,170114,1,0,0:0:0:0:
109,192,170192,1,0,0:0:0:0:
256,192,170269,1,0,0:0:0:0:
36,192,170269,1,0,0:0:0:0:
475,192,170269,1,0,0:0:0:0:
402,192,170348,1,0,0:0:0:0:
182,192,170425,1,0,0:0:0:0:
36,192,170425,1,0,0:0:0:0:
329,192,170425,1,0,0:0:0:0:
109,192,170502,1,0,0:0:0:0:
402,192,170502,1,0,0:0:0:0:
36,192,170580,1,0,0:0:0:0:
182,192,170580,1,0,0:0:0:0:
475,192,170580,1,0,0:0:0:0:
256,192,170580,1,0,0:0:0:0:
402,192,170658,1,0,0:0:0:0:
109,192,170658,1,0,0:0:0:0:
329,192,170735,1,0,0:0:0:0:
256,192,170735,1,0,0:0:0:0:
182,192,170735,1,0,0:0:0:0:
36,192,170735,1,0,0:0:0:0:
475,192,170813,1,0,0:0:0:0:
109,192,170813,1,0,0:0:0:0:
402,192,170891,1,0,0:0:0:0:
256,192,170891,1,0,0:0:0:0:
182,192,170891,1,0,0:0:0:0:
36,192,170891,1,0,0:0:0:0:
329,192,170968,1,0,0:0:0:0:
109,192,170968,1,0,0:0:0:0:
256,192,171046,1,0,0:0:0:0:
475,192,171046,1,0,0:0:0:0:
182,192,171046,1,0,0:0:0:0:
36,192,171046,1,0,0:0:0:0:
402,192,171123,1,0,0:0:0:0:
475,192,171201,1,0,0:0:0:0:
329,192,171201,1,0,0:0:0:0:
182,192,171201,1,0,0:0:0:0:
109,192,171279,1,0,0:0:0:0:
402,192,171357,1,0,0:0:0:0:
256,192,171357,1,0,0:0:0:0:
36,192,171357,1,0,0:0:0:0:
109,192,171434,1,0,0:0:0:0:
182,192,171512,1,0,0:0:0:0:
329,192,171512,1,0,0:0:0:0:
402,192,171589,1,0,0:0:0:0:
475,192,171667,1,0,0:0:0:0:
109,192,171667,1,0,0:0:0:0:
36,192,171667,1,0,0:0:0:0:
182,192,171745,1,0,0:0:0:0:
402,192,171745,1,0,0:0:0:0:
109,192,171822,1,0,0:0:0:0:
256,192,171822,1,0,0:0:0:0:
329,192,171822,1,0,0:0:0:0:
36,192,171822,1,0,0:0:0:0:
402,192,171900,1,0,0:0:0:0:
182,192,171900,1,0,0:0:0:0:
475,192,171978,1,0,0:0:0:0:
256,192,171978,1,0,0:0:0:0:
109,192,171978,1,0,0:0:0:0:
36,192,171978,1,0,0:0:0:0:
329,192,172055,1,0,0:0:0:0:
182,192,172055,1,0,0:0:0:0:
402,192,172132,1,0,0:0:0:0:
475,192,172132,1,0,0:0:0:0:
109,192,172132,1,0,0:0:0:0:
36,192,172132,1,0,0:0:0:0:
256,192,172211,1,0,0:0:0:0:
182,192,172211,1,0,0:0:0:0:
329,192,172288,1,0,0:0:0:0:
475,192,172288,1,0,0:0:0:0:
109,192,172288,1,0,0:0:0:0:
36,192,172288,1,0,0:0:0:0:
402,192,172366,1,0,0:0:0:0:
475,192,172443,1,0,0:0:0:0:
109,192,172443,1,0,0:0:0:0:
256,192,172443,1,0,0:0:0:0:
36,192,172521,1,0,0:0:0:0:
182,192,172598,1,0,0:0:0:0:
475,192,172598,1,0,0:0:0:0:
402,192,172598,1,0,0:0:0:0:
109,192,172677,1,0,0:0:0:0:
329,192,172677,1,0,0:0:0:0:
402,192,172754,1,0,0:0:0:0:
256,192,172754,1,0,0:0:0:0:
36,192,172754,1,0,0:0:0:0:
475,192,172832,1,0,0:0:0:0:
109,192,172909,1,0,0:0:0:0:
329,192,172909,1,0,0:0:0:0:
36,192,172909,1,0,0:0:0:0:
402,192,172987,1,0,0:0:0:0:
182,192,172987,1,0,0:0:0:0:
109,192,173064,1,0,0:0:0:0:
329,192,173064,1,0,0:0:0:0:
36,192,173064,1,0,0:0:0:0:
256,192,173064,1,0,0:0:0:0:
475,192,173064,1,0,0:0:0:0:
402,192,173142,1,0,0:0:0:0:
182,192,173142,1,0,0:0:0:0:
256,192,173220,1,0,0:0:0:0:
475,192,173220,1,0,0:0:0:0:
329,192,173298,1,0,0:0:0:0:
109,192,173298,1,0,0:0:0:0:
402,192,173375,1,0,0:0:0:0:
475,192,173375,1,0,0:0:0:0:
256,192,173375,1,0,0:0:0:0:
36,192,173375,1,0,0:0:0:0:
182,192,173375,1,0,0:0:0:0:
329,192,173452,1,0,0:0:0:0:
109,192,173452,1,0,0:0:0:0:
36,192,173530,1,0,0:0:0:0:
256,192,173530,1,0,0:0:0:0:
182,192,173608,1,0,0:0:0:0:
402,192,173608,1,0,0:0:0:0:
256,192,173686,1,0,0:0:0:0:
475,192,173686,1,0,0:0:0:0:
329,192,173686,1,0,0:0:0:0:
109,192,173686,1,0,0:0:0:0:
36,192,173686,1,0,0:0:0:0:
402,192,173763,1,0,0:0:0:0:
182,192,173763,1,0,0:0:0:0:
475,192,173841,1,0,0:0:0:0:
256,192,173841,1,0,0:0:0:0:
329,192,173918,1,0,0:0:0:0:
109,192,173918,1,0,0:0:0:0:
36,192,173996,1,0,0:0:0:0:
256,192,173996,1,0,0:0:0:0:
182,192,173996,1,0,0:0:0:0:
402,192,173996,1,0,0:0:0:0:
475,192,173996,1,0,0:0:0:0:
329,192,174074,1,0,0:0:0:0:
109,192,174074,1,0,0:0:0:0:
36,192,174152,1,0,0:0:0:0:
256,192,174152,1,0,0:0:0:0:
475,192,174152,1,0,0:0:0:0:
329,192,174229,1,0,0:0:0:0:
182,192,174229,1,0,0:0:0:0:
475,192,174307,1,0,0:0:0:0:
36,192,174307,1,0,0:0:0:0:
256,192,174307,1,0,0:0:0:0:
109,192,174307,1,0,0:0:0:0:
402,192,174307,1,0,0:0:0:0:
329,192,174462,1,0,0:0:0:0:
475,192,174462,1,0,0:0:0:0:
402,192,174462,1,0,0:0:0:0:
182,192,174462,1,0,0:0:0:0:
109,192,174462,1,0,0:0:0:0:
475,192,174618,1,0,0:0:0:0:
329,192,174618,1,0,0:0:0:0:
36,192,174618,1,0,0:0:0:0:
109,192,174695,1,0,0:0:0:0:
256,192,174695,1,0,0:0:0:0:
402,192,174695,1,0,0:0:0:0:
36,192,174772,1,0,0:0:0:0:
182,192,174772,1,0,0:0:0:0:
475,192,174772,1,0,0:0:0:0:
329,192,174772,1,0,0:0:0:0:
475,192,175083,1,0,0:0:0:0:
402,192,175083,1,0,0:0:0:0:
329,192,175083,1,0,0:0:0:0:
182,192,175083,1,0,0:0:0:0:
109,192,175083,1,0,0:0:0:0:
36,192,175238,1,0,0:0:0:0:
109,192,175238,1,0,0:0:0:0:
402,192,175238,1,0,0:0:0:0:
329,192,175238,1,0,0:0:0:0:
256,192,175238,1,0,0:0:0:0:
36,192,175393,1,0,0:0:0:0:
475,192,175393,1,0,0:0:0:0:
182,192,175393,1,0,0:0:0:0:
256,192,175393,1,0,0:0:0:0:
329,192,175393,1,0,0:0:0:0:
109,192,175472,1,0,0:0:0:0:
402,192,175472,1,0,0:0:0:0:
475,192,175549,1,0,0:0:0:0:
36,192,175549,1,0,0:0:0:0:
256,192,175549,1,0,0:0:0:0:
182,192,175549,1,0,0:0:0:0:
329,192,175549,1,0,0:0:0:0:
182,192,175704,1,0,0:0:0:0:
36,192,175704,1,0,0:0:0:0:
109,192,175704,1,0,0:0:0:0:
329,192,175704,1,0,0:0:0:0:
402,192,175704,1,0,0:0:0:0:
36,192,175860,1,0,0:0:0:0:
182,192,175860,1,0,0:0:0:0:
475,192,175860,1,0,0:0:0:0:
402,192,175938,1,0,0:0:0:0:
256,192,175938,1,0,0:0:0:0:
109,192,175938,1,0,0:0:0:0:
475,192,176015,1,0,0:0:0:0:
329,192,176015,1,0,0:0:0:0:
36,192,176015,1,0,0:0:0:0:
182,192,176015,1,0,0:0:0:0:
36,192,176326,1,0,0:0:0:0:
109,192,176326,1,0,0:0:0:0:
182,192,176326,1,0,0:0:0:0:
329,192,176326,1,0,0:0:0:0:
402,192,176326,1,0,0:0:0:0:
109,192,176481,1,0,0:0:0:0:
475,192,176481,1,0,0:0:0:0:
36,192,176481,1,0,0:0:0:0:
256,192,176481,1,0,0:0:0:0:
402,192,176481,1,0,0:0:0:0:
182,192,176558,1,0,0:0:0:0:
329,192,176558,1,0,0:0:0:0:
36,192,176636,1,0,0:0:0:0:
475,192,176636,1,0,0:0:0:0:
256,192,176636,1,0,0:0:0:0:
109,192,176713,1,0,0:0:0:0:
402,192,176713,1,0,0:0:0:0:
36,192,176792,1,0,0:0:0:0:
182,192,176792,1,0,0:0:0:0:
256,192,176792,1,0,0:0:0:0:
329,192,176792,1,0,0:0:0:0:
475,192,176792,1,0,0:0:0:0:
182,192,177024,1,0,0:0:0:0:
329,192,177024,1,0,0:0:0:0:
475,192,177102,1,0,0:0:0:0:
402,192,177102,1,0,0:0:0:0:
36,192,177102,1,0,0:0:0:0:
109,192,177102,1,0,0:0:0:0:
256,192,177102,1,0,0:0:0:0:
109,192,177335,1,0,0:0:0:0:
402,192,177335,1,0,0:0:0:0:
36,192,177412,1,0,0:0:0:0:
475,192,177412,1,0,0:0:0:0:
329,192,177412,1,0,0:0:0:0:
182,192,177412,1,0,0:0:0:0:
256,192,177412,1,0,0:0:0:0:
36,192,177645,1,0,0:0:0:0:
475,192,177645,1,0,0:0:0:0:
256,192,177723,1,0,0:0:0:0:
182,192,177723,1,0,0:0:0:0:
109,192,177723,1,0,0:0:0:0:
402,192,177723,1,0,0:0:0:0:
329,192,177723,1,0,0:0:0:0:
256,192,177956,1,0,0:0:0:0:
182,192,178033,1,0,0:0:0:0:
109,192,178033,1,0,0:0:0:0:
36,192,178033,1,0,0:0:0:0:
329,192,178033,1,0,0:0:0:0:
475,192,178033,1,0,0:0:0:0:
402,192,178033,1,0,0:0:0:0:
36,192,178344,1,0,0:0:0:0:
109,192,178344,1,0,0:0:0:0:
182,192,178344,1,0,0:0:0:0:
329,192,178344,1,0,0:0:0:0:
402,192,178344,1,0,0:0:0:0:
475,192,178344,1,0,0:0:0:0:
256,192,178655,1,0,0:0:0:0:
475,192,178655,1,0,0:0:0:0:
36,192,178655,1,0,0:0:0:0:
402,192,178732,1,0,0:0:0:0:
109,192,178732,1,0,0:0:0:0:
329,192,178810,1,0,0:0:0:0:
182,192,178810,1,0,0:0:0:0:
109,192,178888,1,0,0:0:0:0:
402,192,178888,1,0,0:0:0:0:
36,192,178965,1,0,0:0:0:0:
475,192,178965,1,0,0:0:0:0:
256,192,178965,1,0,0:0:0:0:
182,192,179042,1,0,0:0:0:0:
329,192,179042,1,0,0:0:0:0:
109,192,179121,1,0,0:0:0:0:
402,192,179121,1,0,0:0:0:0:
36,192,179121,1,0,0:0:0:0:
475,192,179121,1,0,0:0:0:0:
182,192,179198,1,0,0:0:0:0:
329,192,179198,1,0,0:0:0:0:
36,192,179276,1,0,0:0:0:0:
256,192,179276,1,0,0:0:0:0:
402,192,179276,1,0,0:0:0:0:
475,192,179276,1,0,0:0:0:0:
109,192,179276,1,0,0:0:0:0:
329,192,179431,1,0,0:0:0:0:
402,192,179431,1,0,0:0:0:0:
36,192,179431,1,0,0:0:0:0:
182,192,179431,1,0,0:0:0:0:
329,192,179587,1,0,0:0:0:0:
475,192,179587,1,0,0:0:0:0:
109,192,179587,1,0,0:0:0:0:
256,192,179587,1,0,0:0:0:0:
256,192,179742,1,0,0:0:0:0:
402,192,179742,1,0,0:0:0:0:
36,192,179742,1,0,0:0:0:0:
182,192,179742,1,0,0:0:0:0:
475,192,179897,1,0,0:0:0:0:
182,192,179897,1,0,0:0:0:0:
109,192,179897,1,0,0:0:0:0:
329,192,179897,1,0,0:0:0:0:
182,192,180052,1,0,0:0:0:0:
256,192,180052,1,0,0:0:0:0:
36,192,180052,1,0,0:0:0:0:
402,192,180052,1,0,0:0:0:0:
329,192,180208,1,0,0:0:0:0:
109,192,180208,1,0,0:0:0:0:
475,192,180208,1,0,0:0:0:0:
256,192,180208,1,0,0:0:0:0:
402,192,180362,1,0,0:0:0:0:
182,192,180362,1,0,0:0:0:0:
329,192,180362,1,0,0:0:0:0:
36,192,180362,1,0,0:0:0:0:
475,192,180518,1,0,0:0:0:0:
329,192,180518,1,0,0:0:0:0:
182,192,180518,1,0,0:0:0:0:
109,192,180518,1,0,0:0:0:0:
402,192,180673,1,0,0:0:0:0:
256,192,180673,1,0,0:0:0:0:
182,192,180673,1,0,0:0:0:0:
36,192,180673,1,0,0:0:0:0:
475,192,180828,1,0,0:0:0:0:
329,192,180828,1,0,0:0:0:0:
256,192,180828,1,0,0:0:0:0:
109,192,180828,1,0,0:0:0:0:
402,192,180984,1,0,0:0:0:0:
182,192,180984,1,0,0:0:0:0:
36,192,180984,1,0,0:0:0:0:
329,192,180984,1,0,0:0:0:0:
475,192,181139,1,0,0:0:0:0:
36,192,181139,1,0,0:0:0:0:
402,192,181139,1,0,0:0:0:0:
109,192,181139,1,0,0:0:0:0:
182,192,181217,1,0,0:0:0:0:
329,192,181217,1,0,0:0:0:0:
256,192,181294,1,0,0:0:0:0:
36,192,181294,1,0,0:0:0:0:
475,192,181294,1,0,0:0:0:0:
402,192,181372,1,0,0:0:0:0:
109,192,181372,1,0,0:0:0:0:
182,192,181450,1,0,0:0:0:0:
256,192,181450,1,0,0:0:0:0:
329,192,181450,1,0,0:0:0:0:
109,192,181528,1,0,0:0:0:0:
402,192,181528,1,0,0:0:0:0:
36,192,181605,1,0,0:0:0:0:
475,192,181605,1,0,0:0:0:0:
256,192,181605,1,0,0:0:0:0:
182,192,181682,1,0,0:0:0:0:
329,192,181682,1,0,0:0:0:0:
109,192,181760,1,0,0:0:0:0:
36,192,181760,1,0,0:0:0:0:
256,192,181760,1,0,0:0:0:0:
402,192,181760,1,0,0:0:0:0:
475,192,181760,1,0,0:0:0:0:
475,192,181916,1,0,0:0:0:0:
256,192,181916,1,0,0:0:0:0:
36,192,181916,1,0,0:0:0:0:
329,192,181993,1,0,0:0:0:0:
109,192,181993,1,0,0:0:0:0:
402,192,182071,1,0,0:0:0:0:
36,192,182071,1,0,0:0:0:0:
182,192,182071,1,0,0:0:0:0:
475,192,182071,1,0,0:0:0:0:
329,192,182148,1,0,0:0:0:0:
475,192,182226,1,0,0:0:0:0:
256,192,182226,1,0,0:0:0:0:
36,192,182226,1,0,0:0:0:0:
182,192,182303,1,0,0:0:0:0:
402,192,182303,1,0,0:0:0:0:
36,192,182382,1,0,0:0:0:0:
329,192,182382,1,0,0:0:0:0:
475,192,182382,1,0,0:0:0:0:
109,192,182382,1,0,0:0:0:0:
256,192,182459,1,0,0:0:0:0:
402,192,182537,1,0,0:0:0:0:
475,192,182537,1,0,0:0:0:0:
182,192,182537,1,0,0:0:0:0:
109,192,182537,1,0,0:0:0:0:
329,192,182614,1,0,0:0:0:0:
182,192,182692,1,0,0:0:0:0:
36,192,182692,1,0,0:0:0:0:
475,192,182692,1,0,0:0:0:0:
256,192,182692,1,0,0:0:0:0:
402,192,182769,1,0,0:0:0:0:
109,192,182848,1,0,0:0:0:0:
36,192,182848,1,0,0:0:0:0:
256,192,182848,1,0,0:0:0:0:
475,192,182848,1,0,0:0:0:0:
329,192,182848,1,0,0:0:0:0:
256,192,183002,1,0,0:0:0:0:
36,192,183002,1,0,0:0:0:0:
109,192,183002,1,0,0:0:0:0:
182,192,183080,1,0,0:0:0:0:
329,192,183080,1,0,0:0:0:0:
402,192,183158,1,0,0:0:0:0:
36,192,183158,1,0,0:0:0:0:
256,192,183158,1,0,0:0:0:0:
475,192,183158,1,0,0:0:0:0:
329,192,183235,1,0,0:0:0:0:
109,192,183235,1,0,0:0:0:0:
182,192,183313,1,0,0:0:0:0:
402,192,183313,1,0,0:0:0:0:
36,192,183313,1,0,0:0:0:0:
475,192,183313,1,0,0:0:0:0:
402,192,183468,1,0,0:0:0:0:
256,192,183468,1,0,0:0:0:0:
475,192,183468,1,0,0:0:0:0:
329,192,183546,1,0,0:0:0:0:
182,192,183546,1,0,0:0:0:0:
109,192,183623,1,0,0:0:0:0:
256,192,183623,1,0,0:0:0:0:
36,192,183623,1,0,0:0:0:0:
475,192,183623,1,0,0:0:0:0:
182,192,183779,1,0,0:0:0:0:
329,192,183779,1,0,0:0:0:0:
402,192,183779,1,0,0:0:0:0:
109,192,183857,1,0,0:0:0:0:
256,192,183857,1,0,0:0:0:0:
182,192,183934,1,0,0:0:0:0:
402,192,183934,1,0,0:0:0:0:
475,192,183934,1,0,0:0:0:0:
36,192,183934,1,0,0:0:0:0:
182,192,184089,1,0,0:0:0:0:
36,192,184089,1,0,0:0:0:0:
256,192,184167,1,0,0:0:0:0:
109,192,184167,1,0,0:0:0:0:
329,192,184245,1,0,0:0:0:0:
182,192,184245,1,0,0:0:0:0:
475,192,184245,1,0,0:0:0:0:
36,192,184245,1,0,0:0:0:0:
402,192,184322,1,0,0:0:0:0:
109,192,184400,1,0,0:0:0:0:
329,192,184400,1,0,0:0:0:0:
36,192,184400,1,0,0:0:0:0:
182,192,184478,1,0,0:0:0:0:
402,192,184478,1,0,0:0:0:0:
475,192,184555,1,0,0:0:0:0:
329,192,184555,1,0,0:0:0:0:
256,192,184555,1,0,0:0:0:0:
36,192,184555,1,0,0:0:0:0:
109,192,184632,1,0,0:0:0:0:
402,192,184711,1,0,0:0:0:0:
182,192,184711,1,0,0:0:0:0:
329,192,184788,1,0,0:0:0:0:
109,192,184788,1,0,0:0:0:0:
256,192,184866,1,0,0:0:0:0:
182,192,184866,1,0,0:0:0:0:
475,192,184866,1,0,0:0:0:0:
36,192,184866,1,0,0:0:0:0:
402,192,184943,1,0,0:0:0:0:
109,192,185021,1,0,0:0:0:0:
36,192,185021,1,0,0:0:0:0:
329,192,185021,1,0,0:0:0:0:
256,192,185021,1,0,0:0:0:0:
475,192,185098,1,0,0:0:0:0:
182,192,185177,1,0,0:0:0:0:
109,192,185177,1,0,0:0:0:0:
402,192,185177,1,0,0:0:0:0:
329,192,185177,1,0,0:0:0:0:
36,192,185254,1,0,0:0:0:0:
256,192,185332,1,0,0:0:0:0:
402,192,185332,1,0,0:0:0:0:
475,192,185332,1,0,0:0:0:0:
182,192,185332,1,0,0:0:0:0:
329,192,185487,1,0,0:0:0:0:
109,192,185487,1,0,0:0:0:0:
36,192,185487,1,0,0:0:0:0:
402,192,185564,1,0,0:0:0:0:
182,192,185564,1,0,0:0:0:0:
36,192,185642,1,0,0:0:0:0:
256,192,185642,1,0,0:0:0:0:
475,192,185642,1,0,0:0:0:0:
329,192,185720,1,0,0:0:0:0:
109,192,185720,1,0,0:0:0:0:
402,192,185798,1,0,0:0:0:0:
182,192,185798,1,0,0:0:0:0:
475,192,185798,1,0,0:0:0:0:
36,192,185798,1,0,0:0:0:0:
329,192,185875,1,0,0:0:0:0:
256,192,185875,1,0,0:0:0:0:
109,192,185875,1,0,0:0:0:0:
182,192,185952,1,0,0:0:0:0:
402,192,185952,1,0,0:0:0:0:
475,192,185952,1,0,0:0:0:0:
36,192,185952,1,0,0:0:0:0:
402,192,186108,1,0,0:0:0:0:
109,192,186108,1,0,0:0:0:0:
256,192,186108,1,0,0:0:0:0:
182,192,186186,1,0,0:0:0:0:
329,192,186186,1,0,0:0:0:0:
475,192,186263,1,0,0:0:0:0:
36,192,186263,1,0,0:0:0:0:
256,192,186263,1,0,0:0:0:0:
329,192,186341,1,0,0:0:0:0:
182,192,186341,1,0,0:0:0:0:
36,192,186418,1,0,0:0:0:0:
475,192,186418,1,0,0:0:0:0:
256,192,186418,1,0,0:0:0:0:
402,192,186496,1,0,0:0:0:0:
109,192,186496,1,0,0:0:0:0:
329,192,186574,1,0,0:0:0:0:
256,192,186574,1,0,0:0:0:0:
182,192,186574,1,0,0:0:0:0:
402,192,186652,1,0,0:0:0:0:
109,192,186652,1,0,0:0:0:0:
329,192,186729,1,0,0:0:0:0:
256,192,186729,1,0,0:0:0:0:
182,192,186729,1,0,0:0:0:0:
475,192,186729,1,0,0:0:0:0:
36,192,186729,1,0,0:0:0:0:
109,192,186807,1,0,0:0:0:0:
475,192,186884,1,0,0:0:0:0:
182,192,186884,1,0,0:0:0:0:
329,192,186884,1,0,0:0:0:0:
402,192,186884,1,0,0:0:0:0:
36,192,186962,1,0,0:0:0:0:
329,192,187040,1,0,0:0:0:0:
402,192,187040,1,0,0:0:0:0:
109,192,187040,1,0,0:0:0:0:
256,192,187040,1,0,0:0:0:0:
475,192,187118,1,0,0:0:0:0:
329,192,187195,1,0,0:0:0:0:
36,192,187195,1,0,0:0:0:0:
182,192,187195,1,0,0:0:0:0:
256,192,187195,1,0,0:0:0:0:
329,192,187506,1,0,0:0:0:0:
475,192,187506,1,0,0:0:0:0:
36,192,187506,1,0,0:0:0:0:
109,192,187506,1,0,0:0:0:0:
256,192,187583,1,0,0:0:0:0:
475,192,187661,1,0,0:0:0:0:
182,192,187661,1,0,0:0:0:0:
36,192,187661,1,0,0:0:0:0:
402,192,187661,1,0,0:0:0:0:
256,192,187738,1,0,0:0:0:0:
475,192,187816,1,0,0:0:0:0:
36,192,187816,1,0,0:0:0:0:
329,192,187816,1,0,0:0:0:0:
109,192,187816,1,0,0:0:0:0:
402,192,188127,1,0,0:0:0:0:
36,192,188127,1,0,0:0:0:0:
182,192,188127,1,0,0:0:0:0:
475,192,188127,1,0,0:0:0:0:
256,192,188204,1,0,0:0:0:0:
329,192,188282,1,0,0:0:0:0:
475,192,188282,1,0,0:0:0:0:
36,192,188282,1,0,0:0:0:0:
109,192,188282,1,0,0:0:0:0:
256,192,188360,1,0,0:0:0:0:
402,192,188438,1,0,0:0:0:0:
475,192,188438,1,0,0:0:0:0:
36,192,188438,1,0,0:0:0:0:
182,192,188438,1,0,0:0:0:0:
182,192,188748,1,0,0:0:0:0:
329,192,188748,1,0,0:0:0:0:
475,192,188748,1,0,0:0:0:0:
36,192,188748,1,0,0:0:0:0:
402,192,188826,1,0,0:0:0:0:
256,192,188826,1,0,0:0:0:0:
109,192,188826,1,0,0:0:0:0:
182,192,188903,1,0,0:0:0:0:
329,192,188903,1,0,0:0:0:0:
475,192,188903,1,0,0:0:0:0:
36,192,188903,1,0,0:0:0:0:
402,192,188981,1,0,0:0:0:0:
109,192,188981,1,0,0:0:0:0:
256,192,189058,1,0,0:0:0:0:
329,192,189058,1,0,0:0:0:0:
182,192,189058,1,0,0:0:0:0:
109,192,189136,1,0,0:0:0:0:
402,192,189136,1,0,0:0:0:0:
329,192,189213,1,0,0:0:0:0:
256,192,189213,1,0,0:0:0:0:
182,192,189213,1,0,0:0:0:0:
475,192,189213,1,0,0:0:0:0:
36,192,189213,1,0,0:0:0:0:
109,192,189292,1,0,0:0:0:0:
402,192,189369,1,0,0:0:0:0:
475,192,189369,1,0,0:0:0:0:
182,192,189369,1,0,0:0:0:0:
329,192,189447,1,0,0:0:0:0:
109,192,189447,1,0,0:0:0:0:
256,192,189524,1,0,0:0:0:0:
36,192,189524,1,0,0:0:0:0:
475,192,189524,1,0,0:0:0:0:
182,192,189602,1,0,0:0:0:0:
36,192,189679,1,0,0:0:0:0:
475,192,189679,1,0,0:0:0:0:
329,192,189679,1,0,0:0:0:0:
256,192,189758,1,0,0:0:0:0:
402,192,189758,1,0,0:0:0:0:
109,192,189758,1,0,0:0:0:0:
475,192,189835,1,0,0:0:0:0:
329,192,189835,1,0,0:0:0:0:
182,192,189835,1,0,0:0:0:0:
36,192,189835,1,0,0:0:0:0:
256,192,189990,1,0,0:0:0:0:
36,192,189990,1,0,0:0:0:0:
402,192,189990,1,0,0:0:0:0:
182,192,189990,1,0,0:0:0:0:
329,192,190145,1,0,0:0:0:0:
475,192,190145,1,0,0:0:0:0:
182,192,190145,1,0,0:0:0:0:
109,192,190145,1,0,0:0:0:0:
402,192,190301,1,0,0:0:0:0:
475,192,190301,1,0,0:0:0:0:
36,192,190301,1,0,0:0:0:0:
256,192,190301,1,0,0:0:0:0:
109,192,190301,1,0,0:0:0:0:
402,192,190922,1,0,0:0:0:0:
256,192,190922,1,0,0:0:0:0:
475,192,190922,1,0,0:0:0:0:
182,192,191232,1,0,0:0:0:0:
329,192,191232,1,0,0:0:0:0:
256,192,191388,1,0,0:0:0:0:
109,192,191388,1,0,0:0:0:0:
36,192,191542,1,0,0:0:0:0:
182,192,191542,1,0,0:0:0:0:
36,192,191698,1,0,0:0:0:0:
475,192,191698,1,0,0:0:0:0:
256,192,191698,1,0,0:0:0:0:
109,192,191853,1,0,0:0:0:0:
182,192,192008,1,0,0:0:0:0:
256,192,192164,1,0,0:0:0:0:
109,192,192474,1,0,0:0:0:0:
182,192,192630,1,0,0:0:0:0:
256,192,192785,1,0,0:0:0:0:
109,192,193096,1,0,0:0:0:0:
182,192,193251,1,0,0:0:0:0:
256,192,193406,1,0,0:0:0:0:
109,192,193717,1,0,0:0:0:0:
182,192,193872,1,0,0:0:0:0:
256,192,194028,1,0,0:0:0:0:
109,192,194338,1,0,0:0:0:0:
182,192,194493,1,0,0:0:0:0:
256,192,194648,1,0,0:0:0:0:
109,192,194959,1,0,0:0:0:0:
182,192,195114,1,0,0:0:0:0:
256,192,195269,1,0,0:0:0:0:
109,192,195580,1,0,0:0:0:0:
182,192,195755,1,0,0:0:0:0:
256,192,195929,1,0,0:0:0:0:
109,192,196240,1,0,0:0:0:0:
182,192,196415,1,0,0:0:0:0:
256,192,196589,1,0,0:0:0:0:
