osu file format v14

[General]
AudioFilename: audio.mp3
AudioLeadIn: 0
PreviewTime: 89763
Countdown: 0
SampleSet: Normal
StackLeniency: 0.7
Mode: 1
LetterboxInBreaks: 0
WidescreenStoryboard: 1

[Editor]
DistanceSpacing: 0.9
BeatDivisor: 6
GridSize: 32
TimelineZoom: 0.8999989

[Metadata]
Title:For You the Bellz Toll
TitleUnicode:For You the Bellz Toll
Artist:Yanagida Ethnica
ArtistUnicode:柳田Ethnica
Creator:arcpotato
Version:Futsuu
Source:Cytus II
Tags:antti electronic instrumental video rhythm game videogame xmas 2 christmas ayatsugu_otowa ayatsugu otowa ayatsugu_neverend neverend rayark inc inc. NEKO#ΦωΦ NEKO yanagita yanaida bells
BeatmapID:3831019
BeatmapSetID:1862309

[Difficulty]
HPDrainRate:7
CircleSize:2
OverallDifficulty:4
ApproachRate:10
SliderMultiplier:1.4
SliderTickRate:3

[Events]
//Background and Video events
0,0,"For_You_the_Bellz_Toll.jpg",0,20
//Break Periods
//Storyboard Layer 0 (Background)
//Storyboard Layer 1 (Fail)
//Storyboard Layer 2 (Pass)
//Storyboard Layer 3 (Foreground)
//Storyboard Layer 4 (Overlay)
//Storyboard Sound Samples

[TimingPoints]
1210,307.692307692308,4,1,0,80,1,0
1210,-125,4,1,0,80,0,0
6126,-125,4,1,0,80,0,0
6741,-121.21435958044,4,1,0,80,0,0
7356,-117.651276168626,4,1,0,80,0,0
7664,-115.944418276024,4,1,0,80,0,0
7972,-114.286377565234,4,1,0,80,0,0
8587,-111.113618922945,4,1,0,80,0,0
8895,-109.589955923601,4,1,0,80,0,0
9203,-108.107514603189,4,1,0,80,0,0
9510,-106.669266770671,4,1,0,80,0,0
9818,-105.264283270612,4,1,0,80,0,0
10126,-103.895829815972,4,1,0,80,0,0
10331,-103.004561241997,4,1,0,80,0,0
10433,-102.566773615567,4,1,0,80,0,0
11052,-100,4,1,0,80,0,0
70436,-125,4,1,0,80,0,0
75049,-125,4,1,0,80,0,0
75664,-121.21435958044,4,1,0,80,0,0
75869,-120.002925117005,4,1,0,80,0,0
76177,-118.227665706052,4,1,0,80,0,0
76279,-117.651276168626,4,1,0,80,0,0
76587,-115.944418276024,4,1,0,80,0,0
76895,-114.286377565234,4,1,0,80,0,0
77203,-112.675089261192,4,1,0,80,0,0
77510,-111.113618922945,4,1,0,80,0,0
77715,-110.094820645854,4,1,0,80,0,0
78126,-108.107514603189,4,1,0,80,0,0
78331,-107.142857142857,4,1,0,80,0,0
78741,-105.264283270612,4,1,0,80,0,0
78946,-104.349484929416,4,1,0,80,0,0
79356,-102.566773615567,4,1,0,80,0,0
79561,-101.6980664353,4,1,0,80,0,0
79664,-101.267124696589,4,1,0,80,0,0
79972,-100,4,1,0,80,0,0
89825,-100,4,1,0,100,0,1
97510,-98.7679094594052,4,1,0,100,0,1
97715,-97.9619457049598,4,1,0,100,0,1
97818,-97.5619425173439,4,1,0,100,0,1
98433,-95.2399380804953,4,1,0,100,0,1
98741,-94.1180969863852,4,1,0,100,0,1
99049,-93.0223767765346,4,1,0,100,0,1
99356,-91.9553114374323,4,1,0,100,0,1
99664,-90.9090909090909,4,1,0,100,0,1
99975,-100,4,1,0,100,0,1
107356,-98.7679094594052,4,1,0,100,0,1
107561,-97.9619457049598,4,1,0,100,0,1
107664,-97.5619425173439,4,1,0,100,0,1
108279,-95.2399380804953,4,1,0,100,0,1
108587,-94.1180969863852,4,1,0,100,0,1
108895,-93.0223767765346,4,1,0,100,0,1
109203,-91.9518756538634,4,1,0,100,0,1
109517,-90.9090909090909,4,1,0,100,0,0
109616,-100,4,1,0,100,0,0
112587,-102.563033965409,4,1,0,100,0,0
112895,-103.896652172078,4,1,0,100,0,0
113203,-105.26540912785,4,1,0,100,0,0
113510,-106.666088765603,4,1,0,100,0,0
113818,-108.109295378668,4,1,0,100,0,0
114126,-109.59209120057,4,1,0,100,0,0
114433,-111.111111111111,4,1,0,100,0,0
118433,-108.11285927749,4,1,0,100,0,0
118741,-105.263157894737,4,1,0,100,0,0
119049,-102.559826565497,4,1,0,100,0,0
119356,-100,4,1,0,100,0,0
119667,-111.111111111111,4,1,0,100,0,0

[HitObjects]
256,192,1210,5,8,0:0:0:0:
256,192,1517,1,8,0:0:0:0:
256,192,1825,1,0,0:0:0:0:
256,192,2440,1,8,0:0:0:0:
256,192,2748,1,0,0:0:0:0:
256,192,3056,1,8,0:0:0:0:
256,192,3671,1,12,0:0:0:0:
256,192,3979,1,8,0:0:0:0:
256,192,4286,1,0,0:0:0:0:
256,192,4594,1,0,0:0:0:0:
256,192,4902,1,8,0:0:0:0:
256,192,5210,1,0,0:0:0:0:
256,192,5517,1,8,0:0:0:0:
256,192,6133,1,12,0:0:0:0:
256,192,6748,1,0,0:0:0:0:
256,192,7363,1,8,0:0:0:0:
256,192,7671,1,0,0:0:0:0:
256,192,7979,1,0,0:0:0:0:
256,192,8594,1,0,0:0:0:0:
256,192,8902,1,0,0:0:0:0:
256,192,9210,1,8,0:0:0:0:
256,192,9517,1,8,0:0:0:0:
256,192,9825,1,0,0:0:0:0:
256,192,10133,1,8,0:0:0:0:
256,192,10338,1,0,0:0:0:0:
256,192,10440,1,0,0:0:0:0:
256,192,11056,1,4,0:0:0:0:
256,192,11671,1,8,0:0:0:0:
256,192,11979,1,0,0:0:0:0:
256,192,12286,1,8,0:0:0:0:
256,192,12594,1,8,0:0:0:0:
256,192,12902,1,0,0:0:0:0:
256,192,13210,1,8,0:0:0:0:
256,192,13517,1,4,0:0:0:0:
256,192,13722,1,8,0:0:0:0:
288,192,13825,1,8,0:0:0:0:
256,192,14133,1,0,0:0:0:0:
256,192,14645,1,8,0:0:0:0:
256,192,15363,1,8,0:0:0:0:
256,224,15568,1,0,0:0:0:0:
256,192,15671,1,0,0:0:0:0:
256,192,15979,1,4,0:0:0:0:
256,192,16594,1,8,0:0:0:0:
256,192,17210,1,0,0:0:0:0:
256,192,17517,1,0,0:0:0:0:
256,192,17825,1,8,0:0:0:0:
256,192,18030,1,0,0:0:0:0:
256,192,18133,1,0,0:0:0:0:
256,192,18440,1,12,0:0:0:0:
256,192,19056,1,8,0:0:0:0:
256,192,19261,1,8,0:0:0:0:
256,192,19568,1,0,0:0:0:0:
256,192,20286,1,8,0:0:0:0:
256,192,20492,1,0,0:0:0:0:
256,192,20594,1,0,0:0:0:0:
256,192,20902,1,12,0:0:0:0:
256,192,21517,1,0,0:0:0:0:
256,192,21825,1,8,0:0:0:0:
256,192,22133,1,0,0:0:0:0:
256,192,22440,1,0,0:0:0:0:
256,192,22748,1,8,0:0:0:0:
256,192,23056,1,8,0:0:0:0:
256,192,23363,1,4,0:0:0:0:
256,192,23568,1,8,0:0:0:0:
256,192,23671,1,8,0:0:0:0:
256,192,23979,1,0,0:0:0:0:
256,192,24492,1,8,0:0:0:0:
256,192,25210,1,8,0:0:0:0:
256,192,25517,1,0,0:0:0:0:
256,192,25825,1,12,0:0:0:0:
256,192,26133,1,0,0:0:0:0:
256,192,26440,1,8,0:0:0:0:
256,192,26645,1,8,0:0:0:0:
256,192,27056,1,8,0:0:0:0:
256,192,27363,1,8,0:0:0:0:
256,192,27671,1,0,0:0:0:0:
256,192,27876,1,0,0:0:0:0:
256,192,28286,1,12,0:0:0:0:
256,192,28902,1,0,0:0:0:0:
256,192,29517,1,8,0:0:0:0:
256,192,29825,1,0,0:0:0:0:
256,192,30133,1,8,0:0:0:0:
256,192,30338,1,0,0:0:0:0:
256,192,30440,1,0,0:0:0:0:
256,192,30748,1,12,0:0:0:0:
256,192,31363,1,0,0:0:0:0:
288,192,31568,1,0,0:0:0:0:
288,192,31876,1,8,0:0:0:0:
288,192,32184,1,0,0:0:0:0:
288,192,32492,1,8,0:0:0:0:
288,192,32799,1,0,0:0:0:0:
288,192,33107,1,8,0:0:0:0:
288,192,33210,1,8,0:0:0:0:
256,192,33825,1,0,0:0:0:0:
256,192,34440,1,8,0:0:0:0:
256,192,34645,1,0,0:0:0:0:
256,192,34953,1,8,0:0:0:0:
256,192,35261,1,0,0:0:0:0:
256,192,35671,1,12,0:0:0:0:
256,192,35979,1,0,0:0:0:0:
256,192,36286,1,0,0:0:0:0:
256,192,36594,1,8,0:0:0:0:
256,192,36799,1,0,0:0:0:0:
256,192,37107,1,8,0:0:0:0:
256,192,37415,1,0,0:0:0:0:
256,192,37517,1,0,0:0:0:0:
256,192,38133,1,8,0:0:0:0:
256,192,38440,1,8,0:0:0:0:
256,192,38748,1,0,0:0:0:0:
256,192,38953,1,0,0:0:0:0:
256,192,39261,1,8,0:0:0:0:
288,192,39876,1,0,0:0:0:0:
288,192,40594,1,12,0:0:0:0:
288,192,41210,1,0,0:0:0:0:
288,192,41415,1,8,0:0:0:0:
288,192,41517,1,8,0:0:0:0:
288,192,41825,1,4,0:0:0:0:
288,192,42440,1,8,0:0:0:0:
288,192,42645,1,0,0:0:0:0:
288,192,42748,1,0,0:0:0:0:
288,192,43056,1,12,0:0:0:0:
288,192,43671,1,0,0:0:0:0:
320,192,43979,1,8,0:0:0:0:
320,192,44286,1,0,0:0:0:0:
288,192,44594,1,0,0:0:0:0:
288,192,44902,1,8,0:0:0:0:
288,192,45107,1,0,0:0:0:0:
288,192,45210,1,0,0:0:0:0:
288,192,45517,1,8,0:0:0:0:
256,192,46030,1,8,0:0:0:0:
256,192,46338,1,0,0:0:0:0:
256,192,46748,1,8,0:0:0:0:
256,192,47261,1,0,0:0:0:0:
256,192,47568,1,8,0:0:0:0:
256,192,47979,1,4,0:0:0:0:
256,192,48594,1,0,0:0:0:0:
256,192,49107,1,8,0:0:0:0:
256,192,49210,1,8,0:0:0:0:
256,192,49825,1,8,0:0:0:0:
256,192,50133,1,0,0:0:0:0:
256,192,50440,1,12,0:0:0:0:
256,192,51056,1,0,0:0:0:0:
256,192,51261,1,8,0:0:0:0:
256,192,51568,1,0,0:0:0:0:
256,192,51876,1,8,0:0:0:0:
256,192,52184,1,8,0:0:0:0:
256,192,52492,1,0,0:0:0:0:
256,192,52799,1,8,0:0:0:0:
256,192,52902,1,8,0:0:0:0:
256,192,53517,1,0,0:0:0:0:
256,192,54133,1,8,0:0:0:0:
288,192,54338,1,0,0:0:0:0:
288,192,54645,1,8,0:0:0:0:
256,192,54953,1,0,0:0:0:0:
288,192,55363,1,12,0:0:0:0:
224,192,55671,1,0,0:0:0:0:
288,192,55979,1,8,0:0:0:0:
288,192,56286,1,0,0:0:0:0:
288,192,56492,1,8,0:0:0:0:
288,192,56799,1,8,0:0:0:0:
288,192,57107,1,0,0:0:0:0:
288,192,57210,1,0,0:0:0:0:
288,192,57825,1,8,0:0:0:0:
288,192,58133,1,0,0:0:0:0:
288,192,58440,1,8,0:0:0:0:
288,192,58645,1,8,0:0:0:0:
288,192,58953,1,0,0:0:0:0:
288,192,59568,1,8,0:0:0:0:
256,192,60286,1,4,0:0:0:0:
288,192,60902,1,8,0:0:0:0:
224,192,61107,1,0,0:0:0:0:
288,192,61210,1,0,0:0:0:0:
288,192,61517,1,12,0:0:0:0:
288,192,62133,1,0,0:0:0:0:
288,192,62338,1,8,0:0:0:0:
288,192,62440,1,8,0:0:0:0:
288,192,62748,1,4,0:0:0:0:
288,192,63363,1,8,0:0:0:0:
288,192,63671,1,0,0:0:0:0:
288,192,63979,1,8,0:0:0:0:
288,192,64286,1,8,0:0:0:0:
288,192,64594,1,0,0:0:0:0:
288,192,64799,1,8,0:0:0:0:
288,192,64902,1,8,0:0:0:0:
320,192,65210,1,4,0:0:0:0:
320,192,65722,1,8,0:0:0:0:
288,192,66030,1,0,0:0:0:0:
256,192,66440,1,8,0:0:0:0:
256,192,66953,1,0,0:0:0:0:
256,192,67261,1,8,0:0:0:0:
256,192,67671,1,4,0:0:0:0:
256,192,68286,1,0,0:0:0:0:
256,192,68799,1,8,0:0:0:0:
256,192,68902,1,8,0:0:0:0:
256,192,69517,1,0,0:0:0:0:
256,192,69825,1,0,0:0:0:0:
256,192,70133,1,12,0:0:0:0:
288,192,70748,1,8,0:0:0:0:
288,192,71056,1,8,0:0:0:0:
288,192,71363,1,0,0:0:0:0:
288,192,71979,1,0,0:0:0:0:
288,192,72286,1,8,0:0:0:0:
288,192,72594,1,4,0:0:0:0:
288,192,73210,1,8,0:0:0:0:
288,192,73517,1,0,0:0:0:0:
288,192,73825,1,8,0:0:0:0:
288,192,74133,1,0,0:0:0:0:
288,192,74440,1,8,0:0:0:0:
288,192,74645,1,0,0:0:0:0:
288,192,74748,1,0,0:0:0:0:
288,192,75056,1,12,0:0:0:0:
288,192,75671,1,8,0:0:0:0:
288,192,75876,1,0,0:0:0:0:
288,192,76286,1,0,0:0:0:0:
288,192,76594,1,8,0:0:0:0:
288,192,76902,1,0,0:0:0:0:
288,192,77210,1,8,0:0:0:0:
288,192,77517,1,0,0:0:0:0:
288,192,77722,1,0,0:0:0:0:
288,192,78133,1,8,0:0:0:0:
288,192,78338,1,8,0:0:0:0:
288,192,78748,1,8,0:0:0:0:
288,192,78953,1,0,0:0:0:0:
288,192,79363,1,8,0:0:0:0:
288,192,79568,1,0,0:0:0:0:
288,192,79671,1,0,0:0:0:0:
288,192,79979,1,12,0:0:0:0:
288,192,80594,1,0,0:0:0:0:
288,192,80902,1,8,0:0:0:0:
288,192,81210,1,8,0:0:0:0:
288,192,81517,1,0,0:0:0:0:
288,192,81825,1,8,0:0:0:0:
288,192,82030,1,0,0:0:0:0:
288,192,82133,1,0,0:0:0:0:
288,192,82440,1,12,0:0:0:0:
288,192,83056,1,8,0:0:0:0:
288,192,83363,1,8,0:0:0:0:
288,192,83671,1,0,0:0:0:0:
288,192,83979,1,0,0:0:0:0:
288,192,84286,1,8,0:0:0:0:
288,192,84902,1,0,0:0:0:0:
256,192,85517,1,8,0:0:0:0:
256,192,86133,1,0,0:0:0:0:
288,192,86440,1,0,0:0:0:0:
256,192,86748,1,8,0:0:0:0:
288,192,87363,1,8,0:0:0:0:
256,192,87979,1,0,0:0:0:0:
256,192,88286,1,0,0:0:0:0:
256,192,88594,1,12,0:0:0:0:
288,192,89107,1,8,0:0:0:0:
288,192,89210,1,8,0:0:0:0:
288,192,89825,1,0,0:0:0:0:
288,192,90133,1,0,0:0:0:0:
288,192,90440,1,8,0:0:0:0:
288,192,90748,1,0,0:0:0:0:
288,192,91056,1,8,0:0:0:0:
288,192,91261,1,0,0:0:0:0:
288,192,91363,1,0,0:0:0:0:
288,192,91671,1,8,0:0:0:0:
256,192,92286,1,4,0:0:0:0:
288,192,92902,1,8,0:0:0:0:
256,192,93210,1,0,0:0:0:0:
256,192,93517,1,8,0:0:0:0:
256,192,93825,1,0,0:0:0:0:
288,192,94133,1,8,0:0:0:0:
288,192,94338,1,0,0:0:0:0:
288,192,94440,1,0,0:0:0:0:
288,192,94748,1,12,0:0:0:0:
288,192,95363,1,0,0:0:0:0:
256,192,95568,1,8,0:0:0:0:
288,192,95671,1,8,0:0:0:0:
288,192,95979,1,0,0:0:0:0:
288,192,96594,1,8,0:0:0:0:
256,192,96799,1,0,0:0:0:0:
288,192,96902,1,0,0:0:0:0:
288,192,97210,1,12,0:0:0:0:
288,192,97825,1,12,0:0:0:0:
288,192,98440,1,0,0:0:0:0:
288,192,98748,1,0,0:0:0:0:
288,192,99056,1,8,0:0:0:0:
288,192,99363,1,8,0:0:0:0:
288,192,99671,1,4,0:0:0:0:
256,192,100286,1,8,0:0:0:0:
256,192,100594,1,8,0:0:0:0:
256,192,100902,1,0,0:0:0:0:
256,192,101107,1,8,0:0:0:0:
256,192,101210,1,8,0:0:0:0:
256,192,101517,1,0,0:0:0:0:
256,192,102133,1,12,0:0:0:0:
256,192,102748,1,8,0:0:0:0:
256,192,103056,1,0,0:0:0:0:
256,192,103363,1,8,0:0:0:0:
256,192,103671,1,0,0:0:0:0:
256,192,103979,1,8,0:0:0:0:
256,192,104184,1,0,0:0:0:0:
256,192,104286,1,0,0:0:0:0:
256,192,104594,1,8,0:0:0:0:
256,192,105210,1,0,0:0:0:0:
256,192,105415,1,8,0:0:0:0:
256,192,105517,1,8,0:0:0:0:
256,192,105825,1,0,0:0:0:0:
256,224,106440,1,8,0:0:0:0:
256,192,106645,1,0,0:0:0:0:
256,224,106748,1,0,0:0:0:0:
256,224,107056,1,12,0:0:0:0:
256,192,107671,1,12,0:0:0:0:
288,192,108286,1,0,0:0:0:0:
288,192,108594,1,8,0:0:0:0:
288,192,108902,1,8,0:0:0:0:
288,192,109210,1,8,0:0:0:0:
256,192,109517,1,4,0:0:0:0:
256,192,110133,1,8,0:0:0:0:
256,192,110440,1,0,0:0:0:0:
256,192,110748,1,8,0:0:0:0:
256,192,111056,1,8,0:0:0:0:
256,192,111363,1,0,0:0:0:0:
224,192,111671,1,0,0:0:0:0:
224,192,111979,1,8,0:0:0:0:
224,192,112594,1,0,0:0:0:0:
256,192,113210,1,0,0:0:0:0:
256,192,113825,1,8,0:0:0:0:
256,192,114133,1,0,0:0:0:0:
256,192,114440,1,12,0:0:0:0:
256,192,115056,1,8,0:0:0:0:
256,192,115363,1,0,0:0:0:0:
256,192,115671,1,8,0:0:0:0:
256,192,116286,1,0,0:0:0:0:
288,192,116594,1,0,0:0:0:0:
288,192,116902,1,8,0:0:0:0:
288,192,117517,1,8,0:0:0:0:
288,192,118133,1,0,0:0:0:0:
256,192,118440,1,0,0:0:0:0:
256,192,118748,1,8,0:0:0:0:
288,192,119056,1,0,0:0:0:0:
288,192,119363,1,12,0:0:0:0:
256,192,119979,1,8,0:0:0:0:
256,192,120286,1,0,0:0:0:0:
256,192,120594,1,8,0:0:0:0:
256,192,120902,1,8,0:0:0:0:
256,192,121210,1,0,0:0:0:0:
256,192,121517,1,8,0:0:0:0:
256,192,121825,1,0,0:0:0:0:
256,192,122133,1,8,0:0:0:0:
256,192,122748,1,0,0:0:0:0:
256,192,123363,1,8,0:0:0:0:
256,192,123979,1,0,0:0:0:0:
288,192,124286,1,8,0:0:0:0:
256,192,124902,1,8,0:0:0:0:
256,192,125210,1,0,0:0:0:0:
256,192,125517,1,8,0:0:0:0:
256,192,126133,1,8,0:0:0:0:
256,192,126440,1,0,0:0:0:0:
256,192,126748,1,8,0:0:0:0:
256,192,127363,1,8,0:0:0:0:
256,192,127979,1,8,0:0:0:0:
256,192,128286,1,8,0:0:0:0:
256,192,128594,1,0,0:0:0:0:
256,192,128902,1,8,0:0:0:0:
