osu file format v14

[General]
AudioFilename: audio.mp3
AudioLeadIn: 0
PreviewTime: 87363
Countdown: 0
SampleSet: Soft
StackLeniency: 0.7
Mode: 3
LetterboxInBreaks: 0
SpecialStyle: 0
WidescreenStoryboard: 1

[Editor]
Bookmarks: 1210,6133,11056,30748,40594,45517,50440,60286,65209,70133,75056,77517,79979,84902,89825,97209,99671,107056,109517,119363
DistanceSpacing: 1.6
BeatDivisor: 3
GridSize: 8
TimelineZoom: 1.700001

[Metadata]
Title:For You the Bellz Toll
TitleUnicode:For You the Bellz Toll
Artist:Yanagida Ethnica
ArtistUnicode:柳田Ethnica
Creator:Keiga
Version:Normal
Source:Cytus II
Tags:-ziel- 2 christmas ayatsugu_otowa rayark inc NEKO#ΦωΦ NEKO electronic instrumental yanagita yanaida
BeatmapID:2229755
BeatmapSetID:1064967

[Difficulty]
HPDrainRate:7.4
CircleSize:4
OverallDifficulty:7.4
ApproachRate:5
SliderMultiplier:1.4
SliderTickRate:1

[Events]
//Background and Video events
0,0,"DvL9QdfU8AI-ijq copy.jpg",0,0
//Break Periods
//Storyboard Layer 0 (Background)
//Storyboard Layer 1 (Fail)
//Storyboard Layer 2 (Pass)
//Storyboard Layer 3 (Foreground)
//Storyboard Layer 4 (Overlay)
//Storyboard Sound Samples
Sample,1210,0,"LR_Chm Echo long.wav",70
Sample,75261,0,"LR_Snare Low Wet.wav",35
Sample,75671,0,"LR_Snare Low Wet.wav",35
Sample,75876,0,"LR_Snare Low Wet.wav",35
Sample,76286,0,"LR_Snare Low Wet.wav",35
Sample,76492,0,"LR_Snare Low Wet.wav",35
Sample,76902,0,"LR_Snare Low Wet.wav",35
Sample,77107,0,"LR_Snare Low Wet.wav",35
Sample,77415,0,"LR_Snare Low Wet.wav",35
Sample,89210,0,"LR_Snare Low Wet.wav",35
Sample,119056,0,"LR_Snare Clap Low.wav",70

[TimingPoints]
1210,307.692307692308,4,2,1,70,1,0
1312,-100,4,2,1,30,0,0
3671,-100,4,2,1,50,0,0
6133,-100,4,2,1,70,0,0
70235,-100,4,2,1,50,0,0
75056,-100,4,2,1,70,0,0
89825,-100,4,2,1,70,0,1
109517,-100,4,2,1,70,0,0
109620,-100,4,2,1,50,0,0
119466,-100,4,2,1,30,0,0

[HitObjects]
320,192,1210,5,2,0:0:0:0:
64,192,1415,1,0,0:0:0:0:
320,192,1517,1,0,0:0:0:0:
448,192,1722,1,0,0:0:0:0:
192,192,1825,1,0,0:0:0:0:
320,192,2030,1,0,0:0:0:0:
64,192,2133,1,0,0:0:0:0:
320,192,2338,1,0,0:0:0:0:
448,192,2440,1,0,0:0:0:0:
192,192,2645,1,0,0:0:0:0:
64,192,2748,1,0,0:0:0:0:
448,192,2953,1,0,0:0:0:0:
192,192,3056,1,0,0:0:0:0:
64,192,3363,1,0,0:0:0:0:
192,192,3466,1,0,0:0:0:0:
320,192,3568,1,2,0:0:0:0:
448,192,3671,1,6,0:0:0:0:
64,192,3876,1,0,0:0:0:0:
320,192,3979,1,0,0:0:0:0:
448,192,4184,1,0,0:0:0:0:
192,192,4286,1,0,0:0:0:0:
320,192,4492,1,0,0:0:0:0:
64,192,4594,1,0,0:0:0:0:
192,192,4799,1,0,0:0:0:0:
320,192,4902,1,2,0:0:0:0:
448,192,5107,1,0,0:0:0:0:
64,192,5210,1,2,0:0:0:0:
448,192,5415,1,2,0:0:0:0:
320,192,5517,1,2,0:0:0:0:
192,192,5722,1,2,0:0:0:0:
64,192,5825,1,2,0:0:0:0:
320,192,6030,1,2,0:0:0:0:
64,192,6133,1,2,0:0:0:0:
448,192,6133,1,4,0:0:0:0:
192,192,6235,1,2,0:0:0:0:
320,192,6338,1,2,0:0:0:0:
448,192,6440,1,10,0:0:0:0:
320,192,6645,1,2,0:0:0:0:
64,192,6748,1,2,0:0:0:0:
192,192,6851,1,2,0:0:0:0:
320,192,6953,1,2,0:0:0:0:
448,192,7056,1,10,0:0:0:0:
192,192,7261,1,2,0:0:0:0:
448,192,7363,1,6,0:0:0:0:
320,192,7466,1,2,0:0:0:0:
192,192,7568,1,2,0:0:0:0:
64,192,7671,1,10,0:0:0:0:
192,192,7876,1,2,0:0:0:0:
448,192,7979,1,2,0:0:0:0:
320,192,8081,1,2,0:0:0:0:
192,192,8184,1,2,0:0:0:0:
64,192,8286,1,10,0:0:0:0:
192,192,8492,1,2,0:0:0:0:
320,192,8594,1,2,0:0:0:0:
448,192,8594,1,4,0:0:0:0:
64,192,8799,1,2,0:0:0:0:
320,192,8902,1,10,0:0:0:0:
448,192,8902,1,4,0:0:0:0:
320,192,9107,1,2,0:0:0:0:
64,192,9210,1,2,0:0:0:0:
192,192,9210,1,4,0:0:0:0:
448,192,9415,1,2,0:0:0:0:
64,192,9517,1,10,0:0:0:0:
192,192,9517,1,4,0:0:0:0:
192,192,9722,1,2,0:0:0:0:
320,192,9825,1,2,0:0:0:0:
448,192,9825,1,4,0:0:0:0:
320,192,10030,1,2,0:0:0:0:
64,192,10133,1,10,0:0:0:0:
192,192,10133,1,4,0:0:0:0:
192,192,10338,1,2,0:0:0:0:
320,192,10440,1,6,0:0:0:0:
448,192,10440,1,0,0:0:0:35:LR_Snare Low Wet.wav
64,192,10748,1,0,0:0:0:70:LR_Snare Clap Low.wav
448,192,10748,1,0,0:0:0:0:
320,192,11056,1,6,0:0:0:0:
448,192,11056,1,0,0:0:0:70:LR_Chm Echo long.wav
64,192,11363,1,2,0:0:0:0:
448,192,11363,1,8,0:0:0:0:
192,192,11671,1,2,0:0:0:0:
64,192,11979,1,2,0:0:0:0:
320,192,11979,1,8,0:0:0:0:
448,192,12286,1,2,0:0:0:0:
64,192,12594,1,2,0:0:0:0:
320,192,12594,1,8,0:0:0:0:
192,192,12902,1,2,0:0:0:0:
64,192,13107,1,2,0:0:0:0:
320,192,13210,1,2,0:0:0:0:
448,192,13210,1,8,0:0:0:0:
64,192,13415,1,0,0:0:0:0:
192,192,13517,1,2,0:0:0:0:
448,192,13517,1,4,0:0:0:0:
320,192,13722,1,0,0:0:0:0:
64,192,13825,1,2,0:0:0:0:
448,192,13825,1,8,0:0:0:0:
320,192,14133,1,2,0:0:0:0:
192,192,14338,1,0,0:0:0:0:
64,192,14440,1,2,0:0:0:0:
448,192,14440,1,8,0:0:0:0:
320,192,14645,1,0,0:0:0:0:
64,192,14748,1,2,0:0:0:0:
320,192,15056,1,2,0:0:0:0:
448,192,15056,1,8,0:0:0:0:
64,192,15261,1,0,0:0:0:0:
448,192,15363,1,2,0:0:0:0:
64,192,15568,1,2,0:0:0:0:
192,192,15671,1,2,0:0:0:0:
448,192,15671,1,8,0:0:0:0:
64,192,15876,1,2,0:0:0:0:
320,192,15979,1,2,0:0:0:0:
448,192,15979,1,4,0:0:0:0:
320,192,16184,1,2,0:0:0:0:
64,192,16286,1,2,0:0:0:0:
192,192,16286,1,8,0:0:0:0:
64,192,16492,1,0,0:0:0:0:
448,192,16594,1,2,0:0:0:0:
448,192,16799,1,2,0:0:0:0:
64,192,16902,1,2,0:0:0:0:
192,192,16902,1,8,0:0:0:0:
192,192,17107,1,0,0:0:0:0:
320,192,17210,1,2,0:0:0:0:
320,192,17415,1,2,0:0:0:0:
64,192,17517,1,2,0:0:0:0:
192,192,17517,1,8,0:0:0:0:
320,192,17722,1,0,0:0:0:0:
448,192,17825,1,2,0:0:0:0:
448,192,18030,1,2,0:0:0:0:
64,192,18133,1,2,0:0:0:0:
320,192,18133,1,8,0:0:0:0:
64,192,18338,1,2,0:0:0:0:
320,192,18440,1,2,0:0:0:0:
448,192,18440,1,4,0:0:0:0:
64,192,18645,1,0,0:0:0:0:
320,192,18748,1,2,0:0:0:0:
448,192,18748,1,8,0:0:0:0:
64,192,18953,1,0,0:0:0:0:
320,192,19056,1,2,0:0:0:0:
448,192,19261,1,2,0:0:0:0:
64,192,19363,1,2,0:0:0:0:
320,192,19363,1,8,0:0:0:0:
192,192,19568,1,0,0:0:0:0:
320,192,19671,1,2,0:0:0:0:
64,192,19979,1,2,0:0:0:0:
448,192,19979,1,8,0:0:0:0:
192,192,20184,1,0,0:0:0:0:
320,192,20286,1,2,0:0:0:0:
448,192,20286,1,0,0:0:0:0:
448,192,20492,1,2,0:0:0:0:
64,192,20594,1,2,0:0:0:0:
320,192,20594,1,8,0:0:0:0:
64,192,20799,1,2,0:0:0:0:
320,192,20902,1,2,0:0:0:0:
448,192,20902,1,4,0:0:0:0:
64,192,21210,1,2,0:0:0:0:
448,192,21210,1,8,0:0:0:0:
192,192,21517,1,2,0:0:0:0:
64,192,21825,1,2,0:0:0:0:
320,192,21825,1,8,0:0:0:0:
448,192,22133,1,2,0:0:0:0:
64,192,22440,1,2,0:0:0:0:
192,192,22440,1,8,0:0:0:0:
320,192,22748,1,2,0:0:0:0:
192,192,22953,1,2,0:0:0:0:
64,192,23056,1,2,0:0:0:0:
448,192,23056,1,8,0:0:0:0:
192,192,23261,1,0,0:0:0:0:
320,192,23363,1,2,0:0:0:0:
448,192,23363,1,4,0:0:0:0:
64,192,23568,1,0,0:0:0:0:
192,192,23671,1,2,0:0:0:0:
448,192,23671,1,8,0:0:0:0:
320,192,23979,1,2,0:0:0:0:
192,192,24184,1,0,0:0:0:0:
64,192,24286,1,2,0:0:0:0:
448,192,24286,1,8,0:0:0:0:
320,192,24492,1,0,0:0:0:0:
192,192,24594,1,2,0:0:0:0:
320,192,24902,1,2,0:0:0:0:
448,192,24902,1,8,0:0:0:0:
64,192,25107,1,0,0:0:0:0:
448,192,25210,1,2,0:0:0:0:
320,192,25415,1,2,0:0:0:0:
192,192,25517,1,2,0:0:0:0:
448,192,25517,1,8,0:0:0:0:
64,192,25722,1,2,0:0:0:0:
320,192,25825,1,2,0:0:0:0:
448,192,25825,1,4,0:0:0:0:
192,192,26030,1,2,0:0:0:0:
64,192,26133,1,2,0:0:0:0:
320,192,26133,1,8,0:0:0:0:
448,192,26338,1,0,0:0:0:0:
320,192,26440,1,2,0:0:0:0:
64,192,26645,1,2,0:0:0:0:
192,192,26748,1,2,0:0:0:0:
448,192,26748,1,8,0:0:0:0:
64,192,26953,1,0,0:0:0:0:
448,192,27056,1,2,0:0:0:0:
320,192,27261,1,2,0:0:0:0:
64,192,27363,1,2,0:0:0:0:
192,192,27363,1,8,0:0:0:0:
320,192,27568,1,0,0:0:0:0:
192,192,27671,1,2,0:0:0:0:
64,192,27876,1,2,0:0:0:0:
320,192,27979,1,2,0:0:0:0:
448,192,27979,1,8,0:0:0:0:
64,192,28184,1,2,0:0:0:0:
192,192,28286,1,2,0:0:0:0:
448,192,28286,1,4,0:0:0:0:
320,192,28594,1,2,0:0:0:0:
448,192,28594,1,8,0:0:0:0:
64,192,28902,1,2,0:0:0:0:
192,192,29210,1,2,0:0:0:0:
448,192,29210,1,8,0:0:0:0:
64,192,29415,1,0,0:0:0:0:
448,192,29517,1,2,0:0:0:0:
64,192,29825,1,2,0:0:0:0:
320,192,29825,1,8,0:0:0:0:
192,192,30133,1,2,0:0:0:0:
64,192,30338,1,2,0:0:0:0:
320,192,30440,1,2,0:0:0:0:
448,192,30440,1,8,0:0:0:0:
64,192,30748,1,2,0:0:0:0:
192,192,30748,1,4,0:0:0:0:
192,192,31056,1,2,0:0:0:0:
448,192,31056,1,8,0:0:0:0:
320,192,31363,1,2,0:0:0:0:
192,192,31568,1,0,0:0:0:0:
320,192,31671,1,2,0:0:0:0:
448,192,31671,1,8,0:0:0:0:
64,192,31876,1,0,0:0:0:0:
192,192,31979,1,2,0:0:0:0:
448,192,32184,1,0,0:0:0:0:
64,192,32286,1,2,0:0:0:0:
320,192,32286,1,8,0:0:0:0:
192,192,32492,1,0,0:0:0:0:
448,192,32594,1,2,0:0:0:0:
64,192,32799,1,2,0:0:0:0:
320,192,32902,1,2,0:0:0:0:
448,192,32902,1,8,0:0:0:0:
64,192,33107,1,0,0:0:0:0:
192,192,33210,1,2,0:0:0:0:
448,192,33210,1,4,0:0:0:0:
320,192,33517,1,2,0:0:0:0:
448,192,33517,1,8,0:0:0:0:
192,192,33825,1,2,0:0:0:0:
64,192,34133,1,2,0:0:0:0:
320,192,34133,1,8,0:0:0:0:
192,192,34338,1,0,0:0:0:0:
448,192,34440,1,2,0:0:0:0:
448,192,34645,1,0,0:0:0:0:
64,192,34748,1,2,0:0:0:0:
192,192,34748,1,8,0:0:0:0:
448,192,34953,1,0,0:0:0:0:
64,192,35056,1,2,0:0:0:0:
192,192,35261,1,2,0:0:0:0:
320,192,35363,1,2,0:0:0:0:
448,192,35363,1,8,0:0:0:0:
64,192,35671,1,2,0:0:0:0:
448,192,35671,1,4,0:0:0:0:
320,192,35876,1,0,0:0:0:0:
64,192,35979,1,2,0:0:0:0:
192,192,35979,1,8,0:0:0:0:
320,192,36184,1,0,0:0:0:0:
192,192,36286,1,2,0:0:0:0:
320,192,36492,1,0,0:0:0:0:
64,192,36594,128,10,36799:0:0:0:0:
448,192,36799,1,0,0:0:0:0:
192,192,36902,1,2,0:0:0:0:
448,192,37107,1,0,0:0:0:0:
64,192,37210,1,2,0:0:0:0:
192,192,37210,1,8,0:0:0:0:
448,192,37415,1,0,0:0:0:0:
64,192,37517,1,2,0:0:0:0:
192,192,37825,1,2,0:0:0:0:
448,192,37825,1,8,0:0:0:0:
64,192,38030,1,2,0:0:0:0:
320,192,38133,1,2,0:0:0:0:
448,192,38133,1,4,0:0:0:0:
192,192,38338,1,2,0:0:0:0:
320,192,38440,1,2,0:0:0:0:
448,192,38440,1,8,0:0:0:0:
192,192,38645,1,2,0:0:0:0:
320,192,38748,1,2,0:0:0:0:
448,192,38953,1,2,0:0:0:0:
64,192,39056,1,2,0:0:0:0:
192,192,39056,1,8,0:0:0:0:
64,192,39261,1,2,0:0:0:0:
448,192,39363,1,2,0:0:0:0:
320,192,39671,1,2,0:0:0:0:
448,192,39671,1,8,0:0:0:0:
64,192,39876,1,0,0:0:0:0:
320,192,39979,1,2,0:0:0:0:
64,192,40286,1,2,0:0:0:0:
448,192,40286,1,8,0:0:0:0:
192,192,40492,1,2,0:0:0:0:
320,192,40594,1,2,0:0:0:0:
448,192,40594,128,4,40902:0:0:0:0:
64,192,40902,128,2,41210:0:0:0:0:
192,192,40902,1,8,0:0:0:0:
320,192,41210,1,2,0:0:0:0:
192,192,41312,1,2,0:0:0:0:
320,192,41415,1,2,0:0:0:0:
448,192,41517,1,10,0:0:0:0:
64,192,41825,128,2,42133:0:0:0:0:
192,192,41825,1,4,0:0:0:0:
320,192,42133,1,2,0:0:0:0:
448,192,42133,128,8,42440:0:0:0:0:
192,192,42440,1,2,0:0:0:0:
320,192,42543,1,2,0:0:0:0:
192,192,42645,1,2,0:0:0:0:
64,192,42748,1,10,0:0:0:0:
320,192,43056,1,2,0:0:0:0:
448,192,43056,128,4,43363:0:0:0:0:
64,192,43363,128,2,43671:0:0:0:0:
192,192,43363,1,8,0:0:0:0:
448,192,43671,1,2,0:0:0:0:
192,192,43774,1,2,0:0:0:0:
320,192,43876,1,2,0:0:0:0:
448,192,43979,128,10,44286:0:0:0:0:
64,192,44286,128,2,44594:0:0:0:0:
320,192,44594,1,2,0:0:0:0:
448,192,44594,128,8,44902:0:0:0:0:
64,192,44902,1,2,0:0:0:0:
320,192,45004,1,2,0:0:0:0:
192,192,45107,1,2,0:0:0:0:
64,192,45210,1,10,0:0:0:0:
192,192,45415,1,2,0:0:0:0:
320,192,45517,1,2,0:0:0:0:
448,192,45517,1,4,0:0:0:0:
320,192,45722,1,0,0:0:0:0:
64,192,45825,1,2,0:0:0:0:
448,192,45825,1,8,0:0:0:0:
192,192,46030,1,0,0:0:0:0:
320,192,46133,1,2,0:0:0:0:
64,192,46338,1,2,0:0:0:0:
192,192,46440,1,2,0:0:0:0:
448,192,46440,1,8,0:0:0:0:
192,192,46645,1,2,0:0:0:0:
64,192,46748,1,2,0:0:0:0:
320,192,46748,1,4,0:0:0:0:
320,192,46953,1,0,0:0:0:0:
64,192,47056,1,2,0:0:0:0:
448,192,47056,1,8,0:0:0:0:
192,192,47261,1,0,0:0:0:0:
320,192,47363,1,2,0:0:0:0:
64,192,47568,1,2,0:0:0:0:
320,192,47671,1,2,0:0:0:0:
448,192,47671,1,8,0:0:0:0:
64,192,47876,1,2,0:0:0:0:
192,192,47979,1,2,0:0:0:0:
448,192,47979,1,4,0:0:0:0:
320,192,48286,1,2,0:0:0:0:
448,192,48286,1,8,0:0:0:0:
192,192,48594,1,2,0:0:0:0:
64,192,48902,1,2,0:0:0:0:
448,192,48902,1,8,0:0:0:0:
320,192,49107,1,2,0:0:0:0:
64,192,49210,1,2,0:0:0:0:
192,192,49210,1,0,0:0:0:0:
320,192,49517,1,2,0:0:0:0:
448,192,49517,1,8,0:0:0:0:
64,192,49825,1,2,0:0:0:0:
320,192,50133,1,2,0:0:0:0:
448,192,50133,1,8,0:0:0:0:
64,192,50440,1,2,0:0:0:0:
192,192,50440,1,4,0:0:0:0:
192,192,50748,1,2,0:0:0:0:
448,192,50748,1,8,0:0:0:0:
320,192,51056,1,2,0:0:0:0:
192,192,51261,1,0,0:0:0:0:
64,192,51363,1,2,0:0:0:0:
448,192,51363,1,8,0:0:0:0:
64,192,51568,1,0,0:0:0:0:
320,192,51671,1,2,0:0:0:0:
448,192,51876,1,0,0:0:0:0:
64,192,51979,1,2,0:0:0:0:
320,192,51979,1,8,0:0:0:0:
192,192,52184,1,0,0:0:0:0:
448,192,52286,1,2,0:0:0:0:
64,192,52492,1,2,0:0:0:0:
320,192,52594,1,2,0:0:0:0:
448,192,52594,1,8,0:0:0:0:
64,192,52799,1,0,0:0:0:0:
192,192,52902,1,2,0:0:0:0:
448,192,52902,1,4,0:0:0:0:
320,192,53210,1,2,0:0:0:0:
448,192,53210,1,8,0:0:0:0:
192,192,53517,1,2,0:0:0:0:
64,192,53825,1,2,0:0:0:0:
320,192,53825,1,8,0:0:0:0:
192,192,54030,1,0,0:0:0:0:
448,192,54133,1,2,0:0:0:0:
448,192,54338,1,0,0:0:0:0:
64,192,54440,1,2,0:0:0:0:
192,192,54440,1,8,0:0:0:0:
448,192,54645,1,0,0:0:0:0:
64,192,54748,1,2,0:0:0:0:
192,192,54953,1,2,0:0:0:0:
320,192,55056,1,2,0:0:0:0:
448,192,55056,1,8,0:0:0:0:
64,192,55363,1,2,0:0:0:0:
448,192,55363,1,4,0:0:0:0:
320,192,55568,1,0,0:0:0:0:
64,192,55671,1,2,0:0:0:0:
192,192,55671,1,8,0:0:0:0:
320,192,55876,1,0,0:0:0:0:
192,192,55979,1,2,0:0:0:0:
320,192,56184,1,0,0:0:0:0:
64,192,56286,128,10,56492:0:0:0:0:
448,192,56492,1,0,0:0:0:0:
192,192,56594,1,2,0:0:0:0:
448,192,56799,1,0,0:0:0:0:
64,192,56902,1,2,0:0:0:0:
192,192,56902,1,8,0:0:0:0:
448,192,57107,1,0,0:0:0:0:
64,192,57210,1,2,0:0:0:0:
192,192,57517,1,2,0:0:0:0:
448,192,57517,1,8,0:0:0:0:
64,192,57722,1,2,0:0:0:0:
320,192,57825,1,2,0:0:0:0:
448,192,57825,1,4,0:0:0:0:
192,192,58030,1,2,0:0:0:0:
320,192,58133,1,2,0:0:0:0:
448,192,58133,1,8,0:0:0:0:
192,192,58338,1,2,0:0:0:0:
320,192,58440,1,2,0:0:0:0:
448,192,58645,1,2,0:0:0:0:
64,192,58748,1,2,0:0:0:0:
192,192,58748,1,8,0:0:0:0:
64,192,58953,1,2,0:0:0:0:
448,192,59056,1,2,0:0:0:0:
320,192,59363,1,2,0:0:0:0:
448,192,59363,1,8,0:0:0:0:
64,192,59568,1,0,0:0:0:0:
320,192,59671,1,2,0:0:0:0:
64,192,59979,1,2,0:0:0:0:
448,192,59979,1,8,0:0:0:0:
192,192,60184,1,2,0:0:0:0:
320,192,60286,1,2,0:0:0:0:
448,192,60286,128,4,60594:0:0:0:0:
64,192,60594,128,2,60902:0:0:0:0:
192,192,60594,1,8,0:0:0:0:
320,192,60902,1,2,0:0:0:0:
192,192,61004,1,2,0:0:0:0:
320,192,61107,1,2,0:0:0:0:
448,192,61210,1,10,0:0:0:0:
64,192,61517,128,2,61825:0:0:0:0:
192,192,61517,1,4,0:0:0:0:
320,192,61825,1,2,0:0:0:0:
448,192,61825,128,8,62133:0:0:0:0:
192,192,62133,1,2,0:0:0:0:
320,192,62235,1,2,0:0:0:0:
192,192,62338,1,2,0:0:0:0:
64,192,62440,1,10,0:0:0:0:
320,192,62748,1,2,0:0:0:0:
448,192,62748,128,4,63056:0:0:0:0:
64,192,63056,128,2,63363:0:0:0:0:
192,192,63056,1,8,0:0:0:0:
448,192,63363,1,2,0:0:0:0:
192,192,63466,1,2,0:0:0:0:
320,192,63568,1,2,0:0:0:0:
448,192,63671,128,10,63979:0:0:0:0:
64,192,63979,128,2,64286:0:0:0:0:
320,192,64286,1,2,0:0:0:0:
448,192,64286,128,8,64594:0:0:0:0:
64,192,64594,1,2,0:0:0:0:
320,192,64697,1,2,0:0:0:0:
192,192,64799,1,2,0:0:0:0:
64,192,64902,1,10,0:0:0:0:
192,192,65107,1,2,0:0:0:0:
320,192,65210,1,2,0:0:0:0:
448,192,65210,1,4,0:0:0:0:
320,192,65415,1,0,0:0:0:0:
64,192,65517,1,2,0:0:0:0:
448,192,65517,1,8,0:0:0:0:
192,192,65722,1,0,0:0:0:0:
320,192,65825,1,2,0:0:0:0:
64,192,66030,1,2,0:0:0:0:
320,192,66133,1,2,0:0:0:0:
448,192,66133,1,8,0:0:0:0:
192,192,66338,1,2,0:0:0:0:
64,192,66440,1,2,0:0:0:0:
320,192,66440,1,4,0:0:0:0:
320,192,66645,1,0,0:0:0:0:
64,192,66748,1,2,0:0:0:0:
448,192,66748,1,8,0:0:0:0:
192,192,66953,1,0,0:0:0:0:
320,192,67056,1,2,0:0:0:0:
448,192,67261,1,2,0:0:0:0:
64,192,67363,1,2,0:0:0:0:
320,192,67363,1,8,0:0:0:0:
192,192,67568,1,2,0:0:0:0:
64,192,67671,1,2,0:0:0:0:
448,192,67671,1,4,0:0:0:0:
320,192,67979,1,2,0:0:0:0:
448,192,67979,1,8,0:0:0:0:
192,192,68286,1,2,0:0:0:0:
64,192,68594,1,2,0:0:0:0:
448,192,68594,1,8,0:0:0:0:
320,192,68799,1,2,0:0:0:0:
64,192,68902,1,2,0:0:0:0:
192,192,68902,1,0,0:0:0:0:
320,192,69210,1,2,0:0:0:0:
448,192,69210,1,8,0:0:0:0:
448,192,69517,1,2,0:0:0:0:
64,192,69825,1,2,0:0:0:0:
192,192,69825,1,8,0:0:0:0:
64,192,70133,1,2,0:0:0:0:
448,192,70133,1,4,0:0:0:0:
192,192,70440,1,8,0:0:0:0:
320,192,70748,1,0,0:0:0:0:
448,192,71056,1,8,0:0:0:0:
64,192,71363,1,2,0:0:0:0:
192,192,71363,1,0,0:0:0:0:
192,192,71876,1,0,0:0:0:0:
320,192,71979,1,0,0:0:0:0:
64,192,72184,1,0,0:0:0:0:
320,192,72286,1,8,0:0:0:0:
64,192,72492,1,0,0:0:0:0:
320,192,72594,1,2,0:0:0:0:
448,192,72594,1,4,0:0:0:0:
192,192,72799,1,0,0:0:0:0:
448,192,72902,1,8,0:0:0:0:
320,192,73210,1,0,0:0:0:0:
448,192,73517,1,8,0:0:0:0:
320,192,73722,1,2,0:0:0:0:
64,192,73825,1,2,0:0:0:0:
192,192,73825,1,0,0:0:0:0:
64,192,74133,1,8,0:0:0:0:
192,192,74338,1,0,0:0:0:0:
320,192,74440,1,2,0:0:0:0:
64,192,74748,1,10,0:0:0:0:
448,192,74953,1,2,0:0:0:0:
64,192,75056,1,6,0:0:0:0:
320,192,75056,1,0,0:0:0:35:LR_Snare Low Wet.wav
192,192,75261,1,2,0:0:0:0:
320,192,75363,1,10,0:0:0:0:
448,192,75363,1,0,0:0:0:35:LR_Snare Low Wet.wav
64,192,75671,1,2,0:0:0:0:
448,192,75876,1,2,0:0:0:0:
64,192,75979,1,10,0:0:0:0:
192,192,75979,1,0,0:0:0:35:LR_Snare Low Wet.wav
320,192,76184,1,0,0:0:0:35:LR_Snare Low Wet.wav
192,192,76286,1,2,0:0:0:0:
64,192,76492,1,2,0:0:0:0:
320,192,76594,1,10,0:0:0:0:
448,192,76594,1,0,0:0:0:35:LR_Snare Low Wet.wav
320,192,76902,1,2,0:0:0:0:
320,192,77107,1,2,0:0:0:0:
64,192,77210,1,10,0:0:0:0:
192,192,77210,1,0,0:0:0:35:LR_Snare Low Wet.wav
320,192,77415,1,2,0:0:0:0:
64,192,77517,128,6,77825:0:0:0:0:
448,192,77517,1,0,0:0:0:35:LR_Snare Low Wet.wav
320,192,77825,1,2,0:0:0:0:
448,192,77825,1,8,0:0:0:0:
448,192,78133,128,2,78440:0:0:0:0:
64,192,78440,1,2,0:0:0:0:
192,192,78440,1,8,0:0:0:0:
448,192,78748,128,2,79056:0:0:0:0:
64,192,79056,1,2,0:0:0:0:
192,192,79056,1,8,0:0:0:0:
448,192,79261,1,2,0:0:0:0:
64,192,79363,128,2,79671:0:0:0:0:
192,192,79363,1,0,0:0:0:0:
320,192,79671,1,2,0:0:0:0:
448,192,79671,1,8,0:0:0:0:
192,192,79876,1,2,0:0:0:0:
64,192,79979,1,2,0:0:0:0:
448,192,79979,1,4,0:0:0:0:
192,192,80184,1,0,0:0:0:0:
320,192,80286,1,2,0:0:0:0:
448,192,80286,1,8,0:0:0:0:
448,192,80492,1,0,0:0:0:0:
192,192,80594,1,2,0:0:0:0:
64,192,80799,1,2,0:0:0:0:
192,192,80902,1,2,0:0:0:0:
448,192,80902,1,8,0:0:0:0:
320,192,81107,1,2,0:0:0:0:
448,192,81210,128,2,81517:0:0:0:0:
64,192,81517,1,2,0:0:0:0:
192,192,81517,128,8,81825:0:0:0:0:
320,192,81825,128,2,82133:0:0:0:0:
64,192,82133,128,2,82440:0:0:0:0:
192,192,82133,1,8,0:0:0:0:
320,192,82440,1,2,0:0:0:0:
448,192,82440,1,4,0:0:0:0:
192,192,82645,1,0,0:0:0:0:
64,192,82748,1,2,0:0:0:0:
448,192,82748,1,8,0:0:0:0:
192,192,82953,1,0,0:0:0:0:
320,192,83056,1,2,0:0:0:0:
64,192,83261,1,2,0:0:0:0:
320,192,83363,1,2,0:0:0:0:
448,192,83363,1,8,0:0:0:0:
192,192,83568,1,2,0:0:0:0:
448,192,83671,1,2,0:0:0:0:
448,192,83876,1,0,0:0:0:0:
64,192,83979,1,2,0:0:0:0:
320,192,83979,1,8,0:0:0:0:
192,192,84184,1,0,0:0:0:0:
448,192,84286,1,2,0:0:0:0:
320,192,84492,1,2,0:0:0:0:
64,192,84594,128,2,84902:0:0:0:0:
192,192,84594,1,8,0:0:0:0:
448,192,84902,1,2,0:0:0:0:
320,192,85004,1,2,0:0:0:0:
192,192,85107,1,2,0:0:0:0:
64,192,85210,1,10,0:0:0:0:
448,192,85415,1,0,0:0:0:0:
64,192,85517,1,2,0:0:0:0:
192,192,85620,1,2,0:0:0:0:
320,192,85722,1,2,0:0:0:0:
448,192,85825,1,10,0:0:0:0:
64,192,86030,1,2,0:0:0:0:
448,192,86133,1,2,0:0:0:0:
320,192,86235,1,2,0:0:0:0:
192,192,86338,1,2,0:0:0:0:
64,192,86440,1,10,0:0:0:0:
448,192,86645,1,2,0:0:0:0:
64,192,86748,1,2,0:0:0:0:
192,192,86851,1,2,0:0:0:0:
320,192,86953,1,2,0:0:0:0:
448,192,87056,1,10,0:0:0:0:
64,192,87261,1,2,0:0:0:0:
192,192,87363,128,2,87671:0:0:0:0:
448,192,87363,1,4,0:0:0:0:
320,192,87671,1,2,0:0:0:0:
448,192,87671,1,8,0:0:0:0:
320,192,87979,128,2,88286:0:0:0:0:
64,192,88286,1,2,0:0:0:0:
192,192,88286,1,8,0:0:0:0:
320,192,88594,128,2,88902:0:0:0:0:
448,192,88594,1,4,0:0:0:0:
64,192,88902,1,2,0:0:0:0:
192,192,88902,1,8,0:0:0:0:
448,192,89107,1,0,0:0:0:0:
64,192,89210,128,2,89517:0:0:0:0:
320,192,89517,1,0,0:0:0:70:LR_Snare Clap Low.wav
448,192,89517,1,0,0:0:0:0:
64,192,89825,1,6,0:0:0:0:
192,192,89825,1,0,0:0:0:70:LR_Chm Echo long.wav
64,192,90133,1,2,0:0:0:0:
448,192,90133,1,8,0:0:0:0:
192,192,90440,1,2,0:0:0:0:
448,192,90645,1,2,0:0:0:0:
64,192,90748,1,2,0:0:0:0:
320,192,90748,1,8,0:0:0:0:
192,192,90953,1,2,0:0:0:0:
448,192,91056,1,2,0:0:0:0:
64,192,91363,1,2,0:0:0:0:
320,192,91363,1,8,0:0:0:0:
192,192,91671,1,2,0:0:0:0:
448,192,91774,1,2,0:0:0:0:
64,192,91876,1,2,0:0:0:0:
320,192,91979,128,2,92286:0:0:0:0:
448,192,91979,1,8,0:0:0:0:
64,192,92286,1,2,0:0:0:0:
192,192,92286,1,4,0:0:0:0:
64,192,92594,1,2,0:0:0:0:
448,192,92594,1,8,0:0:0:0:
320,192,92902,1,2,0:0:0:0:
64,192,93107,1,2,0:0:0:0:
192,192,93210,1,2,0:0:0:0:
448,192,93210,1,8,0:0:0:0:
64,192,93517,1,2,0:0:0:0:
64,192,93825,1,2,0:0:0:0:
320,192,93825,1,8,0:0:0:0:
448,192,94133,1,2,0:0:0:0:
320,192,94235,1,2,0:0:0:0:
64,192,94338,1,2,0:0:0:0:
192,192,94440,128,2,94748:0:0:0:0:
448,192,94440,1,8,0:0:0:0:
320,192,94748,1,2,0:0:0:0:
448,192,94748,1,4,0:0:0:0:
64,192,95056,1,2,0:0:0:0:
320,192,95056,1,8,0:0:0:0:
192,192,95363,1,2,0:0:0:0:
320,192,95568,1,2,0:0:0:0:
64,192,95671,1,2,0:0:0:0:
448,192,95671,1,8,0:0:0:0:
320,192,95876,1,2,0:0:0:0:
192,192,95979,1,2,0:0:0:0:
64,192,96286,1,2,0:0:0:0:
320,192,96286,1,8,0:0:0:0:
448,192,96594,1,2,0:0:0:0:
320,192,96799,1,2,0:0:0:0:
64,192,96902,1,2,0:0:0:0:
192,192,96902,1,8,0:0:0:0:
64,192,97107,1,2,0:0:0:0:
320,192,97210,1,2,0:0:0:0:
448,192,97210,1,4,0:0:0:0:
64,192,97517,1,10,0:0:0:0:
192,192,97620,1,2,0:0:0:0:
320,192,97722,1,2,0:0:0:0:
64,192,97825,1,2,0:0:0:0:
448,192,97825,1,4,0:0:0:0:
64,192,98133,1,10,0:0:0:0:
192,192,98235,1,2,0:0:0:0:
320,192,98338,1,2,0:0:0:0:
64,192,98440,1,2,0:0:0:0:
448,192,98440,128,4,98748:0:0:0:0:
320,192,98748,128,14,99056:0:0:0:0:
192,192,99056,128,6,99363:0:0:0:0:
64,192,99363,128,14,99671:0:0:0:0:
320,192,99671,1,2,0:0:0:0:
448,192,99671,1,4,0:0:0:0:
64,192,99979,1,2,0:0:0:0:
448,192,99979,1,8,0:0:0:0:
192,192,100286,1,2,0:0:0:0:
448,192,100492,1,2,0:0:0:0:
64,192,100594,1,2,0:0:0:0:
320,192,100594,1,8,0:0:0:0:
192,192,100799,1,2,0:0:0:0:
448,192,100902,1,2,0:0:0:0:
64,192,101210,1,2,0:0:0:0:
320,192,101210,1,8,0:0:0:0:
192,192,101517,1,2,0:0:0:0:
448,192,101620,1,2,0:0:0:0:
64,192,101722,1,2,0:0:0:0:
320,192,101825,128,2,102133:0:0:0:0:
448,192,101825,1,8,0:0:0:0:
64,192,102133,1,2,0:0:0:0:
192,192,102133,1,4,0:0:0:0:
64,192,102440,1,2,0:0:0:0:
448,192,102440,1,8,0:0:0:0:
320,192,102748,1,2,0:0:0:0:
64,192,102953,1,2,0:0:0:0:
192,192,103056,1,2,0:0:0:0:
448,192,103056,1,8,0:0:0:0:
64,192,103363,1,2,0:0:0:0:
64,192,103671,1,2,0:0:0:0:
320,192,103671,1,8,0:0:0:0:
448,192,103979,1,2,0:0:0:0:
320,192,104081,1,2,0:0:0:0:
64,192,104184,1,2,0:0:0:0:
192,192,104286,128,2,104594:0:0:0:0:
448,192,104286,1,8,0:0:0:0:
320,192,104594,1,2,0:0:0:0:
448,192,104594,1,4,0:0:0:0:
64,192,104902,1,2,0:0:0:0:
320,192,104902,1,8,0:0:0:0:
192,192,105210,1,2,0:0:0:0:
320,192,105415,1,2,0:0:0:0:
64,192,105517,1,2,0:0:0:0:
448,192,105517,1,8,0:0:0:0:
320,192,105722,1,2,0:0:0:0:
192,192,105825,1,2,0:0:0:0:
64,192,106133,1,2,0:0:0:0:
320,192,106133,1,8,0:0:0:0:
448,192,106440,1,2,0:0:0:0:
320,192,106645,1,2,0:0:0:0:
64,192,106748,1,2,0:0:0:0:
192,192,106748,1,8,0:0:0:0:
64,192,106953,1,2,0:0:0:0:
320,192,107056,1,2,0:0:0:0:
448,192,107056,1,4,0:0:0:0:
64,192,107363,1,10,0:0:0:0:
192,192,107466,1,2,0:0:0:0:
320,192,107568,1,2,0:0:0:0:
64,192,107671,1,2,0:0:0:0:
448,192,107671,1,4,0:0:0:0:
64,192,107979,1,10,0:0:0:0:
192,192,108081,1,2,0:0:0:0:
320,192,108184,1,2,0:0:0:0:
64,192,108286,1,2,0:0:0:0:
448,192,108286,128,4,108594:0:0:0:0:
64,192,108594,128,14,108902:0:0:0:0:
448,192,108902,128,6,109210:0:0:0:0:
64,192,109210,1,14,0:0:0:0:
192,192,109415,1,0,0:0:0:0:
320,192,109517,1,4,0:0:0:0:
448,192,109517,1,0,0:0:0:70:LR_Chm Echo long.wav
448,192,109825,1,8,0:0:0:0:
448,192,110133,1,0,0:0:0:0:
448,192,110440,1,8,0:0:0:0:
64,192,110748,1,0,0:0:0:0:
64,192,111056,1,8,0:0:0:0:
64,192,111363,1,0,0:0:0:0:
64,192,111671,1,8,0:0:0:0:
64,192,111979,1,0,0:0:0:0:
192,192,112081,1,0,0:0:0:0:
320,192,112184,1,0,0:0:0:0:
448,192,112286,128,8,112594:0:0:0:0:
64,192,112594,1,0,0:0:0:0:
192,192,112697,1,0,0:0:0:0:
320,192,112799,1,0,0:0:0:0:
64,192,112902,128,8,113210:0:0:0:0:
448,192,113210,1,0,0:0:0:0:
320,192,113312,1,0,0:0:0:0:
192,192,113415,1,0,0:0:0:0:
64,192,113517,128,8,113825:0:0:0:0:
448,192,113825,1,0,0:0:0:0:
320,192,113927,1,0,0:0:0:0:
192,192,114030,1,8,0:0:0:0:
448,192,114133,128,8,114440:0:0:0:0:
64,192,114440,1,4,0:0:0:0:
192,192,114440,1,0,0:0:0:0:
64,192,114748,1,8,0:0:0:0:
64,192,115056,1,0,0:0:0:0:
64,192,115363,1,8,0:0:0:0:
448,192,115671,1,0,0:0:0:0:
448,192,115979,1,8,0:0:0:0:
448,192,116286,1,0,0:0:0:0:
448,192,116594,1,8,0:0:0:0:
64,192,116902,1,0,0:0:0:0:
448,192,116902,1,0,0:0:0:0:
64,192,117210,1,8,0:0:0:0:
64,192,117517,1,0,0:0:0:0:
64,192,117825,1,8,0:0:0:0:
64,192,118133,1,4,0:0:0:0:
448,192,118133,128,0,118440:0:0:0:0:
320,192,118440,128,4,118748:0:0:0:0:
64,192,118748,128,4,119056:0:0:0:0:
192,192,119056,128,4,119363:0:0:0:0:
320,192,119363,1,4,0:0:0:0:
448,192,119363,1,0,0:0:0:0:
64,192,119671,1,0,0:0:0:0:
192,192,119979,1,0,0:0:0:0:
320,192,120286,1,0,0:0:0:0:
448,192,120594,1,0,0:0:0:0:
192,192,120902,1,0,0:0:0:0:
320,192,121210,1,0,0:0:0:0:
448,192,121517,1,0,0:0:0:0:
64,192,121825,1,0,0:0:0:0:
448,192,122133,1,0,0:0:0:0:
64,192,122440,1,0,0:0:0:0:
320,192,122748,1,0,0:0:0:0:
64,192,123056,1,0,0:0:0:0:
192,192,123363,1,0,0:0:0:0:
64,192,123671,1,0,0:0:0:0:
448,192,123979,1,0,0:0:0:0:
192,192,124081,1,0,0:0:0:0:
320,192,124184,1,0,0:0:0:0:
448,192,124286,1,0,0:0:0:0:
320,192,124594,1,0,0:0:0:0:
64,192,124902,1,0,0:0:0:0:
448,192,125210,1,0,0:0:0:0:
192,192,125312,1,0,0:0:0:0:
320,192,125415,1,0,0:0:0:0:
448,192,125517,1,0,0:0:0:0:
320,192,125825,1,0,0:0:0:0:
192,192,126133,1,0,0:0:0:0:
448,192,126440,1,0,0:0:0:0:
320,192,126543,1,0,0:0:0:0:
192,192,126645,1,0,0:0:0:0:
64,192,126748,1,0,0:0:0:0:
64,192,127056,1,0,0:0:0:0:
192,192,127363,1,0,0:0:0:0:
192,192,127671,1,0,0:0:0:0:
448,192,127979,1,0,0:0:0:0:
448,192,128286,1,0,0:0:0:0:
192,192,128594,1,0,0:0:0:0:
448,192,128902,1,0,0:0:0:70:LR_Chm Echo long.wav
