osu file format v14

[General]
AudioFilename: audio.mp3
AudioLeadIn: 0
PreviewTime: 87363
Countdown: 0
SampleSet: Soft
StackLeniency: 0.7
Mode: 3
LetterboxInBreaks: 0
SpecialStyle: 0
WidescreenStoryboard: 1

[Editor]
Bookmarks: 1210,6133,11056,30748,40594,45517,50440,60286,65209,70133,75056,77517,79979,84902,89825,97209,99671,107056,109517,119363
DistanceSpacing: 1.6
BeatDivisor: 3
GridSize: 8
TimelineZoom: 2.3

[Metadata]
Title:For You the Bellz Toll
TitleUnicode:For You the Bellz Toll
Artist:Yanagida Ethnica
ArtistUnicode:柳田Ethnica
Creator:Keiga
Version:Jingle Bellz!!
Source:Cytus II
Tags:-ziel- 2 christmas ayatsugu_otowa rayark inc NEKO#ΦωΦ NEKO electronic instrumental yanagita yanaida
BeatmapID:2229754
BeatmapSetID:1064967

[Difficulty]
HPDrainRate:8.5
CircleSize:4
OverallDifficulty:7.8
ApproachRate:5
SliderMultiplier:1.4
SliderTickRate:1

[Events]
//Background and Video events
0,0,"DvL9QdfU8AI-ijq copy.jpg",0,0
//Break Periods
//Storyboard Layer 0 (Background)
//Storyboard Layer 1 (Fail)
//Storyboard Layer 2 (Pass)
//Storyboard Layer 3 (Foreground)
//Storyboard Layer 4 (Overlay)
//Storyboard Sound Samples
Sample,77415,0,"LR_Snare Low Wet.wav",35
Sample,119056,0,"LR_Snare Clap Low.wav",70

[TimingPoints]
1210,307.692307692308,4,2,1,70,1,0
1312,-100,4,2,1,30,0,0
3671,-100,4,2,1,50,0,0
6133,-100,4,2,1,70,0,0
70235,-100,4,2,1,50,0,0
75056,-100,4,2,1,70,0,0
89825,-100,4,2,1,70,0,1
109517,-100,4,2,1,70,0,0
109620,-100,4,2,1,50,0,0
119466,-100,4,2,1,30,0,0

[HitObjects]
320,192,1210,5,2,0:0:0:0:
448,192,1210,1,0,0:0:0:70:LR_Chm Echo long.wav
64,192,1415,1,0,0:0:0:0:
320,192,1517,1,0,0:0:0:0:
448,192,1722,1,0,0:0:0:0:
192,192,1825,1,0,0:0:0:0:
320,192,2030,1,0,0:0:0:0:
64,192,2133,1,0,0:0:0:0:
320,192,2338,1,0,0:0:0:0:
448,192,2440,1,0,0:0:0:0:
192,192,2645,1,0,0:0:0:0:
64,192,2748,1,0,0:0:0:0:
448,192,2953,1,0,0:0:0:0:
192,192,3056,1,0,0:0:0:0:
64,192,3363,1,0,0:0:0:0:
192,192,3466,1,0,0:0:0:0:
320,192,3568,1,2,0:0:0:0:
448,192,3568,1,0,0:0:0:0:
64,192,3671,1,2,0:0:0:0:
320,192,3671,1,4,0:0:0:0:
448,192,3671,1,0,0:0:0:0:
64,192,3876,1,0,0:0:0:0:
320,192,3979,1,0,0:0:0:0:
448,192,4184,1,0,0:0:0:0:
192,192,4286,1,0,0:0:0:0:
320,192,4492,1,0,0:0:0:0:
64,192,4594,1,0,0:0:0:0:
320,192,4799,1,0,0:0:0:0:
64,192,4902,1,2,0:0:0:0:
192,192,4902,1,0,0:0:0:0:
448,192,5107,1,0,0:0:0:0:
192,192,5210,1,2,0:0:0:0:
320,192,5210,1,0,0:0:0:0:
64,192,5415,1,2,0:0:0:0:
192,192,5415,1,0,0:0:0:0:
320,192,5517,1,2,0:0:0:0:
448,192,5517,1,0,0:0:0:0:
192,192,5620,1,2,0:0:0:0:
320,192,5620,1,0,0:0:0:0:
64,192,5722,1,2,0:0:0:0:
192,192,5722,1,0,0:0:0:0:
320,192,5825,1,2,0:0:0:0:
448,192,5825,1,0,0:0:0:0:
192,192,5927,1,2,0:0:0:0:
320,192,5927,1,0,0:0:0:0:
64,192,6030,1,2,0:0:0:0:
192,192,6030,1,0,0:0:0:0:
64,192,6133,1,2,0:0:0:0:
320,192,6133,1,4,0:0:0:0:
448,192,6133,1,0,0:0:0:0:
448,192,6235,1,2,0:0:0:0:
448,192,6338,1,2,0:0:0:0:
64,192,6440,1,2,0:0:0:0:
320,192,6440,1,8,0:0:0:0:
64,192,6543,1,2,0:0:0:0:
64,192,6645,1,2,0:0:0:0:
320,192,6748,1,2,0:0:0:0:
448,192,6748,1,0,0:0:0:0:
448,192,6851,1,2,0:0:0:0:
448,192,6953,1,2,0:0:0:0:
64,192,7056,1,2,0:0:0:0:
320,192,7056,1,8,0:0:0:0:
192,192,7158,1,2,0:0:0:0:
320,192,7261,1,2,0:0:0:0:
192,192,7312,1,2,0:0:0:0:
64,192,7363,1,2,0:0:0:0:
320,192,7363,1,4,0:0:0:0:
448,192,7363,1,0,0:0:0:0:
64,192,7466,1,2,0:0:0:0:
64,192,7568,1,2,0:0:0:0:
192,192,7671,1,2,0:0:0:0:
448,192,7671,1,8,0:0:0:0:
448,192,7774,1,2,0:0:0:0:
448,192,7876,1,2,0:0:0:0:
64,192,7979,1,2,0:0:0:0:
192,192,7979,1,0,0:0:0:0:
64,192,8081,1,2,0:0:0:0:
64,192,8184,1,2,0:0:0:0:
192,192,8286,1,2,0:0:0:0:
448,192,8286,1,8,0:0:0:0:
448,192,8389,1,2,0:0:0:0:
320,192,8492,1,2,0:0:0:0:
192,192,8543,1,2,0:0:0:0:
64,192,8594,1,2,0:0:0:0:
320,192,8594,1,4,0:0:0:0:
448,192,8594,1,0,0:0:0:0:
64,192,8697,1,2,0:0:0:0:
192,192,8799,1,2,0:0:0:0:
320,192,8851,1,2,0:0:0:0:
64,192,8902,1,2,0:0:0:0:
192,192,8902,1,8,0:0:0:0:
448,192,8902,1,4,0:0:0:0:
448,192,9004,1,2,0:0:0:0:
320,192,9107,1,2,0:0:0:0:
192,192,9158,1,2,0:0:0:0:
64,192,9210,1,2,0:0:0:0:
320,192,9210,1,4,0:0:0:0:
448,192,9210,1,0,0:0:0:0:
64,192,9312,1,2,0:0:0:0:
192,192,9415,1,2,0:0:0:0:
320,192,9466,1,2,0:0:0:0:
64,192,9517,1,2,0:0:0:0:
192,192,9517,1,8,0:0:0:0:
448,192,9517,1,4,0:0:0:0:
448,192,9620,1,2,0:0:0:0:
64,192,9671,1,2,0:0:0:0:
192,192,9722,1,2,0:0:0:0:
320,192,9774,1,2,0:0:0:0:
64,192,9825,1,2,0:0:0:0:
192,192,9825,1,4,0:0:0:0:
448,192,9825,1,0,0:0:0:0:
320,192,9927,1,2,0:0:0:0:
448,192,9927,1,0,0:0:0:0:
64,192,10030,1,2,0:0:0:0:
192,192,10030,1,0,0:0:0:0:
64,192,10133,1,2,0:0:0:0:
320,192,10133,1,8,0:0:0:0:
448,192,10133,1,4,0:0:0:0:
320,192,10235,1,2,0:0:0:0:
448,192,10235,1,0,0:0:0:0:
64,192,10338,1,2,0:0:0:0:
192,192,10338,1,0,0:0:0:0:
64,192,10440,1,2,0:0:0:0:
192,192,10440,1,4,0:0:0:0:
448,192,10440,1,0,0:0:0:35:LR_Snare Low Wet.wav
320,192,10543,1,0,0:0:0:35:LR_Snare Low Wet.wav
192,192,10645,1,0,0:0:0:35:LR_Snare Low Wet.wav
64,192,10748,128,0,10953:0:0:0:70:LR_Snare Clap Low.wav
320,192,10748,128,0,10953:0:0:0:0:
448,192,10748,128,0,10953:0:0:0:0:
64,192,11056,1,2,0:0:0:0:
320,192,11056,1,4,0:0:0:0:
448,192,11056,1,0,0:0:0:70:LR_Chm Echo long.wav
192,192,11158,1,0,0:0:0:0:
448,192,11261,1,0,0:0:0:0:
64,192,11363,1,2,0:0:0:0:
320,192,11363,1,8,0:0:0:0:
320,192,11568,1,0,0:0:0:0:
64,192,11671,1,2,0:0:0:0:
192,192,11671,1,0,0:0:0:0:
448,192,11774,1,0,0:0:0:0:
64,192,11876,1,0,0:0:0:0:
192,192,11979,1,2,0:0:0:0:
448,192,11979,1,8,0:0:0:0:
192,192,12184,1,0,0:0:0:0:
320,192,12286,1,2,0:0:0:0:
448,192,12286,1,0,0:0:0:0:
64,192,12389,1,0,0:0:0:0:
320,192,12492,1,0,0:0:0:0:
192,192,12594,1,2,0:0:0:0:
448,192,12594,1,8,0:0:0:0:
64,192,12697,1,0,0:0:0:0:
448,192,12799,1,0,0:0:0:0:
64,192,12902,1,2,0:0:0:0:
192,192,12902,1,0,0:0:0:0:
320,192,13004,1,0,0:0:0:0:
64,192,13107,1,2,0:0:0:0:
192,192,13107,1,0,0:0:0:0:
192,192,13210,1,2,0:0:0:0:
448,192,13210,1,8,0:0:0:0:
64,192,13415,1,0,0:0:0:0:
192,192,13415,1,0,0:0:0:0:
64,192,13517,1,2,0:0:0:0:
192,192,13517,1,4,0:0:0:0:
448,192,13517,1,0,0:0:0:0:
320,192,13620,1,0,0:0:0:0:
192,192,13722,1,0,0:0:0:0:
320,192,13774,1,0,0:0:0:0:
64,192,13825,1,2,0:0:0:0:
448,192,13825,1,8,0:0:0:0:
64,192,14030,1,0,0:0:0:0:
320,192,14133,1,2,0:0:0:0:
448,192,14133,1,0,0:0:0:0:
64,192,14235,1,0,0:0:0:0:
192,192,14338,1,0,0:0:0:0:
320,192,14338,1,0,0:0:0:0:
192,192,14440,1,2,0:0:0:0:
448,192,14440,1,8,0:0:0:0:
64,192,14645,1,0,0:0:0:0:
192,192,14645,1,0,0:0:0:0:
320,192,14748,1,2,0:0:0:0:
448,192,14748,1,0,0:0:0:0:
64,192,14851,1,0,0:0:0:0:
320,192,14953,1,0,0:0:0:0:
64,192,15056,1,2,0:0:0:0:
448,192,15056,1,8,0:0:0:0:
192,192,15158,1,0,0:0:0:0:
320,192,15261,1,0,0:0:0:0:
448,192,15261,1,0,0:0:0:0:
64,192,15363,1,2,0:0:0:0:
192,192,15363,1,0,0:0:0:0:
320,192,15466,1,2,0:0:0:0:
448,192,15466,1,0,0:0:0:0:
64,192,15568,1,2,0:0:0:0:
192,192,15568,1,0,0:0:0:0:
192,192,15671,1,2,0:0:0:0:
448,192,15671,1,8,0:0:0:0:
64,192,15876,1,2,0:0:0:0:
192,192,15876,1,0,0:0:0:0:
64,192,15979,1,2,0:0:0:0:
320,192,15979,1,4,0:0:0:0:
448,192,15979,1,0,0:0:0:0:
192,192,16081,1,0,0:0:0:0:
320,192,16184,1,2,0:0:0:0:
448,192,16184,1,0,0:0:0:0:
64,192,16286,1,2,0:0:0:0:
320,192,16286,1,8,0:0:0:0:
64,192,16492,1,0,0:0:0:0:
192,192,16492,1,0,0:0:0:0:
320,192,16594,1,2,0:0:0:0:
448,192,16594,1,0,0:0:0:0:
64,192,16697,1,0,0:0:0:0:
320,192,16799,1,2,0:0:0:0:
448,192,16799,1,0,0:0:0:0:
192,192,16902,1,2,0:0:0:0:
448,192,16902,1,8,0:0:0:0:
64,192,17107,1,0,0:0:0:0:
192,192,17107,1,0,0:0:0:0:
320,192,17210,1,2,0:0:0:0:
448,192,17210,1,0,0:0:0:0:
64,192,17312,1,0,0:0:0:0:
320,192,17415,1,2,0:0:0:0:
448,192,17415,1,0,0:0:0:0:
64,192,17517,1,2,0:0:0:0:
320,192,17517,1,8,0:0:0:0:
192,192,17620,1,0,0:0:0:0:
320,192,17722,1,0,0:0:0:0:
448,192,17722,1,0,0:0:0:0:
64,192,17825,1,2,0:0:0:0:
192,192,17825,1,0,0:0:0:0:
320,192,17927,1,0,0:0:0:0:
64,192,18030,1,2,0:0:0:0:
192,192,18030,1,0,0:0:0:0:
192,192,18133,1,2,0:0:0:0:
448,192,18133,1,8,0:0:0:0:
64,192,18338,1,2,0:0:0:0:
192,192,18338,1,0,0:0:0:0:
64,192,18440,1,2,0:0:0:0:
320,192,18440,1,4,0:0:0:0:
448,192,18440,1,0,0:0:0:0:
320,192,18543,1,0,0:0:0:0:
64,192,18645,1,0,0:0:0:0:
192,192,18645,1,0,0:0:0:0:
192,192,18748,1,2,0:0:0:0:
448,192,18748,1,8,0:0:0:0:
64,192,18953,1,0,0:0:0:0:
192,192,18953,1,0,0:0:0:0:
320,192,19056,1,2,0:0:0:0:
448,192,19056,1,0,0:0:0:0:
64,192,19158,1,0,0:0:0:0:
320,192,19261,1,2,0:0:0:0:
448,192,19261,1,0,0:0:0:0:
192,192,19363,1,2,0:0:0:0:
448,192,19363,1,8,0:0:0:0:
64,192,19568,1,0,0:0:0:0:
192,192,19568,1,0,0:0:0:0:
320,192,19671,1,2,0:0:0:0:
448,192,19671,1,0,0:0:0:0:
64,192,19774,1,0,0:0:0:0:
320,192,19876,1,0,0:0:0:0:
192,192,19979,1,2,0:0:0:0:
448,192,19979,1,8,0:0:0:0:
320,192,20081,1,0,0:0:0:0:
64,192,20184,1,0,0:0:0:0:
192,192,20235,1,0,0:0:0:0:
320,192,20286,1,2,0:0:0:0:
448,192,20286,1,0,0:0:0:0:
64,192,20389,1,2,0:0:0:0:
192,192,20389,1,0,0:0:0:0:
320,192,20492,1,2,0:0:0:0:
448,192,20492,1,0,0:0:0:0:
192,192,20594,1,2,0:0:0:0:
448,192,20594,1,8,0:0:0:0:
64,192,20799,1,2,0:0:0:0:
192,192,20799,1,0,0:0:0:0:
64,192,20902,1,2,0:0:0:0:
320,192,20902,1,4,0:0:0:0:
448,192,20902,1,0,0:0:0:0:
192,192,21004,1,0,0:0:0:0:
448,192,21107,1,0,0:0:0:0:
64,192,21210,1,2,0:0:0:0:
320,192,21210,1,8,0:0:0:0:
320,192,21415,1,0,0:0:0:0:
64,192,21517,1,2,0:0:0:0:
192,192,21517,1,0,0:0:0:0:
448,192,21620,1,0,0:0:0:0:
64,192,21722,1,0,0:0:0:0:
192,192,21825,1,2,0:0:0:0:
448,192,21825,1,8,0:0:0:0:
192,192,22030,1,0,0:0:0:0:
320,192,22133,1,2,0:0:0:0:
448,192,22133,1,0,0:0:0:0:
192,192,22235,1,0,0:0:0:0:
448,192,22338,1,0,0:0:0:0:
64,192,22440,1,2,0:0:0:0:
320,192,22440,1,8,0:0:0:0:
448,192,22543,1,0,0:0:0:0:
64,192,22645,1,0,0:0:0:0:
192,192,22748,1,2,0:0:0:0:
320,192,22748,1,0,0:0:0:0:
448,192,22851,1,0,0:0:0:0:
64,192,22953,1,2,0:0:0:0:
192,192,22953,1,0,0:0:0:0:
64,192,23056,1,2,0:0:0:0:
448,192,23056,1,8,0:0:0:0:
320,192,23158,1,0,0:0:0:0:
64,192,23261,1,0,0:0:0:0:
192,192,23261,1,0,0:0:0:0:
64,192,23363,1,2,0:0:0:0:
320,192,23363,1,4,0:0:0:0:
448,192,23363,1,0,0:0:0:0:
448,192,23466,1,0,0:0:0:0:
192,192,23568,1,0,0:0:0:0:
320,192,23620,1,0,0:0:0:0:
64,192,23671,1,2,0:0:0:0:
448,192,23671,1,8,0:0:0:0:
64,192,23876,1,0,0:0:0:0:
320,192,23979,1,2,0:0:0:0:
448,192,23979,1,0,0:0:0:0:
64,192,24081,1,0,0:0:0:0:
192,192,24184,1,0,0:0:0:0:
320,192,24184,1,0,0:0:0:0:
192,192,24286,1,2,0:0:0:0:
448,192,24286,1,8,0:0:0:0:
64,192,24492,1,0,0:0:0:0:
192,192,24492,1,0,0:0:0:0:
320,192,24594,1,2,0:0:0:0:
448,192,24594,1,0,0:0:0:0:
64,192,24697,1,0,0:0:0:0:
320,192,24799,1,0,0:0:0:0:
192,192,24902,1,2,0:0:0:0:
448,192,24902,1,8,0:0:0:0:
320,192,25004,1,0,0:0:0:0:
64,192,25107,1,0,0:0:0:0:
192,192,25107,1,0,0:0:0:0:
320,192,25210,1,2,0:0:0:0:
448,192,25210,1,0,0:0:0:0:
64,192,25312,1,2,0:0:0:0:
192,192,25312,1,0,0:0:0:0:
320,192,25415,1,2,0:0:0:0:
448,192,25415,1,0,0:0:0:0:
192,192,25517,1,2,0:0:0:0:
448,192,25517,1,8,0:0:0:0:
64,192,25722,1,2,0:0:0:0:
192,192,25722,1,0,0:0:0:0:
64,192,25825,1,2,0:0:0:0:
320,192,25825,1,4,0:0:0:0:
448,192,25825,1,0,0:0:0:0:
192,192,25927,1,0,0:0:0:0:
320,192,26030,1,2,0:0:0:0:
448,192,26030,1,0,0:0:0:0:
64,192,26133,1,2,0:0:0:0:
320,192,26133,1,8,0:0:0:0:
320,192,26338,1,0,0:0:0:0:
448,192,26338,1,0,0:0:0:0:
192,192,26440,1,2,0:0:0:0:
320,192,26440,1,0,0:0:0:0:
448,192,26543,1,0,0:0:0:0:
64,192,26645,1,2,0:0:0:0:
192,192,26645,1,0,0:0:0:0:
64,192,26748,1,2,0:0:0:0:
320,192,26748,1,8,0:0:0:0:
64,192,26953,1,0,0:0:0:0:
192,192,26953,1,0,0:0:0:0:
320,192,27056,1,2,0:0:0:0:
448,192,27056,1,0,0:0:0:0:
64,192,27158,1,0,0:0:0:0:
320,192,27261,1,2,0:0:0:0:
448,192,27261,1,0,0:0:0:0:
192,192,27363,1,2,0:0:0:0:
448,192,27363,1,8,0:0:0:0:
64,192,27466,1,0,0:0:0:0:
320,192,27568,1,0,0:0:0:0:
448,192,27568,1,0,0:0:0:0:
64,192,27671,1,2,0:0:0:0:
192,192,27671,1,0,0:0:0:0:
448,192,27774,1,0,0:0:0:0:
192,192,27876,1,2,0:0:0:0:
320,192,27876,1,0,0:0:0:0:
64,192,27979,1,2,0:0:0:0:
320,192,27979,1,8,0:0:0:0:
64,192,28184,1,2,0:0:0:0:
192,192,28184,1,0,0:0:0:0:
64,192,28286,1,2,0:0:0:0:
320,192,28286,1,4,0:0:0:0:
448,192,28286,1,0,0:0:0:0:
192,192,28389,1,0,0:0:0:0:
320,192,28492,1,0,0:0:0:0:
64,192,28594,1,2,0:0:0:0:
448,192,28594,1,8,0:0:0:0:
64,192,28799,1,0,0:0:0:0:
320,192,28902,1,2,0:0:0:0:
448,192,28902,1,0,0:0:0:0:
64,192,29004,1,0,0:0:0:0:
192,192,29107,1,2,0:0:0:0:
320,192,29107,1,0,0:0:0:0:
192,192,29210,1,2,0:0:0:0:
448,192,29210,1,8,0:0:0:0:
64,192,29415,1,0,0:0:0:0:
192,192,29466,1,0,0:0:0:0:
320,192,29517,1,2,0:0:0:0:
448,192,29517,1,0,0:0:0:0:
64,192,29620,1,0,0:0:0:0:
320,192,29722,1,0,0:0:0:0:
192,192,29825,1,2,0:0:0:0:
448,192,29825,1,8,0:0:0:0:
320,192,29927,1,0,0:0:0:0:
192,192,30030,1,0,0:0:0:0:
320,192,30133,1,2,0:0:0:0:
448,192,30133,1,0,0:0:0:0:
64,192,30235,1,2,0:0:0:0:
192,192,30235,1,0,0:0:0:0:
320,192,30338,1,2,0:0:0:0:
448,192,30338,1,0,0:0:0:0:
64,192,30440,1,2,0:0:0:0:
448,192,30440,1,8,0:0:0:0:
192,192,30543,1,0,0:0:0:0:
320,192,30645,1,2,0:0:0:0:
448,192,30645,1,0,0:0:0:0:
64,192,30748,128,2,30799:0:0:0:0:
320,192,30748,1,4,0:0:0:0:
448,192,30748,1,0,0:0:0:0:
192,192,30851,1,0,0:0:0:0:
320,192,30953,1,0,0:0:0:0:
192,192,31056,1,2,0:0:0:0:
448,192,31056,128,8,31107:0:0:0:0:
192,192,31261,1,0,0:0:0:0:
320,192,31363,128,2,31415:0:0:0:0:
448,192,31363,1,0,0:0:0:0:
64,192,31466,1,0,0:0:0:0:
192,192,31568,128,0,31620:0:0:0:0:
320,192,31568,1,0,0:0:0:0:
192,192,31671,1,2,0:0:0:0:
448,192,31671,1,8,0:0:0:0:
64,192,31876,128,0,31927:0:0:0:0:
192,192,31876,1,0,0:0:0:0:
320,192,31979,1,2,0:0:0:0:
448,192,31979,1,0,0:0:0:0:
192,192,32081,1,0,0:0:0:0:
320,192,32184,1,0,0:0:0:0:
448,192,32184,128,0,32235:0:0:0:0:
64,192,32286,1,2,0:0:0:0:
448,192,32286,1,8,0:0:0:0:
192,192,32389,1,0,0:0:0:0:
320,192,32492,128,0,32543:0:0:0:0:
448,192,32492,1,0,0:0:0:0:
64,192,32594,1,2,0:0:0:0:
192,192,32594,1,0,0:0:0:0:
448,192,32697,1,0,0:0:0:0:
192,192,32799,128,2,32851:0:0:0:0:
320,192,32799,1,0,0:0:0:0:
64,192,32902,1,2,0:0:0:0:
320,192,32902,1,8,0:0:0:0:
192,192,33107,128,0,33158:0:0:0:0:
320,192,33158,128,0,33210:0:0:0:0:
64,192,33210,1,2,0:0:0:0:
192,192,33210,1,4,0:0:0:0:
448,192,33210,128,0,33261:0:0:0:0:
320,192,33312,1,0,0:0:0:0:
192,192,33415,1,0,0:0:0:0:
64,192,33517,1,2,0:0:0:0:
448,192,33517,1,8,0:0:0:0:
448,192,33722,1,0,0:0:0:0:
64,192,33825,1,2,0:0:0:0:
192,192,33825,1,0,0:0:0:0:
320,192,33927,1,0,0:0:0:0:
64,192,34030,1,0,0:0:0:0:
192,192,34133,1,2,0:0:0:0:
448,192,34133,1,8,0:0:0:0:
64,192,34338,128,0,34389:0:0:0:0:
192,192,34389,128,0,34440:0:0:0:0:
320,192,34440,1,2,0:0:0:0:
448,192,34440,128,0,34492:0:0:0:0:
64,192,34543,1,0,0:0:0:0:
320,192,34645,1,0,0:0:0:0:
448,192,34645,128,0,34697:0:0:0:0:
64,192,34748,1,2,0:0:0:0:
320,192,34748,1,8,0:0:0:0:
192,192,34851,1,0,0:0:0:0:
320,192,34953,1,0,0:0:0:0:
448,192,34953,128,0,35004:0:0:0:0:
64,192,35056,1,2,0:0:0:0:
192,192,35056,1,0,0:0:0:0:
320,192,35158,1,2,0:0:0:0:
448,192,35158,1,0,0:0:0:0:
64,192,35261,128,2,35312:0:0:0:0:
192,192,35261,1,0,0:0:0:0:
192,192,35363,1,2,0:0:0:0:
448,192,35363,1,8,0:0:0:0:
64,192,35568,1,2,0:0:0:0:
192,192,35568,1,0,0:0:0:0:
64,192,35671,1,2,0:0:0:0:
320,192,35671,1,4,0:0:0:0:
448,192,35671,128,0,35722:0:0:0:0:
192,192,35774,1,0,0:0:0:0:
320,192,35876,128,0,35927:0:0:0:0:
448,192,35876,1,0,0:0:0:0:
192,192,35979,128,2,36030:0:0:0:0:
448,192,35979,1,8,0:0:0:0:
320,192,36184,128,0,36235:0:0:0:0:
448,192,36184,1,0,0:0:0:0:
64,192,36286,1,2,0:0:0:0:
192,192,36286,128,0,36338:0:0:0:0:
448,192,36389,1,0,0:0:0:0:
320,192,36492,128,0,36543:0:0:0:0:
64,192,36543,128,0,36594:0:0:0:0:
192,192,36594,128,10,36645:0:0:0:0:
320,192,36645,128,0,36697:0:0:0:0:
448,192,36697,128,0,36748:0:0:0:0:
64,192,36748,128,0,36799:0:0:0:0:
192,192,36799,128,0,36851:0:0:0:0:
320,192,36902,1,2,0:0:0:0:
448,192,36902,1,0,0:0:0:0:
64,192,37004,1,0,0:0:0:0:
192,192,37107,1,0,0:0:0:0:
320,192,37107,128,0,37158:0:0:0:0:
192,192,37210,1,2,0:0:0:0:
448,192,37210,1,8,0:0:0:0:
64,192,37312,1,0,0:0:0:0:
320,192,37415,128,0,37466:0:0:0:0:
448,192,37415,1,0,0:0:0:0:
64,192,37517,128,2,37568:0:0:0:0:
192,192,37517,1,0,0:0:0:0:
320,192,37620,1,0,0:0:0:0:
64,192,37722,1,2,0:0:0:0:
192,192,37722,1,0,0:0:0:0:
192,192,37825,1,2,0:0:0:0:
448,192,37825,1,8,0:0:0:0:
192,192,38030,128,2,38081:0:0:0:0:
320,192,38081,128,0,38133:0:0:0:0:
64,192,38133,1,2,0:0:0:0:
192,192,38133,1,4,0:0:0:0:
448,192,38133,128,0,38184:0:0:0:0:
320,192,38235,1,0,0:0:0:0:
64,192,38338,1,2,0:0:0:0:
192,192,38338,128,0,38389:0:0:0:0:
64,192,38440,1,2,0:0:0:0:
320,192,38440,128,8,38492:0:0:0:0:
64,192,38645,1,2,0:0:0:0:
192,192,38645,128,0,38697:0:0:0:0:
320,192,38748,128,2,38799:0:0:0:0:
448,192,38748,1,0,0:0:0:0:
64,192,38851,1,0,0:0:0:0:
320,192,38953,1,2,0:0:0:0:
448,192,38953,128,0,39004:0:0:0:0:
192,192,39056,1,2,0:0:0:0:
448,192,39056,1,8,0:0:0:0:
64,192,39261,1,2,0:0:0:0:
192,192,39261,128,0,39312:0:0:0:0:
320,192,39363,1,2,0:0:0:0:
448,192,39363,1,0,0:0:0:0:
64,192,39466,1,0,0:0:0:0:
320,192,39568,128,0,39671:0:0:0:0:
192,192,39671,1,2,0:0:0:0:
448,192,39671,1,8,0:0:0:0:
320,192,39774,1,0,0:0:0:0:
64,192,39876,128,0,39927:0:0:0:0:
192,192,39876,1,0,0:0:0:0:
320,192,39979,1,2,0:0:0:0:
448,192,39979,1,0,0:0:0:0:
64,192,40081,1,2,0:0:0:0:
192,192,40081,1,0,0:0:0:0:
192,192,40184,1,2,0:0:0:0:
320,192,40184,1,0,0:0:0:0:
64,192,40286,1,2,0:0:0:0:
448,192,40286,1,8,0:0:0:0:
320,192,40389,1,2,0:0:0:0:
448,192,40389,1,0,0:0:0:0:
192,192,40492,128,2,40543:0:0:0:0:
320,192,40543,1,2,0:0:0:0:
64,192,40594,1,2,0:0:0:0:
192,192,40594,1,4,0:0:0:0:
448,192,40594,128,0,40697:0:0:0:0:
64,192,40697,128,0,40799:0:0:0:0:
448,192,40799,128,0,40902:0:0:0:0:
192,192,40902,128,2,41004:0:0:0:0:
320,192,40902,1,8,0:0:0:0:
320,192,41004,128,0,41107:0:0:0:0:
192,192,41107,128,0,41210:0:0:0:0:
64,192,41210,128,2,41261:0:0:0:0:
448,192,41210,128,0,41261:0:0:0:0:
64,192,41312,128,2,41363:0:0:0:0:
320,192,41312,128,0,41363:0:0:0:0:
192,192,41415,128,2,41466:0:0:0:0:
448,192,41415,128,0,41466:0:0:0:0:
64,192,41517,128,2,41568:0:0:0:0:
448,192,41517,128,8,41568:0:0:0:0:
64,192,41722,1,2,0:0:0:0:
192,192,41722,1,0,0:0:0:0:
64,192,41825,1,2,0:0:0:0:
320,192,41825,128,4,41927:0:0:0:0:
448,192,41825,1,0,0:0:0:0:
192,192,41927,128,0,42030:0:0:0:0:
320,192,42030,128,0,42133:0:0:0:0:
64,192,42133,128,2,42235:0:0:0:0:
448,192,42133,1,8,0:0:0:0:
448,192,42235,128,0,42338:0:0:0:0:
64,192,42338,128,0,42440:0:0:0:0:
192,192,42440,128,2,42492:0:0:0:0:
320,192,42440,128,0,42492:0:0:0:0:
192,192,42543,128,2,42594:0:0:0:0:
448,192,42543,128,0,42594:0:0:0:0:
64,192,42645,128,2,42697:0:0:0:0:
320,192,42645,128,0,42697:0:0:0:0:
192,192,42748,128,2,42799:0:0:0:0:
320,192,42748,128,8,42799:0:0:0:0:
320,192,42953,1,2,0:0:0:0:
448,192,42953,1,0,0:0:0:0:
64,192,43056,1,2,0:0:0:0:
320,192,43056,128,4,43158:0:0:0:0:
448,192,43056,1,0,0:0:0:0:
64,192,43158,128,0,43261:0:0:0:0:
320,192,43261,128,0,43363:0:0:0:0:
192,192,43363,128,2,43466:0:0:0:0:
448,192,43363,1,8,0:0:0:0:
448,192,43466,128,0,43568:0:0:0:0:
192,192,43568,128,0,43671:0:0:0:0:
320,192,43671,128,2,43722:0:0:0:0:
448,192,43671,128,0,43722:0:0:0:0:
64,192,43774,128,2,43825:0:0:0:0:
448,192,43774,128,0,43825:0:0:0:0:
64,192,43876,128,2,43927:0:0:0:0:
192,192,43876,128,0,43927:0:0:0:0:
320,192,43979,128,2,44030:0:0:0:0:
448,192,43979,128,8,44030:0:0:0:0:
192,192,44081,128,2,44133:0:0:0:0:
320,192,44081,128,0,44133:0:0:0:0:
64,192,44184,128,2,44235:0:0:0:0:
192,192,44184,128,0,44235:0:0:0:0:
320,192,44286,128,2,44389:0:0:0:0:
448,192,44286,1,0,0:0:0:0:
64,192,44389,128,0,44492:0:0:0:0:
320,192,44492,128,0,44594:0:0:0:0:
192,192,44594,128,2,44697:0:0:0:0:
448,192,44594,1,8,0:0:0:0:
448,192,44697,128,0,44799:0:0:0:0:
192,192,44799,128,0,44902:0:0:0:0:
320,192,44902,128,2,44953:0:0:0:0:
448,192,44902,128,0,44953:0:0:0:0:
64,192,45004,128,2,45056:0:0:0:0:
192,192,45004,128,0,45056:0:0:0:0:
192,192,45107,128,2,45158:0:0:0:0:
320,192,45107,128,0,45158:0:0:0:0:
320,192,45210,128,2,45261:0:0:0:0:
448,192,45210,128,8,45261:0:0:0:0:
192,192,45415,128,2,45466:0:0:0:0:
320,192,45466,128,0,45517:0:0:0:0:
64,192,45517,1,2,0:0:0:0:
192,192,45517,1,4,0:0:0:0:
448,192,45517,128,0,45568:0:0:0:0:
64,192,45620,1,0,0:0:0:0:
320,192,45722,1,0,0:0:0:0:
448,192,45722,128,0,45774:0:0:0:0:
192,192,45825,1,2,0:0:0:0:
448,192,45825,1,8,0:0:0:0:
320,192,46030,128,0,46081:0:0:0:0:
448,192,46030,1,0,0:0:0:0:
64,192,46133,1,2,0:0:0:0:
192,192,46133,1,0,0:0:0:0:
320,192,46235,1,0,0:0:0:0:
64,192,46338,128,2,46389:0:0:0:0:
192,192,46338,1,0,0:0:0:0:
192,192,46440,1,2,0:0:0:0:
448,192,46440,1,8,0:0:0:0:
192,192,46645,128,2,46697:0:0:0:0:
320,192,46697,128,0,46748:0:0:0:0:
64,192,46748,1,2,0:0:0:0:
192,192,46748,1,4,0:0:0:0:
448,192,46748,128,0,46799:0:0:0:0:
64,192,46851,1,0,0:0:0:0:
320,192,46953,1,0,0:0:0:0:
448,192,46953,128,0,47004:0:0:0:0:
192,192,47056,1,2,0:0:0:0:
448,192,47056,1,8,0:0:0:0:
320,192,47261,128,0,47312:0:0:0:0:
448,192,47261,1,0,0:0:0:0:
64,192,47363,1,2,0:0:0:0:
192,192,47363,1,0,0:0:0:0:
320,192,47466,1,0,0:0:0:0:
64,192,47568,128,2,47620:0:0:0:0:
192,192,47568,1,0,0:0:0:0:
192,192,47671,1,2,0:0:0:0:
448,192,47671,1,8,0:0:0:0:
64,192,47876,128,2,47927:0:0:0:0:
192,192,47876,1,0,0:0:0:0:
64,192,47979,1,2,0:0:0:0:
320,192,47979,128,4,48030:0:0:0:0:
448,192,47979,1,0,0:0:0:0:
192,192,48081,1,0,0:0:0:0:
320,192,48184,1,0,0:0:0:0:
64,192,48286,1,2,0:0:0:0:
448,192,48286,1,8,0:0:0:0:
64,192,48492,1,0,0:0:0:0:
320,192,48594,1,2,0:0:0:0:
448,192,48594,1,0,0:0:0:0:
64,192,48697,1,0,0:0:0:0:
192,192,48799,1,2,0:0:0:0:
320,192,48799,1,0,0:0:0:0:
192,192,48902,1,2,0:0:0:0:
448,192,48902,1,8,0:0:0:0:
448,192,49107,128,2,49158:0:0:0:0:
320,192,49158,128,0,49210:0:0:0:0:
64,192,49210,1,2,0:0:0:0:
192,192,49210,128,0,49261:0:0:0:0:
448,192,49312,1,0,0:0:0:0:
64,192,49415,1,0,0:0:0:0:
192,192,49517,1,2,0:0:0:0:
448,192,49517,1,8,0:0:0:0:
320,192,49620,1,0,0:0:0:0:
448,192,49722,1,0,0:0:0:0:
64,192,49825,128,2,49876:0:0:0:0:
192,192,49825,1,0,0:0:0:0:
320,192,49927,1,2,0:0:0:0:
448,192,49927,1,0,0:0:0:0:
64,192,50030,1,2,0:0:0:0:
192,192,50030,1,0,0:0:0:0:
64,192,50133,1,2,0:0:0:0:
448,192,50133,1,8,0:0:0:0:
192,192,50338,1,0,0:0:0:0:
64,192,50440,128,2,50492:0:0:0:0:
320,192,50440,1,4,0:0:0:0:
448,192,50440,1,0,0:0:0:0:
320,192,50543,1,0,0:0:0:0:
64,192,50645,1,0,0:0:0:0:
192,192,50748,1,2,0:0:0:0:
448,192,50748,128,8,50799:0:0:0:0:
192,192,50953,1,0,0:0:0:0:
320,192,51056,128,2,51107:0:0:0:0:
448,192,51056,1,0,0:0:0:0:
64,192,51158,1,0,0:0:0:0:
192,192,51261,128,0,51312:0:0:0:0:
320,192,51261,1,0,0:0:0:0:
64,192,51363,128,2,51415:0:0:0:0:
320,192,51363,1,8,0:0:0:0:
64,192,51568,128,0,51620:0:0:0:0:
192,192,51568,1,0,0:0:0:0:
320,192,51671,1,2,0:0:0:0:
448,192,51671,1,0,0:0:0:0:
192,192,51774,1,0,0:0:0:0:
320,192,51876,1,0,0:0:0:0:
448,192,51876,128,0,51927:0:0:0:0:
64,192,51979,1,2,0:0:0:0:
448,192,51979,1,8,0:0:0:0:
192,192,52081,1,0,0:0:0:0:
320,192,52184,128,0,52235:0:0:0:0:
448,192,52184,1,0,0:0:0:0:
64,192,52286,1,2,0:0:0:0:
192,192,52286,1,0,0:0:0:0:
448,192,52389,1,0,0:0:0:0:
64,192,52492,1,2,0:0:0:0:
192,192,52492,128,0,52543:0:0:0:0:
64,192,52594,1,2,0:0:0:0:
320,192,52594,1,8,0:0:0:0:
192,192,52799,128,0,52851:0:0:0:0:
320,192,52851,128,0,52902:0:0:0:0:
64,192,52902,1,2,0:0:0:0:
192,192,52902,1,4,0:0:0:0:
448,192,52902,128,0,52953:0:0:0:0:
320,192,53004,1,0,0:0:0:0:
192,192,53107,1,0,0:0:0:0:
64,192,53210,1,2,0:0:0:0:
448,192,53210,1,8,0:0:0:0:
448,192,53415,1,0,0:0:0:0:
64,192,53517,1,2,0:0:0:0:
192,192,53517,1,0,0:0:0:0:
320,192,53620,1,0,0:0:0:0:
64,192,53722,1,0,0:0:0:0:
192,192,53825,1,2,0:0:0:0:
448,192,53825,1,8,0:0:0:0:
64,192,54030,128,0,54081:0:0:0:0:
192,192,54081,128,0,54133:0:0:0:0:
320,192,54133,1,2,0:0:0:0:
448,192,54133,128,0,54184:0:0:0:0:
64,192,54235,1,0,0:0:0:0:
320,192,54338,1,0,0:0:0:0:
448,192,54338,128,0,54389:0:0:0:0:
64,192,54440,1,2,0:0:0:0:
320,192,54440,1,8,0:0:0:0:
192,192,54543,1,0,0:0:0:0:
320,192,54645,1,0,0:0:0:0:
448,192,54645,128,0,54697:0:0:0:0:
64,192,54748,1,2,0:0:0:0:
192,192,54748,1,0,0:0:0:0:
320,192,54851,1,2,0:0:0:0:
448,192,54851,1,0,0:0:0:0:
64,192,54953,128,2,55004:0:0:0:0:
192,192,54953,1,0,0:0:0:0:
192,192,55056,1,2,0:0:0:0:
448,192,55056,1,8,0:0:0:0:
64,192,55261,1,2,0:0:0:0:
192,192,55261,1,0,0:0:0:0:
64,192,55363,1,2,0:0:0:0:
320,192,55363,1,4,0:0:0:0:
448,192,55363,128,0,55415:0:0:0:0:
192,192,55466,1,0,0:0:0:0:
320,192,55568,128,0,55620:0:0:0:0:
448,192,55568,1,0,0:0:0:0:
192,192,55671,128,2,55722:0:0:0:0:
448,192,55671,1,8,0:0:0:0:
320,192,55876,128,0,55927:0:0:0:0:
448,192,55876,1,0,0:0:0:0:
64,192,55979,1,2,0:0:0:0:
192,192,55979,128,0,56030:0:0:0:0:
448,192,56081,1,0,0:0:0:0:
320,192,56184,128,0,56235:0:0:0:0:
64,192,56235,128,0,56286:0:0:0:0:
192,192,56286,128,10,56338:0:0:0:0:
320,192,56338,128,0,56389:0:0:0:0:
448,192,56389,128,0,56440:0:0:0:0:
64,192,56440,128,0,56492:0:0:0:0:
192,192,56492,128,0,56543:0:0:0:0:
320,192,56594,1,2,0:0:0:0:
448,192,56594,1,0,0:0:0:0:
64,192,56697,1,0,0:0:0:0:
192,192,56799,1,0,0:0:0:0:
320,192,56799,128,0,56851:0:0:0:0:
192,192,56902,1,2,0:0:0:0:
448,192,56902,1,8,0:0:0:0:
64,192,57004,1,0,0:0:0:0:
320,192,57107,128,0,57158:0:0:0:0:
448,192,57107,1,0,0:0:0:0:
64,192,57210,128,2,57261:0:0:0:0:
192,192,57210,1,0,0:0:0:0:
448,192,57312,1,0,0:0:0:0:
64,192,57415,1,2,0:0:0:0:
192,192,57415,1,0,0:0:0:0:
192,192,57517,1,2,0:0:0:0:
448,192,57517,1,8,0:0:0:0:
192,192,57722,128,2,57774:0:0:0:0:
320,192,57774,128,0,57825:0:0:0:0:
64,192,57825,1,2,0:0:0:0:
192,192,57825,1,4,0:0:0:0:
448,192,57825,128,0,57876:0:0:0:0:
320,192,57927,1,0,0:0:0:0:
64,192,58030,1,2,0:0:0:0:
192,192,58030,128,0,58081:0:0:0:0:
64,192,58133,1,2,0:0:0:0:
320,192,58133,128,8,58184:0:0:0:0:
64,192,58338,1,2,0:0:0:0:
192,192,58338,128,0,58389:0:0:0:0:
320,192,58440,128,2,58492:0:0:0:0:
448,192,58440,1,0,0:0:0:0:
64,192,58543,1,0,0:0:0:0:
320,192,58645,1,2,0:0:0:0:
448,192,58645,128,0,58697:0:0:0:0:
192,192,58748,1,2,0:0:0:0:
448,192,58748,1,8,0:0:0:0:
64,192,58953,1,2,0:0:0:0:
192,192,58953,128,0,59004:0:0:0:0:
320,192,59056,1,2,0:0:0:0:
448,192,59056,1,0,0:0:0:0:
64,192,59158,1,0,0:0:0:0:
320,192,59261,128,0,59363:0:0:0:0:
192,192,59363,1,2,0:0:0:0:
448,192,59363,1,8,0:0:0:0:
320,192,59466,1,0,0:0:0:0:
64,192,59568,128,0,59620:0:0:0:0:
192,192,59568,1,0,0:0:0:0:
320,192,59671,1,2,0:0:0:0:
448,192,59671,1,0,0:0:0:0:
64,192,59774,1,2,0:0:0:0:
192,192,59774,1,0,0:0:0:0:
192,192,59876,1,2,0:0:0:0:
320,192,59876,1,0,0:0:0:0:
64,192,59979,1,2,0:0:0:0:
448,192,59979,1,8,0:0:0:0:
320,192,60081,1,2,0:0:0:0:
448,192,60081,1,0,0:0:0:0:
64,192,60184,1,2,0:0:0:0:
192,192,60184,128,0,60235:0:0:0:0:
64,192,60286,1,2,0:0:0:0:
192,192,60286,1,4,0:0:0:0:
448,192,60286,128,0,60389:0:0:0:0:
64,192,60389,128,0,60492:0:0:0:0:
448,192,60492,128,0,60594:0:0:0:0:
192,192,60594,128,2,60697:0:0:0:0:
320,192,60594,1,8,0:0:0:0:
320,192,60697,128,0,60799:0:0:0:0:
192,192,60799,128,0,60902:0:0:0:0:
64,192,60902,128,2,60953:0:0:0:0:
448,192,60902,128,0,60953:0:0:0:0:
64,192,61004,128,2,61056:0:0:0:0:
320,192,61004,128,0,61056:0:0:0:0:
192,192,61107,128,2,61158:0:0:0:0:
448,192,61107,128,0,61158:0:0:0:0:
64,192,61210,128,2,61261:0:0:0:0:
448,192,61210,128,8,61261:0:0:0:0:
64,192,61415,1,2,0:0:0:0:
192,192,61415,1,0,0:0:0:0:
64,192,61517,1,2,0:0:0:0:
320,192,61517,128,4,61620:0:0:0:0:
448,192,61517,1,0,0:0:0:0:
192,192,61620,128,0,61722:0:0:0:0:
320,192,61722,128,0,61825:0:0:0:0:
64,192,61825,128,2,61927:0:0:0:0:
448,192,61825,1,8,0:0:0:0:
448,192,61927,128,0,62030:0:0:0:0:
64,192,62030,128,0,62133:0:0:0:0:
192,192,62133,128,2,62184:0:0:0:0:
320,192,62133,128,0,62184:0:0:0:0:
192,192,62235,128,2,62286:0:0:0:0:
448,192,62235,128,0,62286:0:0:0:0:
64,192,62338,128,2,62389:0:0:0:0:
320,192,62338,128,0,62389:0:0:0:0:
192,192,62440,128,2,62492:0:0:0:0:
320,192,62440,128,8,62492:0:0:0:0:
320,192,62645,1,2,0:0:0:0:
448,192,62645,1,0,0:0:0:0:
64,192,62748,1,2,0:0:0:0:
320,192,62748,128,4,62851:0:0:0:0:
448,192,62748,1,0,0:0:0:0:
64,192,62851,128,0,62953:0:0:0:0:
320,192,62953,128,0,63056:0:0:0:0:
192,192,63056,128,2,63158:0:0:0:0:
448,192,63056,1,8,0:0:0:0:
448,192,63158,128,0,63261:0:0:0:0:
192,192,63261,128,0,63363:0:0:0:0:
320,192,63363,128,2,63415:0:0:0:0:
448,192,63363,128,0,63415:0:0:0:0:
64,192,63466,128,2,63517:0:0:0:0:
448,192,63466,128,0,63517:0:0:0:0:
64,192,63568,128,2,63620:0:0:0:0:
192,192,63568,128,0,63620:0:0:0:0:
320,192,63671,128,2,63722:0:0:0:0:
448,192,63671,128,8,63722:0:0:0:0:
192,192,63774,128,2,63825:0:0:0:0:
320,192,63774,128,0,63825:0:0:0:0:
64,192,63876,128,2,63927:0:0:0:0:
192,192,63876,128,0,63927:0:0:0:0:
320,192,63979,128,2,64081:0:0:0:0:
448,192,63979,1,0,0:0:0:0:
64,192,64081,128,0,64184:0:0:0:0:
320,192,64184,128,0,64286:0:0:0:0:
192,192,64286,128,2,64389:0:0:0:0:
448,192,64286,1,8,0:0:0:0:
448,192,64389,128,0,64492:0:0:0:0:
192,192,64492,128,0,64594:0:0:0:0:
320,192,64594,128,2,64645:0:0:0:0:
448,192,64594,128,0,64645:0:0:0:0:
64,192,64697,128,2,64748:0:0:0:0:
192,192,64697,128,0,64748:0:0:0:0:
192,192,64799,128,2,64851:0:0:0:0:
320,192,64799,128,0,64851:0:0:0:0:
320,192,64902,128,2,64953:0:0:0:0:
448,192,64902,128,8,64953:0:0:0:0:
192,192,65107,128,2,65158:0:0:0:0:
320,192,65158,128,0,65210:0:0:0:0:
64,192,65210,1,2,0:0:0:0:
192,192,65210,1,4,0:0:0:0:
448,192,65210,128,0,65261:0:0:0:0:
64,192,65312,1,0,0:0:0:0:
320,192,65415,1,0,0:0:0:0:
448,192,65415,128,0,65466:0:0:0:0:
192,192,65517,1,2,0:0:0:0:
448,192,65517,1,8,0:0:0:0:
320,192,65722,128,0,65774:0:0:0:0:
448,192,65722,1,0,0:0:0:0:
64,192,65825,1,2,0:0:0:0:
192,192,65825,1,0,0:0:0:0:
320,192,65927,1,0,0:0:0:0:
64,192,66030,128,2,66081:0:0:0:0:
192,192,66030,1,0,0:0:0:0:
192,192,66133,1,2,0:0:0:0:
448,192,66133,1,8,0:0:0:0:
192,192,66338,128,2,66389:0:0:0:0:
320,192,66389,128,0,66440:0:0:0:0:
64,192,66440,1,2,0:0:0:0:
192,192,66440,1,4,0:0:0:0:
448,192,66440,128,0,66492:0:0:0:0:
64,192,66543,1,0,0:0:0:0:
320,192,66645,1,0,0:0:0:0:
448,192,66645,128,0,66697:0:0:0:0:
192,192,66748,1,2,0:0:0:0:
448,192,66748,1,8,0:0:0:0:
64,192,66953,1,0,0:0:0:0:
192,192,66953,128,0,67004:0:0:0:0:
320,192,67056,1,2,0:0:0:0:
448,192,67056,1,0,0:0:0:0:
64,192,67158,1,0,0:0:0:0:
320,192,67261,1,2,0:0:0:0:
448,192,67261,128,0,67312:0:0:0:0:
64,192,67363,1,2,0:0:0:0:
320,192,67363,1,8,0:0:0:0:
192,192,67568,1,2,0:0:0:0:
320,192,67568,128,0,67620:0:0:0:0:
64,192,67671,1,2,0:0:0:0:
192,192,67671,128,4,67722:0:0:0:0:
448,192,67671,1,0,0:0:0:0:
320,192,67774,1,0,0:0:0:0:
192,192,67876,1,0,0:0:0:0:
64,192,67979,1,2,0:0:0:0:
448,192,67979,1,8,0:0:0:0:
64,192,68184,1,0,0:0:0:0:
320,192,68286,1,2,0:0:0:0:
448,192,68286,1,0,0:0:0:0:
64,192,68389,1,0,0:0:0:0:
192,192,68492,1,2,0:0:0:0:
320,192,68492,1,0,0:0:0:0:
192,192,68594,1,2,0:0:0:0:
448,192,68594,1,8,0:0:0:0:
448,192,68799,128,2,68851:0:0:0:0:
320,192,68851,128,0,68902:0:0:0:0:
64,192,68902,1,2,0:0:0:0:
192,192,68902,128,0,68953:0:0:0:0:
448,192,69004,1,0,0:0:0:0:
64,192,69107,1,0,0:0:0:0:
192,192,69210,1,2,0:0:0:0:
448,192,69210,1,8,0:0:0:0:
320,192,69312,1,0,0:0:0:0:
64,192,69415,1,0,0:0:0:0:
192,192,69517,1,2,0:0:0:0:
320,192,69517,128,0,69568:0:0:0:0:
320,192,69620,1,2,0:0:0:0:
448,192,69620,1,0,0:0:0:0:
64,192,69722,1,2,0:0:0:0:
192,192,69722,1,0,0:0:0:0:
64,192,69825,128,2,69927:0:0:0:0:
448,192,69825,1,8,0:0:0:0:
64,192,70133,1,2,0:0:0:0:
320,192,70133,128,4,70235:0:0:0:0:
448,192,70133,1,0,0:0:0:0:
192,192,70440,128,8,70543:0:0:0:0:
448,192,70440,1,0,0:0:0:0:
320,192,70748,128,0,70851:0:0:0:0:
64,192,71056,1,8,0:0:0:0:
448,192,71056,128,0,71158:0:0:0:0:
64,192,71261,1,2,0:0:0:0:
192,192,71261,1,0,0:0:0:0:
320,192,71363,1,2,0:0:0:0:
448,192,71363,1,0,0:0:0:0:
64,192,71671,1,8,0:0:0:0:
448,192,71671,1,0,0:0:0:0:
192,192,71876,128,0,71979:0:0:0:0:
320,192,71979,128,0,72081:0:0:0:0:
64,192,72184,128,0,72286:0:0:0:0:
192,192,72286,128,8,72389:0:0:0:0:
448,192,72286,1,0,0:0:0:0:
64,192,72492,128,0,72594:0:0:0:0:
192,192,72594,1,2,0:0:0:0:
320,192,72594,128,4,72697:0:0:0:0:
448,192,72594,1,0,0:0:0:0:
192,192,72799,128,0,72902:0:0:0:0:
64,192,72902,1,8,0:0:0:0:
448,192,72902,128,0,72953:0:0:0:0:
320,192,73210,128,0,73312:0:0:0:0:
64,192,73517,1,8,0:0:0:0:
448,192,73517,128,0,73620:0:0:0:0:
320,192,73722,128,2,73825:0:0:0:0:
448,192,73722,1,0,0:0:0:0:
64,192,73825,1,2,0:0:0:0:
192,192,73825,128,0,73927:0:0:0:0:
64,192,74133,128,8,74235:0:0:0:0:
448,192,74133,1,0,0:0:0:0:
64,192,74338,128,0,74440:0:0:0:0:
192,192,74440,128,2,74543:0:0:0:0:
320,192,74440,1,0,0:0:0:0:
64,192,74748,128,2,74851:0:0:0:0:
448,192,74748,1,8,0:0:0:0:
320,192,74953,1,2,0:0:0:0:
448,192,74953,128,0,75004:0:0:0:0:
64,192,75056,1,2,0:0:0:0:
320,192,75056,1,4,0:0:0:0:
448,192,75056,1,0,0:0:0:35:LR_Snare Low Wet.wav
192,192,75158,1,0,0:0:0:35:LR_Snare Low Wet.wav
320,192,75261,1,2,0:0:0:0:
448,192,75261,1,0,0:0:0:35:LR_Snare Low Wet.wav
64,192,75363,1,10,0:0:0:0:
448,192,75363,1,0,0:0:0:35:LR_Snare Low Wet.wav
64,192,75568,1,0,0:0:0:35:LR_Snare Low Wet.wav
192,192,75671,1,2,0:0:0:0:
320,192,75671,1,0,0:0:0:35:LR_Snare Low Wet.wav
448,192,75774,1,0,0:0:0:35:LR_Snare Low Wet.wav
64,192,75876,1,2,0:0:0:0:
192,192,75876,1,0,0:0:0:35:LR_Snare Low Wet.wav
64,192,75979,1,10,0:0:0:0:
448,192,75979,1,0,0:0:0:35:LR_Snare Low Wet.wav
320,192,76184,1,0,0:0:0:35:LR_Snare Low Wet.wav
448,192,76184,1,0,0:0:0:0:
64,192,76286,1,2,0:0:0:0:
192,192,76286,1,0,0:0:0:35:LR_Snare Low Wet.wav
320,192,76389,1,0,0:0:0:35:LR_Snare Low Wet.wav
192,192,76492,1,2,0:0:0:0:
320,192,76492,1,0,0:0:0:35:LR_Snare Low Wet.wav
64,192,76594,1,10,0:0:0:0:
448,192,76594,1,0,0:0:0:35:LR_Snare Low Wet.wav
320,192,76697,1,0,0:0:0:35:LR_Snare Low Wet.wav
192,192,76799,1,0,0:0:0:35:LR_Snare Low Wet.wav
320,192,76902,1,2,0:0:0:0:
448,192,76902,1,0,0:0:0:35:LR_Snare Low Wet.wav
192,192,77004,1,0,0:0:0:35:LR_Snare Low Wet.wav
192,192,77107,1,2,0:0:0:0:
320,192,77107,1,0,0:0:0:35:LR_Snare Low Wet.wav
64,192,77210,1,10,0:0:0:0:
448,192,77210,1,0,0:0:0:35:LR_Snare Low Wet.wav
320,192,77312,1,0,0:0:0:35:LR_Snare Low Wet.wav
192,192,77415,1,2,0:0:0:0:
320,192,77466,1,2,0:0:0:0:
64,192,77517,1,2,0:0:0:0:
192,192,77517,1,4,0:0:0:0:
448,192,77517,1,0,0:0:0:35:LR_Snare Low Wet.wav
448,192,77620,1,0,0:0:0:0:
192,192,77722,1,2,0:0:0:0:
448,192,77722,1,0,0:0:0:0:
64,192,77825,1,2,0:0:0:0:
320,192,77825,1,8,0:0:0:0:
320,192,78030,1,2,0:0:0:0:
448,192,78030,1,0,0:0:0:0:
64,192,78133,1,2,0:0:0:0:
192,192,78133,1,0,0:0:0:0:
64,192,78235,1,0,0:0:0:0:
64,192,78338,1,2,0:0:0:0:
320,192,78338,1,0,0:0:0:0:
192,192,78440,1,2,0:0:0:0:
448,192,78440,1,8,0:0:0:0:
320,192,78645,1,2,0:0:0:0:
448,192,78645,1,0,0:0:0:0:
64,192,78748,1,2,0:0:0:0:
192,192,78748,1,0,0:0:0:0:
448,192,78851,1,0,0:0:0:0:
64,192,78953,1,2,0:0:0:0:
192,192,79056,1,2,0:0:0:0:
448,192,79056,1,8,0:0:0:0:
320,192,79158,1,0,0:0:0:0:
64,192,79261,1,2,0:0:0:0:
192,192,79261,1,0,0:0:0:0:
192,192,79363,1,2,0:0:0:0:
320,192,79363,1,0,0:0:0:0:
320,192,79466,1,2,0:0:0:0:
448,192,79466,1,0,0:0:0:0:
192,192,79568,1,2,0:0:0:0:
320,192,79620,1,2,0:0:0:0:
64,192,79671,1,2,0:0:0:0:
448,192,79671,1,8,0:0:0:0:
64,192,79774,1,2,0:0:0:0:
192,192,79774,1,0,0:0:0:0:
320,192,79876,1,2,0:0:0:0:
192,192,79927,1,2,0:0:0:0:
64,192,79979,1,2,0:0:0:0:
320,192,79979,1,4,0:0:0:0:
448,192,79979,1,0,0:0:0:0:
448,192,80081,1,0,0:0:0:0:
64,192,80184,1,0,0:0:0:0:
192,192,80184,1,0,0:0:0:0:
64,192,80286,1,2,0:0:0:0:
320,192,80286,1,8,0:0:0:0:
320,192,80492,1,0,0:0:0:0:
448,192,80492,1,0,0:0:0:0:
64,192,80594,1,2,0:0:0:0:
192,192,80594,1,0,0:0:0:0:
448,192,80697,1,0,0:0:0:0:
192,192,80799,1,2,0:0:0:0:
320,192,80799,1,0,0:0:0:0:
192,192,80902,1,2,0:0:0:0:
448,192,80902,1,8,0:0:0:0:
64,192,81107,1,2,0:0:0:0:
192,192,81107,1,0,0:0:0:0:
64,192,81210,1,2,0:0:0:0:
448,192,81210,128,0,81312:0:0:0:0:
320,192,81312,128,0,81415:0:0:0:0:
64,192,81415,128,0,81517:0:0:0:0:
320,192,81517,1,2,0:0:0:0:
448,192,81517,128,8,81620:0:0:0:0:
192,192,81620,128,0,81722:0:0:0:0:
64,192,81722,128,0,81825:0:0:0:0:
320,192,81825,1,2,0:0:0:0:
448,192,81825,128,0,81927:0:0:0:0:
192,192,81927,1,2,0:0:0:0:
320,192,81927,128,0,82030:0:0:0:0:
192,192,82030,128,2,82133:0:0:0:0:
448,192,82030,1,0,0:0:0:0:
64,192,82133,128,2,82235:0:0:0:0:
448,192,82133,1,8,0:0:0:0:
320,192,82235,128,0,82338:0:0:0:0:
64,192,82338,128,2,82440:0:0:0:0:
448,192,82338,1,0,0:0:0:0:
192,192,82440,1,2,0:0:0:0:
320,192,82440,1,4,0:0:0:0:
448,192,82440,1,0,0:0:0:0:
64,192,82543,1,0,0:0:0:0:
192,192,82645,1,0,0:0:0:0:
320,192,82697,1,0,0:0:0:0:
64,192,82748,1,2,0:0:0:0:
448,192,82748,1,8,0:0:0:0:
64,192,82953,1,0,0:0:0:0:
192,192,82953,1,0,0:0:0:0:
320,192,83056,1,2,0:0:0:0:
448,192,83056,1,0,0:0:0:0:
448,192,83158,1,0,0:0:0:0:
64,192,83261,1,2,0:0:0:0:
192,192,83261,1,0,0:0:0:0:
192,192,83363,1,2,0:0:0:0:
448,192,83363,1,8,0:0:0:0:
192,192,83568,1,2,0:0:0:0:
320,192,83568,1,0,0:0:0:0:
320,192,83671,1,2,0:0:0:0:
448,192,83671,1,0,0:0:0:0:
64,192,83774,1,0,0:0:0:0:
320,192,83876,1,0,0:0:0:0:
448,192,83876,1,0,0:0:0:0:
192,192,83979,1,2,0:0:0:0:
448,192,83979,1,8,0:0:0:0:
64,192,84184,1,0,0:0:0:0:
192,192,84184,1,0,0:0:0:0:
320,192,84286,1,2,0:0:0:0:
448,192,84286,1,0,0:0:0:0:
64,192,84389,1,2,0:0:0:0:
192,192,84389,1,0,0:0:0:0:
192,192,84492,1,2,0:0:0:0:
320,192,84492,1,0,0:0:0:0:
64,192,84594,1,2,0:0:0:0:
448,192,84594,1,8,0:0:0:0:
320,192,84697,1,2,0:0:0:0:
448,192,84697,1,0,0:0:0:0:
64,192,84799,1,2,0:0:0:0:
192,192,84851,1,2,0:0:0:0:
320,192,84902,1,2,0:0:0:0:
448,192,84902,1,0,0:0:0:0:
320,192,85004,1,2,0:0:0:0:
448,192,85004,1,0,0:0:0:0:
64,192,85107,1,2,0:0:0:0:
192,192,85107,1,0,0:0:0:0:
64,192,85210,1,2,0:0:0:0:
320,192,85210,1,8,0:0:0:0:
448,192,85210,1,0,0:0:0:0:
448,192,85415,1,0,0:0:0:0:
64,192,85517,1,2,0:0:0:0:
192,192,85517,1,0,0:0:0:0:
64,192,85620,1,2,0:0:0:0:
192,192,85620,1,0,0:0:0:0:
320,192,85722,1,2,0:0:0:0:
448,192,85722,1,0,0:0:0:0:
64,192,85825,1,2,0:0:0:0:
192,192,85825,1,8,0:0:0:0:
448,192,85825,1,0,0:0:0:0:
64,192,86030,1,2,0:0:0:0:
192,192,86030,1,0,0:0:0:0:
320,192,86133,1,2,0:0:0:0:
448,192,86133,1,0,0:0:0:0:
320,192,86235,1,2,0:0:0:0:
448,192,86235,1,0,0:0:0:0:
64,192,86338,1,2,0:0:0:0:
192,192,86338,1,0,0:0:0:0:
64,192,86440,1,2,0:0:0:0:
192,192,86440,1,8,0:0:0:0:
448,192,86440,1,0,0:0:0:0:
320,192,86645,1,2,0:0:0:0:
448,192,86645,1,0,0:0:0:0:
64,192,86748,1,2,0:0:0:0:
192,192,86748,1,0,0:0:0:0:
64,192,86851,1,2,0:0:0:0:
192,192,86851,1,0,0:0:0:0:
320,192,86953,1,2,0:0:0:0:
448,192,86953,1,0,0:0:0:0:
64,192,87056,1,2,0:0:0:0:
320,192,87056,1,8,0:0:0:0:
448,192,87056,1,0,0:0:0:0:
192,192,87261,128,2,87312:0:0:0:0:
320,192,87312,128,2,87363:0:0:0:0:
64,192,87363,128,2,87671:0:0:0:0:
192,192,87363,1,4,0:0:0:0:
448,192,87363,1,0,0:0:0:0:
320,192,87466,1,0,0:0:0:0:
448,192,87568,1,0,0:0:0:0:
192,192,87671,1,2,0:0:0:0:
448,192,87671,1,8,0:0:0:0:
192,192,87876,1,0,0:0:0:0:
320,192,87979,1,2,0:0:0:0:
448,192,87979,128,0,88286:0:0:0:0:
64,192,88081,1,0,0:0:0:0:
192,192,88184,1,2,0:0:0:0:
320,192,88184,1,0,0:0:0:0:
64,192,88286,1,2,0:0:0:0:
320,192,88286,1,8,0:0:0:0:
320,192,88492,1,2,0:0:0:0:
448,192,88492,1,0,0:0:0:0:
64,192,88594,1,2,0:0:0:0:
320,192,88594,1,4,0:0:0:0:
448,192,88594,128,0,88902:0:0:0:0:
192,192,88697,1,0,0:0:0:0:
64,192,88799,1,0,0:0:0:0:
64,192,88902,1,2,0:0:0:0:
320,192,88902,1,8,0:0:0:0:
192,192,89004,1,0,0:0:0:0:
448,192,89107,128,0,89158:0:0:0:0:
320,192,89158,128,0,89210:0:0:0:0:
64,192,89210,1,2,0:0:0:0:
192,192,89210,1,0,0:0:0:35:LR_Snare Low Wet.wav
192,192,89312,1,2,0:0:0:0:
320,192,89312,1,0,0:0:0:35:LR_Snare Low Wet.wav
320,192,89415,1,2,0:0:0:0:
448,192,89415,1,0,0:0:0:35:LR_Snare Low Wet.wav
64,192,89517,128,0,89722:0:0:0:70:LR_Snare Clap Low.wav
192,192,89517,128,0,89722:0:0:0:0:
448,192,89517,128,0,89722:0:0:0:0:
64,192,89825,128,2,90030:0:0:0:0:
320,192,89825,1,4,0:0:0:0:
448,192,89825,1,0,0:0:0:70:LR_Chm Echo long.wav
192,192,89927,128,0,90133:0:0:0:0:
320,192,90030,128,0,90235:0:0:0:0:
64,192,90133,128,2,90338:0:0:0:0:
448,192,90133,128,8,90235:0:0:0:0:
192,192,90235,128,0,90440:0:0:0:0:
448,192,90338,128,0,90543:0:0:0:0:
320,192,90440,128,2,90645:0:0:0:0:
64,192,90543,1,0,0:0:0:0:
192,192,90645,128,2,90851:0:0:0:0:
64,192,90748,128,2,90851:0:0:0:0:
448,192,90748,128,8,90953:0:0:0:0:
320,192,90851,128,0,91056:0:0:0:0:
64,192,90953,128,2,91158:0:0:0:0:
192,192,91056,128,2,91261:0:0:0:0:
448,192,91158,128,0,91261:0:0:0:0:
64,192,91261,128,0,91466:0:0:0:0:
320,192,91363,128,2,91466:0:0:0:0:
448,192,91363,128,8,91466:0:0:0:0:
64,192,91568,1,0,0:0:0:0:
320,192,91671,128,2,91876:0:0:0:0:
448,192,91774,128,2,91876:0:0:0:0:
192,192,91876,128,2,92081:0:0:0:0:
320,192,91979,128,2,92081:0:0:0:0:
448,192,91979,128,8,92184:0:0:0:0:
64,192,92081,128,0,92184:0:0:0:0:
320,192,92184,128,0,92235:0:0:0:0:
192,192,92235,128,0,92286:0:0:0:0:
64,192,92286,1,2,0:0:0:0:
320,192,92286,1,4,0:0:0:0:
448,192,92286,1,0,0:0:0:0:
192,192,92389,1,0,0:0:0:0:
320,192,92492,1,0,0:0:0:0:
64,192,92594,128,2,92697:0:0:0:0:
448,192,92594,128,8,92697:0:0:0:0:
64,192,92748,128,0,92851:0:0:0:0:
192,192,92799,128,0,92902:0:0:0:0:
320,192,92851,128,0,92953:0:0:0:0:
448,192,92902,128,2,93107:0:0:0:0:
192,192,93004,128,0,93210:0:0:0:0:
64,192,93107,128,2,93312:0:0:0:0:
320,192,93210,128,2,93415:0:0:0:0:
448,192,93210,128,8,93312:0:0:0:0:
192,192,93312,128,0,93517:0:0:0:0:
64,192,93415,128,0,93620:0:0:0:0:
448,192,93517,128,2,93722:0:0:0:0:
320,192,93620,128,0,93825:0:0:0:0:
192,192,93722,128,0,93927:0:0:0:0:
64,192,93825,128,2,94030:0:0:0:0:
448,192,93825,128,8,93927:0:0:0:0:
320,192,93927,128,0,94133:0:0:0:0:
192,192,94030,128,0,94235:0:0:0:0:
448,192,94133,128,2,94338:0:0:0:0:
320,192,94235,128,2,94338:0:0:0:0:
64,192,94338,128,2,94543:0:0:0:0:
320,192,94440,128,2,94543:0:0:0:0:
448,192,94440,128,8,94645:0:0:0:0:
192,192,94543,128,0,94645:0:0:0:0:
64,192,94645,128,2,94748:0:0:0:0:
192,192,94748,1,2,0:0:0:0:
320,192,94748,1,4,0:0:0:0:
448,192,94748,1,0,0:0:0:0:
64,192,94851,1,0,0:0:0:0:
320,192,94953,1,0,0:0:0:0:
64,192,95056,128,2,95158:0:0:0:0:
448,192,95056,128,8,95158:0:0:0:0:
192,192,95261,128,0,95466:0:0:0:0:
448,192,95363,128,2,95568:0:0:0:0:
320,192,95466,128,0,95671:0:0:0:0:
192,192,95568,128,2,95774:0:0:0:0:
64,192,95671,128,2,95774:0:0:0:0:
448,192,95671,128,8,95876:0:0:0:0:
320,192,95774,128,0,95979:0:0:0:0:
64,192,95876,128,2,96081:0:0:0:0:
192,192,95979,128,2,96184:0:0:0:0:
448,192,96081,1,0,0:0:0:0:
64,192,96184,1,0,0:0:0:0:
320,192,96286,128,2,96389:0:0:0:0:
448,192,96286,128,8,96389:0:0:0:0:
192,192,96492,128,0,96697:0:0:0:0:
448,192,96594,128,2,96799:0:0:0:0:
320,192,96697,128,0,96902:0:0:0:0:
192,192,96799,128,2,96902:0:0:0:0:
64,192,96902,128,2,97107:0:0:0:0:
448,192,96902,128,8,97004:0:0:0:0:
192,192,97004,128,0,97107:0:0:0:0:
320,192,97107,128,2,97210:0:0:0:0:
64,192,97210,1,2,0:0:0:0:
192,192,97210,1,4,0:0:0:0:
448,192,97210,1,0,0:0:0:0:
320,192,97312,1,0,0:0:0:0:
192,192,97415,1,0,0:0:0:0:
64,192,97517,1,2,0:0:0:0:
448,192,97517,1,8,0:0:0:0:
320,192,97568,1,2,0:0:0:0:
192,192,97620,1,2,0:0:0:0:
448,192,97671,1,2,0:0:0:0:
320,192,97722,1,2,0:0:0:0:
192,192,97774,1,2,0:0:0:0:
64,192,97825,1,2,0:0:0:0:
320,192,97825,1,4,0:0:0:0:
448,192,97825,1,0,0:0:0:0:
192,192,97927,1,0,0:0:0:0:
320,192,98030,1,0,0:0:0:0:
64,192,98133,1,2,0:0:0:0:
448,192,98133,1,8,0:0:0:0:
192,192,98184,1,2,0:0:0:0:
320,192,98235,1,2,0:0:0:0:
64,192,98286,1,2,0:0:0:0:
192,192,98338,1,2,0:0:0:0:
320,192,98389,1,2,0:0:0:0:
64,192,98440,1,2,0:0:0:0:
192,192,98440,1,4,0:0:0:0:
448,192,98440,128,0,98543:0:0:0:0:
64,192,98543,128,0,98748:0:0:0:0:
448,192,98645,128,0,98748:0:0:0:0:
192,192,98748,128,10,98851:0:0:0:0:
320,192,98748,1,4,0:0:0:0:
320,192,98851,128,0,99056:0:0:0:0:
192,192,98953,128,0,99056:0:0:0:0:
64,192,99056,1,2,0:0:0:0:
448,192,99056,1,4,0:0:0:0:
320,192,99158,1,2,0:0:0:0:
448,192,99158,1,0,0:0:0:0:
64,192,99261,1,2,0:0:0:0:
192,192,99261,1,0,0:0:0:0:
64,192,99363,1,2,0:0:0:0:
320,192,99363,1,8,0:0:0:0:
448,192,99363,1,4,0:0:0:0:
320,192,99466,1,0,0:0:0:0:
192,192,99568,1,0,0:0:0:0:
64,192,99671,128,2,99876:0:0:0:0:
320,192,99671,1,4,0:0:0:0:
448,192,99671,1,0,0:0:0:0:
192,192,99774,128,0,99979:0:0:0:0:
320,192,99876,128,0,100081:0:0:0:0:
64,192,99979,128,2,100184:0:0:0:0:
448,192,99979,128,8,100081:0:0:0:0:
192,192,100081,128,0,100286:0:0:0:0:
448,192,100184,128,0,100389:0:0:0:0:
320,192,100286,128,2,100492:0:0:0:0:
64,192,100389,1,0,0:0:0:0:
192,192,100492,128,2,100697:0:0:0:0:
64,192,100594,128,2,100697:0:0:0:0:
448,192,100594,128,8,100799:0:0:0:0:
320,192,100697,128,0,100902:0:0:0:0:
64,192,100799,128,2,101004:0:0:0:0:
192,192,100902,128,2,101107:0:0:0:0:
448,192,101004,128,0,101107:0:0:0:0:
64,192,101107,128,0,101312:0:0:0:0:
320,192,101210,128,2,101312:0:0:0:0:
448,192,101210,128,8,101312:0:0:0:0:
320,192,101415,1,0,0:0:0:0:
64,192,101517,128,2,101722:0:0:0:0:
192,192,101620,128,2,101722:0:0:0:0:
320,192,101722,128,2,101825:0:0:0:0:
64,192,101825,128,2,101927:0:0:0:0:
192,192,101825,128,8,102030:0:0:0:0:
320,192,101927,128,0,102030:0:0:0:0:
448,192,102030,128,0,102133:0:0:0:0:
64,192,102133,1,2,0:0:0:0:
192,192,102133,1,4,0:0:0:0:
320,192,102133,1,0,0:0:0:0:
448,192,102235,1,0,0:0:0:0:
192,192,102338,1,0,0:0:0:0:
64,192,102440,128,2,102543:0:0:0:0:
448,192,102440,128,8,102543:0:0:0:0:
64,192,102594,128,0,102697:0:0:0:0:
192,192,102645,128,0,102748:0:0:0:0:
320,192,102697,128,0,102799:0:0:0:0:
448,192,102748,128,2,102953:0:0:0:0:
192,192,102851,128,0,103056:0:0:0:0:
64,192,102953,128,2,103158:0:0:0:0:
320,192,103056,128,2,103261:0:0:0:0:
448,192,103056,128,8,103158:0:0:0:0:
192,192,103158,128,0,103363:0:0:0:0:
64,192,103261,128,0,103466:0:0:0:0:
448,192,103363,128,2,103568:0:0:0:0:
320,192,103466,128,0,103671:0:0:0:0:
192,192,103568,128,0,103774:0:0:0:0:
64,192,103671,128,2,103876:0:0:0:0:
448,192,103671,128,8,103774:0:0:0:0:
320,192,103774,128,0,103979:0:0:0:0:
192,192,103876,128,0,104081:0:0:0:0:
448,192,103979,128,2,104184:0:0:0:0:
320,192,104081,128,2,104184:0:0:0:0:
64,192,104184,128,2,104389:0:0:0:0:
320,192,104286,128,2,104389:0:0:0:0:
448,192,104286,128,8,104492:0:0:0:0:
192,192,104389,128,0,104492:0:0:0:0:
64,192,104492,128,2,104594:0:0:0:0:
192,192,104594,1,2,0:0:0:0:
320,192,104594,1,4,0:0:0:0:
448,192,104594,1,0,0:0:0:0:
192,192,104799,1,0,0:0:0:0:
64,192,104902,128,2,105004:0:0:0:0:
448,192,104902,128,8,105004:0:0:0:0:
320,192,105107,128,0,105210:0:0:0:0:
448,192,105210,128,2,105415:0:0:0:0:
320,192,105312,128,0,105517:0:0:0:0:
192,192,105415,128,2,105620:0:0:0:0:
64,192,105517,128,2,105620:0:0:0:0:
448,192,105517,128,8,105722:0:0:0:0:
320,192,105620,128,0,105825:0:0:0:0:
64,192,105722,128,2,105927:0:0:0:0:
192,192,105825,128,2,106030:0:0:0:0:
448,192,105927,1,0,0:0:0:0:
320,192,106030,1,0,0:0:0:0:
64,192,106133,128,2,106235:0:0:0:0:
448,192,106133,128,8,106235:0:0:0:0:
320,192,106338,128,0,106440:0:0:0:0:
448,192,106440,128,2,106645:0:0:0:0:
320,192,106543,128,0,106748:0:0:0:0:
192,192,106645,128,2,106748:0:0:0:0:
64,192,106748,128,2,106953:0:0:0:0:
448,192,106748,128,8,106851:0:0:0:0:
192,192,106851,128,0,106953:0:0:0:0:
320,192,106953,128,2,107056:0:0:0:0:
64,192,107056,1,2,0:0:0:0:
192,192,107056,1,4,0:0:0:0:
448,192,107056,1,0,0:0:0:0:
320,192,107158,1,0,0:0:0:0:
192,192,107261,1,0,0:0:0:0:
64,192,107363,1,2,0:0:0:0:
448,192,107363,1,8,0:0:0:0:
320,192,107415,1,2,0:0:0:0:
192,192,107466,1,2,0:0:0:0:
448,192,107517,1,2,0:0:0:0:
320,192,107568,1,2,0:0:0:0:
192,192,107620,1,2,0:0:0:0:
64,192,107671,1,2,0:0:0:0:
320,192,107671,1,4,0:0:0:0:
448,192,107671,1,0,0:0:0:0:
192,192,107774,1,0,0:0:0:0:
320,192,107876,1,0,0:0:0:0:
64,192,107979,1,2,0:0:0:0:
448,192,107979,1,8,0:0:0:0:
192,192,108030,1,2,0:0:0:0:
320,192,108081,1,2,0:0:0:0:
64,192,108133,1,2,0:0:0:0:
192,192,108184,1,2,0:0:0:0:
320,192,108235,1,2,0:0:0:0:
64,192,108286,1,2,0:0:0:0:
192,192,108286,1,4,0:0:0:0:
448,192,108286,1,0,0:0:0:0:
320,192,108389,1,0,0:0:0:0:
448,192,108389,1,0,0:0:0:0:
64,192,108492,1,0,0:0:0:0:
192,192,108492,1,0,0:0:0:0:
64,192,108594,1,2,0:0:0:0:
320,192,108594,1,8,0:0:0:0:
448,192,108594,1,4,0:0:0:0:
320,192,108697,1,0,0:0:0:0:
448,192,108697,1,0,0:0:0:0:
64,192,108799,1,0,0:0:0:0:
192,192,108799,1,0,0:0:0:0:
64,192,108902,1,2,0:0:0:0:
192,192,108902,1,4,0:0:0:0:
448,192,108902,1,0,0:0:0:0:
320,192,109004,1,2,0:0:0:0:
448,192,109004,1,0,0:0:0:0:
64,192,109107,1,2,0:0:0:0:
192,192,109107,1,0,0:0:0:0:
320,192,109210,1,10,0:0:0:0:
448,192,109210,1,4,0:0:0:0:
192,192,109312,1,0,0:0:0:0:
320,192,109415,1,0,0:0:0:0:
64,192,109517,1,4,0:0:0:0:
448,192,109517,1,0,0:0:0:70:LR_Chm Echo long.wav
192,192,109620,1,0,0:0:0:0:
320,192,109722,1,0,0:0:0:0:
64,192,109825,1,8,0:0:0:0:
448,192,109825,1,0,0:0:0:0:
192,192,109927,1,0,0:0:0:0:
320,192,110030,1,0,0:0:0:0:
64,192,110133,1,0,0:0:0:0:
448,192,110133,1,0,0:0:0:0:
192,192,110338,1,0,0:0:0:0:
64,192,110440,1,8,0:0:0:0:
448,192,110440,1,0,0:0:0:0:
320,192,110543,1,0,0:0:0:0:
192,192,110645,1,0,0:0:0:0:
64,192,110748,1,0,0:0:0:0:
448,192,110748,1,0,0:0:0:0:
320,192,110851,1,0,0:0:0:0:
192,192,110953,1,0,0:0:0:0:
64,192,111056,1,8,0:0:0:0:
448,192,111056,1,0,0:0:0:0:
64,192,111363,1,0,0:0:0:0:
448,192,111363,1,0,0:0:0:0:
192,192,111466,1,0,0:0:0:0:
64,192,111568,1,8,0:0:0:0:
320,192,111568,1,0,0:0:0:0:
192,192,111671,1,8,0:0:0:0:
448,192,111671,1,0,0:0:0:0:
320,192,111774,1,0,0:0:0:0:
192,192,111876,1,0,0:0:0:0:
320,192,111927,1,0,0:0:0:0:
64,192,111979,128,0,112184:0:0:0:0:
448,192,111979,1,0,0:0:0:0:
192,192,112081,128,0,112286:0:0:0:0:
320,192,112184,128,0,112389:0:0:0:0:
448,192,112286,128,8,112492:0:0:0:0:
192,192,112389,128,0,112594:0:0:0:0:
64,192,112492,128,0,112697:0:0:0:0:
448,192,112594,128,0,112799:0:0:0:0:
320,192,112697,128,0,112902:0:0:0:0:
192,192,112799,128,0,113004:0:0:0:0:
448,192,112902,128,8,113107:0:0:0:0:
320,192,113004,128,0,113210:0:0:0:0:
64,192,113107,128,0,113312:0:0:0:0:
448,192,113210,128,0,113415:0:0:0:0:
192,192,113312,128,0,113517:0:0:0:0:
64,192,113415,128,0,113620:0:0:0:0:
320,192,113517,128,8,113722:0:0:0:0:
192,192,113620,128,0,113825:0:0:0:0:
64,192,113722,128,0,113927:0:0:0:0:
448,192,113825,128,0,114030:0:0:0:0:
320,192,113927,128,0,114133:0:0:0:0:
192,192,114030,128,8,114235:0:0:0:0:
64,192,114133,128,8,114338:0:0:0:0:
448,192,114235,128,0,114440:0:0:0:0:
320,192,114338,128,8,114440:0:0:0:0:
64,192,114440,1,4,0:0:0:0:
192,192,114440,1,0,0:0:0:0:
64,192,114748,1,8,0:0:0:0:
448,192,114748,1,0,0:0:0:0:
64,192,114953,128,0,115158:0:0:0:0:
448,192,115056,128,0,115261:0:0:0:0:
320,192,115158,128,0,115363:0:0:0:0:
192,192,115261,128,0,115466:0:0:0:0:
64,192,115363,128,8,115568:0:0:0:0:
448,192,115466,128,0,115671:0:0:0:0:
320,192,115568,128,0,115671:0:0:0:0:
64,192,115671,1,0,0:0:0:0:
192,192,115671,1,0,0:0:0:0:
64,192,115979,1,8,0:0:0:0:
448,192,115979,1,0,0:0:0:0:
64,192,116184,128,0,116389:0:0:0:0:
448,192,116286,128,0,116492:0:0:0:0:
320,192,116389,128,0,116594:0:0:0:0:
192,192,116492,128,8,116697:0:0:0:0:
448,192,116594,128,8,116799:0:0:0:0:
64,192,116697,128,0,116902:0:0:0:0:
192,192,116799,128,0,116902:0:0:0:0:
320,192,116902,128,0,116953:0:0:0:0:
448,192,116902,128,0,117004:0:0:0:0:
64,192,117210,1,8,0:0:0:0:
448,192,117210,1,0,0:0:0:0:
192,192,117415,1,0,0:0:0:0:
64,192,117517,128,0,117620:0:0:0:0:
448,192,117517,1,0,0:0:0:0:
64,192,117825,1,8,0:0:0:0:
448,192,117825,1,0,0:0:0:0:
320,192,118030,1,0,0:0:0:0:
64,192,118133,1,4,0:0:0:0:
192,192,118133,1,0,0:0:0:0:
448,192,118133,128,0,118338:0:0:0:0:
320,192,118235,128,0,118338:0:0:0:0:
192,192,118338,128,0,118440:0:0:0:0:
320,192,118440,128,4,118645:0:0:0:0:
192,192,118543,128,0,118748:0:0:0:0:
64,192,118645,128,0,118851:0:0:0:0:
448,192,118748,128,4,118953:0:0:0:0:
320,192,118851,128,0,118953:0:0:0:0:
64,192,118953,128,0,119056:0:0:0:0:
192,192,119004,128,0,119107:0:0:0:0:
320,192,119056,128,4,119261:0:0:0:0:
64,192,119158,128,0,119363:0:0:0:0:
192,192,119261,128,0,119363:0:0:0:0:
320,192,119363,1,4,0:0:0:0:
448,192,119363,1,0,0:0:0:0:
192,192,119466,1,0,0:0:0:0:
320,192,119568,1,0,0:0:0:0:
64,192,119671,1,0,0:0:0:0:
320,192,119774,1,0,0:0:0:0:
448,192,119876,1,0,0:0:0:0:
192,192,119979,1,0,0:0:0:0:
448,192,120184,1,0,0:0:0:0:
320,192,120286,1,0,0:0:0:0:
192,192,120389,1,0,0:0:0:0:
64,192,120492,1,0,0:0:0:0:
320,192,120594,1,0,0:0:0:0:
448,192,120697,1,0,0:0:0:0:
64,192,120799,1,0,0:0:0:0:
320,192,120902,1,0,0:0:0:0:
64,192,121210,1,0,0:0:0:0:
192,192,121312,1,0,0:0:0:0:
448,192,121415,1,0,0:0:0:0:
64,192,121517,1,0,0:0:0:0:
320,192,121620,1,0,0:0:0:0:
448,192,121722,1,0,0:0:0:0:
320,192,121825,1,0,0:0:0:0:
192,192,122030,128,0,122081:0:0:0:0:
448,192,122133,128,0,122184:0:0:0:0:
64,192,122645,128,0,122697:0:0:0:0:
320,192,122748,128,0,122799:0:0:0:0:
192,192,123261,128,0,123312:0:0:0:0:
448,192,123363,128,0,123415:0:0:0:0:
64,192,123876,128,0,123927:0:0:0:0:
320,192,123979,128,0,124030:0:0:0:0:
192,192,124081,128,0,124133:0:0:0:0:
448,192,124184,128,0,124235:0:0:0:0:
320,192,124286,128,0,124338:0:0:0:0:
64,192,124492,1,0,0:0:0:0:
320,192,124594,1,0,0:0:0:0:
448,192,124697,1,0,0:0:0:0:
64,192,124799,1,0,0:0:0:0:
192,192,124902,1,0,0:0:0:0:
64,192,125107,128,0,125158:0:0:0:0:
320,192,125210,128,0,125261:0:0:0:0:
192,192,125312,128,0,125363:0:0:0:0:
448,192,125415,128,0,125466:0:0:0:0:
320,192,125517,128,0,125568:0:0:0:0:
64,192,125722,1,0,0:0:0:0:
320,192,125825,1,0,0:0:0:0:
448,192,125927,1,0,0:0:0:0:
320,192,126030,1,0,0:0:0:0:
192,192,126133,1,0,0:0:0:0:
64,192,126338,128,0,126389:0:0:0:0:
192,192,126440,128,0,126492:0:0:0:0:
320,192,126543,128,0,126594:0:0:0:0:
192,192,126645,128,0,126697:0:0:0:0:
320,192,126697,128,0,126748:0:0:0:0:
448,192,126748,128,0,126799:0:0:0:0:
64,192,127056,128,0,127107:0:0:0:0:
64,192,127158,128,0,127210:0:0:0:0:
64,192,127261,128,0,127312:0:0:0:0:
192,192,127363,128,0,127415:0:0:0:0:
192,192,127671,128,0,127722:0:0:0:0:
192,192,127774,128,0,127825:0:0:0:0:
192,192,127876,128,0,127927:0:0:0:0:
448,192,127979,128,0,128030:0:0:0:0:
448,192,128286,128,0,128338:0:0:0:0:
448,192,128389,128,0,128440:0:0:0:0:
448,192,128492,128,0,128543:0:0:0:0:
192,192,128594,128,0,128645:0:0:0:0:
320,192,128851,128,0,128902:0:0:0:0:
448,192,128902,128,0,128953:0:0:0:70:LR_Chm Echo long.wav
