osu file format v14

[General]
AudioFilename: audio.mp3
AudioLeadIn: 0
PreviewTime: 87261
Countdown: 0
SampleSet: Soft
StackLeniency: 0.7
Mode: 2
LetterboxInBreaks: 0
WidescreenStoryboard: 1

[Editor]
Bookmarks: 1210,6133,8184,11056,15979,20902,25825,30748,50440,70133,78133
DistanceSpacing: 1.6
BeatDivisor: 3
GridSize: 32
TimelineZoom: 1.8

[Metadata]
Title:For You the Bellz Toll
TitleUnicode:For You the Bellz Toll
Artist:Yanagida Ethnica
ArtistUnicode:柳田Ethnica
Creator:Jemzuu
Version:Salad
Source:Cytus II
Tags:ajamez rew0825 kukkai -luminate xmas 2 christmas ayatsugu_otowa rayark inc NEKO#ΦωΦ NEKO electronic instrumental video game yanagita yanaida
BeatmapID:3365888
BeatmapSetID:1331140

[Difficulty]
HPDrainRate:3
CircleSize:3
OverallDifficulty:7
ApproachRate:7
SliderMultiplier:1.32
SliderTickRate:1

[Events]
//Background and Video events
0,0,"For_You_the_Bellz_Toll.jpg",0,0
//Break Periods
//Storyboard Layer 0 (Background)
//Storyboard Layer 1 (Fail)
//Storyboard Layer 2 (Pass)
//Storyboard Layer 3 (Foreground)
//Storyboard Layer 4 (Overlay)
//Storyboard Sound Samples

[TimingPoints]
1210,307.692307692308,4,2,1,50,1,0
1312,-100,4,2,1,50,0,0
3671,-100,4,2,1,60,0,0
6133,-100,4,2,1,70,0,0
7363,-100,4,2,1,75,0,0
8594,-100,4,2,1,80,0,0
9825,-100,4,2,1,90,0,0
10748,-100,4,2,2,90,0,0
11056,-100,4,2,1,65,0,0
40594,-100,4,2,1,70,0,0
47979,-100,4,2,1,60,0,0
50440,-100,4,2,1,65,0,0
60286,-100,4,2,1,70,0,0
67671,-100,4,2,1,60,0,0
70235,-100,4,2,1,60,0,0
75056,-100,4,2,1,70,0,0
84902,-100,4,2,1,75,0,0
86133,-100,4,2,1,80,0,0
87363,-100,4,2,1,85,0,0
89517,-100,4,2,2,90,0,0
89723,-100,4,2,1,90,0,0
89825,-100,4,2,1,90,0,1
109517,-100,4,2,1,60,0,0
109620,-100,4,2,1,60,0,0
114338,-100,4,2,1,50,0,0
119363,-100,4,2,1,40,0,0
119466,-100,4,2,1,40,0,0
124286,-100,4,2,1,30,0,0
126748,-100,4,2,1,50,0,0

[Colours]
Combo1 : 255,183,111
Combo2 : 255,128,128
Combo3 : 255,255,128

[HitObjects]
406,126,1210,6,0,L|260:108,1,132,2|2,3:0|0:0,0:0:0:0:
136,184,1825,2,0,L|292:202,1,132,2|2,0:0|0:0,0:0:0:0:
129,289,2440,2,0,L|0:230,1,132,2|2,0:0|0:0,0:0:0:0:
141,157,3056,2,0,L|288:124,1,132,2|2,0:0|0:0,0:0:0:0:
466,331,3568,1,0,3:0:0:0:
459,268,3671,6,0,L|299:235,1,132,2|2,3:0|2:0,0:0:0:0:
189,253,4286,2,0,L|172:100,1,132,2|2,2:0|2:0,0:0:0:0:
322,108,4902,6,0,L|481:86,1,132,2|2,3:0|3:2,0:0:0:0:
301,26,5517,1,2,3:2:0:0:
257,35,5619,1,0,3:0:0:0:
214,44,5722,1,0,3:0:0:0:
171,53,5824,1,2,3:2:0:0:
423,129,6133,6,0,L|434:291,1,132,4|8,3:2|1:0,0:0:0:0:
290,311,6748,2,0,L|399:319,1,88,0|0,3:0|1:0,0:0:0:0:
424,330,7056,1,8,1:0:0:0:
183,353,7363,5,4,3:2:0:0:
141,342,7465,1,0,1:0:0:0:
125,302,7568,1,0,1:0:0:0:
147,266,7670,1,8,1:0:0:0:
287,242,7979,5,0,3:0:0:0:
328,231,8081,1,0,1:0:0:0:
344,191,8184,1,0,1:0:0:0:
322,155,8286,1,8,1:0:0:0:
74,136,8594,6,0,L|72:35,1,88,4|0,3:2|1:0,0:0:0:0:
118,42,8902,1,8,1:0:0:0:
265,73,9210,2,0,L|358:84,1,88,4|0,3:2|1:0,0:0:0:0:
306,113,9517,1,8,1:0:0:0:
58,151,9825,5,4,3:2:0:0:
35,190,9927,1,0,1:0:0:0:
59,233,10030,1,0,1:0:0:0:
104,247,10132,1,8,1:0:0:0:
201,315,10337,1,0,1:0:0:0:
159,316,10440,1,4,2:0:0:0:
24,357,10748,1,8,1:0:0:0:
281,361,11056,6,0,L|291:189,1,132,4|8,3:2|1:0,0:0:0:0:
419,178,11671,2,0,L|253:154,1,132,0|8,3:0|1:0,0:0:0:0:
150,84,12286,2,0,L|285:66,1,132,0|8,3:0|1:0,0:0:0:0:
140,186,12902,2,0,L|-8:153,1,132,0|8,3:0|1:0,0:0:0:0:
267,80,13517,6,0,L|273:175,1,88,4|0,3:2|1:0,0:0:0:0:
224,185,13825,1,8,1:0:0:0:
83,260,14133,2,0,L|179:289,1,88,0|0,3:0|1:0,0:0:0:0:
214,307,14440,1,8,1:0:0:0:
316,349,14645,1,0,1:0:0:0:
364,324,14748,6,0,L|207:300,1,132,0|8,0:0|1:0,0:0:0:0:
140,253,15261,2,0,L|133:189,1,44,0|0,1:0|3:0,0:0:0:0:
227,181,15568,2,0,L|295:171,1,44,0|8,1:0|1:0,0:0:0:0:
478,180,15876,1,0,1:0:0:0:
472,131,15979,6,0,L|359:100,1,88,4|0,3:2|1:0,0:0:0:0:
343,95,16286,1,8,1:0:0:0:
238,95,16492,2,0,L|232:28,1,44,0|0,1:0|3:0,0:0:0:0:
330,38,16799,2,0,L|338:110,1,44,0|8,1:0|1:0,0:0:0:0:
237,154,17107,6,0,L|179:166,1,44,0|0,1:0|3:0,0:0:0:0:
100,228,17415,2,0,L|154:244,1,44,0|8,1:0|1:0,0:0:0:0:
234,302,17722,2,0,L|169:319,1,44,0|0,1:0|3:0,0:0:0:0:
91,319,18030,2,0,L|86:260,1,44,0|8,1:0|1:0,0:0:0:0:
297,215,18338,5,0,1:0:0:0:
299,175,18440,2,0,L|180:160,1,88,4|0,3:2|1:0,0:0:0:0:
165,151,18748,1,8,1:0:0:0:
248,82,18953,2,0,L|300:73,1,44,0|0,1:0|3:0,0:0:0:0:
390,77,19261,2,0,L|305:89,1,44,0|8,1:0|1:0,0:0:0:0:
257,130,19568,5,0,1:0:0:0:
211,146,19671,2,0,L|209:293,1,132,0|8,0:0|1:0,0:0:0:0:
296,329,20184,2,0,L|371:328,1,44,0|0,1:0|3:0,0:0:0:0:
429,271,20492,2,0,L|359:268,1,44,0|8,1:0|1:0,0:0:0:0:
175,355,20799,1,0,1:0:0:0:
130,352,20902,6,0,P|78:317|77:234,1,132,4|8,3:2|1:0,0:0:0:0:
210,177,21517,2,0,L|374:157,1,132,0|8,3:0|1:0,0:0:0:0:
195,78,22133,6,0,L|43:37,1,132,0|8,3:0|1:0,0:0:0:0:
216,144,22748,2,0,L|224:257,1,88,0|0,3:0|1:0,0:0:0:0:
268,251,23056,1,8,1:0:0:0:
466,338,23261,1,0,1:0:0:0:
465,286,23363,6,0,L|301:264,1,132,4|8,3:2|1:0,0:0:0:0:
196,180,23979,2,0,L|312:160,1,88,0|0,3:0|1:0,0:0:0:0:
328,155,24286,1,8,1:0:0:0:
234,82,24492,6,0,L|159:70,1,44,0|0,1:0|3:0,0:0:0:0:
48,86,24902,2,0,L|43:195,1,88,8|0,1:0|1:0,0:0:0:0:
90,188,25210,1,0,3:0:0:0:
185,232,25415,2,0,L|238:236,1,44,0|8,1:0|1:0,0:0:0:0:
438,350,25722,1,0,1:0:0:0:
481,347,25825,6,0,L|484:229,1,88,4|0,3:2|1:0,0:0:0:0:
438,237,26133,1,8,1:0:0:0:
344,213,26338,2,0,L|338:148,1,44,0|0,1:0|3:0,0:0:0:0:
243,149,26645,6,0,L|392:224,1,132,0|0,1:0|1:0,0:0:0:0:
318,239,27056,1,0,3:0:0:0:
233,136,27261,2,0,L|168:149,1,44,0|8,1:0|1:0,0:0:0:0:
102,229,27568,2,0,L|161:245,1,44,0|0,1:0|3:0,0:0:0:0:
244,263,27876,2,0,L|298:267,1,44,0|8,1:0|1:0,0:0:0:0:
85,357,28184,1,0,1:0:0:0:
38,346,28286,6,0,L|34:210,1,132,4|8,3:2|1:0,0:0:0:0:
182,171,28902,2,0,L|81:152,1,88,0|0,3:0|1:0,0:0:0:0:
50,143,29210,1,8,1:0:0:0:
147,57,29415,6,0,L|201:58,1,44,0|0,1:0|3:0,0:0:0:0:
330,136,29825,2,0,L|177:151,1,132,8|0,1:0|3:0,0:0:0:0:
196,259,30338,2,0,L|249:268,1,44,0|8,1:0|1:0,0:0:0:0:
447,345,30645,1,0,1:0:0:0:
444,299,30748,6,0,L|292:288,1,132,4|8,3:2|1:0,0:0:0:0:
165,200,31363,2,0,L|267:188,1,88,0|0,3:0|1:0,0:0:0:0:
297,169,31671,1,8,1:0:0:0:
393,100,31876,6,0,L|326:89,1,44,0|0,1:0|3:0,0:0:0:0:
253,98,32184,2,0,L|246:38,1,44,0|8,1:0|1:0,0:0:0:0:
155,47,32492,2,0,L|203:46,1,44,0|0,1:0|3:0,0:0:0:0:
289,151,32799,2,0,L|232:164,1,44,0|8,1:0|1:0,0:0:0:0:
48,216,33107,1,0,1:0:0:0:
47,279,33210,6,0,L|190:304,1,132,4|8,3:2|1:0,0:0:0:0:
305,324,33825,2,0,L|140:340,1,132,0|8,3:0|1:0,0:0:0:0:
270,366,34338,6,0,L|317:369,1,44,0|0,1:0|3:0,0:0:0:0:
408,351,34645,2,0,L|417:284,1,44,0|8,1:0|1:0,0:0:0:0:
321,273,34953,2,0,L|316:201,1,44,0|0,1:0|3:0,0:0:0:0:
413,194,35261,2,0,L|465:195,1,44,0|8,1:0|1:0,0:0:0:0:
247,126,35568,1,0,1:0:0:0:
199,131,35671,6,0,L|192:252,1,88,4|0,3:2|1:0,0:0:0:0:
238,232,35979,1,8,1:0:0:0:
328,282,36184,2,0,L|265:295,1,44,0|0,1:0|3:0,0:0:0:0:
192,320,36492,2,0,L|134:329,1,44,0|8,0:0|1:0,0:0:0:0:
55,264,36799,6,0,L|186:251,2,132,0|0|0,1:0|1:0|1:0,0:0:0:0:
51,222,37517,1,0,3:0:0:0:
140,173,37722,2,0,L|216:166,1,44,0|8,1:0|1:0,0:0:0:0:
393,121,38030,1,0,1:0:0:0:
441,131,38133,6,0,L|446:235,1,88,4|0,3:2|1:0,0:0:0:0:
399,228,38440,1,8,1:0:0:0:
304,250,38645,2,0,L|299:300,1,44,0|0,1:0|3:0,0:0:0:0:
392,331,38953,2,0,L|450:332,1,44,0|8,1:0|1:0,0:0:0:0:
228,373,39261,1,0,1:0:0:0:
181,371,39363,6,0,L|174:228,1,132,0|8,3:0|1:0,0:0:0:0:
268,211,39876,2,0,L|326:199,1,44,0|4,1:0|3:2,0:0:0:0:
405,151,40184,2,0,L|333:140,1,44,0|8,1:0|1:0,0:0:0:0:
154,188,40492,5,0,1:0:0:0:
110,176,40594,2,0,L|254:153,1,132,4|8,3:2|1:0,0:0:0:0:
381,153,41210,2,0,L|413:109,2,44,0|0|0,3:0|3:0|1:0,0:0:0:0:
336,168,41517,1,8,1:0:0:0:
80,257,41825,6,0,L|72:108,1,132,4|8,3:2|1:0,0:0:0:0:
214,95,42440,1,0,3:0:0:0:
170,89,42542,1,0,3:0:0:0:
126,83,42645,1,0,1:0:0:0:
83,77,42747,1,8,1:0:0:0:
334,237,43056,6,0,L|497:212,1,132,4|8,3:2|1:0,0:0:0:0:
316,134,43671,2,0,L|284:90,2,44,0|0|0,3:0|3:0|1:0,0:0:0:0:
361,149,43978,1,8,1:0:0:0:
458,219,44184,1,0,1:0:0:0:
411,233,44286,6,0,L|266:255,1,132,0|8,3:0|1:0,0:0:0:0:
143,322,44902,1,0,3:0:0:0:
186,328,45004,1,0,3:0:0:0:
229,335,45107,1,0,1:0:0:0:
273,342,45209,1,8,1:0:0:0:
69,360,45415,1,0,1:0:0:0:
25,351,45517,6,0,L|19:225,1,88,4|0,3:2|0:0,0:0:0:0:
70,252,45825,1,8,1:0:0:0:
163,230,46030,2,0,L|168:164,1,44,0|0,0:0|3:0,0:0:0:0:
257,158,46338,2,0,L|323:153,1,44,0|8,3:0|1:0,0:0:0:0:
95,125,46645,1,0,1:0:0:0:
48,118,46748,6,0,L|148:103,1,88,4|0,3:2|0:0,0:0:0:0:
180,102,47056,1,8,1:0:0:0:
273,131,47261,2,0,L|279:185,1,44,0|0,0:0|3:0,0:0:0:0:
185,209,47568,2,0,L|117:224,1,44,0|8,3:0|1:0,0:0:0:0:
357,312,47876,1,0,1:0:0:0:
403,313,47979,6,0,L|497:204,1,132,4|8,3:2|1:0,0:0:0:0:
347,206,48594,2,0,L|339:80,1,88,0|0,3:0|3:0,0:0:0:0:
339,84,48902,1,8,1:0:0:0:
238,69,49107,1,0,1:0:0:0:
192,109,49210,6,0,L|342:134,1,132,0|8,3:0|1:0,0:0:0:0:
466,180,49825,1,0,3:0:0:0:
468,223,49927,1,0,1:0:0:0:
471,267,50030,1,0,3:0:0:0:
473,311,50132,1,8,1:0:0:0:
197,175,50440,6,0,L|188:347,1,132,4|8,3:2|1:0,0:0:0:0:
347,184,51055,2,0,L|245:196,1,88,0|0,3:0|0:0,0:0:0:0:
215,215,51363,1,8,1:0:0:0:
119,284,51568,6,0,L|186:295,1,44,0|0,1:0|3:0,0:0:0:0:
259,286,51876,2,0,L|266:346,1,44,0|8,1:0|1:0,0:0:0:0:
357,337,52184,2,0,L|309:338,1,44,0|0,1:0|3:0,0:0:0:0:
223,233,52491,2,0,L|280:220,1,44,0|8,0:0|1:0,0:0:0:0:
475,165,52799,1,0,1:0:0:0:
476,102,52902,6,0,L|333:77,1,132,4|8,3:2|1:0,0:0:0:0:
207,60,53517,2,0,L|372:44,1,132,0|8,3:0|1:0,0:0:0:0:
242,18,54030,6,0,L|195:15,1,44,0|0,1:0|3:0,0:0:0:0:
104,33,54337,2,0,L|95:100,1,44,0|8,0:0|1:0,0:0:0:0:
191,111,54645,2,0,L|196:183,1,44,0|0,1:0|3:0,0:0:0:0:
99,190,54953,2,0,L|47:189,1,44,0|8,1:0|1:0,0:0:0:0:
265,258,55260,1,0,0:0:0:0:
313,253,55363,6,0,L|320:132,1,88,4|0,3:2|1:0,0:0:0:0:
274,152,55671,1,8,1:0:0:0:
184,102,55876,2,0,L|247:89,1,44,0|0,1:0|3:0,0:0:0:0:
320,64,56184,2,0,L|378:55,1,44,0|8,0:0|1:0,0:0:0:0:
457,120,56491,6,0,L|326:133,2,132,0|0|0,0:0|1:0|1:0,0:0:0:0:
461,162,57209,1,0,3:0:0:0:
372,211,57414,2,0,L|296:218,1,44,0|8,0:0|1:0,0:0:0:0:
119,263,57722,1,0,1:0:0:0:
71,253,57825,6,0,L|66:149,1,88,4|0,3:2|1:0,0:0:0:0:
113,156,58132,1,8,1:0:0:0:
208,134,58337,2,0,L|213:84,1,44,0|0,1:0|3:0,0:0:0:0:
120,53,58645,2,0,L|62:52,1,44,0|8,1:0|1:0,0:0:0:0:
284,11,58953,1,0,1:0:0:0:
331,13,59055,6,0,L|338:156,1,132,0|8,3:0|1:0,0:0:0:0:
244,173,59568,2,0,L|186:185,1,44,0|0,1:0|3:0,0:0:0:0:
107,233,59876,2,0,L|179:244,1,44,0|8,1:0|1:0,0:0:0:0:
358,196,60184,5,0,1:0:0:0:
402,208,60286,2,0,L|258:231,1,132,4|8,3:2|1:0,0:0:0:0:
131,231,60902,2,0,L|99:275,2,44,0|0|0,3:0|3:0|1:0,0:0:0:0:
176,216,61209,1,8,1:0:0:0:
432,127,61517,6,0,L|440:276,1,132,4|8,3:2|1:0,0:0:0:0:
298,289,62132,1,0,3:0:0:0:
342,295,62234,1,0,0:0:0:0:
386,301,62337,1,0,1:0:0:0:
429,307,62439,1,8,1:0:0:0:
178,147,62748,6,0,L|15:172,1,132,4|8,3:2|1:0,0:0:0:0:
196,250,63363,2,0,L|228:294,2,44,0|0|0,3:0|3:0|1:0,0:0:0:0:
151,235,63670,1,8,1:0:0:0:
54,165,63876,1,0,1:0:0:0:
101,151,63978,6,0,L|246:129,1,132,0|8,3:0|1:0,0:0:0:0:
369,62,64594,1,0,3:0:0:0:
326,56,64696,1,0,3:0:0:0:
283,49,64799,1,0,1:0:0:0:
239,42,64901,1,8,1:0:0:0:
443,24,65107,1,0,1:0:0:0:
487,33,65209,6,0,L|493:159,1,88,4|0,3:2|0:0,0:0:0:0:
442,132,65517,1,8,1:0:0:0:
349,154,65722,2,0,L|344:220,1,44,0|0,1:0|3:0,0:0:0:0:
255,226,66030,2,0,L|189:231,1,44,0|8,1:0|1:0,0:0:0:0:
412,259,66337,1,0,0:0:0:0:
459,266,66440,6,0,L|359:281,1,88,4|0,3:2|1:0,0:0:0:0:
327,282,66748,1,8,1:0:0:0:
239,253,66953,2,0,L|233:199,1,44,0|0,1:0|3:0,0:0:0:0:
327,175,67260,2,0,L|395:160,1,44,0|8,1:0|1:0,0:0:0:0:
170,69,67568,1,0,1:0:0:0:
124,68,67671,6,0,L|16:167,1,132,4|8,3:2|1:0,0:0:0:0:
165,178,68286,2,0,L|173:304,1,88,0|0,3:0|1:0,0:0:0:0:
173,300,68594,1,8,1:0:0:0:
274,315,68799,1,0,1:0:0:0:
320,275,68902,6,0,L|170:250,1,132,0|8,3:0|1:0,0:0:0:0:
46,204,69517,1,0,3:0:0:0:
44,161,69619,1,0,3:0:0:0:
41,117,69722,1,0,1:0:0:0:
39,73,69824,1,8,1:0:0:0:
303,31,70133,6,0,L|449:54,1,132,4|8,3:2|1:2,0:0:0:0:
281,146,70748,2,0,L|283:313,1,132,0|8,1:0|1:2,0:0:0:0:
380,318,71261,1,0,1:0:0:0:
426,322,71363,6,0,L|425:178,1,132,0|8,3:0|1:2,0:0:0:0:
331,193,71876,2,0,L|325:139,1,44,0|0,0:0|1:0,0:0:0:0:
235,126,72184,2,0,L|230:69,1,44,0|8,1:0|1:2,0:0:0:0:
441,35,72492,1,0,1:0:0:0:
441,84,72594,6,0,L|292:96,1,132,4|8,3:2|1:2,0:0:0:0:
173,186,73210,2,0,L|326:217,1,132,0|8,1:0|1:2,0:0:0:0:
208,277,73722,1,0,0:0:0:0:
163,279,73825,6,0,L|32:258,1,132,0|8,3:0|1:2,0:0:0:0:
128,359,74338,1,0,0:0:0:0:
174,349,74440,2,0,L|321:342,1,132,0|8,3:0|1:2,0:0:0:0:
52,179,75056,6,0,L|45:67,1,88,4|0,3:2|1:0,0:0:0:0:
80,73,75363,1,8,1:0:0:0:
218,77,75671,2,0,L|100:100,1,88,0|0,3:0|3:0,0:0:0:0:
86,101,75979,1,8,1:0:0:0:
179,178,76184,1,0,1:0:0:0:
225,184,76286,6,0,L|329:193,1,88,0|0,3:0|3:0,0:0:0:0:
360,200,76594,1,8,1:0:0:0:
220,289,76902,2,0,L|215:181,1,88,0|0,3:0|3:0,0:0:0:0:
261,196,77210,1,8,1:0:0:0:
470,212,77415,1,0,1:0:0:0:
465,164,77517,6,0,L|350:141,1,88,4|0,3:2|1:0,0:0:0:0:
332,137,77825,1,8,1:0:0:0:
237,88,78030,1,0,1:0:0:0:
283,67,78133,6,0,L|400:62,1,88,0|0,3:0|1:0,0:0:0:0:
325,42,78440,1,8,1:0:0:0:
225,33,78645,1,0,1:0:0:0:
177,42,78748,6,0,L|174:150,1,88,4|0,3:2|1:0,0:0:0:0:
221,140,79056,1,8,1:0:0:0:
320,193,79261,5,0,1:0:0:0:
360,205,79363,1,0,3:0:0:0:
378,244,79466,1,0,3:0:0:0:
361,284,79568,1,0,1:0:0:0:
321,297,79671,1,8,1:0:0:0:
115,333,79876,1,0,1:0:0:0:
66,329,79979,6,0,L|61:220,1,88,4|0,3:2|0:0,0:0:0:0:
108,228,80286,1,8,1:0:0:0:
203,180,80492,2,0,L|137:174,1,44,0|0,0:0|3:0,0:0:0:0:
66,125,80799,2,0,L|57:57,1,44,0|8,3:0|1:0,0:0:0:0:
153,53,81107,1,0,1:0:0:0:
201,52,81210,6,0,L|337:76,1,132,0|8,3:0|1:0,0:0:0:0:
184,168,81825,1,0,3:0:0:0:
137,173,81927,2,0,L|104:119,2,44,0|0|8,1:0|3:0|1:0,0:0:0:0:
347,244,82338,1,0,3:0:0:0:
395,247,82440,6,0,L|399:144,1,88,4|0,3:2|0:0,0:0:0:0:
352,152,82748,1,8,1:0:0:0:
252,127,82953,2,0,L|248:73,1,44,0|0,0:0|3:0,0:0:0:0:
342,57,83261,2,0,L|403:55,1,44,0|8,3:0|1:0,0:0:0:0:
288,158,83568,6,0,L|234:168,1,44,0|0,1:0|3:0,0:0:0:0:
145,234,83876,2,0,L|213:237,1,44,0|8,0:0|1:0,0:0:0:0:
291,252,84184,1,0,0:0:0:0:
333,261,84286,1,0,3:0:0:0:
352,299,84389,1,0,1:0:0:0:
334,338,84491,1,0,3:0:0:0:
293,348,84594,1,8,1:0:0:0:
37,347,84902,5,4,3:2:0:0:
36,303,85004,1,0,3:0:0:0:
35,259,85107,1,0,3:0:0:0:
34,215,85209,1,8,3:0:0:0:
181,171,85517,5,0,3:0:0:0:
137,161,85619,1,0,3:0:0:0:
94,152,85722,1,0,3:0:0:0:
51,143,85824,1,8,3:0:0:0:
195,85,86133,5,0,3:0:0:0:
238,78,86235,1,0,3:0:0:0:
281,71,86338,1,0,3:0:0:0:
325,64,86440,1,8,3:0:0:0:
176,40,86748,5,0,3:0:0:0:
173,83,86850,1,0,3:0:0:0:
170,127,86953,1,0,3:0:0:0:
168,171,87055,1,8,3:0:0:0:
378,240,87261,1,0,3:0:0:0:
425,246,87363,6,0,L|431:102,1,132,4|8,3:2|1:0,0:0:0:0:
286,77,87979,2,0,L|390:62,1,88,0|0,3:0|1:0,0:0:0:0:
418,62,88286,1,8,1:0:0:0:
166,41,88594,6,0,L|152:146,1,88,4|0,3:2|1:0,0:0:0:0:
205,139,88902,1,8,1:0:0:0:
302,202,89107,1,0,1:0:0:0:
258,208,89209,1,0,3:0:0:0:
214,214,89312,1,0,3:0:0:0:
171,220,89414,1,0,3:0:0:0:
127,226,89517,1,8,1:0:0:0:
387,326,89825,6,0,L|515:258,2,132,4|8|0,3:2|1:0|3:0,0:0:0:0:
292,347,90645,2,0,L|230:340,1,44,0|8,1:0|1:0,0:0:0:0:
148,290,90953,1,0,1:0:0:0:
169,251,91055,5,0,3:0:0:0:
202,223,91158,1,0,0:0:0:0:
243,206,91260,1,0,1:0:0:0:
286,205,91363,1,8,1:0:0:0:
431,182,91671,6,0,L|466:127,2,44,0|0|0,3:0|3:0|1:0,0:0:0:0:
383,192,91979,1,8,1:0:0:0:
124,105,92286,6,0,L|282:106,1,132,4|8,3:2|1:0,0:0:0:0:
167,194,92799,2,0,L|115:199,1,44,0|0,1:0|3:0,0:0:0:0:
33,249,93107,2,0,L|27:304,1,44,0|8,1:0|1:0,0:0:0:0:
122,324,93415,1,0,1:0:0:0:
169,318,93517,6,0,L|316:295,1,132,0|8,3:0|1:0,0:0:0:0:
150,222,94133,2,0,L|123:173,2,44,0|0|0,3:0|3:0|1:0,0:0:0:0:
197,231,94440,1,8,1:0:0:0:
408,296,94645,1,0,1:0:0:0:
455,302,94748,6,0,L|466:156,1,132,4|8,3:2|1:0,0:0:0:0:
372,126,95261,2,0,L|321:123,1,44,0|0,1:0|3:0,0:0:0:0:
232,69,95568,2,0,L|288:62,1,44,0|8,1:0|1:0,0:0:0:0:
372,39,95876,1,0,1:0:0:0:
419,42,95979,6,0,L|430:189,1,132,0|8,3:0|1:0,0:0:0:0:
339,207,96492,2,0,L|276:219,1,44,0|0,1:0|3:0,0:0:0:0:
202,263,96799,2,0,L|257:275,1,44,0|8,1:0|1:0,0:0:0:0:
457,346,97107,1,0,1:0:0:0:
455,302,97210,6,0,L|301:278,1,132,4|8,3:2|1:0,0:0:0:0:
227,243,97722,1,8,3:0:0:0:
229,199,97825,2,0,L|383:175,1,132,4|8,3:2|1:0,0:0:0:0:
81,89,98440,6,0,L|74:251,1,132,4|8,3:2|1:0,0:0:0:0:
218,266,99056,1,0,3:2:0:0:
174,272,99158,1,0,3:0:0:0:
131,279,99261,1,0,1:0:0:0:
87,286,99363,1,8,1:0:0:0:
357,324,99671,6,0,L|503:305,2,132,4|8|0,3:2|1:0|3:0,0:0:0:0:
260,246,100492,2,0,L|308:231,1,44,0|8,1:0|1:0,0:0:0:0:
402,213,100799,1,0,1:0:0:0:
442,201,100901,5,0,3:0:0:0:
459,162,101004,1,0,0:0:0:0:
437,125,101106,1,0,1:0:0:0:
395,120,101209,1,8,1:0:0:0:
254,76,101517,5,0,3:0:0:0:
297,71,101619,1,0,3:0:0:0:
341,66,101722,1,0,1:0:0:0:
385,61,101824,1,8,1:0:0:0:
183,187,102030,1,0,1:0:0:0:
138,193,102133,6,0,L|21:257,1,132,4|8,3:2|1:0,0:0:0:0:
114,312,102645,2,0,L|179:328,1,44,0|0,1:0|3:0,0:0:0:0:
250,330,102953,2,0,L|255:260,1,44,0|8,1:0|1:0,0:0:0:0:
159,255,103261,6,0,L|151:196,1,44,0|0,1:0|3:0,0:0:0:0:
250,175,103568,2,0,L|317:169,1,44,0|8,1:0|1:0,0:0:0:0:
399,162,103876,1,0,1:0:0:0:
410,120,103978,5,0,3:0:0:0:
394,80,104081,1,0,3:0:0:0:
357,57,104183,1,0,1:0:0:0:
314,61,104286,1,8,1:0:0:0:
101,93,104492,1,0,0:0:0:0:
55,105,104594,6,0,L|48:245,1,132,4|8,3:2|1:0,0:0:0:0:
137,260,105107,2,0,L|184:265,1,44,0|0,1:0|3:0,0:0:0:0:
272,322,105415,2,0,L|198:340,1,44,0|8,1:0|1:0,0:0:0:0:
134,354,105722,1,0,1:0:0:0:
85,329,105825,6,0,L|230:297,1,132,0|8,3:0|1:0,0:0:0:0:
307,288,106338,2,0,L|312:220,1,44,0|0,1:0|3:0,0:0:0:0:
214,210,106645,2,0,L|204:142,1,44,0|8,1:0|1:0,0:0:0:0:
417,107,106953,1,0,1:0:0:0:
463,106,107056,6,0,L|474:245,1,132,4|8,3:2|3:0,0:0:0:0:
377,272,107568,1,8,3:0:0:0:
330,277,107671,2,0,L|170:287,1,132,4|8,3:2|3:0,0:0:0:0:
459,338,108286,6,0,L|485:297,2,44,4|0|0,3:2|0:0|1:0,0:0:0:0:
410,342,108594,1,8,1:0:0:0:
263,280,108902,5,0,3:0:0:0:
306,276,109004,1,0,3:0:0:0:
350,272,109107,1,0,3:0:0:0:
394,269,109209,1,8,1:0:0:0:
143,165,109517,6,0,L|6:118,2,132,6|10|0,2:0|2:0|2:0,0:0:0:0:
286,197,110440,1,10,2:0:0:0:
141,287,110748,5,0,2:0:0:0:
92,292,110851,2,0,L|57:229,2,44,0|0|0,0:0|0:0|0:0,0:0:0:0:
238,337,111363,2,0,L|138:341,1,88,0|0,2:0|2:0,0:0:0:0:
104,338,111671,1,10,2:0:0:0:
254,242,111979,6,0,L|396:222,2,132,2|10|0,2:0|2:0|2:0,0:0:0:0:
115,221,112902,1,10,2:0:0:0:
255,144,113210,5,0,2:0:0:0:
298,138,113312,1,0,0:0:0:0:
342,133,113415,1,0,0:0:0:0:
386,127,113517,1,10,2:0:0:0:
237,62,113825,2,0,L|219:180,1,88,0|0,2:0|2:0,0:0:0:0:
270,175,114133,1,10,2:0:0:0:
475,206,114338,1,0,2:0:0:0:
479,248,114440,6,0,L|329:261,1,132,4|10,2:0|2:0,0:0:0:0:
253,312,114953,1,0,0:0:0:0:
300,322,115056,2,0,L|451:297,1,132,0|10,2:0|2:0,0:0:0:0:
288,219,115671,6,0,L|141:206,1,132,0|10,2:0|2:0,0:0:0:0:
63,138,116184,2,0,L|122:122,1,44,0|0,0:0|2:0,0:0:0:0:
199,98,116492,2,0,L|257:96,1,44,0|10,2:0|2:0,0:0:0:0:
88,46,116902,6,0,L|79:194,1,132,2|10,2:0|2:0,0:0:0:0:
179,219,117415,1,0,0:0:0:0:
225,236,117517,2,0,L|81:266,1,132,0|10,2:0|0:0,0:0:0:0:
305,332,118030,1,0,0:0:0:0:
352,337,118133,6,0,L|361:191,1,132,4|14,2:0|2:0,0:0:0:0:
215,171,118748,1,0,2:0:0:0:
167,174,118851,2,0,L|142:137,2,44,0|0|10,0:0|2:0|2:0,0:0:0:0:
432,85,119363,6,0,L|272:63,2,132,4|10|0,2:0|2:0|2:0,0:0:0:0:
294,188,120286,1,10,2:0:0:0:
150,220,120594,6,0,L|139:107,1,88,0|0,2:0|0:0,0:0:0:0:
188,120,120902,1,10,0:0:0:0:
328,93,121210,2,0,L|352:51,2,44,0|0|0,0:0|0:0|0:0,0:0:0:0:
283,104,121517,1,10,2:0:0:0:
177,146,121722,6,0,L|228:160,1,44,0|2,0:0|2:0,0:0:0:0:
319,200,122030,1,0,0:0:0:0:
363,222,122133,2,0,L|226:244,1,132,10|0,2:0|2:0,0:0:0:0:
132,291,122645,1,0,0:0:0:0:
87,325,122748,6,0,L|234:358,1,132,10|0,2:0|2:0,0:0:0:0:
306,302,123261,1,0,0:0:0:0:
347,280,123363,2,0,L|183:255,1,132,10|0,2:0|2:0,0:0:0:0:
123,244,123876,5,0,0:0:0:0:
81,234,123979,1,10,2:0:0:0:
62,196,124081,1,0,0:0:0:0:
80,157,124183,1,0,0:0:0:0:
121,147,124286,1,2,2:0:0:0:
258,105,124594,5,10,2:0:0:0:
215,98,124697,1,0,0:0:0:0:
171,92,124799,1,0,0:0:0:0:
128,85,124902,1,0,2:0:0:0:
270,65,125210,5,10,2:0:0:0:
289,103,125312,1,0,0:0:0:0:
271,142,125414,1,0,0:0:0:0:
230,152,125517,1,0,2:0:0:0:
95,207,125825,5,10,2:0:0:0:
138,214,125928,1,0,0:0:0:0:
182,220,126030,1,0,0:0:0:0:
225,227,126133,1,0,2:0:0:0:
325,250,126338,2,0,L|362:188,2,44,0|10|0,0:0|2:0|0:0,0:0:0:0:
125,321,126748,6,0,L|-3:248,1,132,4|10,2:0|2:0,0:0:0:0:
109,208,127261,1,0,0:0:0:0:
154,191,127363,2,0,L|305:173,1,132,0|10,2:0|2:0,0:0:0:0:
383,132,127876,1,0,0:0:0:0:
336,102,127979,6,0,L|183:76,1,132,0|10,2:0|2:0,0:0:0:0:
108,43,128492,2,0,L|166:42,1,44,0|0,0:0|2:0,0:0:0:0:
418,112,128902,5,14,2:2:0:0:
