osu file format v14

[General]
AudioFilename: audio.mp3
AudioLeadIn: 0
PreviewTime: 87261
Countdown: 0
SampleSet: Soft
StackLeniency: 0.7
Mode: 2
LetterboxInBreaks: 0
WidescreenStoryboard: 1

[Editor]
Bookmarks: 1210,6133,8184,11056,15979,20902,25825,30748,50440,70133,78133
DistanceSpacing: 1.6
BeatDivisor: 3
GridSize: 32
TimelineZoom: 1.8

[Metadata]
Title:For You the Bellz Toll
TitleUnicode:For You the Bellz Toll
Artist:Yanagida Ethnica
ArtistUnicode:柳田Ethnica
Creator:Jemzuu
Version:Cup
Source:Cytus II
Tags:ajamez rew0825 kukkai -luminate xmas 2 christmas ayatsugu_otowa rayark inc NEKO#ΦωΦ NEKO electronic instrumental video game yanagita yanaida
BeatmapID:3365887
BeatmapSetID:1331140

[Difficulty]
HPDrainRate:2.5
CircleSize:2.5
OverallDifficulty:6
ApproachRate:6
SliderMultiplier:1.21
SliderTickRate:1

[Events]
//Background and Video events
0,0,"For_You_the_Bellz_Toll.jpg",0,0
//Break Periods
//Storyboard Layer 0 (Background)
//Storyboard Layer 1 (Fail)
//Storyboard Layer 2 (Pass)
//Storyboard Layer 3 (Foreground)
//Storyboard Layer 4 (Overlay)
//Storyboard Sound Samples

[TimingPoints]
1210,307.692307692308,4,2,1,50,1,0
1312,-100,4,2,1,50,0,0
3671,-100,4,2,1,60,0,0
6133,-100,4,2,1,70,0,0
7363,-100,4,2,1,75,0,0
8594,-100,4,2,1,80,0,0
9825,-100,4,2,1,90,0,0
10748,-100,4,2,2,90,0,0
11056,-100,4,2,1,65,0,0
40594,-100,4,2,1,70,0,0
47979,-100,4,2,1,60,0,0
50440,-100,4,2,1,65,0,0
60286,-100,4,2,1,70,0,0
67671,-100,4,2,1,60,0,0
70235,-100,4,2,1,60,0,0
75056,-100,4,2,1,70,0,0
84902,-100,4,2,1,75,0,0
86133,-100,4,2,1,80,0,0
87363,-100,4,2,1,85,0,0
89517,-100,4,2,2,90,0,0
89723,-100,4,2,1,90,0,0
89825,-100,4,2,1,90,0,1
109517,-100,4,2,1,60,0,0
109620,-100,4,2,1,60,0,0
114338,-100,4,2,1,50,0,0
119363,-100,4,2,1,40,0,0
119466,-100,4,2,1,40,0,0
124286,-100,4,2,1,30,0,0
126748,-100,4,2,1,50,0,0

[Colours]
Combo1 : 255,183,111
Combo2 : 255,128,128
Combo3 : 255,255,128

[HitObjects]
294,119,1210,6,0,L|438:154,1,121,2|2,3:0|0:0,0:0:0:0:
284,222,1825,2,0,L|139:253,1,121,2|2,0:0|0:0,0:0:0:0:
47,289,2440,2,0,L|29:150,1,121,2|2,0:0|0:0,0:0:0:0:
153,184,3056,2,0,L|159:63,1,121,2|2,0:0|0:0,0:0:0:0:
263,49,3568,1,0,3:0:0:0:
306,73,3671,6,0,L|177:104,1,121,2|2,3:0|2:0,0:0:0:0:
314,177,4286,2,0,L|443:207,1,121,2|2,2:0|2:0,0:0:0:0:
299,297,4902,6,0,L|288:162,1,121,2|2,3:0|3:2,0:0:0:0:
161,178,5517,2,0,L|150:71,1,80.6666666666667,2|0,3:2|3:0,0:0:0:0:
196,86,5825,1,2,3:2:0:0:
326,164,6133,6,0,L|186:202,1,121,4|8,3:2|1:0,0:0:0:0:
337,262,6748,2,0,L|464:278,1,121,0|8,3:0|1:0,0:0:0:0:
325,354,7363,6,0,L|312:257,1,80.6666666666667,4|0,3:2|1:0,0:0:0:0:
309,242,7671,1,8,1:0:0:0:
179,206,7979,2,0,L|72:185,1,80.6666666666667,0|0,3:0|1:0,0:0:0:0:
99,157,8286,1,8,1:0:0:0:
239,129,8594,6,0,L|341:117,1,80.6666666666667,4|0,3:2|1:0,0:0:0:0:
326,93,8902,1,8,1:0:0:0:
201,93,9210,2,0,L|193:0,1,80.6666666666667,4|0,3:2|1:0,0:0:0:0:
235,22,9517,1,8,1:0:0:0:
368,175,9825,6,0,L|227:206,1,121,4|8,3:2|1:0,0:0:0:0:
107,219,10440,2,0,L|95:94,1,121,4|8,2:0|1:0,0:0:0:0:
240,80,11056,6,0,L|394:49,2,121,4|8|0,3:2|1:0|3:0,0:0:0:0:
109,126,11979,1,8,1:0:0:0:
242,213,12286,6,0,L|250:82,1,121,0|8,3:0|1:0,0:0:0:0:
373,71,12902,2,0,L|491:117,1,121,0|8,3:0|1:0,0:0:0:0:
344,187,13517,6,0,L|239:198,1,80.6666666666667,4|0,3:2|1:0,0:0:0:0:
255,242,13825,1,8,1:0:0:0:
383,297,14133,2,0,L|388:193,1,80.6666666666667,0|0,3:0|1:0,0:0:0:0:
345,201,14440,1,8,1:0:0:0:
217,168,14748,6,0,L|207:38,1,121,0|8,0:0|1:0,0:0:0:0:
84,51,15363,2,0,L|179:73,1,80.6666666666667,0|0,3:0|1:0,0:0:0:0:
204,67,15671,1,8,1:0:0:0:
349,124,15979,6,0,L|233:163,1,121,4|8,3:2|1:0,0:0:0:0:
103,197,16594,2,0,L|102:295,1,80.6666666666667,0|0,3:0|1:0,0:0:0:0:
142,297,16902,1,8,1:0:0:0:
269,311,17210,6,0,L|276:169,1,121,0|8,3:0|1:0,0:0:0:0:
406,133,17825,2,0,L|495:122,1,80.6666666666667,0|0,3:0|1:0,0:0:0:0:
444,94,18133,1,8,1:0:0:0:
299,41,18440,6,0,L|272:173,1,121,4|8,3:2|1:0,0:0:0:0:
397,193,19056,2,0,L|410:282,1,80.6666666666667,0|0,3:0|1:0,0:0:0:0:
366,292,19363,1,8,1:0:0:0:
241,340,19671,6,0,L|223:194,1,121,0|8,0:0|1:0,0:0:0:0:
105,186,20286,2,0,L|7:166,1,80.6666666666667,0|0,3:0|1:0,0:0:0:0:
66,146,20594,1,8,1:0:0:0:
217,113,20902,6,0,L|371:100,2,121,4|8|0,3:2|1:0|3:0,0:0:0:0:
92,189,21825,1,8,1:0:0:0:
226,258,22133,6,0,L|235:131,1,121,0|8,3:0|1:0,0:0:0:0:
357,103,22748,2,0,L|461:97,1,80.6666666666667,0|0,3:0|1:0,0:0:0:0:
445,68,23056,1,8,1:0:0:0:
301,31,23363,6,0,L|165:47,2,121,4|8|0,3:2|1:0|3:0,0:0:0:0:
382,71,24184,1,0,1:0:0:0:
245,153,24492,1,0,1:0:0:0:
203,162,24594,6,0,L|199:296,1,121,0|8,3:0|1:0,0:0:0:0:
328,322,25210,2,0,L|333:229,1,80.6666666666667,0|0,3:0|1:0,0:0:0:0:
292,231,25517,1,8,1:0:0:0:
156,178,25825,6,0,L|296:151,2,121,4|8|0,3:2|1:0|3:0,0:0:0:0:
73,189,26645,1,0,1:0:0:0:
199,280,26953,1,0,1:0:0:0:
240,293,27056,6,0,L|369:278,2,121,0|8|0,3:0|1:0|3:0,0:0:0:0:
157,312,27876,1,0,1:0:0:0:
30,214,28184,1,0,1:0:0:0:
32,170,28286,6,0,L|180:149,1,121,4|8,3:2|1:0,0:0:0:0:
277,90,28902,2,0,L|286:246,1,121,0|8,3:0|1:0,0:0:0:0:
420,220,29517,6,0,L|283:240,1,121,0|8,3:0|1:0,0:0:0:0:
176,246,30133,2,0,L|180:137,1,80.6666666666667,0|0,3:0|1:0,0:0:0:0:
220,154,30440,1,8,1:0:0:0:
366,105,30748,6,0,L|497:154,1,121,4|8,3:2|1:0,0:0:0:0:
356,295,31363,2,0,L|344:211,1,80.6666666666667,0|0,3:0|1:0,0:0:0:0:
223,171,31876,6,0,L|92:151,1,121,0|0,1:0|1:0,0:0:0:0:
85,69,32492,2,0,L|230:47,1,121,0|0,1:0|1:0,0:0:0:0:
336,60,33107,1,0,1:0:0:0:
382,67,33210,6,0,L|394:197,1,121,4|8,3:2|1:0,0:0:0:0:
259,208,33825,2,0,L|245:343,1,121,0|8,3:0|1:0,0:0:0:0:
156,359,34338,1,0,1:0:0:0:
110,344,34440,6,0,L|231:324,1,121,0|8,3:0|1:0,0:0:0:0:
363,326,35056,2,0,L|368:220,1,80.6666666666667,0|0,3:0|1:0,0:0:0:0:
324,233,35363,1,8,1:0:0:0:
175,184,35671,6,0,L|42:158,2,121,4|8|0,3:2|1:0|3:0,0:0:0:0:
301,137,36594,1,8,1:0:0:0:
390,88,36799,6,0,L|270:59,2,121,0|0|0,1:0|1:0|1:0,0:0:0:0:
435,92,37517,1,0,3:0:0:0:
441,225,37825,1,8,1:0:0:0:
306,257,38133,6,0,L|208:276,1,80.6666666666667,4|0,3:2|1:0,0:0:0:0:
186,283,38440,1,8,1:0:0:0:
47,229,38748,2,0,L|42:140,1,80.6666666666667,0|0,3:0|1:0,0:0:0:0:
83,133,39056,1,8,1:0:0:0:
217,79,39363,6,0,L|83:64,1,121,0|8,3:0|1:0,0:0:0:0:
232,171,39979,2,0,L|320:182,1,80.6666666666667,4|0,3:2|1:0,0:0:0:0:
310,215,40286,1,8,1:0:0:0:
161,244,40594,6,0,L|26:269,1,121,4|8,3:2|1:0,0:0:0:0:
167,337,41210,2,0,L|274:336,1,80.6666666666667,0|0,3:0|1:0,0:0:0:0:
245,306,41517,1,8,1:0:0:0:
104,240,41825,6,0,L|240:225,1,121,4|8,3:2|1:0,0:0:0:0:
349,158,42440,2,0,L|258:140,1,80.6666666666667,0|0,3:0|1:0,0:0:0:0:
228,139,42748,1,8,1:0:0:0:
376,243,43056,6,0,L|512:229,1,121,4|8,3:2|1:0,0:0:0:0:
362,140,43671,2,0,L|264:125,1,80.6666666666667,0|0,3:0|1:0,0:0:0:0:
275,91,43979,1,8,1:0:0:0:
415,46,44286,6,0,L|426:179,1,121,0|8,3:0|1:0,0:0:0:0:
296,204,44902,2,0,L|207:211,1,80.6666666666667,0|0,3:0|1:0,0:0:0:0:
204,256,45210,1,8,1:0:0:0:
343,318,45517,6,0,L|457:323,1,80.6666666666667,4|0,3:2|0:0,0:0:0:0:
291,220,46030,2,0,L|167:204,2,121,0|0|0,0:0|3:0|1:0,0:0:0:0:
338,207,46748,5,4,3:2:0:0:
250,135,46953,2,0,L|109:124,1,121,0|0,0:0|0:0,0:0:0:0:
16,50,47568,2,0,L|74:43,1,40.3333333333333,0|8,3:0|1:0,0:0:0:0:
208,50,47979,6,0,L|227:196,1,121,4|8,3:2|1:0,0:0:0:0:
359,225,48594,2,0,L|453:239,1,80.6666666666667,0|0,3:0|3:0,0:0:0:0:
395,266,48902,1,8,1:0:0:0:
246,316,49210,6,0,L|234:181,1,121,0|8,3:0|1:0,0:0:0:0:
112,166,49825,2,0,L|8:164,1,80.6666666666667,0|0,3:0|3:0,0:0:0:0:
73,137,50133,1,8,1:0:0:0:
222,81,50440,6,0,L|353:130,1,121,4|8,3:2|1:0,0:0:0:0:
208,293,51055,2,0,L|196:209,1,80.6666666666667,0|0,3:0|0:0,0:0:0:0:
322,188,51568,6,0,L|453:168,1,121,0|0,1:0|1:0,0:0:0:0:
310,89,52184,2,0,L|293:219,1,121,0|0,1:0|0:0,0:0:0:0:
153,94,52799,1,0,1:0:0:0:
107,110,52902,6,0,L|218:164,1,121,4|8,3:2|1:0,0:0:0:0:
354,193,53517,2,0,L|368:328,1,121,0|8,3:0|1:0,0:0:0:0:
275,363,54030,1,0,1:0:0:0:
234,362,54132,6,0,L|113:342,1,121,0|8,3:0|1:0,0:0:0:0:
34,170,54748,2,0,L|135:143,1,80.6666666666667,0|0,3:0|1:0,0:0:0:0:
158,144,55055,1,8,1:0:0:0:
300,191,55363,6,0,L|433:165,2,121,4|8|0,3:2|1:0|3:0,0:0:0:0:
180,139,56286,1,8,1:0:0:0:
99,90,56491,6,0,L|219:61,2,121,0|0|0,0:0|1:0|1:0,0:0:0:0:
57,93,57209,1,0,3:0:0:0:
55,226,57517,1,8,1:0:0:0:
206,256,57825,6,0,L|304:275,1,80.6666666666667,4|0,3:2|1:0,0:0:0:0:
326,282,58132,1,8,1:0:0:0:
465,228,58440,2,0,L|470:139,1,80.6666666666667,0|0,3:0|1:0,0:0:0:0:
429,132,58748,1,8,1:0:0:0:
295,78,59055,6,0,L|429:63,1,121,0|8,3:0|1:0,0:0:0:0:
280,170,59671,2,0,L|192:181,1,80.6666666666667,0|0,3:0|1:0,0:0:0:0:
202,214,59978,1,8,1:0:0:0:
351,243,60286,6,0,L|486:268,1,121,4|8,3:2|1:0,0:0:0:0:
345,336,60902,2,0,L|238:335,1,80.6666666666667,0|0,3:0|1:0,0:0:0:0:
267,305,61209,1,8,1:0:0:0:
408,239,61517,6,0,L|272:224,1,121,4|8,3:2|1:0,0:0:0:0:
163,157,62132,2,0,L|254:139,1,80.6666666666667,0|0,3:0|1:0,0:0:0:0:
284,138,62440,1,8,1:0:0:0:
136,242,62748,6,0,L|0:228,1,121,4|8,3:2|1:0,0:0:0:0:
150,139,63363,2,0,L|248:124,1,80.6666666666667,0|0,3:0|1:0,0:0:0:0:
237,90,63671,1,8,1:0:0:0:
97,45,63978,6,0,L|86:178,1,121,0|8,3:0|1:0,0:0:0:0:
216,203,64594,2,0,L|305:210,1,80.6666666666667,0|0,3:0|1:0,0:0:0:0:
308,255,64902,1,8,1:0:0:0:
169,317,65209,6,0,L|55:322,1,80.6666666666667,4|0,3:2|0:0,0:0:0:0:
221,219,65722,2,0,L|345:203,2,121,0|0|0,1:0|1:0|0:0,0:0:0:0:
174,206,66440,5,4,3:2:0:0:
262,134,66645,2,0,L|403:123,1,121,0|0,1:0|1:0,0:0:0:0:
496,49,67260,2,0,L|438:42,1,40.3333333333333,0|8,1:0|1:0,0:0:0:0:
304,49,67671,6,0,L|285:195,1,121,4|8,3:2|1:0,0:0:0:0:
153,224,68286,2,0,L|59:238,1,80.6666666666667,0|0,3:0|1:0,0:0:0:0:
117,265,68594,1,8,1:0:0:0:
266,315,68902,6,0,L|278:180,1,121,0|8,3:0|1:0,0:0:0:0:
400,165,69517,2,0,L|504:163,1,80.6666666666667,0|0,3:0|1:0,0:0:0:0:
439,136,69825,1,8,1:0:0:0:
286,93,70133,6,0,L|157:71,2,121,4|8|0,3:2|1:2|1:0,0:0:0:0:
403,152,71056,1,8,1:2:0:0:
316,253,71261,1,0,1:0:0:0:
277,224,71363,6,0,L|264:91,1,121,0|8,3:0|1:2,0:0:0:0:
133,160,71979,2,0,L|116:36,1,121,0|8,1:0|1:2,0:0:0:0:
265,80,72594,6,0,L|394:99,1,121,4|8,3:2|1:2,0:0:0:0:
423,257,73210,2,0,L|306:314,1,121,0|8,1:0|1:2,0:0:0:0:
228,347,73722,1,0,0:0:0:0:
186,345,73825,6,0,L|175:204,1,121,0|8,3:0|1:2,0:0:0:0:
57,270,74440,2,0,L|179:218,1,121,0|8,3:0|1:2,0:0:0:0:
313,170,75056,6,0,L|199:151,1,80.6666666666667,4|0,3:2|1:0,0:0:0:0:
191,148,75363,1,8,1:0:0:0:
321,86,75671,2,0,L|470:78,1,121,0|8,3:0|1:0,0:0:0:0:
313,69,76286,6,0,L|299:184,1,80.6666666666667,0|0,3:0|3:0,0:0:0:0:
261,160,76594,1,8,1:0:0:0:
119,218,76902,2,0,L|214:244,1,80.6666666666667,0|0,3:0|3:0,0:0:0:0:
238,238,77210,1,8,1:0:0:0:
94,325,77517,6,0,P|30:291|41:220,1,121,4|8,3:2|1:0,0:0:0:0:
153,234,78133,2,0,L|166:131,1,80.6666666666667,0|0,3:0|1:0,0:0:0:0:
171,117,78440,1,8,1:0:0:0:
308,89,78748,6,0,L|434:91,1,121,4|8,3:2|1:0,0:0:0:0:
288,217,79363,2,0,L|281:108,1,80.6666666666667,0|0,3:0|1:0,0:0:0:0:
277,98,79671,1,8,1:0:0:0:
423,73,79979,6,0,L|295:64,1,121,4|8,3:2|1:0,0:0:0:0:
174,123,80594,2,0,L|160:281,1,121,0|8,3:0|1:0,0:0:0:0:
309,294,81210,6,0,L|199:328,1,80.6666666666667,0|0,3:0|1:0,0:0:0:0:
187,321,81517,1,8,1:0:0:0:
59,320,81825,2,0,L|51:223,1,80.6666666666667,0|0,3:0|3:0,0:0:0:0:
93,228,82133,1,8,1:0:0:0:
235,170,82440,6,0,L|95:137,2,121,4|8|0,3:2|1:0|3:0,0:0:0:0:
361,193,83363,1,8,1:0:0:0:
484,193,83671,6,0,L|485:97,1,80.6666666666667,0|0,3:0|0:0,0:0:0:0:
443,104,83979,1,8,1:0:0:0:
318,84,84286,2,0,L|415:67,1,80.6666666666667,0|0,3:0|3:0,0:0:0:0:
437,72,84594,1,8,1:0:0:0:
299,169,84902,5,4,3:2:0:0:
259,163,85004,1,0,3:0:0:0:
219,157,85107,1,0,3:0:0:0:
179,151,85209,1,8,3:0:0:0:
312,295,85517,5,0,3:0:0:0:
315,254,85619,1,0,3:0:0:0:
319,214,85722,1,0,3:0:0:0:
322,174,85824,1,8,3:0:0:0:
163,244,86133,5,0,3:0:0:0:
123,236,86235,1,0,3:0:0:0:
83,228,86338,1,0,3:0:0:0:
44,220,86440,1,8,3:0:0:0:
185,309,86748,5,0,3:0:0:0:
188,268,86850,1,0,3:0:0:0:
191,228,86953,1,0,3:0:0:0:
195,188,87055,1,8,3:0:0:0:
346,144,87363,6,0,L|500:124,1,121,4|8,3:2|1:0,0:0:0:0:
336,273,87979,2,0,L|317:130,1,121,0|8,3:0|1:0,0:0:0:0:
179,120,88594,6,0,L|75:110,1,80.6666666666667,4|0,3:2|1:0,0:0:0:0:
94,82,88902,1,8,1:0:0:0:
239,68,89210,5,0,3:0:0:0:
278,62,89312,1,0,3:0:0:0:
318,56,89415,1,0,3:0:0:0:
358,51,89517,1,8,1:0:0:0:
210,173,89825,6,0,L|72:167,2,121,4|8|0,3:2|1:0|3:0,0:0:0:0:
283,258,90645,2,0,L|228:272,1,40.3333333333333,0|8,1:0|1:0,0:0:0:0:
103,295,91056,6,0,L|81:144,1,121,0|8,3:0|1:0,0:0:0:0:
221,120,91671,2,0,L|111:109,1,80.6666666666667,0|0,3:0|1:0,0:0:0:0:
96,101,91979,1,8,1:0:0:0:
233,74,92286,6,0,L|376:68,1,121,4|8,3:2|1:0,0:0:0:0:
483,192,92902,2,0,L|355:213,1,121,0|8,3:0|1:0,0:0:0:0:
232,284,93517,6,0,L|223:157,1,121,0|8,3:0|1:0,0:0:0:0:
86,119,94133,2,0,L|183:93,1,80.6666666666667,0|0,3:0|1:0,0:0:0:0:
209,86,94440,1,8,1:0:0:0:
66,44,94748,6,0,L|53:191,1,121,4|8,3:2|1:0,0:0:0:0:
186,184,95363,2,0,L|199:295,1,80.6666666666667,0|0,3:0|1:0,0:0:0:0:
238,273,95671,1,8,1:0:0:0:
373,315,95979,6,0,L|215:338,1,121,0|8,3:0|1:0,0:0:0:0:
121,350,96594,2,0,L|115:258,1,80.6666666666667,0|0,3:0|1:0,0:0:0:0:
159,256,96902,1,8,1:0:0:0:
305,229,97210,6,0,L|462:212,1,121,4|8,3:2|1:0,0:0:0:0:
332,150,97722,1,8,3:0:0:0:
288,147,97825,2,0,L|147:142,1,121,4|8,3:2|1:0,0:0:0:0:
270,85,98338,1,8,3:0:0:0:
309,73,98440,6,0,L|452:82,2,121,4|8|0,3:2|1:0|3:2,0:0:0:0:
217,103,99261,2,0,L|158:103,1,40.3333333333333,0|8,1:0|1:0,0:0:0:0:
328,236,99671,6,0,L|329:102,1,121,4|8,3:2|1:0,0:0:0:0:
197,190,100286,2,0,L|188:85,1,80.6666666666667,0|0,3:0|1:0,0:0:0:0:
182,72,100594,1,8,1:0:0:0:
43,237,100902,6,0,L|165:273,1,121,0|8,3:0|1:0,0:0:0:0:
290,324,101517,2,0,L|199:352,1,80.6666666666667,0|0,3:0|1:0,0:0:0:0:
170,355,101825,1,8,1:0:0:0:
312,366,102133,6,0,L|456:346,2,121,4|8|0,3:2|1:0|3:0,0:0:0:0:
225,356,102953,2,0,L|226:282,1,40.3333333333333,0|8,1:0|1:0,0:0:0:0:
367,276,103363,6,0,L|507:260,1,121,0|8,3:0|1:0,0:0:0:0:
355,259,103979,2,0,L|346:172,1,80.6666666666667,0|0,3:0|1:0,0:0:0:0:
341,151,104286,1,8,1:0:0:0:
208,130,104594,6,0,L|360:111,1,121,4|8,3:2|1:0,0:0:0:0:
449,66,105210,2,0,L|346:41,1,80.6666666666667,0|0,3:0|1:0,0:0:0:0:
325,52,105517,1,8,1:0:0:0:
191,95,105825,6,0,L|175:240,1,121,0|8,3:0|1:0,0:0:0:0:
35,269,106440,2,0,L|131:290,1,80.6666666666667,0|0,3:0|1:0,0:0:0:0:
157,293,106748,1,8,1:0:0:0:
297,326,107056,6,0,L|305:177,1,121,4|8,3:2|3:0,0:0:0:0:
200,218,107568,1,8,3:0:0:0:
155,218,107671,2,0,L|138:87,1,121,4|8,3:2|3:0,0:0:0:0:
243,72,108184,1,8,3:0:0:0:
288,81,108286,6,0,L|155:109,1,121,4|8,3:2|1:0,0:0:0:0:
307,190,108902,1,0,3:0:0:0:
346,195,109004,1,0,3:0:0:0:
386,201,109107,1,0,3:0:0:0:
426,206,109209,1,8,1:0:0:0:
271,297,109517,5,6,2:0:0:0:
210,172,109825,1,10,2:0:0:0:
271,297,110133,1,0,2:0:0:0:
399,327,110440,1,10,2:0:0:0:
270,351,110748,6,0,L|255:220,1,121,0|10,2:0|0:0,0:0:0:0:
125,226,111363,2,0,L|110:122,1,80.6666666666667,0|0,2:0|2:0,0:0:0:0:
158,125,111671,1,10,2:0:0:0:
298,110,111979,6,0,L|454:76,2,121,2|10|0,2:0|2:0|2:0,0:0:0:0:
175,126,112902,1,10,2:0:0:0:
55,230,113210,6,0,L|191:265,1,121,0|10,2:0|2:0,0:0:0:0:
276,319,113825,2,0,L|181:346,1,80.6666666666667,0|0,2:0|2:0,0:0:0:0:
157,351,114133,1,10,2:0:0:0:
9,269,114440,6,0,L|130:219,1,121,4|10,2:0|2:0,0:0:0:0:
250,244,115056,2,0,L|258:113,1,121,0|10,2:0|2:0,0:0:0:0:
384,89,115671,6,0,L|242:106,1,121,0|10,2:0|2:0,0:0:0:0:
395,195,116286,2,0,L|490:217,1,80.6666666666667,0|0,2:0|2:0,0:0:0:0:
475,249,116594,1,10,2:0:0:0:
343,289,116902,6,0,L|215:277,1,121,2|10,2:0|2:0,0:0:0:0:
361,369,117517,2,0,L|356:226,1,121,0|10,2:0|0:0,0:0:0:0:
215,202,118133,6,0,L|79:178,2,121,4|14|0,2:0|2:0|2:0,0:0:0:0:
351,217,119056,1,10,2:0:0:0:
212,302,119363,6,0,L|84:311,1,121,4|10,2:0|2:0,0:0:0:0:
214,160,119979,2,0,L|336:144,1,121,0|10,2:0|2:0,0:0:0:0:
448,80,120594,6,0,L|312:56,1,121,0|10,2:0|0:0,0:0:0:0:
222,98,121210,2,0,L|207:236,1,121,0|10,0:0|2:0,0:0:0:0:
78,269,121825,6,0,L|62:377,1,80.6666666666667,2|0,2:0|0:0,0:0:0:0:
110,363,122133,1,10,2:0:0:0:
307,297,122645,6,0,L|246:286,1,40.3333333333333,0|10,0:0|2:0,0:0:0:0:
78,217,123261,6,0,L|70:157,1,40.3333333333333,0|10,0:0|2:0,0:0:0:0:
237,92,123876,2,0,L|291:78,1,40.3333333333333,0|10,0:0|2:0,0:0:0:0:
415,79,124286,6,0,L|425:221,1,121,2|10,2:0|2:0,0:0:0:0:
301,218,124902,2,0,L|283:358,1,121,0|10,2:0|2:0,0:0:0:0:
165,362,125517,6,0,L|32:335,1,121,0|10,2:0|2:0,0:0:0:0:
174,284,126133,2,0,L|190:157,1,121,0|10,2:0|2:0,0:0:0:0:
317,145,126748,6,0,L|462:108,1,121,4|10,2:0|2:0,0:0:0:0:
338,59,127261,1,0,0:0:0:0:
297,67,127363,2,0,L|171:82,1,121,0|10,2:0|2:0,0:0:0:0:
279,121,127876,1,0,0:0:0:0:
324,146,127979,6,0,L|332:284,1,121,0|10,2:0|2:0,0:0:0:0:
236,292,128492,1,0,0:0:0:0:
196,299,128594,1,0,2:0:0:0:
348,359,128902,5,14,2:2:0:0:
