osu file format v14

[General]
AudioFilename: Yanagi Nagi - Vidro Moyou.mp3
AudioLeadIn: 0
PreviewTime: 64206
Countdown: 0
SampleSet: Soft
StackLeniency: 0.7
Mode: 0
LetterboxInBreaks: 0
WidescreenStoryboard: 1

[Editor]
Bookmarks: 18035,196160
DistanceSpacing: 1.3
BeatDivisor: 4
GridSize: 8
TimelineZoom: 1

[Metadata]
Title:Vidro Moyou
TitleUnicode:Vidro Moyou
Artist:Yanagi Nagi
ArtistUnicode:Yanagi Nagi
Creator:James
Version:Normal
Source:Follow My Tracks
Tags:
BeatmapID:1164180
BeatmapSetID:549799

[Difficulty]
HPDrainRate:4
CircleSize:4
OverallDifficulty:4
ApproachRate:7
SliderMultiplier:1.4
SliderTickRate:2

[Events]
//Background and Video events
0,0,"image.png",0,0
//Break Periods
2,176676,195265
//Storyboard Layer 0 (Background)
//Storyboard Layer 1 (Fail)
//Storyboard Layer 2 (Pass)
//Storyboard Layer 3 (Foreground)
//Storyboard Sound Samples

[TimingPoints]
19915,468.75,4,2,0,10,1,0
20495,-200,4,2,2,10,0,0
29407,-200,4,2,3,10,0,0
29641,-200,4,2,2,10,0,0
33860,-200,4,2,3,10,0,0
34094,-200,4,2,2,10,0,0
40891,-200,4,2,3,10,0,0
41125,-200,4,2,2,10,0,0
44172,-200,4,2,3,10,0,0
44407,-200,4,2,2,10,0,0
46985,-200,4,2,3,10,0,0
47219,-200,4,2,2,10,0,0
48391,-200,4,2,3,10,0,0
48625,-200,4,2,2,10,0,0
53547,-200,4,2,3,10,0,0
53782,-200,4,2,2,10,0,0
57063,-200,4,2,3,10,0,0
57297,-200,4,2,2,10,0,0
64558,-125,4,2,2,10,0,0
94792,-125,4,2,2,20,0,0
102292,-125,4,2,0,20,0,0
102527,-125,4,2,0,20,0,0
147058,-125,4,2,0,30,0,0
147527,-125,4,2,0,30,0,0
196042,-100,4,2,0,40,0,0
205652,-100,4,2,0,40,0,0
205886,-100,4,2,0,38,0,0
206120,-100,4,2,0,35,0,0
206355,-100,4,2,0,32,0,0
206589,-100,4,2,0,28,0,0
206824,-100,4,2,0,26,0,0
207058,-100,4,2,0,23,0,0
207292,-100,4,2,0,20,0,0
209167,-100,4,2,0,25,0,0
209636,-100,4,2,0,30,0,0
210105,-100,4,2,0,35,0,0
210574,-125,4,2,1,40,0,0
211165,-125,4,2,1,40,0,1
215266,-100,4,2,1,40,0,1
215735,-125,4,2,1,40,0,1
222766,-100,4,2,1,40,0,1
223235,-125,4,2,1,40,0,1
227688,-100,4,2,1,40,0,1
228157,-125,4,2,1,40,0,1
230266,-100,4,2,1,40,0,1
232610,-125,4,2,1,40,0,1
234016,-100,4,2,1,40,0,1
235422,-125,4,2,1,40,0,0
244792,-100,4,2,0,20,0,0

[Colours]
Combo1 : 143,143,143
Combo2 : 11,184,244
Combo3 : 226,226,226
Combo4 : 14,140,182

[HitObjects]
48,344,20618,5,0,0:0:0:0:
160,344,21321,1,0,0:0:0:0:
240,344,21790,1,0,0:0:0:0:
352,344,22493,2,0,P|360:296|408:256,1,105
480,256,23665,2,0,L|480:144,1,105
480,32,25071,1,0,0:0:0:0:
208,32,26711,6,0,L|88:32,1,105
104,112,27883,1,0,0:0:0:0:
104,112,28118,2,0,B|160:96|208:112|224:160|216:208|176:240,1,210
304,336,30461,6,0,L|416:336,1,105
408,256,31633,1,0,0:0:0:0:
408,256,31868,2,0,P|256:208|248:72,1,315
320,40,34446,1,0,0:0:0:0:
400,48,34915,1,0,0:0:0:0:
400,160,35618,6,0,L|216:160,1,175
112,160,37493,1,0,0:0:0:0:
112,240,37961,2,0,P|120:304|160:336,1,105
224,333,39133,1,0,0:0:0:0:
224,333,39368,1,0,0:0:0:0:
300,332,39836,1,0,0:0:0:0:
300,332,40071,2,0,P|296:256|240:216,1,140
136,216,41711,6,0,P|136:152|160:120,1,105
240,120,42883,1,0,0:0:0:0:
240,120,43118,2,0,L|424:121,1,175
416,312,45461,1,0,0:0:0:0:
416,312,45696,1,0,0:0:0:0:
336,312,46165,2,0,L|184:312,1,140
119,317,47571,1,0,0:0:0:0:
119,317,47805,2,0,P|97:269|58:235,1,105
40,160,48977,1,0,0:0:0:0:
80,96,49446,1,0,0:0:0:0:
32,32,49915,1,0,0:0:0:0:
144,32,50618,5,0,0:0:0:0:
224,32,51086,1,0,0:0:0:0:
300,36,51555,1,0,0:0:0:0:
300,36,51790,1,0,0:0:0:0:
416,32,52493,2,0,P|424:120|472:200,1,175
464,312,54368,1,0,0:0:0:0:
384,312,54836,1,0,0:0:0:0:
304,312,55305,1,0,0:0:0:0:
304,312,55540,2,0,B|289:183|200:88,1,245
56,48,58118,5,0,0:0:0:0:
32,120,58586,1,0,0:0:0:0:
64,192,59055,1,0,0:0:0:0:
64,192,59290,1,0,0:0:0:0:
56,272,59758,1,0,0:0:0:0:
56,272,59993,2,0,L|56:344,1,70
136,344,60930,2,0,P|288:320|457:347,1,315
446,343,63977,5,0,0:0:0:0:
446,343,64915,5,0,0:0:0:0:
328,360,65383,1,0,0:0:0:0:
328,360,65618,1,0,0:0:0:0:
200,328,66086,2,0,B|128:296|16:304,1,168
40,168,67258,1,0,0:0:0:0:
40,168,67493,2,0,B|133:175|205:143,1,168
328,88,68665,5,0,0:0:0:0:
432,176,69133,2,0,P|436:207|456:240,1,56
352,328,69836,1,0,0:0:0:0:
224,296,70305,2,0,P|240:272|240:232,1,56
256,112,71008,1,0,0:0:0:0:
144,40,71477,1,0,0:0:0:0:
40,120,71946,1,0,0:0:0:0:
40,120,72180,1,0,0:0:0:0:
40,336,73118,6,0,P|69:326|99:292,1,56
204,333,73821,2,0,P|215:298|246:272,1,56
344,328,74524,1,0,0:0:0:0:
408,312,74758,1,0,0:0:0:0:
472,328,74993,1,0,0:0:0:0:
472,80,75930,6,0,P|440:64|424:40,1,56
304,48,76633,2,0,P|312:72|304:104,1,56
184,64,77336,1,0,0:0:0:0:
72,112,77805,1,0,0:0:0:0:
72,232,78274,2,0,P|80:256|72:304,2,56
320,232,79680,6,0,P|344:224|376:232,1,56
344,112,80383,2,0,P|312:120|280:112,1,56
168,104,81086,1,0,0:0:0:0:
128,216,81555,2,0,P|120:248|88:272,1,56
224,256,82258,2,0,P|232:216|248:192,1,56
456,328,83430,6,0,L|456:216,1,112
368,128,84368,1,0,0:0:0:0:
256,184,84836,2,0,L|256:8,1,168
152,80,86008,1,0,0:0:0:0:
32,56,86477,1,0,0:0:0:0:
32,176,86946,2,0,L|32:280,1,84
256,192,88586,12,4,94915,1:3:0:0:
464,352,95618,5,0,3:0:0:0:
464,352,95852,1,2,0:0:0:0:
464,232,96321,1,0,3:0:0:0:
352,288,96790,1,0,3:0:0:0:
352,168,97258,1,4,1:3:0:0:
240,216,97727,1,2,0:0:0:0:
240,336,98196,1,2,0:0:0:0:
240,336,98430,1,2,0:0:0:0:
240,336,98665,5,4,1:3:0:0:
96,216,99368,2,0,L|96:160,1,56,0|2,3:0|0:0,0:0:0:0:
256,64,100305,2,0,L|256:248,1,168,0|4,3:0|1:3,0:0:0:0:
256,344,102415,5,4,1:0:0:0:
256,344,103352,5,2,1:2:0:0:
200,232,103821,1,0,3:0:0:0:
272,136,104290,1,0,3:0:0:0:
200,32,104758,1,4,1:3:0:0:
200,32,104993,2,0,B|80:16|16:72|32:192,1,280,0|4,0:0|1:3,0:0:0:0:
152,192,106633,5,2,0:0:0:0:
152,256,106868,1,0,0:0:0:0:
152,320,107102,1,2,0:0:0:0:
256,248,107571,2,0,L|256:136,2,112,0|0|4,3:0|3:0|1:3,0:0:0:0:
376,288,108977,1,2,0:0:0:0:
376,288,109211,2,0,L|376:120,1,168,0|4,0:0|1:3,0:0:0:0:
256,80,110383,6,0,L|256:0,2,56,2|0|2,0:0|0:0|0:0,0:0:0:0:
256,200,111321,2,0,L|256:312,2,112,0|0|4,3:0|3:0|1:3,0:0:0:0:
136,232,112727,1,2,0:0:0:0:
136,232,112961,2,0,L|136:48,1,168,0|4,0:0|1:3,0:0:0:0:
32,136,114133,5,2,0:0:0:0:
32,192,114368,1,0,0:0:0:0:
32,248,114602,1,2,0:0:0:0:
112,344,115071,2,0,L|232:344,2,112,0|0|4,3:0|3:0|1:3,0:0:0:0:
176,240,116477,1,2,0:0:0:0:
296,240,116946,1,2,0:0:0:0:
360,240,117180,1,2,0:0:0:0:
424,240,117415,1,0,1:0:0:0:
424,56,118118,5,0,0:0:0:0:
360,56,118352,1,2,0:0:0:0:
296,56,118586,1,0,0:0:0:0:
232,56,118821,1,0,0:0:0:0:
168,56,119055,1,0,0:0:0:0:
104,56,119290,1,0,0:0:0:0:
104,240,119993,2,0,B|200:240|248:240|248:280|320:280|392:280,1,280,0|4,0:0|1:3,0:0:0:0:
376,160,121633,5,2,0:0:0:0:
312,160,121868,1,0,0:0:0:0:
248,160,122102,1,2,0:0:0:0:
128,160,122571,2,0,L|-8:160,2,112,0|0|4,3:0|0:0|1:3,0:0:0:0:
128,280,123977,1,2,0:0:0:0:
184,304,124211,1,0,0:0:0:0:
248,312,124446,1,2,0:0:0:0:
304,288,124680,1,2,0:0:0:0:
344,240,124915,5,4,1:3:0:0:
344,120,125383,2,0,P|384:120|416:128,2,56,2|0|2,0:0|0:0|0:0,0:0:0:0:
224,120,126321,2,0,P|160:120|96:112,2,112,0|0|4,3:0|0:0|1:3,0:0:0:0:
344,112,127727,1,2,0:0:0:0:
400,144,127961,1,0,0:0:0:0:
408,208,128196,1,2,0:0:0:0:
376,264,128430,1,2,0:0:0:0:
312,264,128665,6,0,L|72:264,1,224,4|2,1:3|0:0,0:0:0:0:
144,152,130071,2,0,L|392:152,1,224,2|4,0:0|1:3,0:0:0:0:
456,240,131477,1,2,2:0:0:0:
352,312,131946,1,2,0:0:0:0:
288,312,132180,1,2,0:0:0:0:
224,312,132415,1,4,1:0:0:0:
40,312,133118,6,0,B|8:160|120:48,1,280,0|0,0:0|1:0,0:0:0:0:
240,56,134758,1,4,1:3:0:0:
304,56,134993,1,0,0:0:0:0:
368,56,135227,2,0,L|480:56,2,112,0|0|4,3:0|3:0|1:3,0:0:0:0:
368,240,136868,5,0,0:0:0:0:
304,240,137102,1,2,0:0:0:0:
184,240,137571,1,2,0:0:0:0:
144,192,137805,1,2,0:0:0:0:
168,136,138040,1,0,3:0:0:0:
288,136,138508,2,0,L|424:136,1,112,4|0,1:3|3:0,0:0:0:0:
344,248,139446,2,0,L|224:248,1,112,2|4,2:0|1:3,0:0:0:0:
48,248,140618,6,0,L|48:128,1,112
48,72,141321,2,0,P|104:56|168:64,1,112,0|0,3:0|3:0,0:0:0:0:
152,184,142258,1,4,1:3:0:0:
152,248,142493,1,0,0:0:0:0:
272,280,142961,1,0,0:0:0:0:
272,216,143196,1,0,3:0:0:0:
272,152,143430,1,0,0:0:0:0:
272,88,143665,2,0,P|384:48|488:88,1,224,4|2,1:3|0:0,0:0:0:0:
480,208,145071,5,0,0:0:0:0:
360,208,145540,1,2,0:0:0:0:
352,272,145774,1,2,0:0:0:0:
288,280,146008,1,4,1:3:0:0:
168,272,146477,1,2,0:0:0:0:
112,288,146711,1,4,1:3:0:0:
112,104,147415,5,4,1:0:0:0:
288,48,148118,1,0,1:0:0:0:
288,48,148352,1,2,0:0:0:0:
384,208,149055,1,4,1:3:0:0:
216,288,149758,1,0,1:0:0:0:
216,288,150227,2,0,P|208:176|112:104,1,224,0|4,1:0|1:3,0:0:0:0:
32,264,151868,5,4,1:3:0:0:
32,264,152102,1,2,0:0:0:0:
200,336,152805,1,4,1:3:0:0:
272,168,153508,1,4,1:3:0:0:
272,168,153977,2,0,P|376:184|392:288,1,224,0|4,1:0|1:3,0:0:0:0:
208,288,155618,5,4,1:3:0:0:
208,288,155852,1,2,0:0:0:0:
208,104,156555,1,4,1:3:0:0:
48,192,157258,1,4,1:3:0:0:
48,192,157727,2,0,B|8:256|56:320|144:320|152:224,1,224,0|4,1:0|1:3,0:0:0:0:
160,56,159368,5,0,1:3:0:0:
160,56,159602,1,2,0:0:0:0:
320,152,160305,1,4,1:3:0:0:
472,48,161008,1,4,1:3:0:0:
472,48,161477,2,0,L|472:280,1,224,0|4,1:0|1:3,0:0:0:0:
360,176,162883,5,2,0:0:0:0:
360,248,163118,1,4,1:3:0:0:
360,320,163352,1,2,0:0:0:0:
224,256,163821,1,2,0:0:0:0:
224,184,164055,1,4,1:3:0:0:
224,112,164290,2,0,P|168:104|112:112,1,112,4|4,1:3|1:3,0:0:0:0:
112,256,165227,2,0,P|224:272|336:256,1,224,0|0,1:0|1:0,0:0:0:0:
480,256,166633,5,2,0:0:0:0:
480,184,166868,1,4,1:3:0:0:
480,112,167102,1,2,0:0:0:0:
344,56,167571,1,2,0:0:0:0:
344,128,167805,1,4,1:3:0:0:
344,200,168040,2,0,P|288:208|232:200,1,112,4|4,1:3|1:3,0:0:0:0:
240,56,168977,2,0,P|128:32|8:64,1,224,0|4,1:0|1:3,0:0:0:0:
24,200,170383,5,2,0:0:0:0:
24,272,170618,1,4,1:3:0:0:
24,344,170852,1,2,0:0:0:0:
152,280,171321,1,2,0:0:0:0:
152,208,171555,1,4,1:3:0:0:
152,136,171790,2,0,P|200:112|272:112,1,112,4|4,1:3|1:3,0:0:0:0:
400,120,172727,2,0,L|400:360,1,224,0|4,1:0|1:3,0:0:0:0:
256,312,174133,5,2,0:0:0:0:
256,240,174368,1,4,1:3:0:0:
256,168,174602,1,0,0:0:0:0:
48,232,175305,1,4,1:3:0:0:
48,232,176008,2,0,L|48:360,1,112,4|2,1:3|0:0,0:0:0:0:
56,72,196165,5,2,0:0:0:0:
56,72,196633,2,0,P|56:104|64:152,1,70,0|2,0:0|0:0,0:0:0:0:
160,200,197337,2,0,P|160:168|168:128,1,70,0|2,0:0|0:0,0:0:0:0:
272,96,198040,2,0,P|272:128|280:176,1,70,0|2,0:0|0:0,0:0:0:0:
384,144,198743,5,0,0:0:0:0:
392,168,198977,1,2,0:0:0:0:
392,192,199211,1,0,0:0:0:0:
384,216,199446,1,0,0:0:0:0:
384,240,199680,1,0,0:0:0:0:
384,264,199915,5,2,0:0:0:0:
280,304,200383,2,0,P|280:264|272:224,1,70,0|2,0:0|0:0,0:0:0:0:
168,280,201086,2,0,P|168:312|160:352,1,70,0|2,0:0|0:0,0:0:0:0:
56,304,201790,2,0,P|56:264|64:224,1,70,0|2,0:0|0:0,0:0:0:0:
80,128,202493,5,2,0:0:0:0:
104,120,202727,1,0,0:0:0:0:
128,120,202961,1,0,0:0:0:0:
152,128,203196,1,2,0:0:0:0:
176,144,203430,1,0,0:0:0:0:
192,168,203665,5,2,0:0:0:0:
208,280,204133,2,0,P|208:312|232:352,1,70,0|2,0:0|0:0,0:0:0:0:
328,296,204836,2,0,P|336:256|336:208,1,70,0|2,0:0|0:0,0:0:0:0:
448,264,205540,5,0,0:0:0:0:
464,240,205774,1,0,0:0:0:0:
472,216,206008,1,2,0:0:0:0:
472,192,206243,1,0,0:0:0:0:
472,168,206477,1,2,0:0:0:0:
464,144,206711,1,0,0:0:0:0:
448,120,206946,1,0,0:0:0:0:
424,104,207180,1,0,0:0:0:0:
400,96,207415,5,0,0:0:0:0:
264,56,207883,1,0,1:0:0:0:
160,144,208352,1,0,1:0:0:0:
240,256,208821,1,0,1:0:0:0:
72,328,209290,5,0,1:0:0:0:
56,304,209524,1,0,1:0:0:0:
48,280,209758,1,0,1:0:0:0:
48,256,209993,1,0,1:0:0:0:
48,232,210227,1,0,1:0:0:0:
56,208,210461,1,0,1:0:0:0:
72,184,210696,1,0,1:0:0:0:
96,168,210930,1,0,1:0:0:0:
120,160,211165,5,4,1:0:0:0:
240,344,211868,1,4,1:3:0:0:
240,272,212102,2,0,B|240:240|256:184|208:88,1,168,0|4,0:0|1:3,0:0:0:0:
216,32,213040,1,4,1:3:0:0:
336,112,213508,1,4,1:3:0:0:
472,48,213977,2,0,B|472:88|472:152|440:152|440:184|440:216|440:272,1,224,0|4,1:0|1:3,0:0:0:0:
264,320,215383,6,0,L|264:240,1,70,2|4,0:0|1:3,0:0:0:0:
264,176,215852,2,0,B|264:112|216:64|144:64,1,168,0|4,0:3|1:3,0:3:0:0:
88,64,216790,1,4,1:3:0:0:
88,208,217258,1,4,1:3:0:0:
88,352,217727,2,0,B|157:352|192:352|192:312|312:312,1,224,0|4,0:0|1:3,0:0:0:0:
448,312,219133,1,2,0:0:0:0:
448,240,219368,5,4,1:3:0:0:
448,168,219602,2,0,B|456:112|424:64|344:72,1,168,0|4,0:0|1:3,0:0:0:0:
272,72,220540,1,4,1:3:0:0:
272,216,221008,1,4,1:3:0:0:
272,360,221477,2,0,B|216:360|160:360|160:320|88:320|32:320,1,224,0|4,0:0|1:3,0:0:0:0:
56,136,222883,6,0,L|56:48,1,70,2|4,2:0|1:3,1:0:0:0:
128,40,223352,2,0,P|176:32|248:48,1,112,2|2,0:0|0:0,0:0:0:0:
304,72,224055,1,4,1:3:0:0:
304,144,224290,2,0,L|304:264,1,112,4|4,1:3|1:3,0:0:0:0:
448,256,225227,2,0,B|448:32,1,224,0|4,1:0|1:0,0:0:0:0:
304,48,226633,5,2,0:0:0:0:
304,120,226868,1,4,1:3:0:0:
304,192,227102,1,2,0:0:0:0:
160,176,227571,1,2,0:0:0:0:
160,104,227805,2,0,L|160:32,1,70,4|4,1:3|1:3,0:0:0:0:
24,80,228508,1,4,1:3:0:0:
24,224,228977,2,0,B|136:224|136:240|136:256|248:256,1,224,0|4,1:0|1:3,0:0:0:0:
384,256,230383,5,2,0:0:0:0:
384,184,230618,1,4,1:3:0:0:
384,112,230852,1,2,0:0:0:0:
256,160,231321,1,2,0:0:0:0:
256,232,231555,2,0,L|256:320,1,70,4|4,1:3|1:3,0:0:0:0:
120,344,232258,1,4,1:3:0:0:
104,200,232727,2,0,B|80:120|104:64|160:40|224:40,1,224,0|0,1:0|1:0,0:0:0:0:
384,48,234133,6,0,L|384:144,2,70,2|4|2,0:0|1:3|0:0,0:0:0:0:
256,104,235071,1,2,0:0:0:0:
256,176,235305,1,4,1:3:0:0:
256,248,235540,2,0,L|256:368,1,112,4|4,1:3|1:3,0:0:0:0:
120,304,236477,2,0,L|121:65,1,224,0|4,1:0|1:3,0:0:0:0:
256,128,237883,5,2,0:0:0:0:
256,200,238118,1,4,1:3:0:0:
256,272,238352,1,0,0:0:0:0:
464,232,239055,1,4,1:3:0:0:
464,232,239758,2,0,L|464:360,1,112,4|2,1:3|0:0,0:0:0:0:
256,192,241165,12,0,244915,0:0:0:0:
