osu file format v14

[General]
AudioFilename: audio.mp3
AudioLeadIn: 0
PreviewTime: 43057
Countdown: 0
SampleSet: Normal
StackLeniency: 0.5
Mode: 0
LetterboxInBreaks: 0
EpilepsyWarning: 1
WidescreenStoryboard: 1

[Editor]
Bookmarks: 19851,31148,36792
DistanceSpacing: 0.6
BeatDivisor: 4
GridSize: 4
TimelineZoom: 4.85

[Metadata]
Title:Mitsuba no Musubime (Miraie DnB Mix)
TitleUnicode:三つ葉の結びめ (Miraie DnB Mix)
Artist:Yanagi Nagi
ArtistUnicode:やなぎなぎ
Creator:Megapcmx
Version:Hard
Source:凪のあすから
Tags:Nagi no Asukara miraie dnb mix ed ending gary00737 dominigg xIchBinVale Time Capsule
BeatmapID:1458742
BeatmapSetID:682911

[Difficulty]
HPDrainRate:5
CircleSize:4
OverallDifficulty:5
ApproachRate:8
SliderMultiplier:1.4
SliderTickRate:1

[Events]
//Background and Video events
0,0,"bg.png",0,0
//Break Periods
//Storyboard Layer 0 (Background)
//Storyboard Layer 1 (Fail)
//Storyboard Layer 2 (Pass)
//Storyboard Layer 3 (Foreground)
Sprite,Foreground,Centre,"SB\MagicCircleS.png",0,0 M,0,2910,,252,304 P,1,2910,,A F,0,2910,3263,1 S,1,2910,3969,0.24,0.9 R,1,2910,3969,0,4 F,0,3263,3969,1,0
Sprite,Foreground,Centre,"SB\MagicCircleS.png",0,0 M,0,19851,,488,152 P,1,19851,,A F,0,19851,20204,1 S,1,19851,20910,0.24,0.9 R,1,19851,20910,4,0 F,0,20204,20910,1,0
Sprite,Foreground,Centre,"SB\MagicCircleS.png",0,0 M,0,25498,,283,284 P,1,25498,,A F,0,25498,25851,1 S,1,25498,26557,0.24,0.9 R,1,25498,26557,0,4 F,0,25851,26557,1,0
Sprite,Foreground,Centre,"SB\MagicCircleS.png",0,0 M,0,43851,,140,352 P,1,43851,,A F,0,43851,44204,1 S,1,43851,44910,0.24,0.9 R,1,43851,44910,0,4 F,0,44204,44910,1,0
Sprite,Foreground,Centre,"SB\MagicCircleS.png",0,0 M,0,49498,,468,340 P,1,49498,,A F,0,49498,49851,1 S,1,49498,50557,0.24,0.9 R,1,49498,50557,0,4 F,0,49851,50557,1,0
Sprite,Foreground,Centre,"SB\MagicCircleS.png",0,0 M,0,50910,,119,221 P,1,50910,,A F,0,50910,51263,1 S,1,50910,51969,0.24,0.9 R,1,50910,51969,4,0 F,0,51263,51969,1,0
Sprite,Foreground,Centre,"SB\MagicCircleS.png",0,0 M,0,52322,,375,364 P,1,52322,,A F,0,52322,52675,1 S,1,52322,53381,0.24,0.9 R,1,52322,53381,4,0 F,0,52675,53381,1,0
Sprite,Foreground,Centre,"SB\MagicCircleS.png",0,0 M,0,55145,,404,388 P,1,55145,,A F,0,55145,55498,1 S,1,55145,56204,0.24,0.9 R,1,55145,56204,4,0 F,0,55498,56204,1,0
Sprite,Foreground,Centre,"SB\MagicCircleS.png",0,0 M,0,57969,,295,354 P,1,57969,,A F,0,57969,58322,1 S,1,57969,59028,0.24,0.9 R,1,57969,59028,0,4 F,0,58322,59028,1,0
Sprite,Foreground,Centre,"SB\MagicCircleS.png",0,0 M,0,60792,,384,312 P,1,60792,,A F,0,60792,61145,1 S,1,60792,61851,0.24,0.9 R,1,60792,61851,4,0 F,0,61145,61851,1,0
Sprite,Foreground,Centre,"SB\MagicCircleS.png",280,316 P,1,62204,,A F,0,62204,62557,1 S,1,62204,63263,0.24,0.9 R,1,62204,63263,4,0 F,0,62557,63263,1,0
Sprite,Foreground,Centre,"SB\highlight.png",0,0 C,0,87,,80,250,123 M,0,87,175,176,118,141.4894,123.8328 F,2,87,1239,1,0 S,2,87,1239,1,0.2 P,0,87,1239,A M,0,175,263,141.4894,123.8328,106.9789,129.6655 M,0,263,351,106.9789,129.6655,141.4894,123.8328 M,0,351,439,141.4894,123.8328,176,118
Sprite,Foreground,Centre,"SB\highlight.png",0,0 C,0,616,,80,250,123 M,0,616,704,252,154,286.4968,159.9137 F,2,616,1768,1,0 S,2,616,1768,1,0.2 P,0,616,1768,A M,0,704,792,286.4968,159.9137,320.9936,165.8275 M,0,792,880,320.9936,165.8275,286.4968,159.9137 M,0,880,968,286.4968,159.9137,252,154
Sprite,Foreground,Centre,"SB\highlight.png",0,0 C,0,1145,,255,121,198 M,0,1145,1233,176,190,141.4894,195.8328 F,2,1145,2297,1,0 S,2,1145,2297,1,0.2 P,0,1145,2297,A M,0,1233,1321,141.4894,195.8328,106.9789,201.6655 M,0,1321,1409,106.9789,201.6655,141.4894,195.8328 M,0,1409,1497,141.4894,195.8328,176,190
Sprite,Foreground,Centre,"SB\highlight.png",0,0 C,0,1675,,255,121,198 M,0,1675,1763,252,226,286.4968,231.9137 F,2,1675,2827,1,0 S,2,1675,2827,1,0.2 P,0,1675,2827,A M,0,1763,1851,286.4968,231.9137,320.9936,237.8275 M,0,1851,1939,320.9936,237.8275,286.4968,231.9137 M,0,1939,2027,286.4968,231.9137,252,226
Sprite,Foreground,Centre,"SB\highlight.png",0,0 C,0,2204,,255,121,198 M,0,2204,2292,176,262,141.4894,267.8328 F,2,2204,3356,1,0 S,2,2204,3356,1,0.2 P,0,2204,3356,A M,0,2292,2380,141.4894,267.8328,106.9789,273.6655 M,0,2380,2468,106.9789,273.6655,141.4894,267.8328 M,0,2468,2556,141.4894,267.8328,176,262
Sprite,Foreground,Centre,"SB\highlight.png",252,304 C,0,2734,,255,121,198 F,2,2734,3534,1,0 S,2,2734,3534,1,0.2 P,0,2734,3534,A
Sprite,Foreground,Centre,"SB\highlight.png",252,304 C,0,2822,,255,121,198 F,2,2822,3622,1,0 S,2,2822,3622,1,0.2 P,0,2822,3622,A
Sprite,Foreground,Centre,"SB\highlight.png",0,0 C,0,2910,,189,147,249 M,0,2910,2998,252,304,292.9926,311.9824 F,2,2910,3886,1,0 S,2,2910,3886,1,0.2 P,0,2910,3886,A M,0,2998,3086,292.9926,311.9824,334.3531,306.5468
Sprite,Foreground,Centre,"SB\highlight.png",0,0 C,0,8557,,255,121,198 M,0,8557,8645,401,209,408.757,189.6564 F,2,8557,10415,1,0 S,2,8557,10415,1,0.2 P,0,8557,10415,A M,0,8645,8733,408.757,189.6564,421.5804,173.2372 M,0,8733,8821,421.5804,173.2372,439.1419,162.0501 M,0,8821,8909,439.1419,162.0501,459.1401,156.3436 M,0,8909,8998,459.1401,156.3436,479.9167,157.4883 M,0,8998,9086,479.9167,157.4883,499.4144,164.6473 M,0,9086,9174,499.4144,164.6473,515.9309,177.3881 M,0,9174,9262,515.9309,177.3881,527.1527,194.9399 M,0,9262,9351,527.1527,194.9399,532.9855,214.9224 M,0,9351,9439,532.9855,214.9224,531.8751,235.7084 M,0,9439,9527,531.8751,235.7084,524.8301,255.2622 M,0,9527,9615,524.8301,255.2622,512.1452,271.8491
Sprite,Foreground,Centre,"SB\highlight.png",440,344 C,0,9792,,189,147,249 F,2,9792,10592,1,0 S,2,9792,10592,1,0.2 P,0,9792,10592,A
Sprite,Foreground,Centre,"SB\highlight.png",0,0 C,0,9969,,189,147,249 M,0,9969,10057,440,344,419.3839,340.0641 F,2,9969,11827,1,0 S,2,9969,11827,1,0.2 P,0,9969,11827,A M,0,10057,10145,419.3839,340.0641,398.445,338.6676 M,0,10145,10233,398.445,338.6676,377.5083,340.067 M,0,10233,10321,377.5083,340.067,356.9668,344.3486 M,0,10321,10410,356.9668,344.3486,337.1977,351.3865 M,0,10410,10498,337.1977,351.3865,318.4263,359.2212 M,0,10498,10586,318.4263,359.2212,299.1437,350.9258 M,0,10586,10674,299.1437,350.9258,279.1106,344.6602 M,0,10674,10763,279.1106,344.6602,258.5202,340.5862 M,0,10763,10851,258.5202,340.5862,237.6089,338.7733 M,0,10851,10939,237.6089,338.7733,216.6224,339.1852 M,0,10939,11027,216.6224,339.1852,195.7811,341.6945
Sprite,Foreground,Centre,"SB\highlight.png",128,272 C,0,11204,,241,250,140 F,2,11204,12004,1,0 S,2,11204,12004,1,0.2 P,0,11204,12004,A
Sprite,Foreground,Centre,"SB\highlight.png",0,0 C,0,11381,,241,250,140 M,0,11381,11469,128,272,115.3858,255.4099 F,2,11381,13239,1,0 S,2,11381,13239,1,0.2 P,0,11381,13239,A M,0,11469,11557,115.3858,255.4099,107.9071,235.9712 M,0,11557,11645,107.9071,235.9712,107.3215,215.1595 M,0,11645,11733,107.3215,215.1595,112.7363,195.0891 M,0,11733,11822,112.7363,195.0891,124.3784,177.8458 M,0,11822,11910,124.3784,177.8458,140.57,164.8482 M,0,11910,11998,140.57,164.8482,159.9904,157.3064 M,0,11998,12086,159.9904,157.3064,180.803,156.6769 M,0,12086,12175,180.803,156.6769,200.8941,162.0294 M,0,12175,12263,200.8941,162.0294,218.1631,173.6359 M,0,12263,12351,218.1631,173.6359,231.2132,189.788 M,0,12351,12439,231.2132,189.788,238.8889,209.1829
Sprite,Foreground,Centre,"SB\highlight.png",0,0 C,0,14204,,139,233,253 M,0,14204,14292,404,305,424.412,286.2807 F,2,14204,15180,1,0 S,2,14204,15180,1,0.2 P,0,14204,15180,A M,0,14292,14380,424.412,286.2807,435.0195,260.79
Sprite,Foreground,Centre,"SB\highlight.png",0,0 C,0,14557,,139,233,253 M,0,14557,14645,468,188,441.6536,179.4143 F,2,14557,15533,1,0 S,2,14557,15533,1,0.2 P,0,14557,15533,A M,0,14645,14733,441.6536,179.4143,414.0205,181.73
Sprite,Foreground,Centre,"SB\highlight.png",0,0 C,0,14910,,139,233,253 M,0,14910,14998,335,192,340.5393,219.0973 F,2,14910,16062,1,0 S,2,14910,16062,1,0.2 P,0,14910,16062,A M,0,14998,15086,340.5393,219.0973,357.4494,240.8607 M,0,15086,15174,357.4494,240.8607,340.5393,219.0973 M,0,15174,15262,340.5393,219.0973,335,192
Sprite,Foreground,Centre,"SB\highlight.png",366,118 C,0,15439,,80,250,123 F,2,15439,16239,1,0 S,2,15439,16239,1,0.2 P,0,15439,16239,A
Sprite,Foreground,Centre,"SB\highlight.png",0,0 C,0,15616,,80,250,123 M,0,15616,15704,366,118,332.0429,111.4761 F,2,15616,16592,1,0 S,2,15616,16592,1,0.2 P,0,15616,16592,A M,0,15704,15792,332.0429,111.4761,298.4797,119.777
Sprite,Foreground,Centre,"SB\highlight.png",0,0 C,0,15969,,80,250,123 M,0,15969,16057,260,188,226.1722,195.9918 F,2,15969,16945,1,0 S,2,15969,16945,1,0.2 P,0,15969,16945,A M,0,16057,16145,226.1722,195.9918,192,190
Sprite,Foreground,Centre,"SB\highlight.png",0,0 C,0,16322,,80,250,123 M,0,16322,16410,116,168,116,203 F,2,16322,17474,1,0 S,2,16322,17474,1,0.2 P,0,16322,17474,A M,0,16410,16498,116,203,116,168 M,0,16498,16586,116,168,116,203 M,0,16586,16674,116,203,116,168
Sprite,Foreground,Centre,"SB\highlight.png",116,307 C,0,16851,,255,121,198 F,2,16851,17651,1,0 S,2,16851,17651,1,0.2 P,0,16851,17651,A
Sprite,Foreground,Centre,"SB\highlight.png",416,212 C,0,19145,,189,147,249 F,2,19145,19945,1,0 S,2,19145,19945,1,0.2 P,0,19145,19945,A
Sprite,Foreground,Centre,"SB\highlight.png",0,0 C,0,31145,,241,250,140 M,0,31145,31233,500,195,479.3186,191.4823 F,2,31145,33003,1,0 S,2,31145,33003,1,0.2 P,0,31145,33003,A M,0,31233,31321,479.3186,191.4823,458.3452,191.434 M,0,31321,31409,458.3452,191.434,437.6927,195.0827 M,0,31409,31497,437.6927,195.0827,417.9706,202.2262 M,0,31497,31586,417.9706,202.2262,399.5815,212.3298 M,0,31586,31674,399.5815,212.3298,382.6672,224.7549 M,0,31674,31762,382.6672,224.7549,367.8172,214.4425 M,0,31762,31850,367.8172,214.4425,350.728,202.3048 M,0,31850,31939,350.728,202.3048,331.4492,194.0806 M,0,31939,32027,331.4492,194.0806,310.895,189.9371 M,0,32027,32115,310.895,189.9371,289.9229,189.4165 M,0,32115,32203,289.9229,189.4165,269.0729,191.8095
Sprite,Foreground,Centre,"SB\highlight.png",0,0 C,0,32557,,241,250,140 M,0,32557,32645,175,232,161.8809,248.2033 F,2,32557,34415,1,0 S,2,32557,34415,1,0.2 P,0,32557,34415,A M,0,32645,32733,161.8809,248.2033,153.713,267.3642 M,0,32733,32821,153.713,267.3642,152.1835,288.134 M,0,32821,32909,152.1835,288.134,156.6059,308.4473 M,0,32909,32998,156.6059,308.4473,166.8746,326.614 M,0,32998,33086,166.8746,326.614,182.543,340.3554 M,0,33086,33174,182.543,340.3554,201.3828,349.2042 M,0,33174,33262,201.3828,349.2042,222.0712,351.549 M,0,33262,33351,222.0712,351.549,242.5224,347.8645 M,0,33351,33439,242.5224,347.8645,261.0319,338.2685 M,0,33439,33527,261.0319,338.2685,275.3742,323.1581 M,0,33527,33615,275.3742,323.1581,284.892,304.6617
Sprite,Foreground,Centre,"SB\highlight.png",0,0 C,0,33969,,241,250,140 M,0,33969,34057,324,212,343.6759,204.6804 F,2,33969,35827,1,0 S,2,33969,35827,1,0.2 P,0,33969,35827,A M,0,34057,34145,343.6759,204.6804,363.9662,199.3069 M,0,34145,34233,363.9662,199.3069,384.7458,196.3775 M,0,34233,34321,384.7458,196.3775,405.7248,196.4338 M,0,34321,34410,405.7248,196.4338,426.4086,199.9111 M,0,34410,34498,426.4086,199.9111,446.1666,206.9451 M,0,34498,34586,446.1666,206.9451,447.6105,217.3284 M,0,34586,34674,447.6105,217.3284,430.9232,230.0556 M,0,34674,34763,430.9232,230.0556,416.0487,244.8553 M,0,34763,34851,416.0487,244.8553,403.494,261.6639 M,0,34851,34939,403.494,261.6639,393.6651,280.1981 M,0,34939,35027,393.6651,280.1981,386.7383,300.0028
Sprite,Foreground,Centre,"SB\highlight.png",0,0 C,0,35381,,241,250,140 M,0,35381,35469,467,361,452.8582,376.4286 F,2,35381,37239,1,0 S,2,35381,37239,1,0.2 P,0,35381,37239,A M,0,35469,35557,452.8582,376.4286,436.083,388.9348 M,0,35557,35645,436.083,388.9348,416.9329,397.3564 M,0,35645,35733,416.9329,397.3564,396.5319,401.9263 M,0,35733,35822,396.5319,401.9263,375.6182,401.9206 M,0,35822,35910,375.6182,401.9206,355.1391,397.771 M,0,35910,35998,355.1391,397.771,335.8929,389.5495 M,0,35998,36086,335.8929,389.5495,319.0035,377.2014 M,0,36086,36175,319.0035,377.2014,304.799,361.8568 M,0,36175,36263,304.799,361.8568,294.3178,343.7576 M,0,36263,36351,294.3178,343.7576,287.6144,323.9647 M,0,36351,36439,287.6144,323.9647,285,304
Sprite,Foreground,Centre,"SB\highlight.png",0,0 C,0,36792,,139,233,253 M,0,36792,36880,253,171,226.2079,163.3739 F,2,36792,37944,1,0 S,2,36792,37944,1,0.2 P,0,36792,37944,A M,0,36880,36968,226.2079,163.3739,198.3967,163.8834 M,0,36968,37056,198.3967,163.8834,171.8137,172.1706 M,0,37056,37144,171.8137,172.1706,149.1304,188.3267
Sprite,Foreground,Centre,"SB\highlight.png",0,0 C,0,37498,,139,233,253 M,0,37498,37586,220,284,226.6765,311.0278 F,2,37498,38650,1,0 S,2,37498,38650,1,0.2 P,0,37498,38650,A M,0,37586,37674,226.6765,311.0278,241.2224,334.7141 M,0,37674,37762,241.2224,334.7141,262.1392,353.0345 M,0,37762,37850,262.1392,353.0345,287.8415,363.6642
Sprite,Foreground,Centre,"SB\highlight.png",0,0 C,0,38204,,139,233,253 M,0,38204,38292,334,256,352.3951,235.0475 F,2,38204,39356,1,0 S,2,38204,39356,1,0.2 P,0,38204,39356,A M,0,38292,38380,352.3951,235.0475,364.6395,210.0345 M,0,38380,38468,364.6395,210.0345,370.0766,182.7152 M,0,38468,38556,370.0766,182.7152,367.7203,154.9536
Sprite,Foreground,Centre,"SB\highlight.png",0,0 C,0,38910,,139,233,253 M,0,38910,38998,252,171,251.0866,143.1633 F,2,38910,40062,1,0 S,2,38910,40062,1,0.2 P,0,38910,40062,A M,0,38998,39086,251.0866,143.1633,258.2498,116.2878 M,0,39086,39174,258.2498,116.2878,272.8519,92.63046 M,0,39174,39262,272.8519,92.63046,293.7364,74.18232
Sprite,Foreground,Centre,"SB\highlight.png",416,68 C,0,39616,,80,250,123 F,2,39616,40416,1,0 S,2,39616,40416,1,0.2 P,0,39616,40416,A
Sprite,Foreground,Centre,"SB\highlight.png",443,83 C,0,39792,,80,250,123 F,2,39792,40592,1,0 S,2,39792,40592,1,0.2 P,0,39792,40592,A
Sprite,Foreground,Centre,"SB\highlight.png",464,107 C,0,39968,,80,250,123 F,2,39968,40768,1,0 S,2,39968,40768,1,0.2 P,0,39968,40768,A
Sprite,Foreground,Centre,"SB\highlight.png",476,137 C,0,40145,,80,250,123 F,2,40145,40945,1,0 S,2,40145,40945,1,0.2 P,0,40145,40945,A
Sprite,Foreground,Centre,"SB\highlight.png",477,169 C,0,40321,,80,250,123 F,2,40321,41121,1,0 S,2,40321,41121,1,0.2 P,0,40321,41121,A
Sprite,Foreground,Centre,"SB\highlight.png",468,199 C,0,40498,,80,250,123 F,2,40498,41298,1,0 S,2,40498,41298,1,0.2 P,0,40498,41298,A
Sprite,Foreground,Centre,"SB\highlight.png",450,225 C,0,40674,,80,250,123 F,2,40674,41474,1,0 S,2,40674,41474,1,0.2 P,0,40674,41474,A
Sprite,Foreground,Centre,"SB\highlight.png",423,244 C,0,40851,,80,250,123 F,2,40851,41651,1,0 S,2,40851,41651,1,0.2 P,0,40851,41651,A
Sprite,Foreground,Centre,"SB\highlight.png",0,0 C,0,54086,,255,121,198 M,0,54086,54174,300,188,300,237 F,2,54086,54974,1,0 S,2,54086,54974,1,0.2 P,0,54086,54974,A
Sprite,Foreground,Centre,"SB\highlight.png",0,0 C,0,54263,,255,121,198 M,0,54263,54351,372,175,372,126 F,2,54263,55151,1,0 S,2,54263,55151,1,0.2 P,0,54263,55151,A
Sprite,Foreground,Centre,"SB\highlight.png",0,0 C,0,54439,,255,121,198 M,0,54439,54527,228,250,228,299 F,2,54439,55415,1,0 S,2,54439,55415,1,0.2 P,0,54439,55415,A M,0,54527,54615,228,299,228,348
Sprite,Foreground,Centre,"SB\highlight.png",228,377 C,0,54704,,255,121,198 F,2,54704,55504,1,0 S,2,54704,55504,1,0.2 P,0,54704,55504,A
Sprite,Foreground,Centre,"SB\highlight.png",228,406 C,0,54792,,255,121,198 F,2,54792,55592,1,0 S,2,54792,55592,1,0.2 P,0,54792,55592,A
Sprite,Foreground,Centre,"SB\highlight.png",345,406 C,0,54969,,255,121,198 F,2,54969,55769,1,0 S,2,54969,55769,1,0.2 P,0,54969,55769,A
Sprite,Foreground,Centre,"SB\highlight.png",377,405 C,0,55057,,255,121,198 F,2,55057,55857,1,0 S,2,55057,55857,1,0.2 P,0,55057,55857,A
//Storyboard Sound Samples

[TimingPoints]
87,352.941176470588,4,2,1,30,1,0
2910,-83.3333333333333,4,2,1,70,0,0
8557,-166.666666666667,4,2,1,30,0,0
12969,-166.666666666667,4,2,1,25,0,0
14204,-125,4,2,1,25,0,0
15616,-100,4,2,1,25,0,0
17028,-111.111111111111,4,2,1,25,0,0
19145,-100,4,2,1,25,0,0
19851,-83.3333333333333,4,2,1,55,0,0
22675,-125,4,2,1,55,0,0
25498,-83.3333333333333,4,2,1,55,0,0
31145,-166.666666666667,4,2,2,30,0,0
36792,-125,4,2,2,30,0,0
38204,-125,4,2,2,40,0,0
41028,-100,4,2,2,40,0,0
43145,-100,4,2,1,30,0,0
43851,-83.3333333333333,4,1,1,60,0,1
52322,-83.3333333333333,4,1,1,60,0,1
54086,-71.4285714285714,4,1,1,60,0,1
55145,-83.3333333333333,4,1,1,60,0,1
60792,-83.3333333333333,4,1,1,60,0,0
63351,-100,4,1,1,40,0,0
63616,-100,4,1,1,30,0,0
63969,-100,4,1,1,20,0,0
64322,-100,4,1,1,10,0,0
64631,-100,4,2,1,5,0,0

[Colours]
Combo1 : 139,233,253
Combo2 : 80,250,123
Combo3 : 255,121,198
Combo4 : 189,147,249
Combo5 : 241,250,140

[HitObjects]
112,62,87,6,0,L|41:74,2,70,2|0|0,0:0|0:0|0:0,0:0:0:0:
188,98,616,2,0,L|258:110,2,70,2|0|0,0:0|0:0|0:0,0:0:0:0:
112,134,1145,6,0,L|41:146,2,70,2|0|0,0:0|0:0|0:0,0:0:0:0:
188,170,1675,2,0,L|258:182,2,70,2|0|0,0:0|0:0|0:0,0:0:0:0:
112,206,2204,2,0,L|41:218,2,70,2|2|0,0:0|0:0|0:0,0:0:0:0:
188,248,2734,1,0,0:0:0:0:
188,248,2822,1,0,0:0:0:0:
188,248,2910,6,4,P|224:256|288:244,1,83.9999974365235,4|0,0:1|0:0,0:1:0:0:
356,180,3263,2,8,P|381:271|345:335,1,167.999994873047,8|0,0:0|0:0,0:0:0:0:
270,250,3792,1,2,0:0:0:0:
270,250,3969,2,8,B|254:280|254:280|254:334,1,83.9999974365235,8|0,0:0|0:0,0:0:0:0:
149,361,4322,6,4,P|110:345|84:313,1,83.9999974365235,4|0,0:0|0:0,0:0:0:0:
172,235,4675,2,8,P|90:193|19:215,1,167.999994873047,8|0,0:0|0:0,0:0:0:0:
84,313,5204,1,2,0:0:0:0:
174,342,5381,2,8,P|215:346|253:330,1,83.9999974365235,8|0,0:0|0:0,0:0:0:0:
313,228,5734,6,4,P|346:253|363:291,1,83.9999974365235,4|0,0:0|0:0,0:0:0:0:
253,329,6086,1,8,0:0:0:0:
172,235,6263,1,0,0:0:0:0:
172,235,6439,2,0,P|177:193|201:160,1,83.9999974365235
240,84,6792,2,0,P|272:109|290:147,1,83.9999974365235,8|0,0:0|0:0,0:0:0:0:
313,228,7145,5,0,0:0:0:0:
201,160,7498,1,0,0:0:0:0:
180,292,7851,2,0,P|221:296|259:280,1,83.9999974365235
259,279,8116,1,0,0:0:0:0:
259,279,8204,1,8,0:0:0:0:
337,153,8557,6,4,P|435:108|448:216,1,251.999992309571,4|0,0:0|0:0,0:0:0:0:
376,288,9792,5,0,0:0:0:0:
376,288,9969,2,0,B|312:272|256:304|256:304|192:272|120:288,1,251.999992309571,2|0,0:0|0:0,0:0:0:0:
64,216,11204,5,0,0:0:0:0:
64,216,11381,2,4,P|48:140|176:160,1,251.999992309571,4|0,0:0|0:0,0:0:0:0:
214,321,12969,1,2,0:0:0:0:
256,248,13322,1,2,0:0:0:0:
298,321,13675,1,2,0:0:0:0:
340,249,14028,5,2,0:0:0:0:
340,249,14204,2,0,P|368:217|372:185,1,56,2|0,0:0|0:0,0:0:0:0:
404,132,14557,2,0,P|377:123|349:126,1,56,0|0,0:0|0:0,0:0:0:0:
271,136,14910,2,0,P|284:176|310:195,2,56,0|0|0,0:0|0:0|0:0,0:0:0:0:
302,62,15439,5,0,0:0:0:0:
302,62,15616,2,0,P|267:55|234:64,1,70,2|0,0:0|0:0,0:0:0:0:
196,132,15969,2,0,P|162:140|128:134,1,70
52,112,16322,2,0,L|52:168,4,35,0|0|0|0|0,0:0|0:0|0:0|0:0|0:0,0:0:0:0:
52,251,16851,5,0,0:0:0:0:
52,251,17028,2,4,P|108:275|172:255,1,125.999996154785,4|0,0:0|0:0,0:0:0:0:
256,216,17557,1,0,0:0:0:0:
256,216,17734,2,0,L|256:280,2,62.9999980773926,0|0|0,0:0|0:0|0:0,0:0:0:0:
352,156,19145,5,0,0:0:0:0:
352,156,19322,1,0,0:0:0:0:
336,63,19498,2,0,P|352:32|380:11,1,70
424,96,19851,6,4,P|448:152|440:192,1,83.9999974365235,4|0,0:1|0:1,0:1:0:0:
390,235,20204,1,8,0:0:0:0:
449,294,20381,1,0,0:0:0:0:
376,332,20557,2,0,P|334:333|298:354,1,83.9999974365235,0|0,0:0|0:0,0:0:0:0:
216,336,20910,2,8,P|179:315|157:279,1,83.9999974365235,8|2,0:0|0:0,0:0:0:0:
124,184,21263,6,4,L|64:243,2,83.9999974365235,4|0|8,0:0|0:0|0:0,0:0:0:0:
196,111,21792,1,0,0:0:0:0:
224,210,21969,2,0,P|262:194|289:162,1,83.9999974365235,0|0,0:0|0:0,0:0:0:0:
289,61,22322,2,8,P|329:68|362:93,1,83.9999974365235,8|2,0:0|0:0,0:0:0:0:
386,191,22675,6,4,L|386:255,2,56,4|0|8,0:0|0:0|0:0,0:0:0:0:
456,224,23204,2,0,L|456:288,2,56,0|0|0,0:0|0:0|0:0,0:0:0:0:
456,144,23734,2,8,L|456:84,1,56,8|2,0:0|0:0,0:0:0:0:
417,20,24086,5,4,0:0:0:0:
377,88,24263,1,0,0:0:0:0:
338,20,24439,1,8,0:0:0:0:
298,88,24616,5,2,0:0:0:0:
298,88,24704,1,2,0:0:0:0:
298,88,24792,1,2,0:0:0:0:
258,20,24969,1,2,0:0:0:0:
219,88,25145,2,12,L|219:144,1,56,12|0,0:0|0:0,0:0:0:0:
219,228,25498,6,4,P|190:257|150:271,1,83.9999974365235,4|0,0:1|0:1,0:1:0:0:
146,186,25851,2,8,P|134:145|142:105,1,83.9999974365235,8|0,0:0|0:0,0:0:0:0:
219,144,26204,2,0,P|259:154|290:181,2,83.9999974365235,0|0|8,0:0|0:0|0:0,0:0:0:0:
146,186,26734,1,2,0:0:0:0:
70,148,26910,6,4,P|28:160|0:190,1,83.9999974365235,4|0,0:0|0:0,0:0:0:0:
76,233,27263,2,8,P|105:259|145:270,1,83.9999974365235,8|0,0:0|0:0,0:0:0:0:
146,186,27616,2,0,P|175:156|215:146,1,83.9999974365235,0|0,0:0|0:0,0:0:0:0:
219,228,27969,2,8,P|248:254|288:265,1,83.9999974365235,8|2,0:0|0:0,0:0:0:0:
289,181,28322,6,0,P|380:156|444:192,1,167.999994873047,2|0,0:0|0:0,0:0:0:0:
364,344,29028,2,0,P|272:367|209:330,1,167.999994873047,0|0,0:0|0:0,0:0:0:0:
211,164,29734,6,0,P|173:176|144:205,1,83.9999974365235,0|0,0:0|0:0,0:0:0:0:
216,244,30086,2,0,P|245:270|285:281,1,83.9999974365235,0|0,0:0|0:0,0:0:0:0:
380,239,30439,6,0,L|380:281,3,41.9999987182618,0|0|0|0,0:0|0:0|0:0|0:0,0:0:0:0:
436,224,30792,2,0,L|436:266,1,41.9999987182618,0|0,0:0|0:0,0:0:0:0:
436,139,31145,6,4,B|372:123|316:171|316:171|276:123|204:136,1,251.999992309571,4|0,0:0|0:0,0:0:0:0:
111,176,32557,2,0,P|112:280|224:236,1,251.999992309571,2|0,0:0|0:0,0:0:0:0:
260,156,33969,2,0,B|336:124|392:156|392:156|332:192|320:256,1,251.999992309571,2|0,0:0|0:0,0:0:0:0:
403,305,35381,2,0,P|291:342|221:248,1,251.999992309571,2|2,0:0|0:0,0:0:0:0:
189,115,36792,6,4,P|161:107|76:142,1,112,4|0,0:0|0:0,0:0:0:0:
156,228,37498,2,0,P|162:254|235:310,1,112
270,200,38204,2,4,P|288:180|301:88,1,112,4|0,0:0|0:0,0:0:0:0:
188,115,38910,2,0,P|194:60|230:18,1,112,0|0,0:0|0:0,0:0:0:0:
352,12,39616,5,4,0:0:0:0:
379,27,39792,1,0,0:0:0:0:
400,51,39968,1,0,0:0:0:0:
412,81,40145,1,4,0:0:0:0:
413,113,40321,1,0,0:0:0:0:
404,143,40498,1,0,0:0:0:0:
386,169,40674,1,4,0:0:0:0:
359,188,40851,1,0,0:0:0:0:
316,196,41028,6,0,L|302:246,3,35
272,164,41381,2,0,L|262:130,3,35
253,216,41734,5,0,0:0:0:0:
248,232,41822,1,0,0:0:0:0:
243,249,41910,1,0,0:0:0:0:
239,266,41998,1,0,0:0:0:0:
234,283,42086,1,0,0:0:0:0:
152,72,43145,5,0,0:0:0:0:
152,156,43410,1,0,0:0:0:0:
152,156,43498,2,0,L|152:244,1,70,0|0,0:0|0:0,0:0:0:0:
76,296,43851,6,4,P|152:326|228:295,1,167.999994873047,4|8,0:0|0:0,0:0:0:0:
284,232,44381,1,0,0:0:0:0:
364,252,44557,2,0,P|385:288|387:329,1,83.9999974365235,0|0,0:0|0:0,0:0:0:0:
306,313,44910,2,8,P|263:313|227:294,1,83.9999974365235,8|2,0:0|0:0,0:0:0:0:
192,220,45263,5,0,0:0:0:0:
249,147,45439,1,0,0:0:0:0:
284,232,45616,1,8,0:0:0:0:
306,74,45792,1,0,0:0:0:0:
306,74,45881,1,0,0:0:0:0:
306,74,45969,2,0,P|268:54|227:55,1,83.9999974365235,2|0,0:0|0:0,0:0:0:0:
148,116,46322,2,8,P|128:154|129:195,1,83.9999974365235,8|2,0:0|0:0,0:0:0:0:
196,268,46675,6,0,P|225:297|264:309,2,83.9999974365235,0|0|8,0:0|0:0|0:0,0:0:0:0:
128,194,47204,1,0,0:0:0:0:
128,194,47381,2,0,P|86:193|49:213,1,83.9999974365235,0|0,0:0|0:0,0:0:0:0:
268,232,47734,2,8,P|289:196|290:154,1,83.9999974365235,8|2,0:0|0:0,0:0:0:0:
227,54,48086,6,0,P|263:34|305:34,1,83.9999974365235,0|0,0:0|0:0,0:0:0:0:
400,64,48439,1,8,0:0:0:0:
380,164,48616,1,0,0:0:0:0:
380,164,48704,1,0,0:0:0:0:
380,164,48792,1,2,0:0:0:0:
400,64,48969,1,0,0:0:0:0:
477,132,49145,2,8,P|486:172|475:212,1,83.9999974365235,8|2,0:0|0:0,0:0:0:0:
404,284,49498,6,4,L|316:284,1,83.9999974365235,4|0,0:0|0:0,0:0:0:0:
308,184,49851,2,8,P|267:194|237:223,1,83.9999974365235,8|0,0:0|0:0,0:0:0:0:
225,325,50204,1,0,0:0:0:0:
225,325,50292,1,0,0:0:0:0:
225,325,50381,1,0,0:0:0:0:
124,325,50557,2,8,P|84:313|55:283,1,83.9999974365235,8|2,0:0|0:0,0:0:0:0:
55,165,50910,6,4,L|120:99,1,83.9999974365235,4|0,0:0|0:0,0:0:0:0:
186,33,51263,2,8,P|211:65|217:106,1,83.9999974365235,8|0,0:0|0:0,0:0:0:0:
217,207,51616,1,0,0:0:0:0:
217,207,51704,1,0,0:0:0:0:
217,207,51792,1,0,0:0:0:0:
217,308,51969,1,8,0:0:0:0:
311,213,52145,1,2,0:0:0:0:
311,308,52322,6,4,P|349:323|390:318,1,83.9999974365235,4|0,0:0|0:0,0:0:0:0:
390,234,52675,2,8,P|431:228|464:203,1,83.9999974365235,8|0,0:0|0:0,0:0:0:0:
484,101,53028,1,0,0:0:0:0:
484,101,53116,1,0,0:0:0:0:
484,101,53204,1,0,0:0:0:0:
383,101,53381,2,8,P|341:96|309:71,1,83.9999974365235,8|2,0:0|0:0,0:0:0:0:
212,36,53734,2,0,P|173:51|148:85,1,83.9999974365235,0|0,0:0|0:0,0:0:0:0:
236,132,54086,6,8,L|236:192,1,48.9999985046387,8|0,0:0|0:0,0:0:0:0:
308,119,54263,2,0,L|308:70,1,48.9999985046387,0|0,0:0|0:0,0:0:0:0:
164,194,54439,2,8,L|164:296,1,97.9999970092774,8|2,0:0|0:0,0:0:0:0:
164,321,54704,1,0,0:0:0:0:
164,350,54792,1,8,0:0:0:0:
281,350,54969,1,2,0:0:0:0:
313,349,55057,1,0,0:0:0:0:
340,332,55145,6,4,P|366:299|370:257,1,83.9999974365235,4|0,0:0|0:0,0:0:0:0:
316,172,55498,2,8,P|353:155|394:161,1,83.9999974365235,8|0,0:0|0:0,0:0:0:0:
467,231,55851,1,0,0:0:0:0:
467,231,55939,1,0,0:0:0:0:
467,231,56028,1,0,0:0:0:0:
467,130,56204,2,8,L|467:46,1,83.9999974365235,8|2,0:0|0:0,0:0:0:0:
372,84,56557,6,0,P|331:80|298:54,1,83.9999974365235,0|0,0:0|0:0,0:0:0:0:
204,16,56910,2,8,L|204:108,1,83.9999974365235,8|0,0:0|0:0,0:0:0:0:
204,201,57263,1,2,0:0:0:0:
204,201,57351,1,0,0:0:0:0:
204,201,57439,1,0,0:0:0:0:
104,200,57616,2,8,P|108:241|134:274,1,83.9999974365235,8|2,0:0|0:0,0:0:0:0:
231,298,57969,6,4,P|272:292|309:309,1,83.9999974365235,4|0,0:0|0:0,0:0:0:0:
396,360,58322,2,8,L|396:272,1,83.9999974365235,8|0,0:0|0:0,0:0:0:0:
396,174,58675,1,0,0:0:0:0:
396,174,58763,1,0,0:0:0:0:
396,174,58851,1,0,0:0:0:0:
300,200,59028,2,8,P|293:158|311:122,1,83.9999974365235,8|2,0:0|0:0,0:0:0:0:
340,24,59381,6,0,P|379:38|402:72,1,83.9999974365235,0|0,0:0|0:0,0:0:0:0:
310,122,59734,2,8,P|277:149|236:151,1,83.9999974365235,8|0,0:0|0:0,0:0:0:0:
148,104,60086,1,2,0:0:0:0:
148,104,60175,1,0,0:0:0:0:
148,104,60263,1,0,0:0:0:0:
148,204,60439,2,8,L|148:288,1,83.9999974365235,10|0,0:0|0:0,0:0:0:0:
320,256,60792,6,4,P|364:242|398:210,1,83.9999974365235,6|0,0:0|0:0,0:0:0:0:
316,152,61145,1,8,0:0:0:0:
216,260,61322,2,0,P|230:304|262:338,1,83.9999974365235,2|0,0:0|0:0,0:0:0:0:
320,256,61675,1,0,0:0:0:0:
212,156,61851,6,8,P|168:170|134:202,1,83.9999974365235,10|0,0:0|0:0,0:0:0:0:
216,260,62204,1,4,0:0:0:0:
316,152,62381,2,0,P|302:108|270:74,1,83.9999974365235,2|8,0:0|0:0,0:0:0:0:
212,156,62734,1,0,0:0:0:0:
137,239,62910,5,2,0:0:0:0:
313,196,63086,1,2,0:0:0:0:
198,58,63263,1,10,0:0:0:0:
256,192,63351,12,0,64675,0:0:0:0:
