osu file format v14

[General]
AudioFilename: audio.mp3
AudioLeadIn: 0
PreviewTime: 78978
Countdown: 0
SampleSet: None
StackLeniency: 0.7
Mode: 0
LetterboxInBreaks: 0
WidescreenStoryboard: 0

[Editor]
Bookmarks: 0,2857,13815,46757,46921,75121,76921,101864,142749,167435,208578,255207
DistanceSpacing: 0.9
BeatDivisor: 4
GridSize: 4
TimelineZoom: 1.7

[Metadata]
Title:Here and There /nulloid DnB Remix
TitleUnicode:Here and There /nulloid DnB Remix
Artist:Yanagi Nagi
ArtistUnicode:なぎ
Creator:CyniteTZ
Version:Glaze
Source:Just Because
Tags:yanaginagi yanagi nagi Just Because here and there nulloid remix
BeatmapID:1943309
BeatmapSetID:930563

[Difficulty]
HPDrainRate:4.5
CircleSize:4
OverallDifficulty:8
ApproachRate:9.3
SliderMultiplier:1.6
SliderTickRate:1

[Events]
//Background and Video events
0,0,"grass kino kino_no_tabi kuroboshi_kouhaku.jpg",0,0
//Break Periods
//Storyboard Layer 0 (Background)
//Storyboard Layer 1 (Fail)
//Storyboard Layer 2 (Pass)
//Storyboard Layer 3 (Foreground)
//Storyboard Sound Samples

[TimingPoints]
11092.7945873023,342.857142857143,4,3,0,25,1,0
77435,-66.6666666666667,4,3,0,25,0,1
78157,-66.6666666666667,4,3,0,25,0,1
87721,-100,4,3,0,25,0,1
88492,-66.6666666666667,4,3,0,25,0,1
101778,-90.9090909090909,4,3,0,25,0,0
102177,-100,4,3,0,25,0,0
142749,-100,4,3,0,25,0,1
167435,-100,4,3,0,25,0,0
210635,-100,4,3,0,25,0,1
255207,-100,4,3,0,25,0,0

[Colours]
Combo1 : 162,151,253
Combo2 : 224,177,252
Combo3 : 131,180,252
Combo4 : 88,196,112

[HitObjects]
329,257,2864,5,0,0:0:0:0:
218,66,3035,1,0,0:0:0:0:
171,257,3378,5,0,0:0:0:0:
327,90,3549,1,0,0:0:0:0:
220,176,3892,5,0,0:0:0:0:
288,256,4064,2,0,P|344:244|365:231,1,80
440,200,4407,2,0,P|424:140|405:124,1,80
169,121,4749,2,0,P|140:160|145:206,1,80
351,92,5092,1,0,0:0:0:0:
261,84,5264,1,0,0:0:0:0:
174,286,5435,1,0,0:0:0:0:
166,149,5607,6,0,L|245:132,1,80
354,154,5949,1,0,0:0:0:0:
282,228,6121,2,0,P|217:252|189:235,1,80
113,197,6464,1,0,0:0:0:0:
160,100,6635,2,0,P|216:81|250:99,1,80
395,88,6978,1,0,0:0:0:0:
375,175,7149,1,0,0:0:0:0:
304,218,7321,1,0,0:0:0:0:
209,221,7492,2,0,P|156:197|149:149,1,80
145,101,7835,1,0,0:0:0:0:
230,66,8007,1,0,0:0:0:0:
312,96,8178,1,0,0:0:0:0:
340,168,8349,6,0,L|268:220,1,80
160,224,8692,1,0,0:0:0:0:
164,112,8864,2,0,P|208:74|249:62,1,80
328,72,9207,1,0,0:0:0:0:
402,131,9378,2,0,P|442:192|437:207,1,80
364,224,9721,2,0,P|324:256|268:240,1,80
220,192,10064,1,0,0:0:0:0:
197,94,10235,1,0,0:0:0:0:
112,132,10407,1,0,0:0:0:0:
64,208,10578,2,0,P|44:256|64:292,1,80
160,252,10921,6,0,P|214:206|253:203,1,80
288,280,11264,2,0,P|326:218|318:193,1,80
320,122,11607,1,0,0:0:0:0:
240,72,11778,1,0,0:0:0:0:
156,112,11949,1,0,0:0:0:0:
124,184,12121,2,0,P|140:242|156:245,1,80
192,296,12464,2,0,P|248:269|265:254,1,80
284,188,12807,2,0,P|330:167|364:184,1,80
408,220,13149,1,0,0:0:0:0:
323,246,13321,2,4,P|279:269|156:224,1,160
112,128,13835,6,0,P|173:81|204:88,1,80
319,116,14178,1,0,0:0:0:0:
386,218,14349,2,0,P|327:268|292:268,1,80
182,237,14692,1,0,0:0:0:0:
174,140,14864,1,0,0:0:0:0:
251,90,15035,1,0,0:0:0:0:
339,92,15207,6,0,P|389:182|365:235,2,120.000004577637
279,274,15892,1,0,0:0:0:0:
182,267,16064,1,0,0:0:0:0:
118,193,16235,1,0,0:0:0:0:
114,109,16407,2,0,P|138:44|174:41,1,80
240,52,16749,2,0,P|318:72|328:96,1,80
356,196,17092,2,0,P|344:256|308:285,1,80
131,311,17435,1,0,0:0:0:0:
80,243,17606,1,0,0:0:0:0:
85,159,17778,1,0,0:0:0:0:
113,83,17949,2,0,P|186:61|216:76,1,80
289,130,18292,2,0,P|356:144|396:132,1,80
454,137,18635,5,0,0:0:0:0:
289,190,18807,1,0,0:0:0:0:
352,86,18978,1,0,0:0:0:0:
403,241,19149,1,0,0:0:0:0:
292,128,19321,6,0,P|260:94|196:104,1,80
139,99,19663,1,0,0:0:0:0:
132,192,19835,2,0,P|144:266|172:276,1,80
231,283,20178,1,0,0:0:0:0:
284,201,20349,2,0,P|347:161|368:176,1,80
347,151,20692,1,0,0:0:0:0:
267,108,20864,1,0,0:0:0:0:
184,144,21035,1,0,0:0:0:0:
176,230,21207,1,0,0:0:0:0:
255,274,21378,1,0,0:0:0:0:
335,233,21549,2,0,P|368:162|368:128,2,80
134,114,22064,1,0,0:0:0:0:
134,114,22149,1,0,0:0:0:0:
134,114,22235,1,0,0:0:0:0:
154,244,22407,5,0,0:0:0:0:
274,208,22578,2,0,P|320:161|360:172,1,80
434,203,22921,2,0,P|435:287|416:296,1,80
264,240,23264,1,0,0:0:0:0:
256,192,23435,12,0,24721,0:0:0:0:
130,194,24807,6,0,P|154:130|196:124,1,80
408,124,25149,2,0,P|344:188|324:192,1,80
268,256,25492,1,0,0:0:0:0:
156,256,25664,2,0,P|100:224|100:176,1,80
112,104,26007,1,0,0:0:0:0:
180,64,26178,1,0,0:0:0:0:
275,59,26349,2,0,P|327:75|327:111,1,80
320,224,26692,1,0,0:0:0:0:
232,252,26864,1,0,0:0:0:0:
168,208,27035,1,0,0:0:0:0:
176,120,27207,1,0,0:0:0:0:
256,84,27378,1,0,0:0:0:0:
320,128,27549,6,0,P|264:168|224:176,1,80
168,176,27892,5,0,0:0:0:0:
152,188,27978,1,0,0:0:0:0:
136,200,28064,1,0,0:0:0:0:
124,212,28149,1,0,0:0:0:0:
108,224,28235,1,0,0:0:0:0:
96,232,28321,1,0,0:0:0:0:
152,248,28492,2,0,P|192:300|224:288,1,80
212,212,28835,2,0,P|252:144|276:136,1,80
300,216,29178,2,0,P|360:248|360:280,1,80
176,244,29521,5,0,0:0:0:0:
260,252,29692,2,0,L|308:200,2,40
247,140,29949,2,0,L|191:140,2,40
192,64,30292,6,0,P|136:120|136:152,1,80
168,240,30635,1,0,0:0:0:0:
224,100,30807,1,0,0:0:0:0:
264,240,30978,2,0,L|320:196,4,40
352,120,31492,2,0,P|292:84|264:96,1,80
184,128,31836,1,0,0:0:0:0:
144,212,32007,2,0,P|152:272|188:304,1,80
312,288,32349,2,0,P|384:188|360:148,2,160
152,164,33207,6,0,P|160:96|200:80,1,80
300,104,33549,2,0,P|308:160|288:200,1,80
148,256,33892,5,0,0:0:0:0:
148,112,34064,1,0,0:0:0:0:
288,112,34235,1,0,0:0:0:0:
296,256,34407,1,0,0:0:0:0:
224,216,34578,2,0,P|244:136|264:128,1,80
180,176,34921,2,0,B|324:168|313:342|176:312|124:208|260:160,1,320
60,152,35778,6,0,P|96:88|124:88,1,80
184,88,36121,2,0,P|252:104|264:144,1,80
340,232,36464,1,0,0:0:0:0:
196,248,36635,1,0,0:0:0:0:
172,236,36807,2,0,P|152:168|180:152,1,80
224,128,37149,1,0,0:0:0:0:
344,104,37321,1,0,0:0:0:0:
352,200,37492,1,0,0:0:0:0:
264,304,37664,2,0,P|216:284|216:224,1,80
132,208,38007,1,0,0:0:0:0:
164,140,38178,2,0,P|184:68|208:68,1,80
312,260,38521,5,0,0:0:0:0:
376,172,38692,1,0,0:0:0:0:
256,112,38864,1,0,0:0:0:0:
204,228,39035,1,0,0:0:0:0:
116,152,39207,2,0,P|108:88|144:80,1,80
348,88,39549,1,0,0:0:0:0:
324,192,39721,1,0,0:0:0:0:
280,272,39892,2,0,P|196:272|176:256,1,80
116,172,40235,2,0,P|120:104|148:88,1,80
200,188,40578,5,0,0:0:0:0:
344,88,40749,1,0,0:0:0:0:
316,216,40921,5,0,0:0:0:0:
216,76,41092,1,0,0:0:0:0:
76,164,41264,6,0,P|76:100|100:100,1,80
156,144,41607,2,0,P|208:176|248:160,1,80
280,120,41949,2,0,P|332:104|376:132,1,80
420,220,42292,1,0,0:0:0:0:
304,260,42464,1,0,0:0:0:0:
188,256,42635,2,0,P|180:196|200:160,1,80
68,176,42978,5,0,0:0:0:0:
68,176,43149,1,0,0:0:0:0:
130,87,43321,2,0,P|168:150|183:148,1,80
237,179,43664,1,0,0:0:0:0:
311,132,43835,1,0,0:0:0:0:
391,89,44007,2,0,P|451:49|471:61,1,80
352,196,44349,6,0,P|296:220|248:216,1,80
160,208,44692,1,0,0:0:0:0:
116,120,44864,1,0,0:0:0:0:
172,48,45035,1,0,0:0:0:0:
271,47,45207,2,0,P|316:39|360:82,1,80
436,140,45549,1,0,0:0:0:0:
384,224,45721,1,0,0:0:0:0:
256,192,45892,12,0,46920,0:0:0:0:
104,224,47092,5,0,0:0:0:0:
120,88,47264,1,0,0:0:0:0:
232,144,47435,1,0,0:0:0:0:
316,120,47607,2,0,P|356:160|344:200,1,80
256,256,47949,1,0,0:0:0:0:
156,136,48121,1,0,0:0:0:0:
148,248,48292,1,0,0:0:0:0:
224,152,48464,2,0,P|184:168|128:180,2,80
96,112,48978,1,0,0:0:0:0:
196,80,49150,1,0,0:0:0:0:
288,104,49321,1,0,0:0:0:0:
356,200,49492,6,0,P|280:232|256:232,1,80
204,212,49835,1,0,0:0:0:0:
144,96,50007,1,0,0:0:0:0:
264,160,50178,1,0,0:0:0:0:
144,244,50349,1,0,0:0:0:0:
304,240,50521,1,0,0:0:0:0:
200,160,50692,1,0,0:0:0:0:
320,84,50864,1,0,0:0:0:0:
152,80,51035,5,0,0:0:0:0:
112,224,51207,1,0,0:0:0:0:
284,124,51378,2,0,P|240:172|200:184,1,80
360,220,51721,1,0,0:0:0:0:
432,120,51892,1,0,0:0:0:0:
328,64,52064,1,0,0:0:0:0:
92,120,52235,6,0,P|152:72|188:72,1,80
272,72,52578,2,0,P|340:80|352:116,1,80
340,244,52921,2,0,P|308:280|256:300,1,80
144,296,53264,2,0,P|88:256|84:220,1,80
112,168,53607,2,0,P|132:92|152:80,1,80
228,128,53949,2,0,P|304:124|320:140,1,80
112,232,54292,5,0,0:0:0:0:
160,132,54464,1,0,0:0:0:0:
248,192,54635,1,0,0:0:0:0:
344,168,54807,1,0,0:0:0:0:
344,168,54978,6,0,P|348:100|324:96,1,80
164,104,55321,1,0,0:0:0:0:
164,104,55407,1,0,0:0:0:0:
164,104,55492,1,0,0:0:0:0:
176,264,55664,2,0,P|236:296|272:280,1,80
344,248,56007,1,0,0:0:0:0:
380,156,56178,1,0,0:0:0:0:
328,80,56349,2,0,P|244:56|228:64,1,80
128,124,56692,2,0,P|100:188|120:224,1,80
188,188,57035,2,0,P|256:184|296:168,1,80
376,88,57378,1,0,0:0:0:0:
376,88,57549,1,0,0:0:0:0:
192,116,57721,6,0,P|160:104|128:160,1,80
124,256,58064,1,0,0:0:0:0:
196,156,58235,1,0,0:0:0:0:
248,240,58407,1,0,0:0:0:0:
352,240,58578,2,0,P|360:172|340:144,1,80
252,100,58921,1,0,0:0:0:0:
144,140,59092,1,0,0:0:0:0:
244,216,59264,1,0,0:0:0:0:
372,188,59435,2,0,P|412:144|384:104,1,80
351,72,59778,1,0,0:0:0:0:
230,63,59949,1,0,0:0:0:0:
155,116,60121,2,0,P|99:178|96:179,1,80
301,91,60464,6,0,P|225:63|201:71,1,80
108,172,60807,1,0,0:0:0:0:
200,244,60978,1,0,0:0:0:0:
328,244,61149,2,0,P|364:172|360:144,1,80
268,152,61492,2,0,P|236:100|204:88,1,80
100,88,61835,1,0,0:0:0:0:
72,200,62007,1,0,0:0:0:0:
168,272,62178,1,0,0:0:0:0:
280,248,62349,2,0,P|308:216|304:152,1,80
264,112,62692,5,0,0:0:0:0:
164,96,62864,1,0,0:0:0:0:
96,172,63035,1,0,0:0:0:0:
120,256,63207,1,0,0:0:0:0:
224,256,63378,1,0,0:0:0:0:
236,248,63549,6,0,P|276:224|284:176,1,80
304,108,63892,1,0,0:0:0:0:
192,56,64064,1,0,0:0:0:0:
196,176,64235,1,0,0:0:0:0:
224,288,64407,2,0,P|284:268|308:228,1,80
264,164,64749,2,0,P|300:112|288:76,1,80
172,92,65092,6,0,P|116:104|96:144,1,80
112,240,65435,1,0,0:0:0:0:
200,140,65607,1,0,0:0:0:0:
256,240,65778,1,0,0:0:0:0:
424,256,65949,2,0,P|408:192|380:160,1,80
304,116,66292,5,0,0:0:0:0:
304,116,66464,1,0,0:0:0:0:
176,120,66635,2,0,P|116:148|112:184,1,80
116,248,66978,1,0,0:0:0:0:
116,248,67149,1,0,0:0:0:0:
196,292,67321,2,0,P|248:264|272:224,1,80
260,153,67664,1,0,0:0:0:0:
296,72,67835,2,0,P|356:60|360:96,1,80
428,168,68178,1,0,0:0:0:0:
260,224,68349,1,0,0:0:0:0:
72,244,68521,6,0,P|44:196|72:152,1,80
164,104,68864,1,0,0:0:0:0:
248,100,69035,2,0,P|304:112|320:156,1,80
376,232,69378,1,0,0:0:0:0:
296,297,69549,1,0,0:0:0:0:
196,280,69721,2,0,P|152:240|160:196,1,80
180,121,70064,1,0,0:0:0:0:
289,77,70235,1,0,0:0:0:0:
392,127,70407,2,0,P|392:175|340:203,1,80
312,204,70749,2,0,P|168:220|124:164,2,200
144,216,71778,6,0,P|128:156|160:124,1,80
228,80,72121,2,0,P|296:104|308:132,1,80
280,240,72464,1,0,0:0:0:0:
204,280,72635,1,0,0:0:0:0:
204,280,72807,2,0,P|136:276|112:260,1,80
56,144,73149,1,0,0:0:0:0:
144,40,73321,2,0,P|184:28|236:56,1,80
172,128,73664,2,0,P|228:152|236:192,1,80
288,124,74007,5,0,0:0:0:0:
288,132,74178,2,0,P|312:184|280:224,1,80
212,280,74521,1,0,0:0:0:0:
124,256,74692,1,0,0:0:0:0:
88,168,74864,2,0,P|96:104|140:92,1,80
236,76,75207,1,0,0:0:0:0:
352,104,75378,2,0,P|404:136|404:176,1,80
380,264,75721,1,0,0:0:0:0:
272,296,75892,2,0,P|216:308|180:272,1,80
188,216,76235,1,0,0:0:0:0:
280,164,76407,2,0,P|304:100|276:84,1,80
178,197,76749,5,0,0:0:0:0:
88,232,76921,1,0,0:0:0:0:
151,117,77092,1,0,0:0:0:0:
220,107,77264,5,0,0:0:0:0:
274,113,77349,1,0,0:0:0:0:
316,138,77435,1,0,0:0:0:0:
331,196,77521,1,0,0:0:0:0:
313,253,77607,1,0,0:0:0:0:
271,295,77692,1,0,0:0:0:0:
225,310,77778,1,0,0:0:0:0:
165,302,77864,1,0,0:0:0:0:
126,267,77949,5,0,0:0:0:0:
95,214,78035,1,0,0:0:0:0:
97,153,78121,1,0,0:0:0:0:
134,105,78207,1,0,0:0:0:0:
188,81,78292,1,0,0:0:0:0:
248,83,78378,1,0,0:0:0:0:
301,110,78464,1,0,0:0:0:0:
335,158,78549,1,0,0:0:0:0:
326,217,78635,5,0,0:0:0:0:
303,272,78721,1,0,0:0:0:0:
248,298,78807,5,0,0:0:0:0:
194,305,78892,1,0,0:0:0:0:
134,298,78978,1,0,0:0:0:0:
90,256,79064,1,0,0:0:0:0:
69,206,79149,1,0,0:0:0:0:
72,147,79235,1,0,0:0:0:0:
101,97,79321,1,0,0:0:0:0:
147,66,79407,1,0,0:0:0:0:
206,62,79492,6,0,P|262:50|346:82,1,120.000004577637
352,80,79835,2,0,P|372:168|344:224,1,120.000004577637
276,236,80178,6,0,P|164:248|148:216,1,120.000004577637
144,188,80521,2,0,P|120:112|164:92,1,120.000004577637
216,96,80864,2,0,P|176:40|128:48,1,120.000004577637
124,156,81207,2,0,P|104:232|176:256,1,120.000004577637
200,304,81549,1,0,0:0:0:0:
296,296,81721,6,0,P|400:240|392:208,1,120.000004577637
404,168,82064,1,0,0:0:0:0:
368,68,82235,1,0,0:0:0:0:
264,88,82407,6,0,B|180:88|184:88|164:88,1,60.0000022888184
200,140,82578,2,0,P|108:164|84:228,1,120.000004577637
176,220,82921,2,0,P|148:300|192:304,1,120.000004577637
244,312,83264,1,0,0:0:0:0:
316,252,83435,2,0,P|316:164|272:140,1,120.000004577637
276,96,83778,2,0,P|168:88|144:116,2,120.000004577637
108,77,84292,5,0,0:0:0:0:
61,139,84464,1,0,0:0:0:0:
77,211,84635,2,0,P|153:279|181:279,1,120.000004577637
256,272,84978,6,0,P|332:216|360:160,1,120.000004577637
316,136,85321,2,0,P|224:72|192:92,1,120.000004577637
152,80,85664,1,0,0:0:0:0:
96,152,85835,2,0,P|92:212|244:264,1,240.000009155274
304,216,86349,1,0,0:0:0:0:
348,136,86521,2,0,P|288:56|188:132,1,240.000009155274
148,200,87035,5,0,0:0:0:0:
120,268,87207,2,0,P|208:296|252:280,1,120.000004577637
272,180,87549,1,0,0:0:0:0:
360,236,87721,2,0,P|392:172|328:96,2,160
164,176,88692,6,0,P|172:105|200:120,1,120.000004577637
232,100,88921,2,0,L|257:221,1,120.000004577637
216,237,89149,2,0,P|176:261|124:222,1,120.000004577637
80,212,89435,1,0,0:0:0:0:
116,96,89607,2,0,P|220:80|256:104,1,120.000004577637
232,164,89949,2,0,P|344:184|364:152,1,120.000004577637
342,184,90292,1,0,0:0:0:0:
160,96,90464,5,0,0:0:0:0:
316,64,90635,1,0,0:0:0:0:
288,216,90807,1,0,0:0:0:0:
152,224,90978,1,0,0:0:0:0:
216,72,91149,1,0,0:0:0:0:
312,144,91321,2,0,P|368:176|368:232,1,120.000004577637
212,272,91664,1,0,0:0:0:0:
96,224,91835,1,0,0:0:0:0:
91,100,92007,1,0,0:0:0:0:
196,108,92178,1,0,0:0:0:0:
196,108,92349,2,0,P|220:188|252:188,1,120.000004577637
224,282,92692,1,0,0:0:0:0:
312,224,92864,1,0,0:0:0:0:
384,264,93035,1,0,0:0:0:0:
424,192,93207,6,0,P|424:100|372:64,1,120.000004577637
288,96,93549,1,0,0:0:0:0:
120,144,93721,1,0,0:0:0:0:
184,56,93892,1,0,0:0:0:0:
224,192,94064,1,0,0:0:0:0:
104,252,94235,6,0,P|60:168|56:128,1,120.000004577637
140,108,94578,1,0,0:0:0:0:
320,68,94749,1,0,0:0:0:0:
244,28,94921,1,0,0:0:0:0:
172,176,95092,1,0,0:0:0:0:
260,172,95264,6,0,P|356:224|396:196,1,120.000004577637
408,136,95607,1,0,0:0:0:0:
224,84,95778,1,0,0:0:0:0:
152,144,95949,2,0,P|136:224|96:256,1,120.000004577637
256,224,96292,5,0,0:0:0:0:
256,224,96378,1,0,0:0:0:0:
256,224,96464,1,0,0:0:0:0:
304,56,96635,5,0,0:0:0:0:
248,148,96807,1,0,0:0:0:0:
144,76,96978,1,0,0:0:0:0:
128,176,97149,2,0,P|120:256|148:304,1,120.000004577637
240,288,97492,1,0,0:0:0:0:
248,284,97664,1,0,0:0:0:0:
408,196,97835,6,0,P|388:96|344:80,1,120.000004577637
328,148,98178,2,0,P|216:116|200:136,1,120.000004577637
300,256,98521,1,0,0:0:0:0:
140,228,98692,1,0,0:0:0:0:
192,96,98864,5,0,0:0:0:0:
192,96,98949,1,0,0:0:0:0:
200,96,99035,2,0,P|280:104|320:144,1,120.000004577637
240,184,99378,2,0,P|184:248|128:240,1,120.000004577637
72,216,99721,1,0,0:0:0:0:
128,96,99892,1,0,0:0:0:0:
168,176,100064,2,0,P|256:176|308:144,1,120.000004577637
245,235,100407,1,0,0:0:0:0:
252,144,100578,6,0,P|288:84|344:124,1,120.000004577637
384,160,100921,1,0,0:0:0:0:
340,256,101092,1,0,0:0:0:0:
256,320,101264,2,0,P|168:312|132:256,1,120.000004577637
232,200,101607,5,0,0:0:0:0:
88,176,101778,1,0,0:0:0:0:
176,80,102121,5,0,0:0:0:0:
316,128,102292,1,0,0:0:0:0:
204,228,102635,1,0,0:0:0:0:
248,60,102807,1,0,0:0:0:0:
304,176,102978,2,0,P|304:224|248:248,1,80
183,271,103321,1,0,0:0:0:0:
88,192,103492,1,0,0:0:0:0:
236,120,103664,1,0,0:0:0:0:
168,244,103835,1,0,0:0:0:0:
160,76,104007,1,0,0:0:0:0:
296,120,104178,6,0,L|392:176,1,80
420,248,104521,1,0,0:0:0:0:
332,312,104692,1,0,0:0:0:0:
204,316,104864,2,0,P|132:284|124:260,1,80
80,200,105207,1,0,0:0:0:0:
200,80,105378,1,0,0:0:0:0:
208,172,105549,2,0,P|280:192|320:188,1,80
376,144,105892,1,0,0:0:0:0:
376,144,106064,1,0,0:0:0:0:
404,224,106235,2,0,P|368:276|320:276,1,80
252,248,106578,2,0,P|204:224|152:240,1,80
92,212,106921,1,0,0:0:0:0:
168,88,107092,5,0,0:0:0:0:
328,176,107264,1,0,0:0:0:0:
184,216,107607,5,0,0:0:0:0:
352,292,107778,1,0,0:0:0:0:
316,168,108121,5,0,0:0:0:0:
136,72,108292,1,0,0:0:0:0:
135,265,108464,2,0,P|143:217|183:213,1,80
270,212,108807,5,0,0:0:0:0:
336,157,108978,1,0,0:0:0:0:
346,80,109149,2,0,P|274:52|238:60,1,80
175,68,109492,5,0,0:0:0:0:
168,152,109664,2,0,P|120:204|120:244,1,80
291,159,110007,1,0,0:0:0:0:
312,246,110178,1,0,0:0:0:0:
216,240,110349,2,0,P|172:200|200:184,1,80
184,72,110692,1,0,0:0:0:0:
348,128,110864,1,0,0:0:0:0:
220,208,111035,1,0,0:0:0:0:
120,240,111207,5,0,0:0:0:0:
264,120,111378,1,0,0:0:0:0:
348,272,111549,1,0,0:0:0:0:
224,200,111721,1,0,0:0:0:0:
76,192,111892,2,0,P|80:132|116:112,1,80
160,150,112235,2,0,P|209:99|235:99,1,80
161,215,112578,6,0,P|213:177|256:191,1,80
330,181,112921,1,0,0:0:0:0:
319,62,113092,1,0,0:0:0:0:
430,143,113264,1,0,0:0:0:0:
321,258,113435,1,0,0:0:0:0:
249,113,113607,1,0,0:0:0:0:
376,124,113778,1,0,0:0:0:0:
296,188,113949,2,0,P|241:221|212:221,1,80
141,232,114292,5,0,0:0:0:0:
92,156,114464,1,0,0:0:0:0:
124,71,114635,2,0,P|177:49|216:57,1,80
231,55,114978,5,0,0:0:0:0:
231,55,115149,1,0,0:0:0:0:
335,98,115321,2,0,P|302:149|272:163,1,80
141,190,115664,1,0,0:0:0:0:
115,88,115835,1,0,0:0:0:0:
238,148,116007,1,0,0:0:0:0:
301,228,116178,1,0,0:0:0:0:
371,135,116349,1,0,0:0:0:0:
264,105,116521,1,0,0:0:0:0:
154,192,116692,1,0,0:0:0:0:
182,280,116864,1,0,0:0:0:0:
246,219,117035,1,0,0:0:0:0:
290,166,117207,6,0,P|250:125|206:125,1,80
137,121,117549,1,0,0:0:0:0:
70,174,117721,1,0,0:0:0:0:
54,250,117892,2,0,P|79:301|118:301,1,80
190,304,118235,1,0,0:0:0:0:
271,277,118407,1,0,0:0:0:0:
344,224,118578,2,0,P|375:155|356:135,1,80
345,78,118921,1,0,0:0:0:0:
269,136,119092,6,0,P|238:187|212:192,1,80
162,200,119435,2,0,P|97:238|68:233,1,80
80,166,119778,2,0,P|74:93|102:83,1,80
157,135,120121,2,0,P|223:100|243:105,1,80
297,109,120464,1,0,0:0:0:0:
345,170,120635,1,0,0:0:0:0:
393,229,120807,2,0,P|450:186|472:157,1,80
479,82,121149,2,0,P|406:62|388:73,1,80
345,78,121492,5,0,0:0:0:0:
256,170,121664,1,0,0:0:0:0:
173,68,121835,1,0,0:0:0:0:
152,211,122007,1,0,0:0:0:0:
323,118,122178,6,0,P|261:93|231:100,1,80
232,159,122521,2,0,P|155:173|143:196,1,80
122,238,122864,1,0,0:0:0:0:
190,274,123035,2,0,P|263:240|273:227,1,80
360,186,123378,2,0,P|360:128|321:118,1,80
296,57,123721,1,0,0:0:0:0:
193,91,123892,6,0,P|145:113|125:172,1,80
173,219,124235,1,0,0:0:0:0:
309,160,124407,1,0,0:0:0:0:
297,257,124578,1,0,0:0:0:0:
352,301,124749,2,0,P|376:238|369:195,1,80
373,146,125092,1,0,0:0:0:0:
306,95,125264,1,0,0:0:0:0:
221,73,125435,2,0,P|157:74|126:113,1,80
97,149,125778,1,0,0:0:0:0:
121,237,125949,1,0,0:0:0:0:
209,168,126121,1,0,0:0:0:0:
225,262,126292,6,0,P|284:269|319:233,1,80
346,180,126635,1,0,0:0:0:0:
250,62,126807,1,0,0:0:0:0:
155,188,126978,1,0,0:0:0:0:
229,255,127149,2,0,P|264:175|259:155,1,80
204,99,127492,1,0,0:0:0:0:
99,107,127664,1,0,0:0:0:0:
43,184,127835,2,0,P|46:249|61:269,1,80
155,286,128178,2,0,P|155:224|185:212,1,80
240,172,128521,1,0,0:0:0:0:
265,73,128692,1,0,0:0:0:0:
344,149,128864,1,0,0:0:0:0:
370,240,129035,6,0,P|309:265|269:268,1,80
209,235,129378,2,0,P|125:231|119:217,1,80
73,160,129721,1,0,0:0:0:0:
114,113,129892,1,0,0:0:0:0:
197,120,130064,1,0,0:0:0:0:
225,169,130235,1,0,0:0:0:0:
145,241,130407,2,0,P|228:273|244:266,1,80
333,228,130749,1,0,0:0:0:0:
377,137,130921,1,0,0:0:0:0:
345,52,131092,2,0,P|271:58|248:70,1,80
181,109,131435,2,0,P|139:162|130:181,1,80
214,196,131778,2,0,P|239:259|257:250,1,80
330,250,132121,5,0,0:0:0:0:
379,164,132292,1,0,0:0:0:0:
378,72,132464,2,0,P|337:46|303:52,1,80
207,78,132807,1,0,0:0:0:0:
138,134,132978,1,0,0:0:0:0:
95,218,133149,2,0,P|126:271|161:282,1,80
241,269,133492,1,0,0:0:0:0:
279,75,133664,1,0,0:0:0:0:
146,134,133835,1,0,0:0:0:0:
364,189,134007,1,0,0:0:0:0:
234,188,134178,6,0,P|185:167|210:135,1,80
227,73,134521,1,0,0:0:0:0:
328,66,134692,1,0,0:0:0:0:
420,86,134864,2,0,P|436:151|434:177,1,80
350,250,135207,1,0,0:0:0:0:
254,120,135378,1,0,0:0:0:0:
172,208,135549,2,0,P|139:139|158:118,1,80
176,59,135892,2,0,B|239:55|102:46,1,80
85,128,136235,2,0,P|82:186|97:209,1,80
204,271,136578,2,0,P|203:261|150:276,1,80
60,256,136921,1,0,0:0:0:0:
155,114,137092,1,0,0:0:0:0:
283,120,137264,6,0,P|330:169|339:203,1,80
335,265,137607,5,0,0:0:0:0:
223,109,137778,1,0,0:0:0:0:
167,259,137949,1,0,0:0:0:0:
308,147,138121,1,0,0:0:0:0:
242,225,138292,2,0,P|179:189|167:157,1,80
163,123,138635,2,0,P|243:89|262:100,1,80
393,106,138978,1,0,0:0:0:0:
243,200,139149,1,0,0:0:0:0:
394,253,139321,2,0,P|350:207|316:218,1,80
256,250,139664,1,0,0:0:0:0:
158,244,139835,1,0,0:0:0:0:
99,177,140007,2,0,P|79:124|114:123,1,80
263,106,140349,6,0,P|292:69|321:91,1,80
461,146,140692,1,0,0:0:0:0:
337,244,140864,2,0,P|292:187|292:174,1,80
268,95,141207,1,0,0:0:0:0:
268,95,141378,2,0,P|202:107|183:124,1,80
116,202,141721,1,0,0:0:0:0:
116,202,141892,2,0,B|156:248|152:242,2,40
193,243,142235,2,0,P|245:225|238:208,1,80
197,136,142578,5,0,0:0:0:0:
407,115,142749,1,0,0:0:0:0:
245,249,142921,1,0,0:0:0:0:
291,41,143092,1,0,0:0:0:0:
405,241,143264,1,0,0:0:0:0:
197,136,143435,1,0,0:0:0:0:
179,57,143607,5,0,0:0:0:0:
150,85,143692,1,0,0:0:0:0:
127,118,143778,1,0,0:0:0:0:
117,156,143864,1,0,0:0:0:0:
117,195,143949,1,0,0:0:0:0:
135,230,144035,1,0,0:0:0:0:
170,247,144121,1,0,0:0:0:0:
198,261,144207,1,0,0:0:0:0:
237,264,144292,5,0,0:0:0:0:
272,246,144378,1,0,0:0:0:0:
302,219,144464,1,0,0:0:0:0:
313,181,144549,1,0,0:0:0:0:
314,140,144635,1,0,0:0:0:0:
300,102,144721,1,0,0:0:0:0:
263,85,144807,1,0,0:0:0:0:
225,72,144892,1,0,0:0:0:0:
185,79,144978,5,0,0:0:0:0:
158,109,145064,1,0,0:0:0:0:
135,141,145149,1,0,0:0:0:0:
129,180,145235,1,0,0:0:0:0:
191,255,145321,6,0,P|233:254|233:205,1,80
268,134,145664,1,0,0:0:0:0:
339,81,145835,1,0,0:0:0:0:
425,133,146007,2,0,P|441:189|426:212,1,80
353,222,146349,2,0,P|301:257|277:253,1,80
190,229,146692,1,0,0:0:0:0:
136,149,146864,1,0,0:0:0:0:
158,57,147035,2,0,P|211:56|242:71,1,80
325,96,147378,2,0,P|330:173|313:188,1,80
260,216,147721,1,0,0:0:0:0:
167,219,147892,1,0,0:0:0:0:
82,184,148064,2,0,P|63:124|96:104,1,80
168,74,148407,6,0,P|230:76|238:91,1,80
197,141,148749,2,0,P|262:173|276:155,1,80
329,152,149092,1,0,0:0:0:0:
383,204,149264,1,0,0:0:0:0:
373,279,149435,1,0,0:0:0:0:
306,326,149607,2,0,P|252:322|233:301,1,80
165,241,149949,1,0,0:0:0:0:
134,150,150121,6,0,P|160:94|192:100,1,80
259,114,150464,1,0,0:0:0:0:
205,211,150635,1,0,0:0:0:0:
309,231,150807,2,0,P|365:238|395:208,2,80
426,152,151321,2,0,P|423:89|385:78,1,80
304,63,151664,1,0,0:0:0:0:
309,66,151835,1,0,0:0:0:0:
179,87,152007,1,0,0:0:0:0:
179,87,152178,1,0,0:0:0:0:
119,180,152349,2,0,P|118:254|148:275,1,80
217,300,152692,5,0,0:0:0:0:
280,95,152864,1,0,0:0:0:0:
281,191,153035,2,0,P|334:228|374:203,1,80
393,79,153378,2,0,P|359:58|308:72,1,80
184,105,153721,1,0,0:0:0:0:
123,215,153892,1,0,0:0:0:0:
261,225,154064,2,0,P|278:166|321:158,1,80
442,274,154407,2,0,P|373:296|348:282,1,80
375,138,154749,1,0,0:0:0:0:
265,180,154921,1,0,0:0:0:0:
265,180,155092,6,0,P|226:207|185:208,1,80
208,148,155435,2,0,P|194:91|212:82,1,80
279,142,155778,2,0,P|333:144|338:178,1,80
342,227,156121,1,0,0:0:0:0:
303,290,156292,2,0,P|218:313|212:306,1,80
137,291,156635,1,0,0:0:0:0:
199,136,156807,1,0,0:0:0:0:
76,186,156978,1,0,0:0:0:0:
227,229,157149,1,0,0:0:0:0:
314,111,157321,1,0,0:0:0:0:
314,111,157492,6,0,P|318:160|294:172,1,80
188,206,157835,1,0,0:0:0:0:
117,147,158007,1,0,0:0:0:0:
157,62,158178,2,0,P|214:62|252:89,1,80
237,138,158521,2,0,P|290:150|325:115,1,80
386,105,158864,1,0,0:0:0:0:
459,135,159035,6,0,P|471:187|460:215,1,80
382,251,159378,1,0,0:0:0:0:
290,225,159549,1,0,0:0:0:0:
206,88,159721,1,0,0:0:0:0:
148,187,159892,1,0,0:0:0:0:
293,91,160064,1,0,0:0:0:0:
237,157,160235,2,0,P|227:244|241:261,1,80
278,280,160578,1,0,0:0:0:0:
370,278,160749,2,0,P|380:211|417:188,1,80
417,99,161092,1,0,0:0:0:0:
417,99,161264,1,0,0:0:0:0:
308,62,161435,2,0,P|266:83|237:128,1,80
78,123,161778,6,0,P|86:201|169:166,1,160
226,152,162292,1,0,0:0:0:0:
297,120,162464,1,0,0:0:0:0:
376,132,162635,1,0,0:0:0:0:
432,178,162807,2,0,P|430:221|395:256,1,80
322,260,163149,2,0,P|297:209|333:185,1,80
221,73,163492,5,0,0:0:0:0:
221,73,163664,2,0,P|167:113|162:157,1,80
204,186,164007,2,0,P|257:154|296:159,1,80
351,193,164349,1,0,0:0:0:0:
413,70,164521,1,0,0:0:0:0:
413,70,164692,2,0,P|442:128|439:173,1,80
386,233,165035,1,0,0:0:0:0:
284,291,165207,1,0,0:0:0:0:
319,153,165378,1,0,0:0:0:0:
194,238,165549,1,0,0:0:0:0:
122,198,165721,6,0,P|94:153|125:126,1,80
182,132,166064,2,0,P|216:86|257:89,1,80
378,100,166407,1,0,0:0:0:0:
378,100,166578,2,0,P|354:171|337:196,2,80
175,155,167092,1,0,0:0:0:0:
175,155,167264,2,0,P|175:82|183:76,1,80
273,91,167607,5,0,0:0:0:0:
263,242,167949,5,0,0:0:0:0:
407,95,168121,1,0,0:0:0:0:
252,122,168464,1,0,0:0:0:0:
437,231,168635,1,0,0:0:0:0:
334,209,168807,2,0,P|276:233|224:235,1,80
102,208,169149,1,0,0:0:0:0:
102,208,169321,1,0,0:0:0:0:
161,86,169492,1,0,0:0:0:0:
161,86,169664,1,0,0:0:0:0:
220,153,169835,2,0,B|311:171|299:157|290:157,1,80
381,174,170178,5,0,0:0:0:0:
188,226,170349,1,0,0:0:0:0:
270,202,170521,2,0,P|261:146|288:125,1,80
318,74,170864,2,0,P|380:66|400:87,1,80
404,160,171207,1,0,0:0:0:0:
356,234,171378,1,0,0:0:0:0:
280,279,171549,1,0,0:0:0:0:
195,254,171721,1,0,0:0:0:0:
147,180,171892,1,0,0:0:0:0:
200,103,172064,6,0,P|261:112|270:150,1,80
229,163,172407,1,0,0:0:0:0:
214,218,172578,2,0,P|280:241|302:230,1,80
169,100,172921,5,0,0:0:0:0:
333,187,173092,1,0,0:0:0:0:
306,65,173435,5,0,0:0:0:0:
201,219,173607,1,0,0:0:0:0:
156,159,173949,2,0,P|223:136|240:159,1,80
312,177,174292,1,0,0:0:0:0:
430,65,174464,1,0,0:0:0:0:
426,190,174635,1,0,0:0:0:0:
323,82,174807,1,0,0:0:0:0:
323,82,174978,2,0,P|235:97|225:113,1,80
197,136,175321,6,0,P|219:185|262:194,1,80
240,194,175664,1,0,0:0:0:0:
343,198,175835,1,0,0:0:0:0:
375,102,176178,2,0,P|309:70|288:95,1,80
267,126,176521,2,0,P|245:173|288:213,1,80
300,269,176864,1,0,0:0:0:0:
386,267,177035,1,0,0:0:0:0:
423,173,177207,1,0,0:0:0:0:
298,253,177378,1,0,0:0:0:0:
188,182,177549,2,0,P|150:124|164:102,1,80
206,98,177892,2,0,B|292:106|283:111|267:144,1,80
276,148,178235,1,0,0:0:0:0:
126,201,178407,6,0,P|109:143|148:127,1,80
172,80,178749,1,0,0:0:0:0:
257,74,178921,1,0,0:0:0:0:
341,104,179092,2,0,P|359:153|349:186,1,80
335,273,179435,1,0,0:0:0:0:
410,325,179607,1,0,0:0:0:0:
460,243,179778,2,0,P|465:185|450:129,1,80
433,70,180121,1,0,0:0:0:0:
326,65,180292,1,0,0:0:0:0:
238,112,180464,1,0,0:0:0:0:
126,129,180635,6,0,B|110:140|68:155|163:95,1,80
229,78,180978,1,0,0:0:0:0:
313,102,181149,1,0,0:0:0:0:
369,157,181321,2,0,P|369:202|338:231,1,80
268,272,181664,1,0,0:0:0:0:
165,278,181835,1,0,0:0:0:0:
121,180,182007,2,0,B|103:113|186:227|185:226,1,80
285,164,182349,2,0,B|311:118|247:197|237:199,1,80
191,264,182692,1,0,0:0:0:0:
107,234,182864,1,0,0:0:0:0:
72,153,183035,1,0,0:0:0:0:
81,65,183207,2,0,P|142:62|191:75,1,80
243,91,183549,5,0,0:0:0:0:
328,128,183721,1,0,0:0:0:0:
130,213,183892,5,0,0:0:0:0:
295,228,184064,1,0,0:0:0:0:
196,300,184407,1,0,0:0:0:0:
220,126,184578,1,0,0:0:0:0:
112,208,184921,1,0,0:0:0:0:
194,200,185092,1,0,0:0:0:0:
276,231,185264,1,0,0:0:0:0:
362,242,185435,1,0,0:0:0:0:
439,199,185607,1,0,0:0:0:0:
454,110,185778,1,0,0:0:0:0:
395,44,185949,2,0,P|350:63|324:101,1,80
378,160,186292,2,0,P|331:194|289:202,1,80
235,153,186635,6,0,P|211:131|191:183,1,80
141,236,186978,1,0,0:0:0:0:
193,306,187149,1,0,0:0:0:0:
277,280,187321,2,0,P|312:232|316:202,1,80
245,189,187664,2,0,P|228:124|257:113,1,80
311,144,188007,2,0,P|319:81|285:74,1,80
228,63,188349,1,0,0:0:0:0:
151,107,188521,1,0,0:0:0:0:
151,107,188692,2,0,P|119:151|127:193,1,80
143,244,189035,2,0,P|87:240|66:222,1,80
61,138,189378,6,0,P|74:69|104:66,1,80
135,91,189721,2,0,P|217:76|218:76,1,80
307,81,190064,1,0,0:0:0:0:
398,109,190235,1,0,0:0:0:0:
443,184,190407,2,0,P|436:232|417:259,1,80
341,299,190749,1,0,0:0:0:0:
238,298,190921,1,0,0:0:0:0:
161,254,191092,2,0,P|122:195|133:167,1,80
128,105,191435,2,0,B|121:60|86:124|82:140,1,80
83,135,191778,1,0,0:0:0:0:
83,218,191949,5,0,0:0:0:0:
110,298,192121,2,0,P|172:299|189:288,1,80
257,241,192464,1,0,0:0:0:0:
311,177,192635,1,0,0:0:0:0:
352,102,192807,2,0,P|311:74|272:91,1,80
205,118,193149,1,0,0:0:0:0:
140,177,193321,1,0,0:0:0:0:
166,260,193492,1,0,0:0:0:0:
245,250,193664,2,0,P|310:240|325:219,1,80
371,161,194007,2,0,P|373:109|319:89,1,80
284,62,194349,5,0,0:0:0:0:
203,61,194521,1,0,0:0:0:0:
144,127,194692,1,0,0:0:0:0:
142,202,194864,6,0,P|160:249|187:255,1,80
272,240,195207,1,0,0:0:0:0:
351,176,195378,1,0,0:0:0:0:
362,91,195549,2,0,B|325:31|297:57|284:62,1,80
236,117,195892,1,0,0:0:0:0:
212,202,196064,1,0,0:0:0:0:
206,289,196235,2,0,P|158:306|105:297,1,80
61,252,196578,1,0,0:0:0:0:
57,165,196749,1,0,0:0:0:0:
122,104,196921,2,0,P|182:77|212:94,1,80
182,160,197264,2,0,P|170:218|132:224,1,80
106,178,197607,2,0,P|155:117|169:121,1,80
255,100,197949,5,0,0:0:0:0:
328,118,198121,1,0,0:0:0:0:
402,157,198292,2,0,P|432:209|430:227,1,80
358,215,198635,2,0,P|328:255|290:275,1,80
217,289,198978,1,0,0:0:0:0:
129,263,199149,1,0,0:0:0:0:
76,204,199321,2,0,P|59:153|81:133,1,80
147,138,199664,2,0,P|206:110|241:118,1,80
297,128,200007,1,0,0:0:0:0:
369,168,200178,1,0,0:0:0:0:
439,208,200349,6,0,P|448:157|441:126,1,80
425,56,200692,1,0,0:0:0:0:
336,33,200864,1,0,0:0:0:0:
257,53,201035,2,0,P|201:74|195:103,1,80
154,161,201378,1,0,0:0:0:0:
164,248,201549,1,0,0:0:0:0:
248,284,201721,1,0,0:0:0:0:
278,204,201892,2,0,P|268:156|224:133,1,80
122,210,202235,2,0,P|115:147|84:128,1,80
74,69,202578,1,0,0:0:0:0:
136,24,202749,1,0,0:0:0:0:
211,56,202921,2,0,B|288:89|284:108|277:109,1,80
257,181,203264,6,0,B|342:176|343:151|341:133,1,80
375,96,203607,1,0,0:0:0:0:
462,88,203778,1,0,0:0:0:0:
508,151,203949,2,0,P|490:213|479:234,1,80
396,264,204292,1,0,0:0:0:0:
278,133,204464,1,0,0:0:0:0:
210,211,204635,2,0,P|206:269|157:273,1,80
102,271,204978,1,0,0:0:0:0:
65,189,205149,1,0,0:0:0:0:
94,108,205321,2,0,P|163:104|176:91,1,80
252,53,205664,5,0,0:0:0:0:
374,60,205835,2,0,P|425:109|409:138,1,80
356,149,206178,2,0,P|357:197|397:221,1,80
387,293,206521,1,0,0:0:0:0:
317,340,206693,1,0,0:0:0:0:
232,304,206864,2,0,P|246:246|210:224,1,80
163,181,207207,1,0,0:0:0:0:
133,106,207378,1,0,0:0:0:0:
182,47,207549,2,0,P|239:58|253:73,1,80
306,126,207892,1,0,0:0:0:0:
337,202,208064,1,0,0:0:0:0:
292,275,208235,2,0,P|226:277|186:256,1,80
210,175,208578,6,0,P|179:144|138:144,1,80
103,215,208921,2,0,P|175:258|190:255,1,80
243,240,209264,1,0,0:0:0:0:
314,232,209435,1,0,0:0:0:0:
357,174,209607,1,0,0:0:0:0:
364,102,209778,1,0,0:0:0:0:
313,51,209949,1,0,0:0:0:0:
240,53,210121,1,0,0:0:0:0:
183,97,210292,1,0,0:0:0:0:
150,170,210464,2,0,P|143:208|149:233,4,40
183,287,210978,5,0,0:0:0:0:
308,304,211149,2,0,P|339:264|343:226,1,80
348,144,211492,1,0,0:0:0:0:
313,72,211664,1,0,0:0:0:0:
220,50,211835,2,0,P|164:59|143:92,1,80
110,165,212178,1,0,0:0:0:0:
272,238,212349,1,0,0:0:0:0:
362,173,212521,2,0,P|378:114|400:91,1,80
266,100,212864,5,0,0:0:0:0:
113,113,213035,1,0,0:0:0:0:
193,58,213207,1,0,0:0:0:0:
192,206,213378,2,0,P|254:189|294:200,1,80
344,220,213721,1,0,0:0:0:0:
429,216,213892,1,0,0:0:0:0:
466,153,214064,2,0,P|452:83|424:80,1,80
368,46,214407,1,0,0:0:0:0:
272,57,214578,1,0,0:0:0:0:
194,111,214749,2,0,P|185:168|198:209,1,80
221,271,215092,1,0,0:0:0:0:
305,260,215264,1,0,0:0:0:0:
361,183,215435,6,0,P|337:119|361:91,1,80
322,29,215778,2,0,B|237:51|225:38|218:31,1,80
157,62,216121,5,0,0:0:0:0:
81,124,216292,1,0,0:0:0:0:
94,224,216464,1,0,0:0:0:0:
150,285,216635,2,0,B|232:299|220:238|291:212,1,160
323,150,217149,1,0,0:0:0:0:
302,73,217321,1,0,0:0:0:0:
234,43,217492,2,0,B|167:61|141:86|149:105,1,80
161,151,217835,2,0,B|81:110|58:138|54:131,1,80
83,222,218178,1,0,0:0:0:0:
198,285,218349,1,0,0:0:0:0:
299,192,218521,6,0,P|294:127|297:88,1,80
267,45,218864,2,0,P|214:64|197:79,1,80
182,152,219207,1,0,0:0:0:0:
190,247,219378,1,0,0:0:0:0:
279,289,219549,2,0,P|350:271|357:245,1,80
409,195,219892,1,0,0:0:0:0:
405,95,220064,1,0,0:0:0:0:
330,143,220235,2,0,P|276:175|253:175,1,80
180,95,220578,1,0,0:0:0:0:
125,230,220749,1,0,0:0:0:0:
125,230,220921,2,0,P|192:228|224:213,1,80
195,157,221264,2,0,P|266:144|285:158,1,80
233,290,221607,6,0,P|213:240|256:224,1,80
282,165,221949,1,0,0:0:0:0:
358,141,222121,2,0,P|360:90|327:68,1,80
251,71,222464,1,0,0:0:0:0:
63,151,222635,1,0,0:0:0:0:
130,62,222807,1,0,0:0:0:0:
195,189,222978,1,0,0:0:0:0:
242,282,223149,2,0,P|301:242|302:210,1,80
321,149,223492,1,0,0:0:0:0:
199,40,223664,1,0,0:0:0:0:
146,145,223835,1,0,0:0:0:0:
332,57,224007,1,0,0:0:0:0:
225,118,224178,6,0,P|219:160|174:182,1,80
144,136,224521,2,0,P|99:168|103:208,1,80
178,211,224864,2,0,P|261:197|268:205,1,80
324,220,225207,1,0,0:0:0:0:
276,71,225378,1,0,0:0:0:0:
223,160,225549,1,0,0:0:0:0:
402,122,225721,1,0,0:0:0:0:
235,248,225892,1,0,0:0:0:0:
225,86,226064,1,0,0:0:0:0:
395,218,226235,1,0,0:0:0:0:
316,158,226407,6,0,P|260:143|215:166,2,80
181,103,226921,2,0,P|156:142|117:170,1,80
117,234,227264,1,0,0:0:0:0:
186,277,227435,1,0,0:0:0:0:
270,271,227607,2,0,P|270:205|296:200,1,80
347,170,227949,1,0,0:0:0:0:
395,84,228121,1,0,0:0:0:0:
321,31,228292,2,0,P|266:58|246:87,1,80
227,143,228635,1,0,0:0:0:0:
83,164,228807,1,0,0:0:0:0:
128,75,228978,1,0,0:0:0:0:
205,216,229149,1,0,0:0:0:0:
205,216,229321,6,0,P|261:218|302:218,1,80
365,179,229664,1,0,0:0:0:0:
394,101,229835,1,0,0:0:0:0:
306,53,230007,1,0,0:0:0:0:
212,94,230178,2,0,P|153:150|157:166,1,80
203,154,230521,2,0,P|139:115|110:131,1,80
63,118,230864,1,0,0:0:0:0:
34,192,231035,1,0,0:0:0:0:
77,259,231207,1,0,0:0:0:0:
151,290,231378,2,0,P|220:290|240:271,1,80
296,237,231721,2,0,P|279:175|315:168,1,80
367,121,232064,1,0,0:0:0:0:
142,179,232235,6,0,L|146:123,2,40
245,122,232578,2,0,P|243:178|269:187,1,80
230,254,232921,2,0,P|194:288|195:289,2,40
80,173,233264,6,0,P|106:137|134:133,1,40
175,154,233435,2,0,B|219:178|195:193|193:198,1,40
129,237,233607,2,0,L|163:278,4,40
211,222,234035,2,0,L|266:195,1,40
353,135,234207,2,0,L|313:166,1,50
346,258,234378,2,0,L|369:217,1,40
444,96,234549,6,0,L|422:146,1,40
475,222,234721,2,0,L|422:216,1,40
283,184,234892,2,0,L|340:190,1,40
330,93,235064,2,0,L|276:104,1,40
174,89,235235,5,0,0:0:0:0:
174,89,235321,1,0,0:0:0:0:
174,89,235407,1,0,0:0:0:0:
139,166,235492,2,0,L|146:206,1,40
221,201,235664,6,0,L|215:140,1,40
149,275,235835,2,0,L|199:280,1,40
317,253,236007,1,0,0:0:0:0:
317,253,236092,1,0,0:0:0:0:
317,253,236178,5,0,0:0:0:0:
337,190,236264,2,0,L|327:144,1,40
241,86,236435,2,0,L|252:128,1,40
362,77,236607,5,0,0:0:0:0:
362,77,236692,1,0,0:0:0:0:
362,77,236778,1,0,0:0:0:0:
154,124,236864,2,0,L|206:125,1,40
390,142,237035,2,0,L|330:142,1,40
206,40,237207,6,0,L|217:89,1,40
246,226,237378,2,0,L|235:181,1,40
285,91,237549,2,0,L|301:136,1,40
107,193,237721,1,0,0:0:0:0:
107,193,237807,1,0,0:0:0:0:
107,193,237892,1,0,0:0:0:0:
119,107,237978,2,0,L|172:113,1,40
198,157,238149,2,0,L|263:169,1,40
183,245,238407,6,0,P|243:265|270:260,1,80
366,225,238749,2,0,P|377:175|365:131,1,80
258,162,239092,5,0,0:0:0:0:
225,37,239264,1,0,0:0:0:0:
132,173,239435,1,0,0:0:0:0:
105,248,239607,2,0,P|152:296|186:295,1,80
271,235,239949,5,0,0:0:0:0:
321,66,240121,1,0,0:0:0:0:
433,190,240292,1,0,0:0:0:0:
433,190,240464,2,0,P|408:220|364:235,1,80
323,155,240807,6,0,P|261:186|263:220,1,80
183,128,241149,1,0,0:0:0:0:
46,158,241321,1,0,0:0:0:0:
91,76,241492,1,0,0:0:0:0:
144,205,241664,1,0,0:0:0:0:
205,273,241835,1,0,0:0:0:0:
282,172,242007,5,0,0:0:0:0:
282,172,242092,1,0,0:0:0:0:
282,172,242178,1,0,0:0:0:0:
268,62,242264,2,0,L|312:68,1,40
427,128,242435,2,0,L|377:127,1,40
343,255,242607,6,0,L|350:200,1,40
192,154,242778,1,0,0:0:0:0:
192,154,242864,1,0,0:0:0:0:
192,154,242949,1,0,0:0:0:0:
283,115,243035,6,0,L|205:108,1,40
139,55,243207,2,0,L|189:63,1,40
128,195,243378,1,0,0:0:0:0:
128,195,243464,1,0,0:0:0:0:
128,195,243549,1,0,0:0:0:0:
199,235,243635,2,0,L|232:203,1,40
332,168,243807,2,0,L|306:215,1,40
276,286,243978,1,0,0:0:0:0:
276,286,244064,1,0,0:0:0:0:
276,286,244149,1,0,0:0:0:0:
210,68,244235,6,0,P|225:130|262:133,2,80
326,174,244749,1,0,0:0:0:0:
406,69,244921,1,0,0:0:0:0:
492,132,245092,2,0,P|488:191|474:216,1,80
397,260,245435,1,0,0:0:0:0:
257,150,245607,1,0,0:0:0:0:
209,275,245778,1,0,0:0:0:0:
93,248,245949,2,0,P|48:208|50:186,1,80
117,82,246292,1,0,0:0:0:0:
163,187,246464,1,0,0:0:0:0:
294,204,246635,6,0,P|250:159|273:133,1,80
326,54,246978,1,0,0:0:0:0:
326,54,247064,1,0,0:0:0:0:
326,54,247149,1,0,0:0:0:0:
417,113,247321,2,0,P|414:153|381:183,1,80
304,229,247664,2,0,B|223:244|226:266|233:275,1,80
138,266,248007,1,0,0:0:0:0:
100,100,248178,1,0,0:0:0:0:
187,168,248349,6,0,P|225:117|252:123,1,80
357,162,248692,2,0,P|330:210|304:238,1,80
245,253,249035,1,0,0:0:0:0:
175,272,249207,1,0,0:0:0:0:
111,238,249378,1,0,0:0:0:0:
74,173,249549,2,0,P|56:111|70:102,1,80
125,86,249892,1,0,0:0:0:0:
195,102,250064,1,0,0:0:0:0:
252,145,250235,2,0,P|281:103|326:87,1,80
324,178,250578,2,0,P|337:227|306:251,1,80
194,254,250921,5,0,0:0:0:0:
194,254,251007,1,0,0:0:0:0:
194,254,251092,1,0,0:0:0:0:
112,206,251264,2,0,P|95:153|117:142,1,80
219,98,251607,1,0,0:0:0:0:
312,198,251778,1,0,0:0:0:0:
339,135,251949,2,0,P|328:69|290:58,1,80
250,49,252292,2,0,P|194:75|198:101,1,80
156,149,252635,5,0,0:0:0:0:
137,232,252807,2,0,P|164:298|195:303,1,80
276,275,253149,1,0,0:0:0:0:
276,275,253235,1,0,0:0:0:0:
276,275,253321,1,0,0:0:0:0:
354,209,253492,2,0,P|335:145|314:139,1,80
279,53,253835,2,0,P|244:112|219:122,1,80
252,178,254178,2,0,P|180:189|156:209,1,80
118,242,254521,1,0,0:0:0:0:
179,279,254692,1,0,0:0:0:0:
249,293,254864,1,0,0:0:0:0:
317,270,255035,1,0,0:0:0:0:
445,226,255207,6,0,P|439:160|413:139,1,80
396,66,255549,1,0,0:0:0:0:
263,96,255721,1,0,0:0:0:0:
130,128,255892,2,0,P|86:163|92:213,1,80
217,236,256235,1,0,0:0:0:0:
190,77,256407,1,0,0:0:0:0:
274,158,256578,2,0,P|316:122|317:97,1,80
441,89,256921,1,0,0:0:0:0:
373,224,257092,1,0,0:0:0:0:
252,253,257264,2,0,P|178:209|172:187,1,80
155,126,257607,6,0,P|195:78|221:83,1,80
274,100,257949,1,0,0:0:0:0:
350,140,258121,1,0,0:0:0:0:
388,213,258292,2,0,P|426:241|421:280,1,80
348,323,258635,1,0,0:0:0:0:
207,189,258807,1,0,0:0:0:0:
321,133,258978,2,0,P|266:101|232:112,1,80
117,135,259321,2,0,P|106:184|119:217,1,80
167,269,259664,1,0,0:0:0:0:
49,258,259835,6,0,P|76:219|129:217,1,80
188,188,260178,1,0,0:0:0:0:
272,116,260349,1,0,0:0:0:0:
299,228,260521,1,0,0:0:0:0:
