osu file format v14

[General]
AudioFilename: audio.mp3
AudioLeadIn: 0
PreviewTime: 49252
Countdown: 0
SampleSet: Soft
StackLeniency: 0.5
Mode: 0
LetterboxInBreaks: 0
WidescreenStoryboard: 1

[Editor]
Bookmarks: 26025,37453,74596,86025
DistanceSpacing: 0.2
BeatDivisor: 4
GridSize: 8
TimelineZoom: 1.2

[Metadata]
Title:Whisp
TitleUnicode:繊翳
Artist:Yanagawa Kazuki
ArtistUnicode:柳川和樹
Creator:Mocaotic
Version:Normal
Source:ソフィーのアトリエ2 ~不思議な夢の錬金術士~
Tags:織翳 Senei Atelier no Sophie 2: ~Fushigi na Yume Renkinjutsushi~ The Alchemist of the Mysterious Dream Neuenmuller Grandmother Ramizel Erlenmeyer instrumental video game videogame vgm battle theme ost original official soundtrack japanese folk
BeatmapID:4036535
BeatmapSetID:1949669

[Difficulty]
HPDrainRate:3
CircleSize:3.5
OverallDifficulty:4
ApproachRate:5.5
SliderMultiplier:1.02
SliderTickRate:1

[Events]
//Background and Video events
0,0,"sophieramizel_waifu2x_art_noise2_scale.jpg",0,0
//Break Periods
//Storyboard Layer 0 (Background)
//Storyboard Layer 1 (Fail)
//Storyboard Layer 2 (Pass)
//Storyboard Layer 3 (Foreground)
//Storyboard Layer 4 (Overlay)
//Storyboard Sound Samples

[TimingPoints]
490,357.142857142858,4,2,2,45,1,0
1740,-100,4,2,2,60,0,0
1918,357.142857142858,4,2,2,60,1,0
26025,-117.647058823529,4,2,2,35,0,0
26203,357.142857142858,4,2,2,35,1,0
27631,-117.647058823529,4,2,2,35,0,0
36203,-117.647058823529,4,2,2,40,0,0
37453,-100,4,2,2,55,0,0
49060,-100,4,2,2,30,0,0
50310,-90.9090909090909,4,2,2,75,0,1
50488,357.142857142858,4,2,2,75,1,1
51202,-90.9090909090909,4,2,2,75,0,1
57452,-90.9090909090909,4,2,2,82,0,1
58880,-90.9090909090909,4,2,2,75,0,1
60309,-90.9090909090909,4,2,2,60,0,1
61738,-90.9090909090909,4,2,2,75,0,1
73702,-90.9090909090909,4,2,2,60,0,0
74595,-100,4,2,2,55,0,0
74773,357.142857142858,4,2,2,55,1,0
78880,-100,4,2,2,45,0,0
80308,-105.263157894737,4,2,2,45,0,0
81737,-105.263157894737,4,2,2,35,0,0
83165,-111.111111111111,4,2,2,25,0,0
84594,-111.111111111111,4,2,2,15,0,0
85665,-117.647058823529,4,2,2,15,0,0

[Colours]
Combo1 : 222,189,255
Combo2 : 255,181,235

[HitObjects]
58,257,1740,6,0,P|117:259|155:200,1,101.7144,6|0,3:2|3:0,2:0:0:0:
173,189,2275,1,8,2:0:0:0:
252,125,2632,2,0,P|245:100|236:76,2,51,2|2|8,2:0|3:2|2:0,2:0:0:0:
287,161,3168,2,0,P|303:220|312:273,1,102,2|0,3:2|3:0,2:0:0:0:
290,306,3703,1,8,2:0:0:0:
372,374,4060,1,2,3:2:0:0:
372,374,4239,1,2,3:0:0:0:
463,330,4596,6,0,P|490:280|447:213,1,102,6|2,3:2|3:2,2:0:0:0:
442,202,5132,1,10,2:0:0:0:
371,128,5489,2,0,P|378:101|389:75,2,51,2|2|8,2:0|3:2|2:0,2:0:0:0:
332,161,6025,2,0,P|311:232|301:286,1,102,2|2,3:2|3:2,2:0:0:0:
327,304,6560,1,8,2:0:0:0:
249,370,6918,1,8,2:0:0:0:
156,341,7275,1,8,2:0:0:0:
156,341,7453,6,0,P|117:296|135:234,1,102,6|0,3:2|3:0,2:0:0:0:
147,213,7989,1,8,2:0:0:0:
236,163,8346,2,0,P|225:130|213:103,2,51,2|2|8,2:0|3:2|2:0,2:0:0:0:
280,187,8882,2,0,P|329:173|379:165,1,102,2|0,3:2|3:0,2:0:0:0:
428,180,9418,1,8,2:0:0:0:
506,114,9775,1,2,2:0:0:0:
506,114,9953,1,0,3:0:0:0:
465,20,10310,6,0,P|408:-8|344:21,1,102,2|2,3:2|3:2,2:0:0:0:
325,19,10846,1,8,2:0:0:0:
247,85,11203,2,0,P|257:108|264:132,2,51,2|2|10,2:0|3:2|2:0,2:0:0:0:
207,52,11739,1,2,3:1:0:0:
114,9,12096,1,2,3:1:0:0:
44,83,12453,1,2,3:1:0:0:
93,172,12810,1,2,3:1:0:0:
193,153,13168,6,0,P|244:193|246:233,1,102,6|0,3:2|3:0,2:0:0:0:
226,272,13703,1,8,2:0:0:0:
299,343,14060,2,0,P|338:336|368:334,2,51,2|2|8,2:0|3:2|2:0,2:0:0:0:
258,374,14596,2,0,P|201:378|144:387,1,102,2|0,3:2|3:0,2:0:0:0:
108,366,15132,1,8,2:0:0:0:
27,312,15489,1,2,3:2:0:0:
27,312,15668,1,2,3:0:0:0:
64,216,16025,6,0,P|126:206|166:244,1,102,6|2,3:2|3:2,2:0:0:0:
186,266,16560,1,10,2:0:0:0:
262,334,16918,2,0,P|252:375|249:399,2,51,2|2|8,2:0|3:2|2:0,2:0:0:0:
303,303,17453,2,0,P|317:237|333:190,1,102,2|2,3:2|3:2,2:0:0:0:
311,155,17989,1,8,2:0:0:0:
359,65,18346,1,2,2:0:0:0:
463,92,18703,1,8,2:0:0:0:
463,92,18882,6,0,P|459:156|413:186,1,102,6|0,3:2|3:0,2:0:0:0:
389,204,19418,1,8,2:0:0:0:
298,250,19775,2,0,P|213:229|168:225,1,102,2|8,2:0|2:0,2:0:0:0:
160,194,20310,2,0,P|75:214|30:218,1,102,2|2,3:2|3:2,2:0:0:0:
20,247,20846,1,8,2:0:0:0:
51,343,21203,2,0,P|88:351|110:361,1,51,10|8,2:0|2:0,2:0:0:0:
154,366,21560,1,0,3:0:0:0:
154,366,21739,6,0,P|186:299|169:247,1,102,6|4,3:2|3:0,2:0:0:0:
156,229,22275,2,0,P|91:210|42:205,1,102,6|0,3:2|3:0,2:0:0:0:
17,173,22810,2,0,P|17:122|45:81,1,102,14|8,3:2|2:0,2:0:0:0:
89,55,23346,1,2,2:1:0:0:
183,93,23703,1,4,3:0:0:0:
274,48,24060,2,0,P|262:2|250:-27,2,51,2|2|2,2:0|3:2|3:2,2:0:0:0:
324,57,24596,1,10,2:0:0:0:
427,38,24953,1,10,2:0:0:0:
427,38,25132,1,10,2:0:0:0:
427,38,26025,6,0,P|409:88|391:193,1,130.050002480507,2|2,3:0|3:2,2:0:0:0:
458,221,26917,1,2,3:2:0:0:
423,300,27274,1,2,3:2:0:0:
337,284,27631,2,0,P|261:299|226:315,1,86.7000000000003,2|0,3:2|3:0,2:0:0:0:
179,349,28345,2,0,P|103:334|68:318,1,86.7000000000003,2|0,3:2|3:0,2:0:0:0:
68,296,28881,6,0,P|60:235|108:175,1,130.05,2|2,3:0|3:2,2:0:0:0:
172,136,29774,2,0,P|162:101|155:86,2,43.3500000000002,2|2|2,3:2|2:0|3:2,2:0:0:0:
213,161,30310,1,2,2:0:0:0:
213,161,30488,2,0,P|232:232|238:283,1,86.7000000000003,2|0,3:1|3:0,2:0:0:0:
212,330,31203,2,0,P|191:323|170:318,2,43.3500000000002,2|0|2,3:2|2:0|3:2,2:0:0:0:
243,359,31738,6,0,P|326:364|356:295,1,130.05,2|2,3:0|3:2,2:0:0:0:
377,249,32631,1,2,3:2:0:0:
457,281,32988,1,2,3:2:0:0:
512,213,33345,2,0,P|495:154|478:109,1,86.7000000000003,2|0,3:2|3:0,2:0:0:0:
411,87,34060,2,0,P|352:104|307:121,1,86.7000000000003,2|0,3:2|3:0,2:0:0:0:
295,141,34595,6,0,P|217:144|177:81,1,130.05,2|2,3:0|3:2,2:0:0:0:
113,59,35488,2,0,P|127:12|134:-4,2,43.3500000000002,2|2|2,3:2|2:0|3:2,2:0:0:0:
81,87,36024,1,2,2:0:0:0:
81,87,36203,2,0,P|68:128|65:167,1,43.3500000000002,2|8,3:1|3:0,2:0:0:0:
72,171,36560,1,4,3:0:0:0:
7,236,36917,1,0,3:0:0:0:
7,236,37095,1,8,2:0:0:0:
71,307,37453,6,0,P|129:311|175:267,1,102,6|0,3:2|2:0,2:0:0:0:
199,250,37988,1,2,2:0:0:0:
298,271,38345,2,0,P|308:307|314:340,2,51,8|2|2,2:0|3:2|2:0,2:0:0:0:
324,227,38881,2,0,P|310:171|296:123,1,102,2|2,3:2|3:2,2:0:0:0:
259,95,39417,1,2,2:0:0:0:
321,15,39774,1,8,2:0:0:0:
321,15,39953,1,2,3:2:0:0:
421,32,40310,6,0,P|450:71|436:131,1,102,6|2,3:2|2:0,2:0:0:0:
419,167,40845,2,0,P|366:181|318:200,1,102,2|8,2:0|2:0,2:0:0:0:
280,227,41381,1,2,3:2:0:0:
225,312,41738,2,0,P|177:294|128:285,1,102,2|2,3:2|3:2,2:0:0:0:
77,294,42274,1,2,2:0:0:0:
57,194,42631,2,0,P|29:189|8:180,2,51,8|2|2,2:0|3:2|2:0,2:0:0:0:
103,173,43167,6,0,P|148:142|214:157,1,102,6|0,3:2|2:0,2:0:0:0:
238,167,43703,1,2,2:0:0:0:
319,227,44060,2,0,P|306:269|304:293,2,51,8|2|2,2:0|3:2|2:0,2:0:0:0:
362,201,44595,2,0,P|382:133|401:89,1,102,2|2,3:2|3:2,2:0:0:0:
379,55,45131,1,2,2:0:0:0:
296,4,45488,1,8,2:0:0:0:
296,4,45667,1,2,3:2:0:0:
210,60,46024,6,0,P|201:121|250:167,1,102,6|2,3:2|2:0,2:0:0:0:
263,181,46560,2,0,P|311:166|362:157,1,102,2|8,2:0|2:0,2:0:0:0:
407,134,47095,1,8,3:0:0:0:
487,196,47453,2,0,P|510:239|498:288,1,102,6|2,3:2|3:2,2:0:0:0:
464,327,47988,2,0,P|424:336|400:346,1,51,8|2,2:0|3:2,2:0:0:0:
369,330,48345,1,0,3:0:0:0:
369,330,48524,2,0,P|363:305|356:280,2,51,8|8|8,2:0|2:0|2:0,2:0:0:0:
324,355,49060,1,2,2:1:0:0:
53,380,50310,6,0,P|14:333|47:251,1,111.885843424072,6|0,3:2|3:0,2:0:0:0:
43,238,50845,1,8,2:0:0:0:
140,194,51202,2,0,P|182:201|205:209,1,56.1,2|0,2:0|3:0,2:0:0:0:
250,194,51559,1,8,2:0:0:0:
250,194,51738,2,0,P|306:205|375:232,1,112.2,2|0,3:2|3:0,2:0:0:0:
402,252,52273,1,8,2:0:0:0:
502,211,52630,1,2,3:2:0:0:
502,211,52809,1,2,3:0:0:0:
479,106,53166,6,0,P|430:61|351:88,1,112.2,6|2,3:2|3:2,2:0:0:0:
337,80,53702,2,0,P|353:161|359:220,1,112.2,10|2,2:0|2:0,2:0:0:0:
403,235,54238,1,2,3:2:0:0:
403,235,54416,1,8,2:0:0:0:
403,235,54595,2,0,P|387:316|381:375,1,112.2,2|0,3:2|3:0,2:0:0:0:
341,377,55130,1,8,2:0:0:0:
241,339,55488,2,0,P|229:290|223:272,1,56.1,2|0,2:0|3:0,2:0:0:0:
249,238,55845,1,8,2:0:0:0:
249,238,56023,6,0,P|323:181|355:191,1,112.2,6|0,3:2|3:0,2:0:0:0:
381,204,56559,1,8,2:0:0:0:
476,155,56916,2,0,P|487:115|499:82,1,56.1,2|0,2:0|3:0,2:0:0:0:
472,56,57273,1,8,2:0:0:0:
472,56,57452,2,0,P|401:39|341:19,1,112.2,2|0,3:2|3:0,2:0:0:0:
314,7,57988,1,8,2:0:0:0:
222,60,58345,2,0,P|234:96|239:132,2,56.1,2|0|8,2:0|3:0|2:0,2:0:0:0:
180,26,58880,6,0,P|121:25|81:63,1,112.2,2|0,3:2|3:0,2:0:0:0:
50,100,59416,2,0,P|66:153|78:208,1,112.2,8|2,2:0|2:0,2:0:0:0:
50,254,59952,2,0,P|61:294|65:333,1,56.1,2|10,3:2|2:0,2:0:0:0:
43,357,60309,1,2,3:1:0:0:
146,384,60666,1,2,3:1:0:0:
235,326,61023,1,2,3:1:0:0:
337,353,61380,1,2,3:1:0:0:
427,297,61738,6,0,P|460:241|412:172,1,112.2,6|0,3:2|3:0,2:0:0:0:
407,163,62273,1,8,2:0:0:0:
306,199,62630,2,0,P|268:189|234:185,1,56.1,2|0,2:0|3:0,2:0:0:0:
206,211,62988,1,8,2:0:0:0:
206,211,63166,2,0,P|134:193|89:188,1,112.2,2|0,3:2|3:0,2:0:0:0:
49,163,63702,1,8,2:0:0:0:
11,265,64059,1,2,3:2:0:0:
11,265,64238,1,2,3:0:0:0:
82,344,64595,6,0,P|143:340|176:285,1,112.2,6|2,3:2|3:2,2:0:0:0:
213,268,65130,2,0,P|196:187|181:142,1,112.2,10|2,2:0|2:0,2:0:0:0:
152,133,65666,1,2,3:2:0:0:
152,133,65845,1,8,2:0:0:0:
152,133,66023,2,0,P|169:52|184:7,1,112.2,2|0,3:2|3:0,2:0:0:0:
225,0,66559,1,8,2:0:0:0:
322,44,66916,2,0,P|349:38|377:34,1,56.1,8|0,2:3|3:0,2:0:0:0:
426,10,67273,1,8,2:0:0:0:
426,10,67452,6,0,P|477:66|448:128,1,112.2,6|0,3:2|3:0,2:0:0:0:
436,135,67988,1,8,2:0:0:0:
342,185,68345,2,0,P|276:168|214:160,1,112.2,2|8,2:0|2:0,2:0:0:0:
192,125,68880,2,0,P|126:142|64:150,1,112.2,2|2,3:2|3:2,2:0:0:0:
39,179,69416,1,8,2:0:0:0:
3,279,69773,2,0,P|18:317|23:347,1,56.1,8|2,2:0|3:2,2:0:0:0:
65,369,70130,1,8,3:0:0:0:
65,369,70309,6,0,P|118:378|163:346,1,112.2,6|4,3:2|3:0,2:0:0:0:
192,302,70845,2,0,P|170:214|148:160,1,112.2,6|0,3:2|3:0,2:0:0:0:
131,150,71380,1,6,3:2:0:0:
203,72,71738,1,8,2:0:0:0:
203,72,71916,2,0,P|258:63|304:98,1,112.2,6|0,3:2|3:0,2:0:0:0:
336,134,72452,2,0,P|318:187|306:242,1,112.2,6|8,3:2|3:0,2:0:0:0:
276,287,72988,1,4,3:0:0:0:
276,287,73166,1,14,3:2:0:0:
355,366,73523,1,10,2:0:0:0:
355,366,73702,1,10,2:0:0:0:
355,366,74595,6,0,P|417:368|454:326,1,101.7144,6|0,3:2|3:0,2:0:0:0:
484,310,75130,2,0,P|468:218|453:171,1,102,8|2,2:0|2:0,2:0:0:0:
487,163,75665,1,0,3:0:0:0:
410,95,76023,2,0,P|318:111|271:126,1,102,2|0,3:2|3:0,2:0:0:0:
259,108,76558,1,8,2:0:0:0:
188,182,76915,1,2,3:2:0:0:
188,182,77094,1,2,3:0:0:0:
87,163,77451,6,0,P|49:125|66:57,1,102,6|0,3:2|3:0,2:0:0:0:
71,33,77987,1,8,2:0:0:0:
171,51,78344,1,2,2:0:0:0:
260,0,78701,1,8,2:0:0:0:
260,0,78880,2,0,P|323:17|368:24,1,102,2|0,3:2|3:0,2:0:0:0:
410,18,79415,1,8,2:0:0:0:
475,96,79773,2,0,P|461:139|457:164,1,51,8|0,2:0|3:0,2:0:0:0:
422,178,80130,1,10,2:0:0:0:
422,178,80308,6,0,P|356:177|319:129,1,96.8999999999998,6|0,3:2|3:0,2:0:0:0:
300,123,80844,1,8,2:0:0:0:
224,62,81201,2,0,P|230:37|238:14,2,48.4499999999999,2|2|8,2:0|3:2|2:0,2:0:0:0:
184,90,81737,2,0,P|163:160|154:208,1,96.8999999999998,2|0,3:2|3:0,2:0:0:0:
183,224,82273,1,8,2:0:0:0:
234,305,82630,1,2,3:2:0:0:
234,305,82808,1,0,3:0:0:0:
166,366,83165,6,0,P|112:369|74:317,1,91.8000000000001,2|0,3:2|3:0,2:0:0:0:
60,307,83701,1,8,2:0:0:0:
97,223,84058,2,0,P|124:214|146:209,2,45.9,2|2|8,2:0|3:2|2:0,2:0:0:0:
55,209,84594,1,2,3:2:0:0:
6,137,84951,1,2,3:2:0:0:
63,72,85308,1,2,3:2:0:0:
146,97,85665,2,0,P|191:83|237:77,1,86.7000000000003,2|6,3:2|3:2,2:0:0:0:
