osu file format v14

[General]
AudioFilename: audio.mp3
AudioLeadIn: 0
PreviewTime: 49252
Countdown: 0
SampleSet: Soft
StackLeniency: 0.5
Mode: 0
LetterboxInBreaks: 0
WidescreenStoryboard: 0

[Editor]
Bookmarks: 26025,37453,74596,86025
DistanceSpacing: 0.18
BeatDivisor: 4
GridSize: 8
TimelineZoom: 1.2

[Metadata]
Title:Whisp
TitleUnicode:繊翳
Artist:Yanagawa Kazuki
ArtistUnicode:柳川和樹
Creator:Mocaotic
Version:My Young Grandma and I
Source:ソフィーのアトリエ2 ~不思議な夢の錬金術士~
Tags:織翳 Senei Atelier no Sophie 2: ~Fushigi na Yume Renkinjutsushi~ The Alchemist of the Mysterious Dream Neuenmuller Grandmother Ramizel Erlenmeyer instrumental video game videogame vgm battle theme ost original official soundtrack japanese folk
BeatmapID:4036452
BeatmapSetID:1949669

[Difficulty]
HPDrainRate:5
CircleSize:4
OverallDifficulty:8
ApproachRate:9
SliderMultiplier:1.58
SliderTickRate:1

[Events]
//Background and Video events
0,0,"sophieramizel_waifu2x_art_noise2_scale.jpg",0,0
//Break Periods
//Storyboard Layer 0 (Background)
//Storyboard Layer 1 (Fail)
//Storyboard Layer 2 (Pass)
//Storyboard Layer 3 (Foreground)
//Storyboard Layer 4 (Overlay)
//Storyboard Sound Samples

[TimingPoints]
490,357.142857142858,4,2,2,45,1,0
490,-250,4,2,2,45,0,0
1740,-83.3333333333333,4,2,2,60,0,0
1918,357.142857142858,4,2,2,60,1,0
4239,-125,4,2,2,60,0,0
4596,-83.3333333333333,4,2,2,60,0,0
5132,-100,4,2,2,60,0,0
6025,-83.3333333333333,4,2,2,60,0,0
7453,-76.9230769230769,4,2,2,60,0,0
7989,-100,4,2,2,60,0,0
9775,-125,4,2,2,60,0,0
10310,-100,4,2,2,60,0,0
10846,-125,4,2,2,60,0,0
12096,-71.4285714285714,4,2,2,60,0,0
12185,-71.4285714285714,4,2,2,5,0,0
12275,-71.4285714285714,4,2,2,60,0,0
12542,-71.4285714285714,4,2,2,5,0,0
12632,-71.4285714285714,4,2,2,60,0,0
12810,-83.3333333333333,4,2,2,60,0,0
13703,-100,4,2,2,60,0,0
14596,-90.9090909090909,4,2,2,60,0,0
15132,-100,4,2,2,60,0,0
15668,-125,4,2,2,60,0,0
16025,-76.9230769230769,4,2,2,60,0,0
16560,-100,4,2,2,60,0,0
17453,-83.3333333333333,4,2,2,60,0,0
19418,-100,4,2,2,60,0,0
20846,-111.111111111111,4,2,2,60,0,0
21203,-83.3333333333333,4,2,2,60,0,0
21292,-83.3333333333333,4,2,2,5,0,0
21382,-83.3333333333333,4,2,2,60,0,0
21471,-83.3333333333333,4,2,2,5,0,0
21560,-83.3333333333333,4,2,2,60,0,0
21649,-83.3333333333333,4,2,2,5,0,0
21739,-83.3333333333333,4,2,2,60,0,0
23703,-100,4,2,2,60,0,0
25132,-500,4,2,2,60,0,0
25489,-500,4,2,2,30,0,0
26025,-133.333333333333,4,2,2,35,0,0
26203,357.142857142858,4,2,2,35,1,0
26560,-166.666666666667,4,2,2,35,0,0
31738,-133.333333333333,4,2,2,35,0,0
32274,-166.666666666667,4,2,2,35,0,0
36203,-100,4,2,2,40,0,0
36292,-100,4,2,2,5,0,0
36381,-100,4,2,2,40,0,0
37095,-133.333333333333,4,2,2,40,0,0
37362,-133.333333333333,4,2,2,5,0,0
37453,-100,4,2,2,55,0,0
37988,-111.111111111111,4,2,2,55,0,0
38524,-142.857142857143,4,2,2,55,0,0
38881,-99.9999999999999,4,2,2,55,0,0
39953,-83.3333333333333,4,2,2,55,0,0
40310,-100,4,2,2,55,0,0
40845,-111.111111111111,4,2,2,55,0,0
41381,-142.857142857143,4,2,2,55,0,0
41738,-90.9090909090908,4,2,2,55,0,0
43703,-111.111111111111,4,2,2,55,0,0
44238,-133.333333333333,4,2,2,55,0,0
44595,-100,4,2,2,55,0,0
45667,-83.3333333333333,4,2,2,55,0,0
46024,-90.9090909090909,4,2,2,55,0,0
46381,-76.9230769230769,4,2,2,55,0,0
46560,-100,4,2,2,55,0,0
47453,-86.9565217391304,4,2,2,55,0,0
47988,-76.9230769230769,4,2,2,55,0,0
49060,-666.666666666667,4,2,2,30,0,0
49685,-666.666666666667,4,2,2,5,0,0
49774,-666.666666666667,4,2,2,45,0,0
50310,-68.9655172413793,4,2,2,75,0,1
50488,357.142857142858,4,2,2,75,1,1
50845,-90.9090909090909,4,2,2,75,0,1
52809,-111.111111111111,4,2,2,75,0,1
53166,-76.9230769230769,4,2,2,75,0,1
53702,-111.111111111111,4,2,2,75,0,1
54595,-90.9090909090909,4,2,2,75,0,1
56023,-76.9230769230769,4,2,2,75,0,1
56559,-111.111111111111,4,2,2,75,0,1
57452,-76.9230769230769,4,2,2,82,0,1
57988,-90.9090909090909,4,2,2,82,0,1
58880,-83.3333333333333,4,2,2,75,0,1
60309,-71.4285714285714,4,2,2,60,0,1
60398,-71.4285714285714,4,2,2,5,0,1
60488,-71.4285714285714,4,2,2,60,0,1
60666,-90.9090909090909,4,2,2,60,0,1
60755,-90.9090909090909,4,2,2,5,0,1
60845,-90.9090909090909,4,2,2,60,0,1
61023,-125,4,2,2,60,0,1
61112,-125,4,2,2,5,0,1
61202,-125,4,2,2,60,0,1
61380,-500,4,2,2,60,0,1
61647,-500,4,2,2,5,0,1
61738,-68.9655172413793,4,2,2,75,0,1
62273,-90.9090909090909,4,2,2,75,0,1
63166,-83.3333333333333,4,2,2,75,0,1
63702,-90.9090909090909,4,2,2,75,0,1
64238,-111.111111111111,4,2,2,75,0,1
64595,-76.9230769230769,4,2,2,75,0,1
66023,-90.9090909090909,4,2,2,75,0,1
66916,-83.3333333333333,4,2,2,75,0,1
67988,-90.9090909090909,4,2,2,75,0,1
68345,-111.111111111111,4,2,2,75,0,1
68880,-90.9090909090909,4,2,2,75,0,1
69238,-83.3333333333333,4,2,2,75,0,1
69327,-83.3333333333333,4,2,2,5,0,1
69416,-100,4,2,2,75,0,1
69773,-83.3333333333333,4,2,2,75,0,1
69862,-83.3333333333333,4,2,2,5,0,1
69952,-83.3333333333333,4,2,2,75,0,1
70041,-83.3333333333333,4,2,2,5,0,1
70130,-83.3333333333333,4,2,2,75,0,1
70219,-83.3333333333333,4,2,2,5,0,1
70309,-83.3333333333333,4,2,2,75,0,1
72452,-76.9230769230769,4,2,2,75,0,1
73702,-76.9230769230769,4,2,2,60,0,0
74059,-83.3333333333333,4,2,2,60,0,0
74148,-83.3333333333333,4,2,2,5,0,0
74238,-83.3333333333333,4,2,2,60,0,0
74595,-90.9090909090909,4,2,2,55,0,0
74773,357.142857142858,4,2,2,55,1,0
77094,-125,4,2,2,55,0,0
77451,-83.3333333333333,4,2,2,55,0,0
77987,-100,4,2,2,55,0,0
78880,-90.9090909090909,4,2,2,45,0,0
80308,-111.111111111111,4,2,2,45,0,0
80844,-125,4,2,2,45,0,0
81737,-125,4,2,2,35,0,0
82630,-142.857142857143,4,2,2,35,0,0
83165,-142.857142857143,4,2,2,25,0,0
83701,-166.666666666667,4,2,2,25,0,0
84594,-166.666666666667,4,2,2,15,0,0
85665,-1000,4,2,2,15,0,0

[Colours]
Combo1 : 222,189,255
Combo2 : 255,181,235

[HitObjects]
344,275,490,6,0,P|348:260|355:246,2,31.6,8|0|0,3:0|3:0|3:0,2:0:0:0:
424,271,1025,2,0,P|420:286|414:301,2,31.6,4|0|0,3:0|3:0|3:0,2:0:0:0:
384,272,1561,1,8,2:0:0:0:
511,346,1740,6,0,B|460:311|411:345|430:362|386:402|327:353,1,189.069114213867,6|0,3:2|3:0,2:0:0:0:
332,365,2185,1,0,3:0:0:0:
326,370,2275,2,0,P|314:323|301:287,1,79,8|0,2:0|2:0,2:0:0:0:
430,172,2632,5,2,2:0:0:0:
368,233,2810,1,2,3:2:0:0:
452,257,2989,1,8,2:0:0:0:
512,89,3168,6,0,P|461:138|364:122,1,158,2|0,3:2|3:0,2:0:0:0:
372,128,3614,1,0,3:0:0:0:
366,123,3703,2,0,P|310:137|295:165,1,79,8|0,2:0|2:0,2:0:0:0:
425,59,4060,5,2,3:2:0:0:
296,159,4239,2,0,P|253:154|230:134,1,63.2,2|8,3:0|2:0,2:0:0:0:
239,144,4596,6,0,P|311:157|327:248,1,142.2,6|0,3:2|2:0,2:0:0:0:
379,278,4953,1,2,3:2:0:0:
376,285,5043,1,2,2:0:0:0:
373,292,5132,2,0,P|328:305|276:341,1,79,10|0,2:0|2:0,2:0:0:0:
151,278,5489,5,2,2:0:0:0:
212,340,5668,1,2,3:2:0:0:
236,256,5846,1,8,2:0:0:0:
123,362,6025,6,0,P|54:356|24:271,1,142.2,2|0,3:2|2:0,2:0:0:0:
15,292,6382,2,0,P|22:258|48:230,1,47.4,2|0,3:2|2:0,2:0:0:0:
173,226,6560,5,8,2:0:0:0:
105,282,6739,1,2,2:0:0:0:
23,144,6918,5,8,2:0:0:0:
94,196,7096,1,0,3:0:0:0:
97,190,7185,1,0,3:0:0:0:
100,185,7275,1,8,2:0:0:0:
9,298,7453,6,0,B|26:212|112:210|112:210|142:244|196:230,1,205.4,6|0,3:2|3:0,2:0:0:0:
166,240,7900,1,0,3:0:0:0:
172,245,7989,2,0,P|160:287|125:308,1,79,8|0,2:0|2:0,2:0:0:0:
263,134,8346,5,2,2:0:0:0:
181,160,8525,1,2,3:2:0:0:
201,76,8703,1,8,2:0:0:0:
330,180,8882,6,0,P|300:270|287:342,1,158,2|0,3:2|3:0,2:0:0:0:
285,340,9328,1,0,3:0:0:0:
280,346,9418,2,0,P|239:374|189:355,1,79,8|0,2:0|2:0,2:0:0:0:
359,252,9775,6,0,P|392:235|429:235,1,63.2,2|0,2:0|3:0,2:0:0:0:
284,340,10132,1,8,2:0:0:0:
425,229,10310,2,0,P|490:289|469:358,1,158,2|2,3:2|3:2,2:0:0:0:
470,354,10757,1,0,3:0:0:0:
464,359,10846,2,0,P|432:362|405:377,1,63.2,8|0,2:0|2:0,2:0:0:0:
268,287,11203,5,2,2:0:0:0:
332,343,11382,1,2,3:2:0:0:
478,283,11560,5,10,2:0:0:0:
495,235,11650,1,0,2:0:0:0:
465,200,11739,1,2,3:1:0:0:
465,200,12096,6,0,P|416:217|396:235,1,55.3,2|0,3:1|2:0,2:0:0:0:
378,249,12275,1,8,2:0:0:0:
256,344,12453,6,0,P|220:340|194:309,1,55.3,2|0,3:1|2:0,2:0:0:0:
172,298,12632,1,8,2:0:0:0:
290,172,12810,6,0,P|300:204|308:228,1,47.4,2|4,3:1|3:0,2:0:0:0:
253,272,12989,1,0,3:0:0:0:
253,272,13168,6,0,B|245:212|288:190|301:207|352:173|325:105,1,189.6,6|0,3:2|3:0,2:0:0:0:
469,41,13703,2,0,P|439:75|397:77,1,79,8|0,2:0|2:0,2:0:0:0:
261,45,14060,5,2,2:0:0:0:
344,21,14239,1,2,3:2:0:0:
323,106,14418,1,8,2:0:0:0:
109,185,14596,6,0,P|150:125|247:133,1,173.8,2|0,3:2|3:0,2:0:0:0:
249,136,15043,1,0,3:0:0:0:
254,142,15132,2,0,P|295:160|336:148,1,79,8|0,2:0|2:0,2:0:0:0:
191,195,15489,5,2,3:2:0:0:
332,148,15668,2,0,P|368:158|384:180,1,63.2,2|8,3:0|2:0,2:0:0:0:
382,177,16025,6,0,P|320:152|326:58,1,154.05,6|0,3:2|2:0,2:0:0:0:
253,31,16382,1,2,3:2:0:0:
257,25,16471,1,2,2:0:0:0:
261,19,16560,2,0,P|298:-2|345:6,1,79,10|0,2:0|2:0,2:0:0:0:
475,99,16918,5,2,2:0:0:0:
453,12,17096,1,2,3:2:0:0:
389,73,17275,1,8,2:0:0:0:
512,190,17453,6,0,P|449:188|405:266,1,142.2,2|0,3:2|2:0,2:0:0:0:
400,255,17810,2,0,P|409:289|441:316,1,47.4,2|0,3:2|2:0,2:0:0:0:
512,347,17989,5,8,2:0:0:0:
485,263,18168,1,0,2:0:0:0:
431,376,18346,1,2,2:0:0:0:
399,290,18525,5,0,3:0:0:0:
407,294,18614,1,0,3:0:0:0:
415,298,18703,1,8,2:0:0:0:
272,334,18882,6,0,B|203:305|211:249|221:215|221:215|251:213|273:177,1,189.6,6|0,3:2|3:0,2:0:0:0:
267,191,19328,1,0,3:0:0:0:
273,186,19418,2,0,P|292:141|278:93,1,79,8|0,2:0|2:0,2:0:0:0:
147,83,19775,2,0,P|128:128|142:176,1,79,2|0,2:0|3:0,2:0:0:0:
210,136,20132,1,8,2:0:0:0:
46,267,20310,6,0,P|79:218|177:213,1,158,2|2,3:2|3:2,2:0:0:0:
176,217,20757,1,0,3:0:0:0:
182,222,20846,2,0,P|236:249|284:233,1,106.65,8|0,2:0|2:0,2:0:0:0:
355,229,21203,6,0,P|337:182|314:163,1,47.4,10|0,2:0|2:0,2:0:0:0:
355,113,21382,2,0,P|305:105|277:115,1,47.4,8|0,2:0|2:0,2:0:0:0:
254,54,21560,2,0,P|222:93|217:122,1,47.4,0|0,3:0|2:0,2:0:0:0:
244,167,21739,5,6,3:2:0:0:
326,188,21918,1,8,3:0:0:0:
374,113,22096,1,4,3:0:0:0:
322,292,22275,5,6,3:2:0:0:
411,216,22453,1,4,3:0:0:0:
367,108,22632,1,0,3:0:0:0:
509,273,22810,5,14,3:2:0:0:
496,132,22989,1,8,2:0:0:0:
359,102,23168,1,8,2:0:0:0:
342,144,23257,1,8,2:0:0:0:
374,177,23346,1,2,2:1:0:0:
374,177,23703,6,0,P|416:192|459:212,1,79,4|0,3:0|2:0,2:0:0:0:
512,168,24060,1,2,2:0:0:0:
464,278,24239,2,0,P|456:298|445:323,3,26.3333333333333,2|2|2|2,3:2|2:0|2:0|3:2,2:0:0:0:
447,206,24596,1,10,2:0:0:0:
447,206,24953,5,10,2:0:0:0:
296,128,25132,2,0,L|285:161,1,31.6,10|2,2:0|2:1,2:0:0:0:
129,48,26025,6,0,P|199:48|239:99,1,118.168204520416,2|0,3:0|2:0,2:0:0:0:
146,161,26560,2,0,P|152:138|162:116,1,47.3999999999999,2|0,3:2|2:0,2:0:0:0:
161,116,26917,2,0,P|177:132|190:151,1,47.3999999999999,2|0,3:2|2:0,2:0:0:0:
192,152,27274,2,0,P|170:161|145:161,1,47.3999999999999,2|0,3:2|2:0,2:0:0:0:
82,205,27631,6,0,P|120:236|170:232,1,94.7999999999998,2|0,3:2|3:0,2:0:0:0:
163,234,28167,1,0,2:0:0:0:
235,280,28345,2,0,P|246:234|261:188,1,94.7999999999998,2|0,3:2|3:0,2:0:0:0:
398,295,28881,2,0,P|359:262|310:263,1,94.7999999999998,2|0,3:0|2:0,2:0:0:0:
317,377,29417,6,0,P|323:354|333:332,1,47.3999999999999,2|0,3:2|2:0,2:0:0:0:
397,377,29774,1,2,3:2:0:0:
470,360,29953,1,2,2:0:0:0:
504,292,30131,1,2,3:2:0:0:
504,292,30310,1,2,2:0:0:0:
472,220,30488,6,0,P|429:226|376:244,1,94.7999999999998,2|0,3:1|3:0,2:0:0:0:
380,242,31024,1,0,2:0:0:0:
313,215,31203,2,0,P|285:226|267:257,2,47.3999999999999,2|0|2,3:2|2:0|3:2,2:0:0:0:
444,126,31738,6,0,P|414:83|346:76,1,118.5,2|0,3:0|2:0,2:0:0:0:
384,189,32274,2,0,P|380:165|371:142,1,47.3999999999999,2|0,3:2|2:0,2:0:0:0:
372,143,32631,2,0,P|354:158|339:176,1,47.3999999999999,2|0,3:2|2:0,2:0:0:0:
339,177,32988,2,0,P|362:184|385:188,1,47.3999999999999,2|0,3:2|2:0,2:0:0:0:
323,253,33345,6,0,P|281:232|260:184,1,94.7999999999998,2|0,3:2|3:0,2:0:0:0:
260,190,33881,1,0,2:0:0:0:
200,146,34060,2,0,P|176:211|165:246,1,94.7999999999998,2|0,3:2|3:0,2:0:0:0:
37,154,34595,2,0,P|82:160|127:134,1,94.7999999999998,2|0,3:0|2:0,2:0:0:0:
56,41,35131,6,0,P|61:65|70:87,1,47.3999999999999,2|0,3:2|2:0,2:0:0:0:
133,44,35488,1,2,3:2:0:0:
203,68,35667,1,2,2:0:0:0:
229,141,35845,1,2,3:2:0:0:
229,141,36024,1,2,2:0:0:0:
311,270,36203,6,0,P|334:286|364:294,1,39.5,2|0,3:1|2:0,2:0:0:0:
413,322,36381,1,8,3:0:0:0:
508,260,36560,1,4,3:0:0:0:
479,149,36738,1,4,3:0:0:0:
418,316,36917,5,0,3:0:0:0:
485,144,37095,2,0,P|429:157|415:191,1,88.8750000000002,8|0,2:0|2:0,2:0:0:0:
504,253,37453,6,0,B|491:238|483:223|483:223|421:203|353:191,1,158,6|0,3:2|2:0,2:0:0:0:
360,197,37899,1,2,2:0:0:0:
355,202,37988,2,0,P|308:188|287:148,1,71.1000000000001,2|0,2:0|3:0,2:0:0:0:
422,243,38345,5,8,2:0:0:0:
290,166,38524,2,0,P|256:171|236:187,1,55.2999999999999,2|2,3:2|2:0,2:0:0:0:
239,183,38881,6,0,P|295:180|328:78,1,158,2|2,3:2|3:2,2:0:0:0:
334,96,39417,1,2,2:0:0:0:
199,43,39595,1,2,2:0:0:0:
255,102,39774,5,8,2:0:0:0:
284,31,39953,2,0,P|290:12|298:-5,3,31.6,2|2|2|2,3:2|2:0|2:0|2:0,2:0:0:0:
182,138,40310,6,0,P|125:129|66:215,1,158,6|2,3:2|2:0,2:0:0:0:
61,206,40756,1,2,2:0:0:0:
57,213,40845,2,0,P|75:267|78:298,1,71.1000000000001,2|0,2:0|3:0,2:0:0:0:
0,160,41203,5,8,2:0:0:0:
83,287,41381,2,0,P|68:327|50:338,1,55.2999999999999,2|2,3:2|2:0,2:0:0:0:
59,333,41738,6,0,P|65:288|152:275,1,130.35,2|0,3:2|2:0,2:0:0:0:
145,265,42095,2,0,P|172:286|182:308,1,43.4500000000001,2|0,3:2|2:0,2:0:0:0:
193,367,42274,1,2,2:0:0:0:
118,384,42453,1,2,2:0:0:0:
259,318,42631,5,8,2:0:0:0:
269,321,42720,1,2,2:0:0:0:
280,325,42810,1,2,3:2:0:0:
290,329,42899,1,2,2:0:0:0:
299,334,42988,1,2,2:0:0:0:
404,384,43167,6,0,P|468:362|455:258,1,173.8,6|0,3:2|2:0,2:0:0:0:
461,263,43613,1,2,2:0:0:0:
454,259,43703,2,0,P|413:260|384:282,1,71.1000000000001,2|0,2:0|3:0,2:0:0:0:
508,201,44060,5,8,2:0:0:0:
384,282,44238,2,0,P|335:264|313:240,1,59.2500000000002,2|2,3:2|2:0,2:0:0:0:
331,261,44595,6,0,P|386:259|438:346,1,158,2|2,3:2|3:2,2:0:0:0:
495,197,45131,1,2,2:0:0:0:
427,232,45310,1,2,2:0:0:0:
294,149,45488,5,8,2:0:0:0:
335,212,45667,2,0,P|328:230|325:244,3,31.6,2|2|2|2,3:2|2:0|2:0|2:0,2:0:0:0:
483,92,46024,6,0,P|456:146|381:149,1,130.35,6|0,3:2|2:0,2:0:0:0:
383,157,46381,2,0,P|348:135|339:95,1,51.35,2|0,2:0|2:0,2:0:0:0:
437,7,46560,6,0,P|407:68|402:87,1,79,2|0,2:0|3:0,2:0:0:0:
245,81,46917,5,8,2:0:0:0:
325,52,47095,1,8,3:0:0:0:
263,10,47274,1,2,2:0:0:0:
418,144,47453,6,0,P|345:129|291:204,1,136.275,6|0,3:2|2:0,2:0:0:0:
259,228,47810,1,2,3:2:0:0:
254,234,47899,1,0,3:0:0:0:
249,240,47988,2,0,P|217:235|188:202,1,51.35,8|0,2:0|2:0,2:0:0:0:
126,233,48167,2,0,P|110:203|115:161,1,51.35,2|0,3:2|2:0,2:0:0:0:
243,42,48345,6,0,P|255:82|257:99,1,51.35,0|0,3:0|3:0,2:0:0:0:
321,152,48524,1,8,2:0:0:0:
291,193,48613,1,8,2:0:0:0:
243,207,48703,1,8,2:0:0:0:
196,189,48792,1,8,2:0:0:0:
186,177,48881,2,0,P|174:137|172:120,1,51.35,8|0,2:0|2:0,2:0:0:0:
42,0,49060,6,0,P|50:27|51:38,1,41.475,2|0,2:1|2:0,2:0:0:0:
47,46,49774,1,8,2:0:0:0:
41,41,49953,1,0,3:0:0:0:
48,36,50131,1,0,3:0:0:0:
17,200,50310,6,0,B|7:184|-16:176|-16:176|28:143|119:159|124:241,1,228.458526991577,6|0,3:2|3:0,2:0:0:0:
127,248,50755,1,0,3:0:0:0:
130,256,50845,2,0,P|113:299|101:345,1,86.9,8|0,2:0|2:0,2:0:0:0:
27,208,51202,5,2,2:0:0:0:
111,172,51380,1,0,3:0:0:0:
22,299,51559,1,8,2:0:0:0:
184,374,51738,6,0,P|267:371|302:289,1,173.8,2|0,3:2|3:0,2:0:0:0:
306,289,52184,1,0,3:0:0:0:
310,282,52273,2,0,P|350:244|393:253,1,86.9,8|0,2:0|2:0,2:0:0:0:
222,302,52630,5,2,3:2:0:0:
385,243,52809,2,0,P|423:266|433:301,1,71.1000000000001,2|8,3:0|2:0,2:0:0:0:
219,309,53166,6,0,P|289:285|302:197,1,154.05,6|0,3:2|2:0,2:0:0:0:
360,160,53523,1,2,3:2:0:0:
323,133,53613,1,2,2:0:0:0:
284,139,53702,2,0,P|244:163|232:202,1,71.1000000000001,10|0,2:0|2:0,2:0:0:0:
55,123,54059,5,2,2:0:0:0:
138,154,54238,1,2,3:2:0:0:
197,86,54416,1,8,2:0:0:0:
74,236,54595,6,0,P|38:206|-6:205,1,86.9,2|0,3:2|2:0,2:0:0:0:
157,240,54952,1,0,3:0:0:0:
1,362,55130,6,0,P|70:331|136:315,1,130.35,8|0,2:0|2:0,2:0:0:0:
130,313,55488,2,0,P|165:324|187:348,1,43.45,2|0,2:0|2:0,2:0:0:0:
245,366,55666,1,0,3:0:0:0:
242,375,55755,1,0,3:0:0:0:
239,384,55845,1,8,2:0:0:0:
307,210,56023,6,0,B|258:201|235:142|235:142|245:206|193:243,1,205.4,6|0,3:2|3:0,2:0:0:0:
199,241,56470,1,0,3:0:0:0:
194,248,56559,2,0,P|152:247|124:217,1,71.1000000000001,8|0,2:0|2:0,2:0:0:0:
277,293,56916,5,2,2:0:0:0:
193,336,57095,1,0,3:0:0:0:
283,197,57273,1,8,2:0:0:0:
431,352,57452,6,0,P|336:372|278:294,1,205.399990597535,2|0,3:2|3:0,2:0:0:0:
282,286,57898,1,0,3:0:0:0:
287,279,57988,2,0,P|329:271|363:301,1,86.9000026519776,8|0,2:0|2:0,2:0:0:0:
498,135,58345,5,2,2:0:0:0:
397,208,58523,1,0,3:0:0:0:
512,258,58702,1,8,2:0:0:0:
396,117,58880,6,0,B|341:103|302:146|322:167|292:216|211:178,1,189.599994213867,2|0,3:2|3:0,2:0:0:0:
229,182,59327,1,0,3:0:0:0:
221,177,59416,1,8,2:0:0:0:
251,105,59595,1,0,2:0:0:0:
169,110,59773,5,2,2:0:0:0:
307,173,59952,1,2,3:2:0:0:
401,53,60130,1,10,2:0:0:0:
172,0,60309,6,0,P|186:43|187:79,1,55.3,2|0,3:1|2:0,2:0:0:0:
164,121,60488,1,0,2:0:0:0:
344,155,60666,6,0,P|332:194|331:232,1,43.45,2|0,3:1|2:0,2:0:0:0:
332,243,60845,1,8,2:0:0:0:
209,267,61023,6,0,P|220:301|222:322,1,31.6,2|0,3:1|2:0,2:0:0:0:
219,326,61202,1,8,2:0:0:0:
299,362,61380,6,0,P|293:377|292:389,1,23.7,2|0,3:1|2:0,2:0:0:0:
390,271,61738,6,0,B|383:326|345:337|298:317|239:311|211:344|216:399,1,229.1,6|0,3:2|3:0,2:0:0:0:
208,381,62184,1,0,3:0:0:0:
200,384,62273,2,0,P|172:355|124:356,1,86.9,8|0,2:0|2:0,2:0:0:0:
0,227,62630,5,2,2:0:0:0:
41,318,62809,1,0,3:0:0:0:
85,163,62988,1,8,2:0:0:0:
257,205,63166,6,0,B|239:278|140:309|93:238,1,189.6,2|0,3:2|3:0,2:0:0:0:
102,249,63613,1,0,3:0:0:0:
97,242,63702,2,0,P|61:218|11:228,1,86.9,8|0,2:0|2:0,2:0:0:0:
156,298,64059,5,2,3:2:0:0:
11,222,64238,2,0,P|-12:263|-4:303,1,71.1000000000001,2|8,3:0|2:0,2:0:0:0:
171,371,64595,6,0,P|209:308|187:199,1,154.05,6|0,3:2|2:0,2:0:0:0:
148,184,64952,1,2,3:2:0:0:
178,151,65041,1,2,2:0:0:0:
221,160,65130,1,10,2:0:0:0:
204,229,65309,1,0,2:0:0:0:
228,73,65488,5,2,2:0:0:0:
173,141,65666,1,2,3:2:0:0:
87,117,65845,1,8,2:0:0:0:
280,12,66023,6,0,P|307:50|302:107,1,86.9,2|0,3:2|2:0,2:0:0:0:
260,159,66380,1,0,3:0:0:0:
460,158,66559,6,0,P|393:146|328:210,1,130.35,8|0,2:0|2:0,2:0:0:0:
336,184,66916,2,0,P|328:224|346:253,1,47.4,8|0,2:3|2:0,2:0:0:0:
387,285,67095,1,0,3:0:0:0:
395,288,67184,1,0,3:0:0:0:
403,291,67273,1,8,2:0:0:0:
494,376,67452,6,0,B|500:357|513:346|513:346|435:300|369:359,1,189.6,6|0,3:2|3:0,2:0:0:0:
364,363,67898,1,0,3:0:0:0:
356,367,67988,2,0,P|310:366|269:322,1,86.9,8|0,2:0|2:0,2:0:0:0:
364,225,68345,2,0,P|341:278|333:311,1,71.1000000000001,2|0,2:0|3:0,2:0:0:0:
201,370,68702,5,8,2:0:0:0:
272,334,68880,2,0,P|219:292|157:303,1,130.35,2|0,3:2|2:0,2:0:0:0:
152,302,69238,2,0,P|129:332|124:358,1,47.4,2|0,3:2|2:0,2:0:0:0:
36,384,69416,6,0,P|23:329|-5:257,1,118.5,8|0,2:0|2:0,2:0:0:0:
25,200,69773,2,0,P|60:208|82:227,1,47.4,8|0,2:0|2:0,2:0:0:0:
138,185,69952,2,0,P|148:219|143:247,1,47.4,2|0,3:2|2:0,2:0:0:0:
206,274,70130,2,0,P|181:300|154:309,1,47.4,8|0,3:0|2:0,2:0:0:0:
96,286,70309,5,6,3:2:0:0:
166,199,70488,1,8,3:0:0:0:
274,225,70666,1,4,3:0:0:0:
116,89,70845,5,6,3:2:0:0:
244,109,71023,1,4,3:0:0:0:
279,233,71202,1,0,3:0:0:0:
326,4,71380,5,6,3:2:0:0:
376,137,71559,1,4,3:0:0:0:
277,240,71738,1,8,2:0:0:0:
227,244,71827,1,8,2:0:0:0:
202,201,71916,5,6,3:2:0:0:
343,203,72095,1,4,3:0:0:0:
430,315,72273,1,0,3:0:0:0:
271,365,72452,6,0,P|190:328|98:304,1,154.05,6|0,3:2|2:0,2:0:0:0:
61,338,72809,1,8,3:0:0:0:
160,241,72988,1,4,3:0:0:0:
7,163,73166,1,14,3:2:0:0:
7,163,73523,5,10,2:0:0:0:
61,338,73702,1,10,2:0:0:0:
55,344,74059,6,0,P|19:330|1:296,1,47.4,10|0,2:0|2:0,2:0:0:0:
0,250,74238,1,8,3:0:0:0:
56,197,74416,1,4,3:0:0:0:
225,221,74595,6,0,B|173:202|134:236|157:248|117:296|55:263,1,173.313365303955,6|0,3:2|3:0,2:0:0:0:
64,273,75040,1,0,3:0:0:0:
58,278,75130,2,0,P|72:309|86:358,1,79,8|0,2:0|2:0,2:0:0:0:
203,293,75487,5,2,2:0:0:0:
139,236,75665,1,0,3:0:0:0:
77,356,75844,1,8,2:0:0:0:
231,380,76023,6,0,P|274:339|271:241,1,158,2|0,3:2|3:0,2:0:0:0:
269,238,76469,1,0,3:0:0:0:
263,232,76558,2,0,P|246:187|280:135,1,79,8|0,2:0|2:0,2:0:0:0:
203,293,76915,5,2,3:2:0:0:
259,153,77094,2,0,P|261:114|236:85,1,63.2,2|8,3:0|2:0,2:0:0:0:
248,94,77451,6,0,P|260:154|373:165,1,189.6,6|0,3:2|3:0,2:0:0:0:
378,162,77898,1,0,3:0:0:0:
383,156,77987,2,0,P|419:137|460:141,1,79,8|0,2:0|2:0,2:0:0:0:
350,297,78344,2,0,P|336:248|313:196,1,79,2|0,2:0|3:0,2:0:0:0:
350,374,78701,5,8,2:0:0:0:
470,345,78880,2,0,B|433:331|406:351|414:362|387:387|340:371,1,130.35,2|0,3:2|2:0,2:0:0:0:
343,380,79237,2,0,P|309:366|281:365,1,43.45,0|0,3:0|3:0,2:0:0:0:
233,283,79415,6,0,P|288:281|322:239,1,86.9,8|0,2:0|2:0,2:0:0:0:
386,216,79773,1,8,2:0:0:0:
386,216,79862,1,8,2:0:0:0:
386,216,79951,1,0,3:0:0:0:
420,295,80130,1,10,2:0:0:0:
307,176,80308,6,0,P|228:155|159:142,1,142.2,6|0,3:2|3:0,2:0:0:0:
162,148,80755,1,0,3:0:0:0:
155,151,80844,2,0,P|115:125|109:90,1,63.2,8|0,2:0|2:0,2:0:0:0:
173,66,81201,5,2,2:0:0:0:
40,92,81380,1,2,3:2:0:0:
100,39,81558,1,8,2:0:0:0:
163,148,81737,6,0,P|142:206|120:292,1,126.4,2|0,3:2|3:0,2:0:0:0:
122,276,82183,1,0,3:0:0:0:
120,284,82273,1,8,2:0:0:0:
159,351,82451,1,0,2:0:0:0:
82,354,82630,2,0,P|47:332|40:300,2,55.2999999999999,2|0|8,3:2|3:0|2:0,2:0:0:0:
227,384,83165,6,0,P|263:355|346:367,1,110.6,2|0,3:2|3:0,2:0:0:0:
332,359,83612,1,0,3:0:0:0:
338,364,83701,2,0,P|390:364|433:328,1,94.7999999999998,8|2,2:0|2:0,2:0:0:0:
476,282,84237,1,2,3:2:0:0:
499,357,84415,1,8,2:0:0:0:
424,341,84594,5,6,3:2:0:0:
416,338,84951,1,2,3:2:0:0:
408,335,85308,1,2,3:2:0:0:
400,332,85665,2,0,L|384:324,1,15.8,2|6,3:2|3:2,2:0:0:0:
